  0
SECTION
  2
HEADER
  9
$ACADVER
  1
AC1014
  9
$ACADMAINTVER
 70
     9
  9
$DWGCODEPAGE
  3
ANSI_1250
  9
$INSBASE
 10
0.0
 20
0.0
 30
0.0
  9
$EXTMIN
 10
965.6748450879123
 20
-868.6840099999999
 30
0.0
  9
$EXTMAX
 10
2039.274725274725
 20
402.809211
 30
0.0
  9
$LIMMIN
 10
0.0
 20
0.0
  9
$LIMMAX
 10
0.0
 20
0.0
  9
$ORTHOMODE
 70
     1
  9
$REGENMODE
 70
     1
  9
$FILLMODE
 70
     1
  9
$QTEXTMODE
 70
     0
  9
$MIRRTEXT
 70
     1
  9
$DRAGMODE
 70
     2
  9
$LTSCALE
 40
1.0
  9
$OSMODE
 70
    37
  9
$ATTMODE
 70
     1
  9
$TEXTSIZE
 40
0.2
  9
$TRACEWID
 40
0.05
  9
$TEXTSTYLE
  7
ED40
  9
$CLAYER
  8
V0-VYPLNE
  9
$CELTYPE
  6
CONTINUOUS
  9
$CECOLOR
 62
    41
  9
$CELTSCALE
 40
1.0
  9
$DELOBJ
 70
     1
  9
$DISPSILH
 70
     0
  9
$DIMSCALE
 40
1.0
  9
$DIMASZ
 40
30.0
  9
$DIMEXO
 40
1.0
  9
$DIMDLI
 40
0.38
  9
$DIMRND
 40
0.0
  9
$DIMDLE
 40
0.0
  9
$DIMEXE
 40
1.25
  9
$DIMTP
 40
0.0
  9
$DIMTM
 40
0.0
  9
$DIMTXT
 40
30.0
  9
$DIMCEN
 40
0.09
  9
$DIMTSZ
 40
0.0
  9
$DIMTOL
 70
     0
  9
$DIMLIM
 70
     0
  9
$DIMTIH
 70
     0
  9
$DIMTOH
 70
     0
  9
$DIMSE1
 70
     0
  9
$DIMSE2
 70
     0
  9
$DIMTAD
 70
     1
  9
$DIMZIN
 70
     0
  9
$DIMBLK
  1
OPEN
  9
$DIMASO
 70
     1
  9
$DIMSHO
 70
     1
  9
$DIMPOST
  1

  9
$DIMAPOST
  1

  9
$DIMALT
 70
     0
  9
$DIMALTD
 70
     2
  9
$DIMALTF
 40
25.4
  9
$DIMLFAC
 40
1.0
  9
$DIMTOFL
 70
     1
  9
$DIMTVP
 40
0.0
  9
$DIMTIX
 70
     1
  9
$DIMSOXD
 70
     0
  9
$DIMSAH
 70
     0
  9
$DIMBLK1
  1

  9
$DIMBLK2
  1

  9
$DIMSTYLE
  2
ED30
  9
$DIMCLRD
 70
     0
  9
$DIMCLRE
 70
    41
  9
$DIMCLRT
 70
    41
  9
$DIMTFAC
 40
1.0
  9
$DIMGAP
 40
2.0
  9
$DIMJUST
 70
     0
  9
$DIMSD1
 70
     0
  9
$DIMSD2
 70
     0
  9
$DIMTOLJ
 70
     1
  9
$DIMTZIN
 70
     0
  9
$DIMALTZ
 70
     0
  9
$DIMALTTZ
 70
     0
  9
$DIMFIT
 70
     3
  9
$DIMUPT
 70
     1
  9
$DIMUNIT
 70
     2
  9
$DIMDEC
 70
     0
  9
$DIMTDEC
 70
     4
  9
$DIMALTU
 70
     2
  9
$DIMALTTD
 70
     2
  9
$DIMTXSTY
  7
ED30
  9
$DIMAUNIT
 70
     0
  9
$LUNITS
 70
     2
  9
$LUPREC
 70
     4
  9
$SKETCHINC
 40
0.1
  9
$FILLETRAD
 40
0.5
  9
$AUNITS
 70
     0
  9
$AUPREC
 70
     0
  9
$MENU
  1
.
  9
$ELEVATION
 40
0.0
  9
$PELEVATION
 40
0.0
  9
$THICKNESS
 40
0.0
  9
$LIMCHECK
 70
     0
  9
$BLIPMODE
 70
     0
  9
$CHAMFERA
 40
0.5
  9
$CHAMFERB
 40
0.5
  9
$CHAMFERC
 40
1.0
  9
$CHAMFERD
 40
0.0
  9
$SKPOLY
 70
     0
  9
$TDCREATE
 40
2455643.630453877
  9
$TDUPDATE
 40
2455643.630453889
  9
$TDINDWG
 40
0.0000000116
  9
$TDUSRTIMER
 40
0.0000000116
  9
$USRTIMER
 70
     1
  9
$ANGBASE
 50
0.0
  9
$ANGDIR
 70
     0
  9
$PDMODE
 70
    35
  9
$PDSIZE
 40
20.0
  9
$PLINEWID
 40
0.0
  9
$COORDS
 70
     1
  9
$SPLFRAME
 70
     0
  9
$SPLINETYPE
 70
     6
  9
$SPLINESEGS
 70
     8
  9
$ATTDIA
 70
     0
  9
$ATTREQ
 70
     1
  9
$HANDLING
 70
     1
  9
$HANDSEED
  5
4543
  9
$SURFTAB1
 70
     6
  9
$SURFTAB2
 70
     6
  9
$SURFTYPE
 70
     6
  9
$SURFU
 70
     6
  9
$SURFV
 70
     6
  9
$UCSNAME
  2

  9
$UCSORG
 10
0.0
 20
0.0
 30
0.0
  9
$UCSXDIR
 10
1.0
 20
0.0
 30
0.0
  9
$UCSYDIR
 10
0.0
 20
1.0
 30
0.0
  9
$PUCSNAME
  2

  9
$PUCSORG
 10
0.0
 20
0.0
 30
0.0
  9
$PUCSXDIR
 10
1.0
 20
0.0
 30
0.0
  9
$PUCSYDIR
 10
0.0
 20
1.0
 30
0.0
  9
$USERI1
 70
     0
  9
$USERI2
 70
     0
  9
$USERI3
 70
     0
  9
$USERI4
 70
     0
  9
$USERI5
 70
     0
  9
$USERR1
 40
0.0
  9
$USERR2
 40
0.0
  9
$USERR3
 40
0.0
  9
$USERR4
 40
0.0
  9
$USERR5
 40
0.0
  9
$WORLDVIEW
 70
     1
  9
$SHADEDGE
 70
     3
  9
$SHADEDIF
 70
    70
  9
$TILEMODE
 70
     1
  9
$MAXACTVP
 70
    64
  9
$PINSBASE
 10
0.0
 20
0.0
 30
0.0
  9
$PLIMCHECK
 70
     0
  9
$PEXTMIN
 10
1.000000000000000E+20
 20
1.000000000000000E+20
 30
1.000000000000000E+20
  9
$PEXTMAX
 10
-1.000000000000000E+20
 20
-1.000000000000000E+20
 30
-1.000000000000000E+20
  9
$PLIMMIN
 10
0.0
 20
0.0
  9
$PLIMMAX
 10
0.0
 20
0.0
  9
$UNITMODE
 70
     0
  9
$VISRETAIN
 70
     1
  9
$PLINEGEN
 70
     0
  9
$PSLTSCALE
 70
     1
  9
$TREEDEPTH
 70
  3020
  9
$PICKSTYLE
 70
     1
  9
$CMLSTYLE
  2
STANDARD
  9
$CMLJUST
 70
     0
  9
$CMLSCALE
 40
1.0
  9
$PROXYGRAPHICS
 70
     1
  9
$MEASUREMENT
 70
     0
  0
ENDSEC
  0
SECTION
  2
CLASSES
  0
CLASS
  1
ACDBDICTIONARYWDFLT
  2
AcDbDictionaryWithDefault
  3
ObjectDBX Classes
 90
        0
280
     0
281
     0
  0
CLASS
  1
XRECORD
  2
AcDbXrecord
  3
AutoCAD 2000
 90
        0
280
     0
281
     0
  0
CLASS
  1
LWPOLYLINE
  2
AcDbPolyline
  3
AutoCAD 2000
 90
        0
280
     0
281
     1
  0
CLASS
  1
HATCH
  2
AcDbHatch
  3
AutoCAD 2000
 90
        0
280
     0
281
     1
  0
CLASS
  1
ACDBPLACEHOLDER
  2
AcDbPlaceHolder
  3
ObjectDBX Classes
 90
        0
280
     0
281
     0
  0
CLASS
  1
LAYOUT
  2
AcDbLayout
  3
ObjectDBX Classes
 90
        0
280
     0
281
     0
  0
ENDSEC
  0
SECTION
  2
TABLES
  0
TABLE
  2
VPORT
  5
4478
330
0
100
AcDbSymbolTable
 70
     2
  0
VPORT
  5
4499
102
{ACAD_XDICTIONARY
360
4541
102
}
330
4478
100
AcDbSymbolTableRecord
100
AcDbViewportTableRecord
  2
*ACTIVE
 70
     0
 10
0.0
 20
0.0
 11
1.0
 21
1.0
 12
1426.361811
 22
-122.214514
 13
0.0
 23
0.0
 14
10.0
 24
10.0
 15
10.0
 25
10.0
 16
0.0
 26
0.0
 36
1.0
 17
0.0
 27
0.0
 37
0.0
 40
1533.300502
 41
0.0115807415001113
 42
50.0
 43
0.0
 44
0.0
 50
0.0
 51
0.0000000000007958
 71
     0
 72
   100
 73
     1
 74
     3
 75
     0
 76
     0
 77
     0
 78
     0
  0
ENDTAB
  0
TABLE
  2
LTYPE
  5
4475
330
0
100
AcDbSymbolTable
 70
    25
  0
LTYPE
  5
4484
330
4475
100
AcDbSymbolTableRecord
100
AcDbLinetypeTableRecord
  2
BYBLOCK
 70
     0
  3

 72
    65
 73
     0
 40
0.0
  0
LTYPE
  5
4485
330
4475
100
AcDbSymbolTableRecord
100
AcDbLinetypeTableRecord
  2
BYLAYER
 70
     0
  3

 72
    65
 73
     0
 40
0.0
  0
LTYPE
  5
4486
330
4475
100
AcDbSymbolTableRecord
100
AcDbLinetypeTableRecord
  2
CONTINUOUS
 70
     0
  3
Solid line
 72
    65
 73
     0
 40
0.0
  0
LTYPE
  5
44A1
330
4475
100
AcDbSymbolTableRecord
100
AcDbLinetypeTableRecord
  2
CENTER
 70
     0
  3
Center ____ _ ____ _ ____ _ ____ _ ____ _ ____
 72
    65
 73
     4
 40
2.0
 49
1.25
 74
     0
 49
-0.25
 74
     0
 49
0.25
 74
     0
 49
-0.25
 74
     0
  0
LTYPE
  5
44A2
330
4475
100
AcDbSymbolTableRecord
100
AcDbLinetypeTableRecord
  2
DASHDOT
 70
     0
  3
Dashdot __ . __ . __ . __ . __ . __ . __ . __
 72
    65
 73
     4
 40
1.0
 49
0.5
 74
     0
 49
-0.25
 74
     0
 49
0.0
 74
     0
 49
-0.25
 74
     0
  0
LTYPE
  5
44A3
330
4475
100
AcDbSymbolTableRecord
100
AcDbLinetypeTableRecord
  2
DASHED
 70
     0
  3
Dashed __ __ __ __ __ __ __ __ __ __ __ __ __ _
 72
    65
 73
     2
 40
0.75
 49
0.5
 74
     0
 49
-0.25
 74
     0
  0
LTYPE
  5
44A4
330
4475
100
AcDbSymbolTableRecord
100
AcDbLinetypeTableRecord
  2
HIDDEN
 70
     0
  3
Hidden __ __ __ __ __ __ __ __ __ __ __ __ __ __
 72
    65
 73
     2
 40
0.375
 49
0.25
 74
     0
 49
-0.125
 74
     0
  0
LTYPE
  5
44A5
330
4475
100
AcDbSymbolTableRecord
100
AcDbLinetypeTableRecord
  2
HIDDEN2
 70
     0
  3
Hidden2 _ _ _ _ _ _ _ _ _ _ _ _ _ _ _ _ _ 
 72
    65
 73
     2
 40
0.1875
 49
0.125
 74
     0
 49
-0.0625
 74
     0
  0
LTYPE
  5
44A6
330
4475
100
AcDbSymbolTableRecord
100
AcDbLinetypeTableRecord
  2
BORDER
 70
     0
  3
Border __ __ . __ __ . __ __ . __ __ . __ __ .
 72
    65
 73
     6
 40
1.75
 49
0.5
 74
     0
 49
-0.25
 74
     0
 49
0.5
 74
     0
 49
-0.25
 74
     0
 49
0.0
 74
     0
 49
-0.25
 74
     0
  0
LTYPE
  5
44A7
330
4475
100
AcDbSymbolTableRecord
100
AcDbLinetypeTableRecord
  2
BORDER2
 70
     0
  3
Border2 __.__.__.__.__.__.__.__.__.__.__.
 72
    65
 73
     6
 40
0.875
 49
0.25
 74
     0
 49
-0.125
 74
     0
 49
0.25
 74
     0
 49
-0.125
 74
     0
 49
0.0
 74
     0
 49
-0.125
 74
     0
  0
LTYPE
  5
44A8
330
4475
100
AcDbSymbolTableRecord
100
AcDbLinetypeTableRecord
  2
BORDERX2
 70
     0
  3
Borderx2  ____  ____  .  ____  ____  .  ___
 72
    65
 73
     6
 40
3.5
 49
1.0
 74
     0
 49
-0.5
 74
     0
 49
1.0
 74
     0
 49
-0.5
 74
     0
 49
0.0
 74
     0
 49
-0.5
 74
     0
  0
LTYPE
  5
44A9
330
4475
100
AcDbSymbolTableRecord
100
AcDbLinetypeTableRecord
  2
CENTER2
 70
     0
  3
Center2  ___ _ ___ _ ___ _ ___ _ ___ _ ___
 72
    65
 73
     4
 40
1.125
 49
0.75
 74
     0
 49
-0.125
 74
     0
 49
0.125
 74
     0
 49
-0.125
 74
     0
  0
LTYPE
  5
44AA
330
4475
100
AcDbSymbolTableRecord
100
AcDbLinetypeTableRecord
  2
CENTERX2
 70
     0
  3
Centerx2  ________  __  ________  __  _____
 72
    65
 73
     4
 40
4.0
 49
2.5
 74
     0
 49
-0.5
 74
     0
 49
0.5
 74
     0
 49
-0.5
 74
     0
  0
LTYPE
  5
44AB
330
4475
100
AcDbSymbolTableRecord
100
AcDbLinetypeTableRecord
  2
DASHDOT2
 70
     0
  3
Dashdot2  _._._._._._._._._._._._._._._.
 72
    65
 73
     4
 40
0.5
 49
0.25
 74
     0
 49
-0.125
 74
     0
 49
0.0
 74
     0
 49
-0.125
 74
     0
  0
LTYPE
  5
44AC
330
4475
100
AcDbSymbolTableRecord
100
AcDbLinetypeTableRecord
  2
DASHDOTX2
 70
     0
  3
Dashdotx2 ____  .  ____  .  ____  .  ___
 72
    65
 73
     4
 40
2.0
 49
1.0
 74
     0
 49
-0.5
 74
     0
 49
0.0
 74
     0
 49
-0.5
 74
     0
  0
LTYPE
  5
44AD
330
4475
100
AcDbSymbolTableRecord
100
AcDbLinetypeTableRecord
  2
DASHED2
 70
     0
  3
Dashed2 _ _ _ _ _ _ _ _ _ _ _ _ _ _ _ _ _ 
 72
    65
 73
     2
 40
0.375
 49
0.25
 74
     0
 49
-0.125
 74
     0
  0
LTYPE
  5
44AE
330
4475
100
AcDbSymbolTableRecord
100
AcDbLinetypeTableRecord
  2
DASHEDX2
 70
     0
  3
Dashedx2 ____  ____  ____  ____  ____  ___
 72
    65
 73
     2
 40
1.5
 49
1.0
 74
     0
 49
-0.5
 74
     0
  0
LTYPE
  5
44AF
330
4475
100
AcDbSymbolTableRecord
100
AcDbLinetypeTableRecord
  2
DIVIDE
 70
     0
  3
Divide ____ . . ____ . . ____ . . ____ . . ____
 72
    65
 73
     6
 40
1.25
 49
0.5
 74
     0
 49
-0.25
 74
     0
 49
0.0
 74
     0
 49
-0.25
 74
     0
 49
0.0
 74
     0
 49
-0.25
 74
     0
  0
LTYPE
  5
44B0
330
4475
100
AcDbSymbolTableRecord
100
AcDbLinetypeTableRecord
  2
DIVIDE2
 70
     0
  3
Divide2 __..__..__..__..__..__..__..__.._
 72
    65
 73
     6
 40
0.625
 49
0.25
 74
     0
 49
-0.125
 74
     0
 49
0.0
 74
     0
 49
-0.125
 74
     0
 49
0.0
 74
     0
 49
-0.125
 74
     0
  0
LTYPE
  5
44B1
330
4475
100
AcDbSymbolTableRecord
100
AcDbLinetypeTableRecord
  2
DIVIDEX2
 70
     0
  3
Dividex2 ________  .  .  ________  .  .  _
 72
    65
 73
     6
 40
2.5
 49
1.0
 74
     0
 49
-0.5
 74
     0
 49
0.0
 74
     0
 49
-0.5
 74
     0
 49
0.0
 74
     0
 49
-0.5
 74
     0
  0
LTYPE
  5
44B2
330
4475
100
AcDbSymbolTableRecord
100
AcDbLinetypeTableRecord
  2
DOT
 70
     0
  3
Dot . . . . . . . . . . . . . . . . . . . . . . . .
 72
    65
 73
     2
 40
0.25
 49
0.0
 74
     0
 49
-0.25
 74
     0
  0
LTYPE
  5
44B3
330
4475
100
AcDbSymbolTableRecord
100
AcDbLinetypeTableRecord
  2
DOT2
 70
     0
  3
Dot2 ........................................
 72
    65
 73
     2
 40
0.125
 49
0.0
 74
     0
 49
-0.125
 74
     0
  0
LTYPE
  5
44B4
330
4475
100
AcDbSymbolTableRecord
100
AcDbLinetypeTableRecord
  2
DOTX2
 70
     0
  3
Dotx2 .  .  .  .  .  .  .  .  .  .  .  .  .  .
 72
    65
 73
     2
 40
0.5
 49
0.0
 74
     0
 49
-0.5
 74
     0
  0
LTYPE
  5
44B5
330
4475
100
AcDbSymbolTableRecord
100
AcDbLinetypeTableRecord
  2
HIDDENX2
 70
     0
  3
Hiddenx2 ____ ____ ____ ____ ____ ____ ____ 
 72
    65
 73
     2
 40
0.75
 49
0.5
 74
     0
 49
-0.25
 74
     0
  0
LTYPE
  5
44B6
330
4475
100
AcDbSymbolTableRecord
100
AcDbLinetypeTableRecord
  2
PHANTOM
 70
     0
  3
Phantom ______  __  __  ______  __  __  ______ 
 72
    65
 73
     6
 40
2.5
 49
1.25
 74
     0
 49
-0.25
 74
     0
 49
0.25
 74
     0
 49
-0.25
 74
     0
 49
0.25
 74
     0
 49
-0.25
 74
     0
  0
LTYPE
  5
44B7
330
4475
100
AcDbSymbolTableRecord
100
AcDbLinetypeTableRecord
  2
PHANTOM2
 70
     0
  3
Phantom2 ___ _ _ ___ _ _ ___ _ _ ___ _ _
 72
    65
 73
     6
 40
1.25
 49
0.625
 74
     0
 49
-0.125
 74
     0
 49
0.125
 74
     0
 49
-0.125
 74
     0
 49
0.125
 74
     0
 49
-0.125
 74
     0
  0
LTYPE
  5
44B8
330
4475
100
AcDbSymbolTableRecord
100
AcDbLinetypeTableRecord
  2
PHANTOMX2
 70
     0
  3
Phantomx2 ____________    ____    ____   _
 72
    65
 73
     6
 40
5.0
 49
2.5
 74
     0
 49
-0.5
 74
     0
 49
0.5
 74
     0
 49
-0.5
 74
     0
 49
0.5
 74
     0
 49
-0.5
 74
     0
  0
ENDTAB
  0
TABLE
  2
LAYER
  5
4472
330
0
100
AcDbSymbolTable
 70
     5
  0
LAYER
  5
4480
330
4472
100
AcDbSymbolTableRecord
100
AcDbLayerTableRecord
  2
0
 70
     0
 62
     7
  6
CONTINUOUS
  0
LAYER
  5
9E
330
4472
100
AcDbSymbolTableRecord
100
AcDbLayerTableRecord
  2
DEFPOINTS
 70
     0
 62
     7
  6
CONTINUOUS
  0
LAYER
  5
377
330
4472
100
AcDbSymbolTableRecord
100
AcDbLayerTableRecord
  2
V0-OBRYS
 70
     0
 62
    90
  6
CONTINUOUS
  0
LAYER
  5
378
330
4472
100
AcDbSymbolTableRecord
100
AcDbLayerTableRecord
  2
V0-VYPLNE
 70
     0
 62
    63
  6
DASHDOT
  0
LAYER
  5
1540
330
4472
100
AcDbSymbolTableRecord
100
AcDbLayerTableRecord
  2
VO-OBRYS
 70
     0
 62
    90
  6
CONTINUOUS
  0
ENDTAB
  0
TABLE
  2
STYLE
  5
4473
330
0
100
AcDbSymbolTable
 70
     6
  0
STYLE
  5
4481
330
4473
100
AcDbSymbolTableRecord
100
AcDbTextStyleTableRecord
  2
STANDARD
 70
     0
 40
0.0
 41
1.0
 50
0.0
 71
     0
 42
0.2
  3
ISOCP.shx
  4

1001
ACAD
1000
ISOCP.shx
1071
        0
  0
STYLE
  5
331
330
4473
100
AcDbSymbolTableRecord
100
AcDbTextStyleTableRecord
  2
ED20
 70
     0
 40
20.0
 41
1.0
 50
0.0
 71
     0
 42
0.2
  3
ISOCP.shx
  4

1001
ACAD
1000
ISOCP.shx
1071
        0
  0
STYLE
  5
648
330
4473
100
AcDbSymbolTableRecord
100
AcDbTextStyleTableRecord
  2
ED10
 70
     0
 40
10.0
 41
1.0
 50
0.0
 71
     0
 42
0.2
  3
ISOCP.shx
  4

1001
ACAD
1000
ISOCP.shx
1071
        0
  0
STYLE
  5
F38
330
4473
100
AcDbSymbolTableRecord
100
AcDbTextStyleTableRecord
  2
ED30
 70
     0
 40
30.0
 41
1.0
 50
0.0
 71
     0
 42
0.2
  3
ISOCP.shx
  4

1001
ACAD
1000
ISOCP.shx
1071
        0
  0
STYLE
  5
F39
330
4473
100
AcDbSymbolTableRecord
100
AcDbTextStyleTableRecord
  2
ED40
 70
     0
 40
40.0
 41
1.0
 50
0.0
 71
     0
 42
0.2
  3
ISOCP.shx
  4

1001
ACAD
1000
ISOCP.shx
1071
        0
  0
STYLE
  5
1B9D
330
4473
100
AcDbSymbolTableRecord
100
AcDbTextStyleTableRecord
  2
VD_RECOV_1_1B9D_
 70
     0
 40
0.0
 41
1.0
 50
0.0
 71
     0
 42
0.2
  3
ltypeshp.shx
  4

1001
ACAD
1000
ltypeshp.shx
1071
        0
  0
ENDTAB
  0
TABLE
  2
VIEW
  5
4476
330
0
100
AcDbSymbolTable
 70
     0
  0
ENDTAB
  0
TABLE
  2
UCS
  5
4477
330
0
100
AcDbSymbolTable
 70
     0
  0
ENDTAB
  0
TABLE
  2
APPID
  5
4479
330
0
100
AcDbSymbolTable
 70
     6
  0
APPID
  5
4482
330
4479
100
AcDbSymbolTableRecord
100
AcDbRegAppTableRecord
  2
ACAD
 70
     0
  0
APPID
  5
449A
330
4479
100
AcDbSymbolTableRecord
100
AcDbRegAppTableRecord
  2
VD_INVISIBLE_NOT_FOR_READ
 70
     0
  0
APPID
  5
449B
330
4479
100
AcDbSymbolTableRecord
100
AcDbRegAppTableRecord
  2
VD_TEMPHATCH
 70
     0
  0
APPID
  5
449C
330
4479
100
AcDbSymbolTableRecord
100
AcDbRegAppTableRecord
  2
VDEXTRAPARAM
 70
     0
  0
APPID
  5
449D
330
4479
100
AcDbSymbolTableRecord
100
AcDbRegAppTableRecord
  2
PE_URL
 70
     0
  0
APPID
  5
449E
330
4479
100
AcDbSymbolTableRecord
100
AcDbRegAppTableRecord
  2
VD_UNKNOWN
 70
     0
  0
ENDTAB
  0
TABLE
  2
DIMSTYLE
  5
447A
330
0
100
AcDbSymbolTable
 70
     3
  0
DIMSTYLE
105
4497
330
447A
100
AcDbSymbolTableRecord
100
AcDbDimStyleTableRecord
  2
STANDARD
 70
     0
  3

  4

  5
OPEN
  6

  7

 40
1.0
 41
15.0
 42
0.625
 43
0.38
 44
1.25
 45
0.0
 46
0.0
 47
0.0
 48
0.0
140
15.0
141
0.09
142
0.0
143
25.4
144
1.0
145
0.0
146
1.0
147
3.0
 71
     0
 72
     0
 73
     0
 74
     0
 75
     0
 76
     0
 77
     1
 78
     0
170
     0
171
     2
172
     1
173
     0
174
     1
175
     0
176
     0
177
     0
178
     0
270
     2
271
     0
272
     4
273
     2
274
     2
340
331
275
     0
280
     0
281
     0
282
     0
283
     1
284
     0
285
     0
286
     0
287
     3
288
     1
  0
DIMSTYLE
105
FE9
330
447A
100
AcDbSymbolTableRecord
100
AcDbDimStyleTableRecord
  2
ED20
 70
     0
  3

  4

  5
OPEN
  6

  7

 40
1.0
 41
20.0
 42
1.0
 43
0.38
 44
1.25
 45
0.0
 46
0.0
 47
0.0
 48
0.0
140
20.0
141
0.09
142
0.0
143
25.4
144
1.0
145
0.0
146
1.0
147
2.0
 71
     0
 72
     0
 73
     0
 74
     0
 75
     0
 76
     0
 77
     1
 78
     0
170
     0
171
     2
172
     1
173
     0
174
     1
175
     0
176
     0
177
    41
178
    41
270
     2
271
     0
272
     4
273
     2
274
     2
340
331
275
     0
280
     0
281
     0
282
     0
283
     1
284
     0
285
     0
286
     0
287
     3
288
     1
  0
DIMSTYLE
105
320E
102
{ACAD_REACTORS
330
330B
330
34A0
330
39FB
330
3BC0
330
3BC1
330
4315
330
4377
102
}
330
447A
100
AcDbSymbolTableRecord
100
AcDbDimStyleTableRecord
  2
ED30
 70
     0
  3

  4

  5
OPEN
  6

  7

 40
1.0
 41
30.0
 42
1.0
 43
0.38
 44
1.25
 45
0.0
 46
0.0
 47
0.0
 48
0.0
140
30.0
141
0.09
142
0.0
143
25.4
144
1.0
145
0.0
146
1.0
147
2.0
 71
     0
 72
     0
 73
     0
 74
     0
 75
     0
 76
     0
 77
     1
 78
     0
170
     0
171
     2
172
     1
173
     0
174
     1
175
     0
176
     0
177
    41
178
    41
270
     2
271
     0
272
     4
273
     2
274
     2
340
F38
275
     0
280
     0
281
     0
282
     0
283
     1
284
     0
285
     0
286
     0
287
     3
288
     1
  0
ENDTAB
  0
TABLE
  2
BLOCK_RECORD
  5
4471
330
0
100
AcDbSymbolTable
 70
    13
  0
BLOCK_RECORD
  5
448F
330
4471
100
AcDbSymbolTableRecord
100
AcDbBlockTableRecord
  2
*MODEL_SPACE
  0
BLOCK_RECORD
  5
448B
330
4471
100
AcDbSymbolTableRecord
100
AcDbBlockTableRecord
  2
*PAPER_SPACE
  0
BLOCK_RECORD
  5
90
330
4471
100
AcDbSymbolTableRecord
100
AcDbBlockTableRecord
  2
_OPEN
  0
BLOCK_RECORD
  5
3401
330
4471
100
AcDbSymbolTableRecord
100
AcDbBlockTableRecord
  2
VD_ANONYM_3401
  0
BLOCK_RECORD
  5
39FC
330
4471
100
AcDbSymbolTableRecord
100
AcDbBlockTableRecord
  2
VD_ANONYM_39FC
  0
BLOCK_RECORD
  5
4396
330
4471
100
AcDbSymbolTableRecord
100
AcDbBlockTableRecord
  2
VDDIM_DEFAULT
  0
BLOCK_RECORD
  5
4398
330
4471
100
AcDbSymbolTableRecord
100
AcDbBlockTableRecord
  2
VDDIM_NONE
  0
BLOCK_RECORD
  5
44C4
330
4471
100
AcDbSymbolTableRecord
100
AcDbBlockTableRecord
  2
*D6
  0
BLOCK_RECORD
  5
44D1
330
4471
100
AcDbSymbolTableRecord
100
AcDbBlockTableRecord
  2
*D7
  0
BLOCK_RECORD
  5
44DF
330
4471
100
AcDbSymbolTableRecord
100
AcDbBlockTableRecord
  2
*D8
  0
BLOCK_RECORD
  5
44EC
330
4471
100
AcDbSymbolTableRecord
100
AcDbBlockTableRecord
  2
*D9
  0
BLOCK_RECORD
  5
44F9
330
4471
100
AcDbSymbolTableRecord
100
AcDbBlockTableRecord
  2
*D10
  0
BLOCK_RECORD
  5
4506
330
4471
100
AcDbSymbolTableRecord
100
AcDbBlockTableRecord
  2
*D11
  0
BLOCK_RECORD
  5
4512
330
4471
100
AcDbSymbolTableRecord
100
AcDbBlockTableRecord
  2
*D12
  0
ENDTAB
  0
ENDSEC
  0
SECTION
  2
BLOCKS
  0
BLOCK
  5
4490
330
448F
100
AcDbEntity
  8
0
100
AcDbBlockBegin
  2
*MODEL_SPACE
 70
     0
 71
     0
 10
0.0
 20
0.0
 30
0.0
  3
*MODEL_SPACE
  1

  0
ENDBLK
  5
4491
330
448F
100
AcDbEntity
  8
0
100
AcDbBlockEnd
  0
BLOCK
  5
448C
330
448B
100
AcDbEntity
 67
     1
  8
0
100
AcDbBlockBegin
  2
*PAPER_SPACE
 70
     0
 71
     0
 10
0.0
 20
0.0
 30
0.0
  3
*PAPER_SPACE
  1

  0
ENDBLK
  5
448D
330
448B
100
AcDbEntity
 67
     1
  8
0
100
AcDbBlockEnd
  0
BLOCK
  5
44B9
330
90
100
AcDbEntity
  8
0
100
AcDbBlockBegin
  2
_OPEN
 70
     0
 71
     0
 10
0.0
 20
0.0
 30
0.0
  3
_OPEN
  1

  0
LINE
  5
92
330
90
100
AcDbEntity
  8
0
  6
BYBLOCK
 62
     0
100
AcDbLine
 10
-1.0
 20
0.166667
 30
0.0
 11
0.0
 21
0.0
 31
0.0
  0
LINE
  5
93
330
90
100
AcDbEntity
  8
0
  6
BYBLOCK
 62
     0
100
AcDbLine
 10
0.0
 20
0.0
 30
0.0
 11
-1.0
 21
-0.166667
 31
0.0
  0
LINE
  5
94
330
90
100
AcDbEntity
  8
0
  6
BYBLOCK
 62
     0
100
AcDbLine
 10
0.0
 20
0.0
 30
0.0
 11
-1.0
 21
0.0
 31
0.0
  0
ENDBLK
  5
44BA
330
90
100
AcDbEntity
  8
0
100
AcDbBlockEnd
  0
BLOCK
  5
44BB
330
3401
100
AcDbEntity
  8
0
100
AcDbBlockBegin
  2
VD_ANONYM_3401
 70
     0
 71
     0
 10
0.0
 20
0.0
 30
0.0
  3
VD_ANONYM_3401
  1

  0
LINE
  5
3EEF
330
3401
100
AcDbEntity
  8
0
  6
BYBLOCK
 62
    41
100
AcDbLine
 10
1105.628106
 20
121.728455
 30
0.0
 11
976.367359
 21
121.728455
 31
0.0
  0
LINE
  5
3EF0
330
3401
100
AcDbEntity
  8
0
  6
BYBLOCK
 62
    41
100
AcDbLine
 10
1105.628106
 20
7.727543
 30
0.0
 11
976.367359
 21
7.727543
 31
0.0
  0
LINE
  5
3EF1
330
3401
100
AcDbEntity
  8
0
  6
BYBLOCK
 62
    41
100
AcDbLine
 10
977.617359
 20
91.728455
 30
0.0
 11
977.617359
 21
37.727543
 31
0.0
  0
INSERT
  5
3EF2
330
3401
100
AcDbEntity
  8
0
  6
BYBLOCK
 62
    41
100
AcDbBlockReference
  2
_OPEN
 10
977.617359
 20
121.728455
 30
0.0
 41
30.0
 42
30.0
 43
30.0
 50
90.0
  0
INSERT
  5
3EF3
330
3401
100
AcDbEntity
  8
0
  6
BYBLOCK
 62
    41
100
AcDbBlockReference
  2
_OPEN
 10
977.617359
 20
7.727543
 30
0.0
 41
30.0
 42
30.0
 43
30.0
 50
270.0
  0
POINT
  5
3EF5
330
3401
100
AcDbEntity
  8
DEFPOINTS
  6
BYBLOCK
 62
     0
100
AcDbPoint
 10
1106.628106
 20
121.728455
 30
0.0
  0
POINT
  5
3EF6
330
3401
100
AcDbEntity
  8
DEFPOINTS
  6
BYBLOCK
 62
     0
100
AcDbPoint
 10
1106.628106
 20
7.727543
 30
0.0
  0
POINT
  5
3EF7
330
3401
100
AcDbEntity
  8
DEFPOINTS
  6
BYBLOCK
 62
     0
100
AcDbPoint
 10
977.617359
 20
7.727543
 30
0.0
  0
TEXT
  5
4393
330
3401
100
AcDbEntity
  8
0
  6
BYBLOCK
 62
    41
100
AcDbText
 10
975.617359
 20
-0.1313581428572661
 30
0.0
 40
30.0
  1
Ř114
 50
90.0
  7
ED40
100
AcDbText
  0
ENDBLK
  5
44BC
330
3401
100
AcDbEntity
  8
0
100
AcDbBlockEnd
  0
BLOCK
  5
44BD
330
39FC
100
AcDbEntity
  8
0
100
AcDbBlockBegin
  2
VD_ANONYM_39FC
 70
     0
 71
     0
 10
0.0
 20
0.0
 30
0.0
  3
VD_ANONYM_39FC
  1

  0
LINE
  5
3F12
330
39FC
100
AcDbEntity
  8
0
  6
BYBLOCK
 62
    41
100
AcDbLine
 10
1194.474631
 20
-136.271646
 30
0.0
 11
1194.474631
 21
-286.819519
 31
0.0
  0
LINE
  5
3F13
330
39FC
100
AcDbEntity
  8
0
  6
BYBLOCK
 62
    41
100
AcDbLine
 10
1065.525734
 20
23.727903
 30
0.0
 11
1065.525734
 21
-286.819519
 31
0.0
  0
LINE
  5
3F14
330
39FC
100
AcDbEntity
  8
0
  6
BYBLOCK
 62
    41
100
AcDbLine
 10
1164.474631
 20
-285.569519
 30
0.0
 11
1095.525734
 21
-285.569519
 31
0.0
  0
INSERT
  5
3F15
330
39FC
100
AcDbEntity
  8
0
  6
BYBLOCK
 62
    41
100
AcDbBlockReference
  2
_OPEN
 10
1194.474631
 20
-285.569519
 30
0.0
 41
30.0
 42
30.0
 43
30.0
  0
INSERT
  5
3F16
330
39FC
100
AcDbEntity
  8
0
  6
BYBLOCK
 62
    41
100
AcDbBlockReference
  2
_OPEN
 10
1065.525734
 20
-285.569519
 30
0.0
 41
30.0
 42
30.0
 43
30.0
 50
180.0
  0
POINT
  5
3F18
330
39FC
100
AcDbEntity
  8
DEFPOINTS
  6
BYBLOCK
 62
     0
100
AcDbPoint
 10
1194.474631
 20
-135.271646
 30
0.0
  0
POINT
  5
3F19
330
39FC
100
AcDbEntity
  8
DEFPOINTS
  6
BYBLOCK
 62
     0
100
AcDbPoint
 10
1065.525734
 20
24.727903
 30
0.0
  0
POINT
  5
3F1A
330
39FC
100
AcDbEntity
  8
DEFPOINTS
  6
BYBLOCK
 62
     0
100
AcDbPoint
 10
1065.525734
 20
-285.569519
 30
0.0
  0
TEXT
  5
4394
330
39FC
100
AcDbEntity
  8
0
  6
BYBLOCK
 62
    41
100
AcDbText
 10
1069.467603714286
 20
-283.566566
 30
0.0
 40
30.0
  1
129
  7
ED40
100
AcDbText
  0
ENDBLK
  5
44BE
330
39FC
100
AcDbEntity
  8
0
100
AcDbBlockEnd
  0
BLOCK
  5
44BF
330
4396
100
AcDbEntity
  8
0
100
AcDbBlockBegin
  2
VDDIM_DEFAULT
 70
     0
 71
     0
 10
0.0
 20
0.0
 30
0.0
  3
VDDIM_DEFAULT
  1

  0
LWPOLYLINE
  5
4397
330
4396
100
AcDbEntity
  8
0
  6
CONTINUOUS
 62
     0
100
AcDbPolyline
 90
        4
 70
     0
 43
0.0
 10
0.0
 20
0.0
 10
-1.0
 20
-0.1665
 10
-1.0
 20
0.1665
 10
0.0
 20
0.0
1001
VDEXTRAPARAM
1071
        1
1071
        0
1071
        0
1040
1.0
1000

1000

1040
0.0
1040
0.0
  0
HATCH
  5
44C3
330
4396
100
AcDbEntity
  8
0
  6
CONTINUOUS
 62
     0
100
AcDbHatch
 10
0.0
 20
0.0
 30
0.0
210
0.0
220
0.0
230
1.0
  2
SOLID
 70
     1
 71
     0
 91
        1
 92
        2
 72
     0
 73
     1
 93
        3
 10
0.0
 20
0.0
 10
-1.0
 20
-0.1665
 10
-1.0
 20
0.1665
 97
        0
 75
     0
 76
     1
 98
        1
 10
0.0
 20
0.0
1001
VDEXTRAPARAM
1071
        1
1071
        0
1071
        0
1040
1.0
1000

1000

1040
0.0
1040
0.0
1001
VD_TEMPHATCH
1000
VD_TEMPHATCH
  0
ENDBLK
  5
44C0
330
4396
100
AcDbEntity
  8
0
100
AcDbBlockEnd
  0
BLOCK
  5
44C1
330
4398
100
AcDbEntity
  8
0
100
AcDbBlockBegin
  2
VDDIM_NONE
 70
     0
 71
     0
 10
0.0
 20
0.0
 30
0.0
  3
VDDIM_NONE
  1

  0
ENDBLK
  5
44C2
330
4398
100
AcDbEntity
  8
0
100
AcDbBlockEnd
  0
BLOCK
  5
44CF
330
44C4
100
AcDbEntity
  8
0
100
AcDbBlockBegin
  2
*D6
 70
     1
 71
     0
 10
0.0
 20
0.0
 30
0.0
  3
*D6
  1

  0
LINE
  5
44C5
330
44C4
100
AcDbEntity
  8
V0-VYPLNE
 62
    41
100
AcDbLine
 10
1198.474631
 20
352.658856
 30
0.0
 11
1284.391708999996
 21
352.658856
 31
0.0
  0
LINE
  5
44C6
330
44C4
100
AcDbEntity
  8
V0-VYPLNE
 62
    41
100
AcDbLine
 10
1198.474631
 20
-47.340434
 30
0.0
 11
1284.391708999996
 21
-47.34043400000001
 31
0.0
  0
LINE
  5
44C7
330
44C4
100
AcDbEntity
  8
V0-VYPLNE
 62
     0
100
AcDbLine
 10
1283.141708999996
 20
322.658856
 30
0.0
 11
1283.141708999996
 21
199.0855691428571
 31
0.0
  0
LINE
  5
44C8
330
44C4
100
AcDbEntity
  8
V0-VYPLNE
 62
     0
100
AcDbLine
 10
1283.141708999996
 20
-17.34043399999996
 30
0.0
 11
1283.141708999996
 21
90.79985485714289
 31
0.0
  0
INSERT
  5
44C9
330
44C4
100
AcDbEntity
  8
V0-VYPLNE
 62
     0
100
AcDbBlockReference
  2
_OPEN
 10
1283.141708999996
 20
352.658856
 30
0.0
 41
30.0
 42
30.0
 43
30.0
 50
90.0
  0
INSERT
  5
44CA
330
44C4
100
AcDbEntity
  8
V0-VYPLNE
 62
     0
100
AcDbBlockReference
  2
_OPEN
 10
1283.141708999996
 20
-47.34043399999996
 30
0.0
 41
30.0
 42
30.0
 43
30.0
 50
270.0
  0
MTEXT
  5
44CB
330
44C4
100
AcDbEntity
  8
V0-VYPLNE
 62
    41
100
AcDbMText
 10
1283.141709
 20
144.942712
 30
0.0
 40
30.0
 41
0.0
 71
     5
 72
     1
  1
%%c\A1;400
  7
ED30
 11
0.0
 21
1.0
 31
0.0
  0
POINT
  5
44CC
330
44C4
100
AcDbEntity
  8
DEFPOINTS
 62
     0
100
AcDbPoint
 10
1197.474631
 20
352.658856
 30
0.0
  0
POINT
  5
44CD
330
44C4
100
AcDbEntity
  8
DEFPOINTS
 62
     0
100
AcDbPoint
 10
1197.474631
 20
-47.340434
 30
0.0
  0
POINT
  5
44CE
330
44C4
100
AcDbEntity
  8
DEFPOINTS
 62
     0
100
AcDbPoint
 10
1283.141708999996
 20
-47.34043400000001
 30
0.0
  0
ENDBLK
  5
44D0
330
44C4
100
AcDbEntity
  8
0
100
AcDbBlockEnd
  0
BLOCK
  5
44DD
330
44D1
100
AcDbEntity
  8
0
100
AcDbBlockBegin
  2
*D7
 70
     1
 71
     0
 10
0.0
 20
0.0
 30
0.0
  3
*D7
  1

  0
LINE
  5
44D2
330
44D1
100
AcDbEntity
  8
V0-OBRYS
 62
    41
100
AcDbLine
 10
1119.668356
 20
-98.49078900000001
 30
0.0
 11
1119.668356
 21
-153.6240739999921
 31
0.0
  0
LINE
  5
44D3
330
44D1
100
AcDbEntity
  8
V0-OBRYS
 62
    41
100
AcDbLine
 10
1107.628356
 20
-98.49078900000001
 30
0.0
 11
1107.628356
 21
-153.6240739999921
 31
0.0
  0
LINE
  5
44D4
330
44D1
100
AcDbEntity
  8
V0-OBRYS
 62
     0
100
AcDbLine
 10
1149.668356
 20
-152.3740739999921
 30
0.0
 11
1179.668356
 21
-152.3740739999921
 31
0.0
  0
LINE
  5
44D5
330
44D1
100
AcDbEntity
  8
V0-OBRYS
 62
     0
100
AcDbLine
 10
1077.628356
 20
-152.3740739999921
 30
0.0
 11
966.4440758571429
 21
-152.3740739999921
 31
0.0
  0
LINE
  5
44D6
330
44D1
100
AcDbEntity
  8
V0-OBRYS
 62
     0
100
AcDbLine
 10
1119.668356
 20
-152.3740739999921
 30
0.0
 11
1107.628356
 21
-152.3740739999921
 31
0.0
  0
INSERT
  5
44D7
330
44D1
100
AcDbEntity
  8
V0-OBRYS
 62
     0
100
AcDbBlockReference
  2
_OPEN
 10
1119.668356
 20
-152.3740739999921
 30
0.0
 41
30.0
 42
30.0
 43
30.0
 50
180.0
  0
INSERT
  5
44D8
330
44D1
100
AcDbEntity
  8
V0-OBRYS
 62
     0
100
AcDbBlockReference
  2
_OPEN
 10
1107.628356
 20
-152.3740739999921
 30
0.0
 41
30.0
 42
30.0
 43
30.0
  0
MTEXT
  5
44D9
330
44D1
100
AcDbEntity
  8
V0-OBRYS
 62
    41
100
AcDbMText
 10
990.586933
 20
-152.374074
 30
0.0
 40
30.0
 41
0.0
 71
     5
 72
     1
  1
\A1;12
  7
ED30
  0
POINT
  5
44DA
330
44D1
100
AcDbEntity
  8
DEFPOINTS
 62
     0
100
AcDbPoint
 10
1119.668356
 20
-97.49078900000001
 30
0.0
  0
POINT
  5
44DB
330
44D1
100
AcDbEntity
  8
DEFPOINTS
 62
     0
100
AcDbPoint
 10
1107.628356
 20
-97.49078900000001
 30
0.0
  0
POINT
  5
44DC
330
44D1
100
AcDbEntity
  8
DEFPOINTS
 62
     0
100
AcDbPoint
 10
1107.628356
 20
-152.3740739999921
 30
0.0
  0
ENDBLK
  5
44DE
330
44D1
100
AcDbEntity
  8
0
100
AcDbBlockEnd
  0
BLOCK
  5
44EA
330
44DF
100
AcDbEntity
  8
0
100
AcDbBlockBegin
  2
*D8
 70
     1
 71
     0
 10
0.0
 20
0.0
 30
0.0
  3
*D8
  1

  0
LINE
  5
44E0
330
44DF
100
AcDbEntity
  8
V0-OBRYS
 62
    41
100
AcDbLine
 10
1197.474631
 20
-48.340434
 30
0.0
 11
1197.474631
 21
-153.5467000000029
 31
0.0
  0
LINE
  5
44E1
330
44DF
100
AcDbEntity
  8
V0-OBRYS
 62
    41
100
AcDbLine
 10
1119.668356
 20
-98.49078900000001
 30
0.0
 11
1119.668356
 21
-153.5467000000029
 31
0.0
  0
LINE
  5
44E2
330
44DF
100
AcDbEntity
  8
V0-OBRYS
 62
     0
100
AcDbLine
 10
1167.474631
 20
-152.2967000000029
 30
0.0
 11
1185.417685285714
 21
-152.2967000000029
 31
0.0
  0
LINE
  5
44E3
330
44DF
100
AcDbEntity
  8
V0-OBRYS
 62
     0
100
AcDbLine
 10
1149.668356
 20
-152.2967000000029
 30
0.0
 11
1132.846256714286
 21
-152.2967000000029
 31
0.0
  0
INSERT
  5
44E4
330
44DF
100
AcDbEntity
  8
V0-OBRYS
 62
     0
100
AcDbBlockReference
  2
_OPEN
 10
1197.474631
 20
-152.2967000000029
 30
0.0
 41
30.0
 42
30.0
 43
30.0
  0
INSERT
  5
44E5
330
44DF
100
AcDbEntity
  8
V0-OBRYS
 62
     0
100
AcDbBlockReference
  2
_OPEN
 10
1119.668356
 20
-152.2967000000029
 30
0.0
 41
30.0
 42
30.0
 43
30.0
 50
180.0
  0
MTEXT
  5
44E6
330
44DF
100
AcDbEntity
  8
V0-OBRYS
 62
    41
100
AcDbMText
 10
1159.131971
 20
-152.2967
 30
0.0
 40
30.0
 41
0.0
 71
     5
 72
     1
  1
\A1;78
  7
ED30
  0
POINT
  5
44E7
330
44DF
100
AcDbEntity
  8
DEFPOINTS
 62
     0
100
AcDbPoint
 10
1197.474631
 20
-47.340434
 30
0.0
  0
POINT
  5
44E8
330
44DF
100
AcDbEntity
  8
DEFPOINTS
 62
     0
100
AcDbPoint
 10
1119.668356
 20
-97.49078900000001
 30
0.0
  0
POINT
  5
44E9
330
44DF
100
AcDbEntity
  8
DEFPOINTS
 62
     0
100
AcDbPoint
 10
1119.668356
 20
-152.2967000000029
 30
0.0
  0
ENDBLK
  5
44EB
330
44DF
100
AcDbEntity
  8
0
100
AcDbBlockEnd
  0
BLOCK
  5
44F7
330
44EC
100
AcDbEntity
  8
0
100
AcDbBlockBegin
  2
*D9
 70
     1
 71
     0
 10
0.0
 20
0.0
 30
0.0
  3
*D9
  1

  0
LINE
  5
44ED
330
44EC
100
AcDbEntity
  8
V0-VYPLNE
 62
    41
100
AcDbLine
 10
1523.160939
 20
-92.770529
 30
0.0
 11
1523.160939
 21
-231.635019999987
 31
0.0
  0
LINE
  5
44EE
330
44EC
100
AcDbEntity
  8
V0-VYPLNE
 62
    41
100
AcDbLine
 10
2022.812019
 20
-92.770529
 30
0.0
 11
2022.812019
 21
-231.635019999987
 31
0.0
  0
LINE
  5
44EF
330
44EC
100
AcDbEntity
  8
V0-VYPLNE
 62
     0
100
AcDbLine
 10
1553.160939
 20
-230.385019999987
 30
0.0
 11
1734.462652428571
 21
-230.385019999987
 31
0.0
  0
LINE
  5
44F0
330
44EC
100
AcDbEntity
  8
V0-VYPLNE
 62
     0
100
AcDbLine
 10
1992.812019
 20
-230.385019999987
 30
0.0
 11
1815.605509571429
 21
-230.385019999987
 31
0.0
  0
INSERT
  5
44F1
330
44EC
100
AcDbEntity
  8
V0-VYPLNE
 62
     0
100
AcDbBlockReference
  2
_OPEN
 10
1523.160939
 20
-230.385019999987
 30
0.0
 41
30.0
 42
30.0
 43
30.0
 50
180.0
  0
INSERT
  5
44F2
330
44EC
100
AcDbEntity
  8
V0-VYPLNE
 62
     0
100
AcDbBlockReference
  2
_OPEN
 10
2022.812019
 20
-230.385019999987
 30
0.0
 41
30.0
 42
30.0
 43
30.0
 50
360.0
  0
MTEXT
  5
44F3
330
44EC
100
AcDbEntity
  8
V0-VYPLNE
 62
    41
100
AcDbMText
 10
1775.034081
 20
-230.38502
 30
0.0
 40
30.0
 41
0.0
 71
     5
 72
     1
  1
\A1;500
  7
ED30
  0
POINT
  5
44F4
330
44EC
100
AcDbEntity
  8
DEFPOINTS
 62
     0
100
AcDbPoint
 10
1523.160939
 20
-91.770529
 30
0.0
  0
POINT
  5
44F5
330
44EC
100
AcDbEntity
  8
DEFPOINTS
 62
     0
100
AcDbPoint
 10
2022.812019
 20
-91.770529
 30
0.0
  0
POINT
  5
44F6
330
44EC
100
AcDbEntity
  8
DEFPOINTS
 62
     0
100
AcDbPoint
 10
2022.812019
 20
-230.385019999987
 30
0.0
  0
ENDBLK
  5
44F8
330
44EC
100
AcDbEntity
  8
0
100
AcDbBlockEnd
  0
BLOCK
  5
4504
330
44F9
100
AcDbEntity
  8
0
100
AcDbBlockBegin
  2
*D10
 70
     1
 71
     0
 10
0.0
 20
0.0
 30
0.0
  3
*D10
  1

  0
LINE
  5
44FA
330
44F9
100
AcDbEntity
  8
V0-OBRYS
 62
    41
100
AcDbLine
 10
1562.98653
 20
-83.3407
 30
0.0
 11
1562.98653
 21
-163.6226139999926
 31
0.0
  0
LINE
  5
44FB
330
44F9
100
AcDbEntity
  8
V0-OBRYS
 62
    41
100
AcDbLine
 10
1982.98639
 20
-83.340737
 30
0.0
 11
1982.98639
 21
-163.6226139999926
 31
0.0
  0
LINE
  5
44FC
330
44F9
100
AcDbEntity
  8
V0-OBRYS
 62
     0
100
AcDbLine
 10
1592.98653
 20
-162.3726139999926
 30
0.0
 11
1731.941615428571
 21
-162.3726139999926
 31
0.0
  0
LINE
  5
44FD
330
44F9
100
AcDbEntity
  8
V0-OBRYS
 62
     0
100
AcDbLine
 10
1952.98639
 20
-162.3726139999926
 30
0.0
 11
1813.084472571429
 21
-162.3726139999926
 31
0.0
  0
INSERT
  5
44FE
330
44F9
100
AcDbEntity
  8
V0-OBRYS
 62
     0
100
AcDbBlockReference
  2
_OPEN
 10
1562.98653
 20
-162.3726139999926
 30
0.0
 41
30.0
 42
30.0
 43
30.0
 50
180.0
  0
INSERT
  5
44FF
330
44F9
100
AcDbEntity
  8
V0-OBRYS
 62
     0
100
AcDbBlockReference
  2
_OPEN
 10
1982.98639
 20
-162.3726139999926
 30
0.0
 41
30.0
 42
30.0
 43
30.0
  0
MTEXT
  5
4500
330
44F9
100
AcDbEntity
  8
V0-OBRYS
 62
    41
100
AcDbMText
 10
1772.513044
 20
-162.372614
 30
0.0
 40
30.0
 41
0.0
 71
     5
 72
     1
  1
\A1;420
  7
ED30
  0
POINT
  5
4501
330
44F9
100
AcDbEntity
  8
DEFPOINTS
 62
     0
100
AcDbPoint
 10
1562.98653
 20
-82.3407
 30
0.0
  0
POINT
  5
4502
330
44F9
100
AcDbEntity
  8
DEFPOINTS
 62
     0
100
AcDbPoint
 10
1982.98639
 20
-82.340737
 30
0.0
  0
POINT
  5
4503
330
44F9
100
AcDbEntity
  8
DEFPOINTS
 62
     0
100
AcDbPoint
 10
1982.98639
 20
-162.3726139999926
 30
0.0
  0
ENDBLK
  5
4505
330
44F9
100
AcDbEntity
  8
0
100
AcDbBlockEnd
  0
BLOCK
  5
4510
330
4506
100
AcDbEntity
  8
0
100
AcDbBlockBegin
  2
*D11
 70
     1
 71
     0
 10
0.0
 20
0.0
 30
0.0
  3
*D11
  1

  0
LINE
  5
4507
330
4506
100
AcDbEntity
  8
V0-VYPLNE
 62
    41
100
AcDbLine
 10
1022.525734
 20
111.659115
 30
0.0
 11
1022.525734
 21
-201.7782479999902
 31
0.0
  0
LINE
  5
4508
330
4506
100
AcDbEntity
  8
V0-VYPLNE
 62
    41
100
AcDbLine
 10
1198.474631
 20
-48.340434
 30
0.0
 11
1198.474631
 21
-201.7782479999902
 31
0.0
  0
LINE
  5
4509
330
4506
100
AcDbEntity
  8
V0-VYPLNE
 62
     0
100
AcDbLine
 10
1052.525734
 20
-200.5282479999902
 30
0.0
 11
1168.474631
 21
-200.5282479999902
 31
0.0
  0
INSERT
  5
450A
330
4506
100
AcDbEntity
  8
V0-VYPLNE
 62
     0
100
AcDbBlockReference
  2
_OPEN
 10
1022.525734
 20
-200.5282479999902
 30
0.0
 41
30.0
 42
30.0
 43
30.0
 50
180.0
  0
INSERT
  5
450B
330
4506
100
AcDbEntity
  8
V0-VYPLNE
 62
     0
100
AcDbBlockReference
  2
_OPEN
 10
1198.474631
 20
-200.5282479999902
 30
0.0
 41
30.0
 42
30.0
 43
30.0
  0
MTEXT
  5
450C
330
4506
100
AcDbEntity
  8
V0-VYPLNE
 62
    41
100
AcDbMText
 10
1110.5001825
 20
-183.5282479999902
 30
0.0
 40
30.0
 41
0.0
 71
     5
 72
     1
  1
\A1;176
  7
ED30
  0
POINT
  5
450D
330
4506
100
AcDbEntity
  8
DEFPOINTS
 62
     0
100
AcDbPoint
 10
1022.525734
 20
112.659115
 30
0.0
  0
POINT
  5
450E
330
4506
100
AcDbEntity
  8
DEFPOINTS
 62
     0
100
AcDbPoint
 10
1198.474631
 20
-47.340434
 30
0.0
  0
POINT
  5
450F
330
4506
100
AcDbEntity
  8
DEFPOINTS
 62
     0
100
AcDbPoint
 10
1198.474631
 20
-200.5282479999902
 30
0.0
  0
ENDBLK
  5
4511
330
4506
100
AcDbEntity
  8
0
100
AcDbBlockEnd
  0
BLOCK
  5
451C
330
4512
100
AcDbEntity
  8
0
100
AcDbBlockBegin
  2
*D12
 70
     1
 71
     0
 10
0.0
 20
0.0
 30
0.0
  3
*D12
  1

  0
LINE
  5
4513
330
4512
100
AcDbEntity
  8
V0-VYPLNE
 62
    41
100
AcDbLine
 10
1129.05535
 20
384.763878
 30
0.0
 11
1335.507975
 21
384.763878
 31
0.0
  0
LINE
  5
4514
330
4512
100
AcDbEntity
  8
V0-VYPLNE
 62
    41
100
AcDbLine
 10
1129.05535
 20
-85.118532
 30
0.0
 11
1335.507975
 21
-85.11853200000002
 31
0.0
  0
LINE
  5
4515
330
4512
100
AcDbEntity
  8
V0-VYPLNE
 62
     0
100
AcDbLine
 10
1334.257975
 20
354.763878
 30
0.0
 11
1334.257975
 21
-55.11853199999996
 31
0.0
  0
INSERT
  5
4516
330
4512
100
AcDbEntity
  8
V0-VYPLNE
 62
     0
100
AcDbBlockReference
  2
_OPEN
 10
1334.257975
 20
384.763878
 30
0.0
 41
30.0
 42
30.0
 43
30.0
 50
90.0
  0
INSERT
  5
4517
330
4512
100
AcDbEntity
  8
V0-VYPLNE
 62
     0
100
AcDbBlockReference
  2
_OPEN
 10
1334.257975
 20
-85.11853199999996
 30
0.0
 41
30.0
 42
30.0
 43
30.0
 50
270.0
  0
MTEXT
  5
4518
330
4512
100
AcDbEntity
  8
V0-VYPLNE
 62
    41
100
AcDbMText
 10
1317.257975
 20
149.822673
 30
0.0
 40
30.0
 41
0.0
 71
     5
 72
     1
  1
%%C464
  7
ED30
 11
0.0
 21
1.0
 31
0.0
  0
POINT
  5
4519
330
4512
100
AcDbEntity
  8
DEFPOINTS
 62
     0
100
AcDbPoint
 10
1128.05535
 20
384.763878
 30
0.0
  0
POINT
  5
451A
330
4512
100
AcDbEntity
  8
DEFPOINTS
 62
     0
100
AcDbPoint
 10
1128.05535
 20
-85.118532
 30
0.0
  0
POINT
  5
451B
330
4512
100
AcDbEntity
  8
DEFPOINTS
 62
     0
100
AcDbPoint
 10
1334.257975
 20
-85.11853200000002
 30
0.0
  0
ENDBLK
  5
451D
330
4512
100
AcDbEntity
  8
0
100
AcDbBlockEnd
  0
ENDSEC
  0
SECTION
  2
ENTITIES
  0
TEXT
  5
3152
330
448F
100
AcDbEntity
  8
V0-VYPLNE
  6
CONTINUOUS
 62
    51
100
AcDbText
 10
1593.382044253522
 20
-595.3813540000701
 30
0.0
 40
36.0
  1
Axiální ventilátor
  7
ED30
100
AcDbText
  0
TEXT
  5
3154
330
448F
100
AcDbEntity
  8
V0-VYPLNE
 62
     6
100
AcDbText
 10
1530.0
 20
-528.5824
 30
0.0
 40
48.0
  1
HXBR/HXTR 400
  7
ED40
100
AcDbText
  0
LINE
  5
3304
330
448F
100
AcDbEntity
  8
V0-OBRYS
  6
CONTINUOUS
 62
    90
 48
2.0
100
AcDbLine
 10
1197.474631
 20
-47.340434
 30
0.0
 11
1148.880461
 21
-47.340434
 31
0.0
  0
LINE
  5
3305
330
448F
100
AcDbEntity
  8
V0-OBRYS
  6
CONTINUOUS
 62
    90
 48
2.0
100
AcDbLine
 10
1197.474631
 20
352.658856
 30
0.0
 11
1148.880461
 21
352.658856
 31
0.0
  0
ARC
  5
3306
330
448F
100
AcDbEntity
  8
V0-OBRYS
  6
CONTINUOUS
 62
    90
 48
2.0
100
AcDbCircle
 10
1148.880461
 20
-68.304959
 30
0.0
 40
20.964525
100
AcDbArc
 50
90.0
 51
149.420799
  0
ARC
  5
3309
330
448F
100
AcDbEntity
  8
V0-OBRYS
  6
CONTINUOUS
 62
    90
 48
2.0
100
AcDbCircle
 10
1148.880461
 20
373.623381
 30
0.0
 40
20.964525
100
AcDbArc
 50
210.579201
 51
270.0
  0
DIMENSION
  5
330B
330
448F
100
AcDbEntity
  8
V0-VYPLNE
  6
CONTINUOUS
 62
    41
100
AcDbDimension
  2
*D6
 10
1283.141708999996
 20
-47.34043400000001
 30
0.0
 11
1283.141709
 21
144.942712
 31
0.0
 70
   160
  1
%%c<>
  3
ED30
100
AcDbAlignedDimension
 13
1197.474631
 23
352.658856
 33
0.0
 14
1197.474631
 24
-47.340434
 34
0.0
 50
90.0
100
AcDbRotatedDimension
  0
LINE
  5
330C
330
448F
100
AcDbEntity
  8
V0-OBRYS
  6
CONTINUOUS
 62
    90
 48
2.0
100
AcDbLine
 10
1197.474631
 20
152.659211
 30
0.0
 11
1197.474631
 21
352.658856
 31
0.0
  0
LINE
  5
330D
330
448F
100
AcDbEntity
  8
V0-OBRYS
  6
CONTINUOUS
 62
    90
 48
2.0
100
AcDbLine
 10
1197.474631
 20
152.659211
 30
0.0
 11
1197.474631
 21
-47.34043399999999
 31
0.0
  0
LINE
  5
3326
330
448F
100
AcDbEntity
  8
V0-VYPLNE
  6
DASHED
 62
    52
100
AcDbLine
 10
1141.598553
 20
88.62096099999999
 30
0.0
 11
1153.698624
 21
-45.537646
 31
0.0
  0
LINE
  5
3327
330
448F
100
AcDbEntity
  8
V0-VYPLNE
  6
DASHED
 62
    52
100
AcDbLine
 10
1198.657599
 20
88.62096099999999
 30
0.0
 11
1186.557528
 21
-45.537646
 31
0.0
  0
LINE
  5
3335
330
448F
100
AcDbEntity
  8
V0-VYPLNE
  6
DASHED
 62
    52
100
AcDbLine
 10
1153.698624
 20
-45.537646
 30
0.0
 11
1186.557528
 21
-45.537646
 31
0.0
  0
ELLIPSE
  5
3336
330
448F
100
AcDbEntity
  8
V0-OBRYS
  6
CONTINUOUS
 62
    90
100
AcDbEllipse
 10
402.329728
 20
121.832403
 30
0.0
 11
797.4798954661192
 21
76.20232472788337
 31
0.0
210
0.0
220
0.0
230
-1.0
 40
0.8221710000000005
 41
-0.0116123588215742
 42
0.0685565765185498
  0
LINE
  5
3337
330
448F
100
AcDbEntity
  8
V0-VYPLNE
  6
DASHED
 62
    52
100
AcDbLine
 10
1141.628076
 20
152.940785
 30
0.0
 11
1141.628076
 21
210.696785
 31
0.0
  0
LINE
  5
3338
330
448F
100
AcDbEntity
  8
V0-VYPLNE
  6
DASHED
 62
    52
100
AcDbLine
 10
1168.628076
 20
214.720322
 30
0.0
 11
1168.628076
 21
152.940785
 31
0.0
  0
LINE
  5
3339
330
448F
100
AcDbEntity
  8
V0-VYPLNE
  6
DASHDOT
 62
    63
100
AcDbLine
 10
1067.525732
 20
152.659126
 30
0.0
 11
1224.112425
 21
152.659126
 31
0.0
  0
ELLIPSE
  5
333A
330
448F
100
AcDbEntity
  8
V0-VYPLNE
  6
DASHED
 62
    52
100
AcDbEllipse
 10
1169.909997
 20
217.89588
 30
0.0
 11
-1.950176864042987
 21
126.7224889106882
 31
0.0
210
0.0
220
0.0
230
-1.0
 40
0.9036070000000006
 41
2.943895797789173
 42
3.408155533290548
  0
LINE
  5
333B
330
448F
100
AcDbEntity
  8
V0-VYPLNE
  6
DASHED
 62
    52
100
AcDbLine
 10
1142.104476
 20
143.303916
 30
0.0
 11
1200.686108
 21
162.908263
 31
0.0
  0
LINE
  5
333C
330
448F
100
AcDbEntity
  8
V0-VYPLNE
  6
DASHED
 62
    52
100
AcDbLine
 10
1168.628076
 20
91.161247
 30
0.0
 11
1168.628076
 21
152.940785
 31
0.0
  0
LINE
  5
333D
330
448F
100
AcDbEntity
  8
V0-VYPLNE
  6
DASHED
 62
    52
100
AcDbLine
 10
1141.628076
 20
152.940785
 30
0.0
 11
1141.628076
 21
95.18478500000001
 31
0.0
  0
LINE
  5
333E
330
448F
100
AcDbEntity
  8
V0-VYPLNE
  6
DASHED
 62
    52
100
AcDbLine
 10
1146.208105
 20
94.024513
 30
0.0
 11
1141.598553
 21
88.62096099999999
 31
0.0
  0
ELLIPSE
  5
333F
330
448F
100
AcDbEntity
  8
V0-VYPLNE
  6
DASHED
 62
    52
100
AcDbEllipse
 10
1168.628076
 20
152.659126
 30
0.0
 11
0.0
 21
5.966556111557964
 31
0.0
210
0.0
220
0.0
230
-1.0
 40
0.8522730000000001
 41
0.0
 42
6.283185307179586
  0
ELLIPSE
  5
3340
330
448F
100
AcDbEntity
  8
V0-OBRYS
  6
CONTINUOUS
 62
    90
100
AcDbEllipse
 10
402.329728
 20
184.049167
 30
0.0
 11
-797.4798954661148
 21
76.20232472792685
 31
0.0
210
0.0
220
0.0
230
-1.0
 40
0.8221710000000007
 41
3.073036077071158
 42
3.153205012411286
  0
LINE
  5
3341
330
448F
100
AcDbEntity
  8
V0-VYPLNE
  6
DASHED
 62
    52
100
AcDbLine
 10
1194.048047
 20
94.024513
 30
0.0
 11
1198.657599
 21
88.62096099999999
 31
0.0
  0
ELLIPSE
  5
3342
330
448F
100
AcDbEntity
  8
V0-VYPLNE
  6
DASHED
 62
    52
100
AcDbEllipse
 10
1193.052607
 20
100.870844
 30
0.0
 11
-6.821210263296962E-13
 21
7.039999999999907
 31
0.0
210
0.0
220
0.0
230
-1.0
 40
0.852273
 41
1.660762687017284
 42
2.92999142100466
  0
LINE
  5
3343
330
448F
100
AcDbEntity
  8
V0-VYPLNE
  6
DASHED
 62
    52
100
AcDbLine
 10
1153.698624
 20
351.419216
 30
0.0
 11
1186.557528
 21
351.419216
 31
0.0
  0
ELLIPSE
  5
3344
330
448F
100
AcDbEntity
  8
V0-VYPLNE
  6
DASHED
 62
    52
100
AcDbEllipse
 10
1169.909997
 20
87.98569000000001
 30
0.0
 11
1.950176864044352
 21
126.7224889106882
 31
0.0
210
0.0
220
0.0
230
-1.0
 40
0.9036070000000001
 41
-0.2665628797007655
 42
0.1976968558005741
  0
LINE
  5
3345
330
448F
100
AcDbEntity
  8
V0-VYPLNE
  6
DASHED
 62
    52
100
AcDbLine
 10
1141.598553
 20
217.260609
 30
0.0
 11
1153.698624
 21
351.419216
 31
0.0
  0
LINE
  5
3346
330
448F
100
AcDbEntity
  8
V0-VYPLNE
  6
DASHED
 62
    52
100
AcDbLine
 10
1146.208105
 20
211.857057
 30
0.0
 11
1141.598553
 21
217.260609
 31
0.0
  0
LINE
  5
3347
330
448F
100
AcDbEntity
  8
V0-VYPLNE
  6
DASHED
 62
    52
100
AcDbLine
 10
1198.657599
 20
217.260609
 30
0.0
 11
1186.557528
 21
351.419216
 31
0.0
  0
LINE
  5
3348
330
448F
100
AcDbEntity
  8
V0-VYPLNE
  6
DASHED
 62
    52
100
AcDbLine
 10
1194.048047
 20
211.857057
 30
0.0
 11
1198.657599
 21
217.260609
 31
0.0
  0
LINE
  5
3355
330
448F
100
AcDbEntity
  8
V0-OBRYS
  6
CONTINUOUS
 62
    90
 48
2.0
100
AcDbLine
 10
1107.628356
 20
402.809211
 30
0.0
 11
1107.628356
 21
152.659211
 31
0.0
  0
LINE
  5
3358
330
448F
100
AcDbEntity
  8
V0-VYPLNE
  6
DASHDOT
 62
    63
 48
2.0
100
AcDbLine
 10
1106.713274
 20
152.659211
 30
0.0
 11
1214.173052
 21
152.659211
 31
0.0
  0
LINE
  5
335B
330
448F
100
AcDbEntity
  8
V0-OBRYS
  6
CONTINUOUS
 62
    90
 48
2.0
100
AcDbLine
 10
1107.628356
 20
-122.490789
 30
0.0
 11
1107.628356
 21
151.159211
 31
0.0
  0
LINE
  5
335C
330
448F
100
AcDbEntity
  8
V0-OBRYS
  6
CONTINUOUS
 62
    90
 48
2.0
100
AcDbLine
 10
1087.720042
 20
-31.522183
 30
0.0
 11
1087.720042
 21
49.98204700000001
 31
0.0
  0
LINE
  5
335D
330
448F
100
AcDbEntity
  8
V0-OBRYS
  6
CONTINUOUS
 62
    90
 48
2.0
100
AcDbLine
 10
1089.937372
 20
-31.522183
 30
0.0
 11
1089.937372
 21
49.98204700000001
 31
0.0
  0
LINE
  5
335E
330
448F
100
AcDbEntity
  8
V0-OBRYS
  6
CONTINUOUS
 62
    90
 48
2.0
100
AcDbLine
 10
1119.668356
 20
-97.49078900000001
 30
0.0
 11
1107.628356
 21
-97.49078900000001
 31
0.0
  0
ARC
  5
335F
330
448F
100
AcDbEntity
  8
V0-OBRYS
  6
CONTINUOUS
 62
    90
 48
2.0
100
AcDbCircle
 10
1090.671406
 20
-56.347802
 30
0.0
 40
20.343317
100
AcDbArc
 50
33.633732
 51
82.38191500000001
  0
ARC
  5
3360
330
448F
100
AcDbEntity
  8
V0-OBRYS
  6
CONTINUOUS
 62
    90
 48
2.0
100
AcDbCircle
 10
1090.556632
 20
-57.581751
 30
0.0
 40
19.400425
100
AcDbArc
 50
40.121121
 51
83.630132
  0
ARC
  5
3361
330
448F
100
AcDbEntity
  8
V0-OBRYS
  6
CONTINUOUS
 62
    90
 48
2.0
100
AcDbCircle
 10
1094.820042
 20
-31.522183
 30
0.0
 40
4.882669
100
AcDbArc
 50
180.0
 51
252.703019
  0
ARC
  5
3362
330
448F
100
AcDbEntity
  8
V0-OBRYS
  6
CONTINUOUS
 62
    90
 48
2.0
100
AcDbCircle
 10
1094.820042
 20
-31.522183
 30
0.0
 40
7.1
100
AcDbArc
 50
180.0
 51
252.703019
  0
CIRCLE
  5
3363
330
448F
100
AcDbEntity
  8
V0-OBRYS
  6
CONTINUOUS
 62
    90
 48
2.0
100
AcDbCircle
 10
1085.436191
 20
-25.884285
 30
0.0
 40
2.283588
  0
CIRCLE
  5
3364
330
448F
100
AcDbEntity
  8
V0-OBRYS
  6
CONTINUOUS
 62
    90
 48
2.0
100
AcDbCircle
 10
1085.436191
 20
-8.844284999999999
 30
0.0
 40
2.283588
  0
LINE
  5
3365
330
448F
100
AcDbEntity
  8
V0-OBRYS
  6
CONTINUOUS
 62
    90
 48
2.0
100
AcDbLine
 10
1105.391825
 20
-58.327007
 30
0.0
 11
1105.391825
 21
-45.080009
 31
0.0
  0
ARC
  5
3366
330
448F
100
AcDbEntity
  8
V0-OBRYS
  6
CONTINUOUS
 62
    90
 48
2.0
100
AcDbCircle
 10
1106.51009
 20
-58.327007
 30
0.0
 40
1.118266
100
AcDbArc
 50
180.0
 51
0.0
  0
ARC
  5
3367
330
448F
100
AcDbEntity
  8
V0-OBRYS
  6
CONTINUOUS
 62
    90
 48
2.0
100
AcDbCircle
 10
1100.528356
 20
64.967676
 30
0.0
 40
7.1
100
AcDbArc
 50
289.78203
 51
0.0
  0
LINE
  5
3368
330
448F
100
AcDbEntity
  8
V0-OBRYS
  6
CONTINUOUS
 62
    90
 48
2.0
100
AcDbLine
 10
1092.417098
 20
56.663055
 30
0.0
 11
1102.9313
 21
58.286668
 31
0.0
  0
LINE
  5
3369
330
448F
100
AcDbEntity
  8
V0-OBRYS
  6
CONTINUOUS
 62
    90
 48
2.0
100
AcDbLine
 10
1093.167537
 20
54.576575
 30
0.0
 11
1103.68174
 21
56.200189
 31
0.0
  0
ARC
  5
336A
330
448F
100
AcDbEntity
  8
V0-OBRYS
  6
CONTINUOUS
 62
    90
 48
2.0
100
AcDbCircle
 10
1094.820042
 20
49.982047
 30
0.0
 40
4.882669
100
AcDbArc
 50
109.78203
 51
180.0
  0
ARC
  5
336B
330
448F
100
AcDbEntity
  8
V0-OBRYS
  6
CONTINUOUS
 62
    90
 48
2.0
100
AcDbCircle
 10
1094.820042
 20
49.982047
 30
0.0
 40
7.1
100
AcDbArc
 50
109.78203
 51
180.0
  0
CIRCLE
  5
336C
330
448F
100
AcDbEntity
  8
V0-OBRYS
  6
CONTINUOUS
 62
    90
 48
2.0
100
AcDbCircle
 10
1085.436191
 20
8.195715
 30
0.0
 40
2.283588
  0
CIRCLE
  5
336D
330
448F
100
AcDbEntity
  8
V0-OBRYS
  6
CONTINUOUS
 62
    90
 48
2.0
100
AcDbCircle
 10
1085.436191
 20
25.235715
 30
0.0
 40
2.283588
  0
CIRCLE
  5
336E
330
448F
100
AcDbEntity
  8
V0-OBRYS
  6
CONTINUOUS
 62
    90
 48
2.0
100
AcDbCircle
 10
1085.436191
 20
42.275715
 30
0.0
 40
2.283588
  0
ARC
  5
336F
330
448F
100
AcDbEntity
  8
V0-OBRYS
  6
CONTINUOUS
 62
    90
 48
2.0
100
AcDbCircle
 10
1100.528356
 20
64.967676
 30
0.0
 40
9.317330999999999
100
AcDbArc
 50
289.78203
 51
319.642674
  0
ARC
  5
3370
330
448F
100
AcDbEntity
  8
V0-OBRYS
  6
CONTINUOUS
 62
    90
 48
2.0
100
AcDbCircle
 10
1094.820042
 20
255.336375
 30
0.0
 40
4.882669
100
AcDbArc
 50
180.0
 51
250.21797
  0
ARC
  5
3371
330
448F
100
AcDbEntity
  8
V0-OBRYS
  6
CONTINUOUS
 62
    90
 48
2.0
100
AcDbCircle
 10
1094.820042
 20
255.336375
 30
0.0
 40
7.1
100
AcDbArc
 50
180.0
 51
250.21797
  0
LINE
  5
3372
330
448F
100
AcDbEntity
  8
V0-OBRYS
  6
CONTINUOUS
 62
    90
 48
2.0
100
AcDbLine
 10
1093.167537
 20
250.741847
 30
0.0
 11
1103.68174
 21
249.118234
 31
0.0
  0
LINE
  5
3373
330
448F
100
AcDbEntity
  8
V0-OBRYS
  6
CONTINUOUS
 62
    90
 48
2.0
100
AcDbLine
 10
1092.417098
 20
248.655368
 30
0.0
 11
1102.9313
 21
247.031754
 31
0.0
  0
ARC
  5
3374
330
448F
100
AcDbEntity
  8
V0-OBRYS
  6
CONTINUOUS
 62
    90
 48
2.0
100
AcDbCircle
 10
1100.528356
 20
240.350747
 30
0.0
 40
9.317330999999999
100
AcDbArc
 50
40.357326
 51
70.21796999999999
  0
ARC
  5
3375
330
448F
100
AcDbEntity
  8
V0-OBRYS
  6
CONTINUOUS
 62
    90
 48
2.0
100
AcDbCircle
 10
1100.528356
 20
240.350747
 30
0.0
 40
7.1
100
AcDbArc
 50
0.0
 51
70.21796999999999
  0
CIRCLE
  5
3376
330
448F
100
AcDbEntity
  8
V0-OBRYS
  6
CONTINUOUS
 62
    90
 48
2.0
100
AcDbCircle
 10
1085.535968
 20
314.162707
 30
0.0
 40
2.283588
  0
LINE
  5
3377
330
448F
100
AcDbEntity
  8
V0-OBRYS
  6
CONTINUOUS
 62
    90
 48
2.0
100
AcDbLine
 10
1089.937372
 20
336.840606
 30
0.0
 11
1089.937372
 21
255.336375
 31
0.0
  0
LINE
  5
3378
330
448F
100
AcDbEntity
  8
V0-OBRYS
  6
CONTINUOUS
 62
    90
 48
2.0
100
AcDbLine
 10
1087.720042
 20
336.840606
 30
0.0
 11
1087.720042
 21
255.336375
 31
0.0
  0
CIRCLE
  5
3379
330
448F
100
AcDbEntity
  8
V0-OBRYS
  6
CONTINUOUS
 62
    90
 48
2.0
100
AcDbCircle
 10
1085.535968
 20
297.122707
 30
0.0
 40
2.283588
  0
CIRCLE
  5
337A
330
448F
100
AcDbEntity
  8
V0-OBRYS
  6
CONTINUOUS
 62
    90
 48
2.0
100
AcDbCircle
 10
1085.535968
 20
263.042707
 30
0.0
 40
2.283588
  0
CIRCLE
  5
337B
330
448F
100
AcDbEntity
  8
V0-OBRYS
  6
CONTINUOUS
 62
    90
 48
2.0
100
AcDbCircle
 10
1085.535968
 20
280.082707
 30
0.0
 40
2.283588
  0
ARC
  5
337C
330
448F
100
AcDbEntity
  8
V0-OBRYS
  6
CONTINUOUS
 62
    90
 48
2.0
100
AcDbCircle
 10
1090.671406
 20
361.666225
 30
0.0
 40
20.343317
100
AcDbArc
 50
277.618085
 51
326.366268
  0
ARC
  5
337D
330
448F
100
AcDbEntity
  8
V0-OBRYS
  6
CONTINUOUS
 62
    90
 48
2.0
100
AcDbCircle
 10
1090.556632
 20
362.900173
 30
0.0
 40
19.400425
100
AcDbArc
 50
276.369868
 51
319.878879
  0
ARC
  5
337E
330
448F
100
AcDbEntity
  8
V0-OBRYS
  6
CONTINUOUS
 62
    90
 48
2.0
100
AcDbCircle
 10
1094.820042
 20
336.840606
 30
0.0
 40
4.882669
100
AcDbArc
 50
107.296981
 51
180.0
  0
CIRCLE
  5
337F
330
448F
100
AcDbEntity
  8
V0-OBRYS
  6
CONTINUOUS
 62
    90
 48
2.0
100
AcDbCircle
 10
1085.535968
 20
331.202707
 30
0.0
 40
2.283588
  0
ARC
  5
3380
330
448F
100
AcDbEntity
  8
V0-OBRYS
  6
CONTINUOUS
 62
    90
 48
2.0
100
AcDbCircle
 10
1094.820042
 20
336.840606
 30
0.0
 40
7.1
100
AcDbArc
 50
107.296981
 51
180.0
  0
ARC
  5
3381
330
448F
100
AcDbEntity
  8
V0-OBRYS
  6
CONTINUOUS
 62
    90
 48
2.0
100
AcDbCircle
 10
1106.51009
 20
388.64543
 30
0.0
 40
1.118266
100
AcDbArc
 50
0.0
 51
180.0
  0
LINE
  5
3382
330
448F
100
AcDbEntity
  8
V0-OBRYS
  6
CONTINUOUS
 62
    90
 48
2.0
100
AcDbLine
 10
1105.391825
 20
388.64543
 30
0.0
 11
1105.391825
 21
350.398431
 31
0.0
  0
LINE
  5
3383
330
448F
100
AcDbEntity
  8
V0-OBRYS
  6
CONTINUOUS
 62
    90
 48
2.0
100
AcDbLine
 10
1119.668356
 20
402.809211
 30
0.0
 11
1107.628356
 21
402.809211
 31
0.0
  0
LINE
  5
33D3
330
448F
100
AcDbEntity
  8
V0-OBRYS
  6
CONTINUOUS
 62
    90
100
AcDbLine
 10
1119.668356
 20
402.809211
 30
0.0
 11
1130.831541
 21
362.958121
 31
0.0
  0
LINE
  5
33D4
330
448F
100
AcDbEntity
  8
V0-OBRYS
  6
CONTINUOUS
 62
    90
100
AcDbLine
 10
1119.668356
 20
-97.49078900000001
 30
0.0
 11
1130.831541
 21
-57.639698
 31
0.0
  0
LINE
  5
33E1
330
448F
100
AcDbEntity
  8
V0-OBRYS
  6
CONTINUOUS
 62
    90
 48
2.0
100
AcDbLine
 10
1105.988145
 20
196.092053
 30
0.0
 11
1069.222024
 21
186.497602
 31
0.0
  0
LINE
  5
33E2
330
448F
100
AcDbEntity
  8
V0-OBRYS
  6
CONTINUOUS
 62
    90
 48
2.0
100
AcDbLine
 10
1106.468312
 20
206.166228
 30
0.0
 11
1068.741861
 21
192.254274
 31
0.0
  0
LINE
  5
33E3
330
448F
100
AcDbEntity
  8
V0-OBRYS
  6
CONTINUOUS
 62
    90
 48
2.0
100
AcDbLine
 10
1105.988145
 20
161.072306
 30
0.0
 11
1068.741861
 21
160.592584
 31
0.0
  0
LINE
  5
33E4
330
448F
100
AcDbEntity
  8
V0-OBRYS
  6
CONTINUOUS
 62
    90
 48
2.0
100
AcDbLine
 10
1105.988145
 20
172.585648
 30
0.0
 11
1068.741861
 21
170.666757
 31
0.0
  0
LINE
  5
33E5
330
448F
100
AcDbEntity
  8
V0-OBRYS
  6
CONTINUOUS
 62
    90
 48
2.0
100
AcDbLine
 10
1106.468312
 20
184.098988
 30
0.0
 11
1068.261693
 21
179.781485
 31
0.0
  0
LINE
  5
33E6
330
448F
100
AcDbEntity
  8
V0-OBRYS
  6
CONTINUOUS
 62
    90
 48
2.0
100
AcDbLine
 10
1105.988145
 20
132.732774
 30
0.0
 11
1068.741861
 21
134.651666
 31
0.0
  0
LINE
  5
33E7
330
448F
100
AcDbEntity
  8
V0-OBRYS
  6
CONTINUOUS
 62
    90
 48
2.0
100
AcDbLine
 10
1105.988145
 20
144.246116
 30
0.0
 11
1068.741861
 21
144.725839
 31
0.0
  0
LINE
  5
33E8
330
448F
100
AcDbEntity
  8
V0-OBRYS
  6
CONTINUOUS
 62
    90
 48
2.0
100
AcDbLine
 10
1106.468312
 20
121.219434
 30
0.0
 11
1068.261693
 21
125.536937
 31
0.0
  0
LINE
  5
33E9
330
448F
100
AcDbEntity
  8
V0-OBRYS
  6
CONTINUOUS
 62
    90
 48
2.0
100
AcDbLine
 10
1106.468312
 20
99.15219500000001
 30
0.0
 11
1068.741861
 21
113.064148
 31
0.0
  0
LINE
  5
33EA
330
448F
100
AcDbEntity
  8
V0-OBRYS
  6
CONTINUOUS
 62
    90
 48
2.0
100
AcDbLine
 10
1105.988145
 20
109.22637
 30
0.0
 11
1069.222024
 21
118.820821
 31
0.0
  0
LINE
  5
33EC
330
448F
100
AcDbEntity
  8
V0-OBRYS
  6
CONTINUOUS
 62
    90
 48
2.0
100
AcDbLine
 10
1086.628034
 20
95.658755
 30
0.0
 11
1107.62833
 21
95.658755
 31
0.0
  0
LINE
  5
33ED
330
448F
100
AcDbEntity
  8
V0-OBRYS
  6
CONTINUOUS
 62
    90
 48
2.0
100
AcDbLine
 10
1086.628034
 20
209.659667
 30
0.0
 11
1107.62833
 21
209.659667
 31
0.0
  0
LINE
  5
33EE
330
448F
100
AcDbEntity
  8
V0-OBRYS
  6
CONTINUOUS
 62
    90
 48
2.0
100
AcDbLine
 10
1068.627954
 20
152.659211
 30
0.0
 11
1068.627954
 21
105.658835
 31
0.0
  0
ARC
  5
33EF
330
448F
100
AcDbEntity
  8
V0-OBRYS
  6
CONTINUOUS
 62
    90
 48
2.0
100
AcDbCircle
 10
1085.704695
 20
115.196806
 30
0.0
 40
19.559856
100
AcDbArc
 50
209.18492
 51
272.705699
  0
LINE
  5
33F0
330
448F
100
AcDbEntity
  8
V0-OBRYS
  6
CONTINUOUS
 62
    90
 48
2.0
100
AcDbLine
 10
1068.627954
 20
152.659211
 30
0.0
 11
1068.627954
 21
199.659587
 31
0.0
  0
ARC
  5
33F1
330
448F
100
AcDbEntity
  8
V0-OBRYS
  6
CONTINUOUS
 62
    90
 48
2.0
100
AcDbCircle
 10
1085.704695
 20
190.121617
 30
0.0
 40
19.559856
100
AcDbArc
 50
87.29430100000002
 51
150.81508
  0
LINE
  5
33F3
330
448F
100
AcDbEntity
  8
V0-OBRYS
  6
CONTINUOUS
 62
    90
 48
2.0
100
AcDbLine
 10
1106.628106
 20
152.659211
 30
0.0
 11
1106.628106
 21
95.658755
 31
0.0
  0
LINE
  5
33F4
330
448F
100
AcDbEntity
  8
V0-OBRYS
  6
CONTINUOUS
 62
    90
 48
2.0
100
AcDbLine
 10
1106.468312
 20
99.15219500000001
 30
0.0
 11
1107.62833
 21
99.15219500000001
 31
0.0
  0
LINE
  5
33F5
330
448F
100
AcDbEntity
  8
V0-OBRYS
  6
CONTINUOUS
 62
    90
 48
2.0
100
AcDbLine
 10
1108.869138
 20
132.732774
 30
0.0
 11
1107.62833
 21
132.732774
 31
0.0
  0
LINE
  5
33F6
330
448F
100
AcDbEntity
  8
V0-OBRYS
  6
CONTINUOUS
 62
    90
 48
2.0
100
AcDbLine
 10
1106.468312
 20
121.219434
 30
0.0
 11
1107.62833
 21
121.219434
 31
0.0
  0
LINE
  5
33F7
330
448F
100
AcDbEntity
  8
V0-OBRYS
  6
CONTINUOUS
 62
    90
 48
2.0
100
AcDbLine
 10
1105.988145
 20
109.22637
 30
0.0
 11
1107.62833
 21
109.22637
 31
0.0
  0
LINE
  5
33F8
330
448F
100
AcDbEntity
  8
V0-OBRYS
  6
CONTINUOUS
 62
    90
 48
2.0
100
AcDbLine
 10
1105.988145
 20
132.732774
 30
0.0
 11
1108.869138
 21
132.732774
 31
0.0
  0
LINE
  5
33F9
330
448F
100
AcDbEntity
  8
V0-OBRYS
  6
CONTINUOUS
 62
    90
 48
2.0
100
AcDbLine
 10
1106.628106
 20
152.659211
 30
0.0
 11
1106.628106
 21
209.659667
 31
0.0
  0
LINE
  5
33FA
330
448F
100
AcDbEntity
  8
V0-OBRYS
  6
CONTINUOUS
 62
    90
 48
2.0
100
AcDbLine
 10
1108.869138
 20
172.585648
 30
0.0
 11
1107.62833
 21
172.585648
 31
0.0
  0
LINE
  5
33FB
330
448F
100
AcDbEntity
  8
V0-OBRYS
  6
CONTINUOUS
 62
    90
 48
2.0
100
AcDbLine
 10
1105.988145
 20
144.246116
 30
0.0
 11
1107.62833
 21
144.246116
 31
0.0
  0
LINE
  5
33FC
330
448F
100
AcDbEntity
  8
V0-OBRYS
  6
CONTINUOUS
 62
    90
 48
2.0
100
AcDbLine
 10
1105.988145
 20
161.072306
 30
0.0
 11
1107.62833
 21
161.072306
 31
0.0
  0
LINE
  5
33FD
330
448F
100
AcDbEntity
  8
V0-OBRYS
  6
CONTINUOUS
 62
    90
 48
2.0
100
AcDbLine
 10
1106.468312
 20
184.098988
 30
0.0
 11
1107.62833
 21
184.098988
 31
0.0
  0
LINE
  5
33FE
330
448F
100
AcDbEntity
  8
V0-OBRYS
  6
CONTINUOUS
 62
    90
 48
2.0
100
AcDbLine
 10
1105.988145
 20
172.585648
 30
0.0
 11
1108.869138
 21
172.585648
 31
0.0
  0
LINE
  5
33FF
330
448F
100
AcDbEntity
  8
V0-OBRYS
  6
CONTINUOUS
 62
    90
 48
2.0
100
AcDbLine
 10
1105.988145
 20
196.092053
 30
0.0
 11
1107.62833
 21
196.092053
 31
0.0
  0
LINE
  5
3400
330
448F
100
AcDbEntity
  8
V0-OBRYS
  6
CONTINUOUS
 62
    90
 48
2.0
100
AcDbLine
 10
1106.468312
 20
206.166228
 30
0.0
 11
1107.62833
 21
206.166228
 31
0.0
  0
LINE
  5
341A
330
448F
100
AcDbEntity
  8
V0-VYPLNE
  6
DASHED
 62
    52
100
AcDbLine
 10
1135.535993
 20
100.658795
 30
0.0
 11
1135.535993
 21
152.659211
 31
0.0
  0
LINE
  5
341C
330
448F
100
AcDbEntity
  8
V0-VYPLNE
  6
DASHED
 62
    52
100
AcDbLine
 10
1107.628385
 20
99.15219500000001
 30
0.0
 11
1135.535993
 21
99.15219500000001
 31
0.0
  0
LINE
  5
341D
330
448F
100
AcDbEntity
  8
V0-VYPLNE
  6
DASHED
 62
    52
100
AcDbLine
 10
1107.628385
 20
95.658755
 30
0.0
 11
1130.535953
 21
95.658755
 31
0.0
  0
LINE
  5
341E
330
448F
100
AcDbEntity
  8
V0-VYPLNE
  6
DASHED
 62
    52
100
AcDbLine
 10
1107.628385
 20
109.22637
 30
0.0
 11
1135.535993
 21
109.22637
 31
0.0
  0
LINE
  5
341F
330
448F
100
AcDbEntity
  8
V0-VYPLNE
  6
DASHED
 62
    52
100
AcDbLine
 10
1107.628385
 20
121.219434
 30
0.0
 11
1135.05583
 21
121.219434
 31
0.0
  0
LINE
  5
3420
330
448F
100
AcDbEntity
  8
V0-VYPLNE
  6
DASHED
 62
    52
100
AcDbLine
 10
1107.628385
 20
132.732774
 30
0.0
 11
1135.535993
 21
132.732774
 31
0.0
  0
ARC
  5
3421
330
448F
100
AcDbEntity
  8
V0-VYPLNE
  6
DASHED
 62
    52
 48
2.0
100
AcDbCircle
 10
1130.535953
 20
100.658795
 30
0.0
 40
5.00004
100
AcDbArc
 50
270.0
 51
0.0
  0
LINE
  5
3422
330
448F
100
AcDbEntity
  8
V0-VYPLNE
  6
DASHED
 62
    52
100
AcDbLine
 10
1107.628385
 20
161.072306
 30
0.0
 11
1135.05583
 21
161.072306
 31
0.0
  0
LINE
  5
3423
330
448F
100
AcDbEntity
  8
V0-VYPLNE
  6
DASHED
 62
    52
100
AcDbLine
 10
1107.628385
 20
172.585648
 30
0.0
 11
1135.535993
 21
172.585648
 31
0.0
  0
LINE
  5
3424
330
448F
100
AcDbEntity
  8
V0-VYPLNE
  6
DASHED
 62
    52
100
AcDbLine
 10
1107.628385
 20
184.098988
 30
0.0
 11
1135.05583
 21
184.098988
 31
0.0
  0
LINE
  5
3425
330
448F
100
AcDbEntity
  8
V0-VYPLNE
  6
DASHED
 62
    52
100
AcDbLine
 10
1107.628385
 20
196.092053
 30
0.0
 11
1135.535993
 21
196.092053
 31
0.0
  0
LINE
  5
3426
330
448F
100
AcDbEntity
  8
V0-VYPLNE
  6
DASHED
 62
    52
100
AcDbLine
 10
1107.628385
 20
206.166228
 30
0.0
 11
1135.535993
 21
206.166228
 31
0.0
  0
LINE
  5
3427
330
448F
100
AcDbEntity
  8
V0-VYPLNE
  6
DASHED
 62
    52
100
AcDbLine
 10
1107.628385
 20
209.659667
 30
0.0
 11
1130.535953
 21
209.659667
 31
0.0
  0
LINE
  5
3428
330
448F
100
AcDbEntity
  8
V0-VYPLNE
  6
DASHED
 62
    52
100
AcDbLine
 10
1107.628385
 20
144.246116
 30
0.0
 11
1135.05583
 21
144.246116
 31
0.0
  0
LINE
  5
3429
330
448F
100
AcDbEntity
  8
V0-VYPLNE
  6
DASHED
 62
    52
100
AcDbLine
 10
1135.535993
 20
204.659627
 30
0.0
 11
1135.535993
 21
152.659211
 31
0.0
  0
ARC
  5
342A
330
448F
100
AcDbEntity
  8
V0-VYPLNE
  6
DASHED
 62
    52
 48
2.0
100
AcDbCircle
 10
1130.535953
 20
204.659627
 30
0.0
 40
5.00004
100
AcDbArc
 50
0.0
 51
90.0
  0
LINE
  5
3442
330
448F
100
AcDbEntity
  8
V0-OBRYS
  6
CONTINUOUS
 62
    90
100
AcDbLine
 10
1119.668356
 20
402.809211
 30
0.0
 11
1119.668356
 21
-97.49078900000001
 31
0.0
  0
LINE
  5
3467
330
448F
100
AcDbEntity
  8
V0-OBRYS
  6
CONTINUOUS
 62
    90
100
AcDbLine
 10
1022.525734
 20
112.659115
 30
0.0
 11
1067.525734
 21
112.659115
 31
0.0
  0
LINE
  5
3468
330
448F
100
AcDbEntity
  8
V0-OBRYS
  6
CONTINUOUS
 62
    90
100
AcDbLine
 10
1022.525734
 20
192.659115
 30
0.0
 11
1067.525734
 21
192.659115
 31
0.0
  0
LINE
  5
3469
330
448F
100
AcDbEntity
  8
V0-OBRYS
  6
CONTINUOUS
 62
    90
100
AcDbLine
 10
1022.525734
 20
152.659115
 30
0.0
 11
1022.525734
 21
112.659115
 31
0.0
  0
LINE
  5
346A
330
448F
100
AcDbEntity
  8
V0-OBRYS
  6
CONTINUOUS
 62
    90
100
AcDbLine
 10
1037.525734
 20
152.659115
 30
0.0
 11
1037.525734
 21
112.659115
 31
0.0
  0
LINE
  5
346B
330
448F
100
AcDbEntity
  8
V0-OBRYS
  6
CONTINUOUS
 62
    90
100
AcDbLine
 10
1022.525734
 20
152.659115
 30
0.0
 11
1022.525734
 21
192.659115
 31
0.0
  0
LINE
  5
346C
330
448F
100
AcDbEntity
  8
V0-OBRYS
  6
CONTINUOUS
 62
    90
100
AcDbLine
 10
1037.525734
 20
152.659115
 30
0.0
 11
1037.525734
 21
192.659115
 31
0.0
  0
LINE
  5
346D
330
448F
100
AcDbEntity
  8
V0-OBRYS
  6
CONTINUOUS
 62
    90
100
AcDbLine
 10
1067.525734
 20
112.659115
 30
0.0
 11
1067.525734
 21
152.659115
 31
0.0
  0
LINE
  5
346E
330
448F
100
AcDbEntity
  8
V0-OBRYS
  6
CONTINUOUS
 62
    90
100
AcDbLine
 10
1067.525734
 20
192.659115
 30
0.0
 11
1067.525734
 21
152.659115
 31
0.0
  0
DIMENSION
  5
34A0
330
448F
100
AcDbEntity
  8
V0-OBRYS
  6
CONTINUOUS
 62
    90
100
AcDbDimension
  2
*D7
 10
1107.628356
 20
-152.3740739999921
 30
0.0
 11
990.586933
 21
-152.374074
 31
0.0
 70
   160
  3
ED30
100
AcDbAlignedDimension
 13
1119.668356
 23
-97.49078900000001
 33
0.0
 14
1107.628356
 24
-97.49078900000001
 34
0.0
100
AcDbRotatedDimension
  0
DIMENSION
  5
39FB
330
448F
100
AcDbEntity
  8
V0-OBRYS
  6
CONTINUOUS
 62
    90
100
AcDbDimension
  2
*D8
 10
1119.668356
 20
-152.2967000000029
 30
0.0
 11
1159.131971
 21
-152.2967
 31
0.0
 70
   160
  3
ED30
100
AcDbAlignedDimension
 13
1197.474631
 23
-47.340434
 33
0.0
 14
1119.668356
 24
-97.49078900000001
 34
0.0
100
AcDbRotatedDimension
  0
LINE
  5
3ABE
330
448F
100
AcDbEntity
  8
V0-OBRYS
  6
CONTINUOUS
 62
    90
 48
2.0
100
AcDbLine
 10
1119.668356
 20
-775.357809
 30
0.0
 11
1107.628356
 21
-775.357809
 31
0.0
  0
DIMENSION
  5
3BC0
330
448F
100
AcDbEntity
  8
V0-VYPLNE
  6
CONTINUOUS
 62
    41
100
AcDbDimension
  2
*D9
 10
2022.812019
 20
-230.385019999987
 30
0.0
 11
1775.034081
 21
-230.38502
 31
0.0
 70
   160
  3
ED30
100
AcDbAlignedDimension
 13
1523.160939
 23
-91.770529
 33
0.0
 14
2022.812019
 24
-91.770529
 34
0.0
100
AcDbRotatedDimension
  0
DIMENSION
  5
3BC1
330
448F
100
AcDbEntity
  8
V0-OBRYS
  6
CONTINUOUS
 62
    90
100
AcDbDimension
  2
*D10
 10
1982.98639
 20
-162.3726139999926
 30
0.0
 11
1772.513044
 21
-162.372614
 31
0.0
 70
   160
  3
ED30
100
AcDbAlignedDimension
 13
1562.98653
 23
-82.3407
 33
0.0
 14
1982.98639
 24
-82.340737
 34
0.0
100
AcDbRotatedDimension
  0
LINE
  5
3BC3
330
448F
100
AcDbEntity
  8
V0-OBRYS
  6
CONTINUOUS
100
AcDbLine
 10
2022.812019
 20
386.614751
 30
0.0
 11
2022.812019
 21
-81.29632900000001
 31
0.0
  0
LINE
  5
3BC4
330
448F
100
AcDbEntity
  8
V0-OBRYS
  6
CONTINUOUS
100
AcDbLine
 10
1523.160939
 20
-81.296329
 30
0.0
 11
1523.160939
 21
386.614751
 31
0.0
  0
LINE
  5
3BC5
330
448F
100
AcDbEntity
  8
V0-OBRYS
  6
CONTINUOUS
100
AcDbLine
 10
2006.942019
 20
-97.16632900000001
 30
0.0
 11
1539.030939
 21
-97.16632900000001
 31
0.0
  0
ARC
  5
3BC6
330
448F
100
AcDbEntity
  8
V0-OBRYS
  6
CONTINUOUS
100
AcDbCircle
 10
1539.030939
 20
-81.296329
 30
0.0
 40
15.87
100
AcDbArc
 50
180.0
 51
270.0
  0
LINE
  5
3BC7
330
448F
100
AcDbEntity
  8
V0-VYPLNE
  6
DASHDOT
 62
    63
100
AcDbLine
 10
1562.98653
 20
-82.3407
 30
0.0
 11
1562.98653
 21
-29.728022
 31
0.0
  0
CIRCLE
  5
3BC8
330
448F
100
AcDbEntity
  8
V0-OBRYS
  6
CONTINUOUS
 62
    90
100
AcDbCircle
 10
1562.98653
 20
-57.3407
 30
0.0
 40
6.25
  0
LINE
  5
3BC9
330
448F
100
AcDbEntity
  8
V0-VYPLNE
  6
DASHDOT
 62
    63
100
AcDbLine
 10
1537.98653
 20
-57.3407
 30
0.0
 11
1591.119058
 21
-57.3407
 31
0.0
  0
LINE
  5
3BCA
330
448F
100
AcDbEntity
  8
V0-VYPLNE
  6
DASHDOT
 62
    63
100
AcDbLine
 10
1982.98639
 20
-82.340737
 30
0.0
 11
1982.98639
 21
-29.208209
 31
0.0
  0
LINE
  5
3BCB
330
448F
100
AcDbEntity
  8
V0-VYPLNE
  6
DASHDOT
 62
    63
100
AcDbLine
 10
2007.98639
 20
-57.340737
 30
0.0
 11
1955.373712
 21
-57.340737
 31
0.0
  0
CIRCLE
  5
3BCC
330
448F
100
AcDbEntity
  8
V0-OBRYS
  6
CONTINUOUS
 62
    90
100
AcDbCircle
 10
1982.98639
 20
-57.340737
 30
0.0
 40
6.25
  0
ARC
  5
3BCD
330
448F
100
AcDbEntity
  8
V0-OBRYS
  6
CONTINUOUS
100
AcDbCircle
 10
2006.942019
 20
-81.296329
 30
0.0
 40
15.87
100
AcDbArc
 50
270.0
 51
0.0
  0
LINE
  5
3BCF
330
448F
100
AcDbEntity
  8
V0-OBRYS
  6
CONTINUOUS
100
AcDbLine
 10
1539.030939
 20
402.484751
 30
0.0
 11
2006.942019
 21
402.484751
 31
0.0
  0
LINE
  5
3BD0
330
448F
100
AcDbEntity
  8
V0-VYPLNE
  6
DASHDOT
 62
    63
100
AcDbLine
 10
1537.986568
 20
362.65916
 30
0.0
 11
1590.599246
 21
362.65916
 31
0.0
  0
CIRCLE
  5
3BD1
330
448F
100
AcDbEntity
  8
V0-OBRYS
  6
CONTINUOUS
 62
    90
100
AcDbCircle
 10
1562.986568
 20
362.65916
 30
0.0
 40
6.25
  0
LINE
  5
3BD2
330
448F
100
AcDbEntity
  8
V0-VYPLNE
  6
DASHDOT
 62
    63
100
AcDbLine
 10
1562.986568
 20
387.65916
 30
0.0
 11
1562.986568
 21
334.526632
 31
0.0
  0
ARC
  5
3BD3
330
448F
100
AcDbEntity
  8
V0-OBRYS
  6
CONTINUOUS
100
AcDbCircle
 10
1539.030939
 20
386.614751
 30
0.0
 40
15.87
100
AcDbArc
 50
90.0
 51
180.0
  0
LINE
  5
3BD4
330
448F
100
AcDbEntity
  8
V0-VYPLNE
  6
DASHDOT
 62
    63
100
AcDbLine
 10
2007.986428
 20
362.659122
 30
0.0
 11
1954.8539
 21
362.659122
 31
0.0
  0
LINE
  5
3BD5
330
448F
100
AcDbEntity
  8
V0-VYPLNE
  6
DASHDOT
 62
    63
100
AcDbLine
 10
1982.986428
 20
387.659122
 30
0.0
 11
1982.986428
 21
335.046445
 31
0.0
  0
CIRCLE
  5
3BD6
330
448F
100
AcDbEntity
  8
V0-OBRYS
  6
CONTINUOUS
 62
    90
100
AcDbCircle
 10
1982.986428
 20
362.659122
 30
0.0
 40
6.25
  0
ARC
  5
3BD7
330
448F
100
AcDbEntity
  8
V0-OBRYS
  6
CONTINUOUS
100
AcDbCircle
 10
2006.942019
 20
386.614751
 30
0.0
 40
15.87
100
AcDbArc
 50
0.0
 51
90.0
  0
CIRCLE
  5
3CED
330
448F
100
AcDbEntity
  8
V0-OBRYS
  6
CONTINUOUS
 62
    90
100
AcDbCircle
 10
1772.986479
 20
152.659211
 30
0.0
 40
192.567419
  0
CIRCLE
  5
3CEE
330
448F
100
AcDbEntity
  8
V0-OBRYS
  6
CONTINUOUS
 62
    90
100
AcDbCircle
 10
1772.986479
 20
152.659211
 30
0.0
 40
218.87559
  0
LINE
  5
3CEF
330
448F
100
AcDbEntity
  8
V0-OBRYS
  6
CONTINUOUS
 62
    90
100
AcDbLine
 10
1678.168455
 20
145.448219
 30
0.0
 11
1722.234371
 21
148.79947
 31
0.0
  0
LINE
  5
3CF0
330
448F
100
AcDbEntity
  8
V0-OBRYS
  6
CONTINUOUS
 62
    90
100
AcDbLine
 10
1678.168455
 20
159.870203
 30
0.0
 11
1722.234371
 21
156.518953
 31
0.0
  0
LINE
  5
3CF1
330
448F
100
AcDbEntity
  8
V0-OBRYS
  6
CONTINUOUS
 62
    90
100
AcDbLine
 10
1723.51466
 20
164.626383
 30
0.0
 11
1679.915725
 21
175.172912
 31
0.0
  0
LINE
  5
3CF2
330
448F
100
AcDbEntity
  8
V0-OBRYS
  6
CONTINUOUS
 62
    90
100
AcDbLine
 10
1684.720712
 20
188.726743
 30
0.0
 11
1725.869673
 21
171.91228
 31
0.0
  0
LINE
  5
3CF3
330
448F
100
AcDbEntity
  8
V0-OBRYS
  6
CONTINUOUS
 62
    90
100
AcDbLine
 10
1708.704879
 20
191.078729
 30
0.0
 11
1689.962518
 21
202.280573
 31
0.0
  0
LINE
  5
3CF4
330
448F
100
AcDbEntity
  8
V0-OBRYS
  6
CONTINUOUS
 62
    90
100
AcDbLine
 10
1705.853835
 20
100.405612
 30
0.0
 11
1709.532904
 21
110.086487
 31
0.0
  0
LINE
  5
3CF5
330
448F
100
AcDbEntity
  8
V0-OBRYS
  6
CONTINUOUS
 62
    90
100
AcDbLine
 10
1698.845431
 20
78.486711
 30
0.0
 11
1707.104567
 21
98.837243
 31
0.0
  0
LINE
  5
3CF6
330
448F
100
AcDbEntity
  8
V0-OBRYS
  6
CONTINUOUS
 62
    90
100
AcDbLine
 10
1708.704879
 20
114.239694
 30
0.0
 11
1689.962518
 21
103.03785
 31
0.0
  0
LINE
  5
3CF7
330
448F
100
AcDbEntity
  8
V0-OBRYS
  6
CONTINUOUS
 62
    90
100
AcDbLine
 10
1684.720712
 20
116.59168
 30
0.0
 11
1725.869673
 21
133.406143
 31
0.0
  0
LINE
  5
3CF8
330
448F
100
AcDbEntity
  8
V0-OBRYS
  6
CONTINUOUS
 62
    90
100
AcDbLine
 10
1723.51466
 20
140.692039
 30
0.0
 11
1679.915725
 21
130.14551
 31
0.0
  0
ARC
  5
3CF9
330
448F
100
AcDbEntity
  8
V0-OBRYS
  6
CONTINUOUS
 62
    90
100
AcDbCircle
 10
1772.986479
 20
152.659211
 30
0.0
 40
75.217489
100
AcDbArc
 50
148.716649
 51
211.283351
  0
ARC
  5
3CFA
330
448F
100
AcDbEntity
  8
V0-OBRYS
  6
CONTINUOUS
 62
    90
100
AcDbCircle
 10
1772.986479
 20
152.659211
 30
0.0
 40
200.0
100
AcDbArc
 50
236.13779
 51
252.433638
  0
LINE
  5
3CFB
330
448F
100
AcDbEntity
  8
VO-OBRYS
  6
CONTINUOUS
100
AcDbLine
 10
1726.891379
 20
131.074129
 30
0.0
 11
1594.623478
 21
-1.193770999999998
 31
0.0
  0
LINE
  5
3CFC
330
448F
100
AcDbEntity
  8
VO-OBRYS
  6
CONTINUOUS
100
AcDbLine
 10
1751.401397
 20
106.564111
 30
0.0
 11
1619.133496
 21
-25.703789
 31
0.0
  0
LINE
  5
3CFD
330
448F
100
AcDbEntity
  8
VO-OBRYS
  6
CONTINUOUS
100
AcDbLine
 10
1728.069469
 20
128.718947
 30
0.0
 11
1596.390115
 21
-2.960407000000004
 31
0.0
  0
LINE
  5
3CFF
330
448F
100
AcDbEntity
  8
VO-OBRYS
  6
CONTINUOUS
100
AcDbLine
 10
1726.891379
 20
174.244293
 30
0.0
 11
1594.623478
 21
306.512194
 31
0.0
  0
LINE
  5
3D00
330
448F
100
AcDbEntity
  8
VO-OBRYS
  6
CONTINUOUS
100
AcDbLine
 10
1751.401397
 20
198.754312
 30
0.0
 11
1619.133496
 21
331.022212
 31
0.0
  0
LINE
  5
3D02
330
448F
100
AcDbEntity
  8
VO-OBRYS
  6
CONTINUOUS
100
AcDbLine
 10
1749.046215
 20
197.576221
 30
0.0
 11
1617.36686
 21
329.255576
 31
0.0
  0
LINE
  5
3D03
330
448F
100
AcDbEntity
  8
V0-OBRYS
  6
CONTINUOUS
 62
    90
100
AcDbLine
 10
1692.488084
 20
258.695632
 30
0.0
 11
1714.953076
 21
242.996652
 31
0.0
  0
CIRCLE
  5
3D04
330
448F
100
AcDbEntity
  8
V0-OBRYS
  6
CONTINUOUS
 62
    90
100
AcDbCircle
 10
1772.986479
 20
152.659211
 30
0.0
 40
107.371919
  0
CIRCLE
  5
3D05
330
448F
100
AcDbEntity
  8
V0-OBRYS
  6
CONTINUOUS
 62
    90
100
AcDbCircle
 10
1772.986479
 20
152.659211
 30
0.0
 40
135.628841
  0
CIRCLE
  5
3D06
330
448F
100
AcDbEntity
  8
V0-OBRYS
  6
CONTINUOUS
 62
    90
100
AcDbCircle
 10
1772.986479
 20
152.659211
 30
0.0
 40
164.860141
  0
CIRCLE
  5
3D07
330
448F
100
AcDbEntity
  8
V0-OBRYS
  6
CONTINUOUS
 62
    90
100
AcDbCircle
 10
1772.986479
 20
152.659211
 30
0.0
 40
162.36174
  0
CIRCLE
  5
3D08
330
448F
100
AcDbEntity
  8
V0-OBRYS
  6
CONTINUOUS
 62
    90
100
AcDbCircle
 10
1772.986479
 20
152.659211
 30
0.0
 40
133.13044
  0
CIRCLE
  5
3D09
330
448F
100
AcDbEntity
  8
V0-OBRYS
  6
CONTINUOUS
 62
    90
100
AcDbCircle
 10
1772.986479
 20
152.659211
 30
0.0
 40
104.873519
  0
LINE
  5
3D0A
330
448F
100
AcDbEntity
  8
V0-OBRYS
  6
CONTINUOUS
 62
    90
100
AcDbLine
 10
1600.525278
 20
253.936722
 30
0.0
 11
1604.261359
 21
250.549497
 31
0.0
  0
LINE
  5
3D0B
330
448F
100
AcDbEntity
  8
V0-OBRYS
  6
CONTINUOUS
 62
    90
100
AcDbLine
 10
1676.078698
 20
22.389427
 30
0.0
 11
1686.535089
 21
48.153998
 31
0.0
  0
ARC
  5
3D0C
330
448F
100
AcDbEntity
  8
VO-OBRYS
  6
CONTINUOUS
100
AcDbCircle
 10
1606.878487
 20
-13.44878
 30
0.0
 40
17.3312
100
AcDbArc
 50
135.0
 51
315.0
  0
ARC
  5
3D0D
330
448F
100
AcDbEntity
  8
VO-OBRYS
  6
CONTINUOUS
100
AcDbCircle
 10
1606.878487
 20
-13.44878
 30
0.0
 40
14.832799
100
AcDbArc
 50
135.0
 51
315.0
  0
LINE
  5
3D0E
330
448F
100
AcDbEntity
  8
V0-OBRYS
  6
CONTINUOUS
 62
    90
100
AcDbLine
 10
1664.404478
 20
-6.37588
 30
0.0
 11
1675.108503
 21
19.998863
 31
0.0
  0
LINE
  5
3D0F
330
448F
100
AcDbEntity
  8
V0-OBRYS
  6
CONTINUOUS
 62
    90
100
AcDbLine
 10
1661.546971
 20
-13.416784
 30
0.0
 11
1663.443402
 21
-8.743975000000001
 31
0.0
  0
LINE
  5
3D10
330
448F
100
AcDbEntity
  8
V0-OBRYS
  6
CONTINUOUS
 62
    90
100
AcDbLine
 10
1580.948068
 20
138.395281
 30
0.0
 11
1608.242522
 21
146.47092
 31
0.0
  0
ARC
  5
3D11
330
448F
100
AcDbEntity
  8
V0-OBRYS
  6
CONTINUOUS
 62
    90
100
AcDbCircle
 10
1772.986479
 20
152.659211
 30
0.0
 40
200.0
100
AcDbArc
 50
184.709219
 51
201.005067
  0
LINE
  5
3D12
330
448F
100
AcDbEntity
  8
V0-OBRYS
  6
CONTINUOUS
 62
    90
100
AcDbLine
 10
1586.276733
 20
80.96911
 30
0.0
 11
1591.25438
 21
81.778195
 31
0.0
  0
LINE
  5
3D13
330
448F
100
AcDbEntity
  8
V0-OBRYS
  6
CONTINUOUS
 62
    90
100
AcDbLine
 10
1573.661641
 20
136.239438
 30
0.0
 11
1578.497395
 21
137.670197
 31
0.0
  0
LINE
  5
3D14
330
448F
100
AcDbEntity
  8
V0-OBRYS
  6
CONTINUOUS
 62
    90
100
AcDbLine
 10
1624.41882
 20
87.168865
 30
0.0
 11
1651.864185
 21
91.629936
 31
0.0
  0
LINE
  5
3D15
330
448F
100
AcDbEntity
  8
V0-OBRYS
  6
CONTINUOUS
 62
    90
100
AcDbLine
 10
1593.776962
 20
82.188225
 30
0.0
 11
1621.872304
 21
86.75494500000001
 31
0.0
  0
LINE
  5
3D16
330
448F
100
AcDbEntity
  8
V0-OBRYS
  6
CONTINUOUS
 62
    90
100
AcDbLine
 10
1687.521191
 20
50.583756
 30
0.0
 11
1697.827633
 21
75.978855
 31
0.0
  0
LINE
  5
3D17
330
448F
100
AcDbEntity
  8
V0-OBRYS
  6
CONTINUOUS
 62
    90
100
AcDbLine
 10
1654.452453
 20
92.050642
 30
0.0
 11
1681.504243
 21
96.44774
 31
0.0
  0
LINE
  5
3D18
330
448F
100
AcDbEntity
  8
V0-OBRYS
  6
CONTINUOUS
 62
    90
100
AcDbLine
 10
1684.175702
 20
96.881968
 30
0.0
 11
1705.853835
 21
100.405612
 31
0.0
  0
LINE
  5
3D19
330
448F
100
AcDbEntity
  8
V0-OBRYS
  6
CONTINUOUS
 62
    90
100
AcDbLine
 10
1639.893939
 20
155.835659
 30
0.0
 11
1666.174589
 21
163.611343
 31
0.0
  0
LINE
  5
3D1A
330
448F
100
AcDbEntity
  8
V0-OBRYS
  6
CONTINUOUS
 62
    90
100
AcDbLine
 10
1629.153644
 20
227.981522
 30
0.0
 11
1649.753355
 21
209.305303
 31
0.0
  0
LINE
  5
3D1B
330
448F
100
AcDbEntity
  8
V0-OBRYS
  6
CONTINUOUS
 62
    90
100
AcDbLine
 10
1610.716447
 20
147.202883
 30
0.0
 11
1637.379453
 21
155.091695
 31
0.0
  0
LINE
  5
3D1C
330
448F
100
AcDbEntity
  8
V0-OBRYS
  6
CONTINUOUS
 62
    90
100
AcDbLine
 10
1606.154737
 20
248.832913
 30
0.0
 11
1627.242302
 21
229.714393
 31
0.0
  0
LINE
  5
3D1D
330
448F
100
AcDbEntity
  8
V0-OBRYS
  6
CONTINUOUS
 62
    90
100
AcDbLine
 10
1651.696035
 20
207.54402
 30
0.0
 11
1672.000339
 21
189.135624
 31
0.0
  0
LINE
  5
3D1E
330
448F
100
AcDbEntity
  8
V0-OBRYS
  6
CONTINUOUS
 62
    90
100
AcDbLine
 10
1674.005461
 20
187.31773
 30
0.0
 11
1690.276451
 21
172.566039
 31
0.0
  0
LINE
  5
3D1F
330
448F
100
AcDbEntity
  8
V0-OBRYS
  6
CONTINUOUS
 62
    90
100
AcDbLine
 10
1668.769895
 20
164.379219
 30
0.0
 11
1689.830069
 21
170.610315
 31
0.0
  0
LINE
  5
3D20
330
448F
100
AcDbEntity
  8
V0-OBRYS
  6
CONTINUOUS
 62
    90
100
AcDbLine
 10
1689.830069
 20
170.610315
 30
0.0
 11
1697.34517
 21
163.484436
 31
0.0
  0
LINE
  5
3D21
330
448F
100
AcDbEntity
  8
V0-OBRYS
  6
CONTINUOUS
 62
    90
100
AcDbLine
 10
1690.276451
 20
172.566039
 30
0.0
 11
1700.139126
 21
175.725554
 31
0.0
  0
ARC
  5
3D22
330
448F
100
AcDbEntity
  8
VO-OBRYS
  6
CONTINUOUS
100
AcDbCircle
 10
1606.878487
 20
318.767203
 30
0.0
 40
17.3312
100
AcDbArc
 50
45.0
 51
225.0
  0
ARC
  5
3D23
330
448F
100
AcDbEntity
  8
VO-OBRYS
  6
CONTINUOUS
100
AcDbCircle
 10
1606.878487
 20
318.767203
 30
0.0
 40
14.832799
100
AcDbArc
 50
45.0
 51
225.0
  0
LINE
  5
3D24
330
448F
100
AcDbEntity
  8
V0-OBRYS
  6
CONTINUOUS
 62
    90
100
AcDbLine
 10
1642.100498
 20
293.907472
 30
0.0
 11
1665.432101
 21
277.602887
 31
0.0
  0
ARC
  5
3D25
330
448F
100
AcDbEntity
  8
V0-OBRYS
  6
CONTINUOUS
 62
    90
100
AcDbCircle
 10
1772.986479
 20
152.659211
 30
0.0
 40
200.0
100
AcDbArc
 50
133.280648
 51
149.576495
  0
LINE
  5
3D26
330
448F
100
AcDbEntity
  8
V0-OBRYS
  6
CONTINUOUS
 62
    90
100
AcDbLine
 10
1635.871979
 20
298.260083
 30
0.0
 11
1640.005636
 21
295.371403
 31
0.0
  0
LINE
  5
3D27
330
448F
100
AcDbEntity
  8
V0-OBRYS
  6
CONTINUOUS
 62
    90
100
AcDbLine
 10
1667.54684
 20
276.125066
 30
0.0
 11
1690.338674
 21
260.197682
 31
0.0
  0
LINE
  5
3D28
330
448F
100
AcDbEntity
  8
V0-OBRYS
  6
CONTINUOUS
 62
    90
100
AcDbLine
 10
1945.44768
 20
253.936722
 30
0.0
 11
1941.711599
 21
250.549497
 31
0.0
  0
LINE
  5
3D29
330
448F
100
AcDbEntity
  8
V0-OBRYS
  6
CONTINUOUS
 62
    90
100
AcDbLine
 10
1853.484874
 20
258.695632
 30
0.0
 11
1831.019882
 21
242.996652
 31
0.0
  0
LINE
  5
3D2A
330
448F
100
AcDbEntity
  8
VO-OBRYS
  6
CONTINUOUS
100
AcDbLine
 10
1837.268079
 20
192.430793
 30
0.0
 11
1951.34948
 21
306.512194
 31
0.0
  0
LINE
  5
3D2B
330
448F
100
AcDbEntity
  8
VO-OBRYS
  6
CONTINUOUS
100
AcDbLine
 10
1794.571561
 20
198.754312
 30
0.0
 11
1926.839461
 21
331.022212
 31
0.0
  0
LINE
  5
3D2C
330
448F
100
AcDbEntity
  8
VO-OBRYS
  6
CONTINUOUS
100
AcDbLine
 10
1796.926743
 20
197.576221
 30
0.0
 11
1928.606098
 21
329.255576
 31
0.0
  0
LINE
  5
3D2E
330
448F
100
AcDbEntity
  8
V0-OBRYS
  6
CONTINUOUS
 62
    90
100
AcDbLine
 10
1939.818221
 20
248.832913
 30
0.0
 11
1918.730656
 21
229.714393
 31
0.0
  0
LINE
  5
3D2F
330
448F
100
AcDbEntity
  8
V0-OBRYS
  6
CONTINUOUS
 62
    90
100
AcDbLine
 10
1952.195996
 20
82.188225
 30
0.0
 11
1924.100654
 21
86.75494500000001
 31
0.0
  0
ARC
  5
3D30
330
448F
100
AcDbEntity
  8
VO-OBRYS
  6
CONTINUOUS
100
AcDbCircle
 10
1939.094471
 20
-13.44878
 30
0.0
 40
14.832799
100
AcDbArc
 50
225.0
 51
45.0
  0
ARC
  5
3D31
330
448F
100
AcDbEntity
  8
VO-OBRYS
  6
CONTINUOUS
100
AcDbCircle
 10
1939.094471
 20
-13.44878
 30
0.0
 40
17.3312
100
AcDbArc
 50
225.0
 51
45.0
  0
LINE
  5
3D32
330
448F
100
AcDbEntity
  8
VO-OBRYS
  6
CONTINUOUS
100
AcDbLine
 10
1819.081579
 20
131.074129
 30
0.0
 11
1951.34948
 21
-1.193770999999998
 31
0.0
  0
LINE
  5
3D33
330
448F
100
AcDbEntity
  8
VO-OBRYS
  6
CONTINUOUS
100
AcDbLine
 10
1817.903489
 20
128.718947
 30
0.0
 11
1949.582843
 21
-2.960407000000004
 31
0.0
  0
LINE
  5
3D34
330
448F
100
AcDbEntity
  8
V0-OBRYS
  6
CONTINUOUS
 62
    90
100
AcDbLine
 10
1746.46741
 20
22.196753
 30
0.0
 11
1759.896136
 21
46.08824
 31
0.0
  0
LINE
  5
3D35
330
448F
100
AcDbEntity
  8
V0-OBRYS
  6
CONTINUOUS
 62
    90
100
AcDbLine
 10
1799.505548
 20
22.196753
 30
0.0
 11
1786.076822
 21
46.08824
 31
0.0
  0
LINE
  5
3D36
330
448F
100
AcDbEntity
  8
VO-OBRYS
  6
CONTINUOUS
100
AcDbLine
 10
1794.571561
 20
106.564111
 30
0.0
 11
1926.839461
 21
-25.703789
 31
0.0
  0
LINE
  5
3D37
330
448F
100
AcDbEntity
  8
VO-OBRYS
  6
CONTINUOUS
100
AcDbLine
 10
1796.926743
 20
107.742201
 30
0.0
 11
1928.606098
 21
-23.937153
 31
0.0
  0
LINE
  5
3D38
330
448F
100
AcDbEntity
  8
V0-OBRYS
  6
CONTINUOUS
 62
    90
100
AcDbLine
 10
1869.89426
 20
22.389427
 30
0.0
 11
1859.437869
 21
48.153998
 31
0.0
  0
LINE
  5
3D39
330
448F
100
AcDbEntity
  8
V0-OBRYS
  6
CONTINUOUS
 62
    90
100
AcDbLine
 10
1829.62535
 20
-31.390373
 30
0.0
 11
1815.678596
 21
-6.577245999999999
 31
0.0
  0
LINE
  5
3D3A
330
448F
100
AcDbEntity
  8
V0-OBRYS
  6
CONTINUOUS
 62
    90
100
AcDbLine
 10
1716.347608
 20
-31.390373
 30
0.0
 11
1730.294362
 21
-6.577245999999999
 31
0.0
  0
LINE
  5
3D3B
330
448F
100
AcDbEntity
  8
V0-OBRYS
  6
CONTINUOUS
 62
    90
100
AcDbLine
 10
1712.624434
 20
-38.014393
 30
0.0
 11
1715.095378
 21
-33.618256
 31
0.0
  0
LINE
  5
3D3C
330
448F
100
AcDbEntity
  8
V0-OBRYS
  6
CONTINUOUS
 62
    90
100
AcDbLine
 10
1731.558473
 20
-4.328225
 30
0.0
 11
1745.182573
 21
19.910858
 31
0.0
  0
LINE
  5
3D3D
330
448F
100
AcDbEntity
  8
V0-OBRYS
  6
CONTINUOUS
 62
    90
100
AcDbLine
 10
1814.414485
 20
-4.328225
 30
0.0
 11
1800.790385
 21
19.910858
 31
0.0
  0
LINE
  5
3D3E
330
448F
100
AcDbEntity
  8
V0-OBRYS
  6
CONTINUOUS
 62
    90
100
AcDbLine
 10
1881.56848
 20
-6.37588
 30
0.0
 11
1870.864455
 21
19.998863
 31
0.0
  0
ARC
  5
3D3F
330
448F
100
AcDbEntity
  8
V0-OBRYS
  6
CONTINUOUS
 62
    90
100
AcDbCircle
 10
1772.986479
 20
152.659211
 30
0.0
 40
200.0
100
AcDbArc
 50
287.566362
 51
303.86221
  0
LINE
  5
3D40
330
448F
100
AcDbEntity
  8
V0-OBRYS
  6
CONTINUOUS
 62
    90
100
AcDbLine
 10
1833.348524
 20
-38.014393
 30
0.0
 11
1830.87758
 21
-33.618256
 31
0.0
  0
LINE
  5
3D41
330
448F
100
AcDbEntity
  8
V0-OBRYS
  6
CONTINUOUS
 62
    90
100
AcDbLine
 10
1884.425987
 20
-13.416784
 30
0.0
 11
1882.529556
 21
-8.743975000000001
 31
0.0
  0
LINE
  5
3D42
330
448F
100
AcDbEntity
  8
V0-OBRYS
  6
CONTINUOUS
 62
    90
100
AcDbLine
 10
1828.801385
 20
241.446323
 30
0.0
 11
1810.798914
 21
228.865841
 31
0.0
  0
LINE
  5
3D43
330
448F
100
AcDbEntity
  8
V0-OBRYS
  6
CONTINUOUS
 62
    90
100
AcDbLine
 10
1811.405996
 20
216.940811
 30
0.0
 11
1822.607841
 21
235.683173
 31
0.0
  0
LINE
  5
3D46
330
448F
100
AcDbEntity
  8
V0-OBRYS
  6
CONTINUOUS
 62
    90
100
AcDbLine
 10
1811.405996
 20
88.377611
 30
0.0
 11
1822.607841
 21
69.63525
 31
0.0
  0
LINE
  5
3D4B
330
448F
100
AcDbEntity
  8
V0-OBRYS
  6
CONTINUOUS
 62
    90
100
AcDbLine
 10
1761.22227
 20
48.447608
 30
0.0
 11
1771.983469
 21
67.59321
 31
0.0
  0
ARC
  5
3D4C
330
448F
100
AcDbEntity
  8
V0-OBRYS
  6
CONTINUOUS
 62
    90
100
AcDbCircle
 10
1772.986479
 20
152.659211
 30
0.0
 40
75.217489
100
AcDbArc
 50
238.716649
 51
301.283351
  0
LINE
  5
3D4D
330
448F
100
AcDbEntity
  8
V0-OBRYS
  6
CONTINUOUS
 62
    90
100
AcDbLine
 10
1761.019307
 20
103.187393
 30
0.0
 11
1750.472778
 21
59.588457
 31
0.0
  0
LINE
  5
3D4E
330
448F
100
AcDbEntity
  8
V0-OBRYS
  6
CONTINUOUS
 62
    90
100
AcDbLine
 10
1736.918948
 20
64.393444
 30
0.0
 11
1753.73341
 21
105.542406
 31
0.0
  0
LINE
  5
3D4F
330
448F
100
AcDbEntity
  8
V0-OBRYS
  6
CONTINUOUS
 62
    90
100
AcDbLine
 10
1746.874055
 20
108.96922
 30
0.0
 11
1723.365117
 21
69.63525
 31
0.0
  0
LINE
  5
3D53
330
448F
100
AcDbEntity
  8
V0-OBRYS
  6
CONTINUOUS
 62
    90
100
AcDbLine
 10
1784.953651
 20
103.187393
 30
0.0
 11
1795.50018
 21
59.588457
 31
0.0
  0
LINE
  5
3D54
330
448F
100
AcDbEntity
  8
V0-OBRYS
  6
CONTINUOUS
 62
    90
100
AcDbLine
 10
1780.197471
 20
57.841187
 30
0.0
 11
1776.84622
 21
101.907104
 31
0.0
  0
LINE
  5
3D55
330
448F
100
AcDbEntity
  8
V0-OBRYS
  6
CONTINUOUS
 62
    90
100
AcDbLine
 10
1765.775487
 20
57.841187
 30
0.0
 11
1769.126738
 21
101.907104
 31
0.0
  0
LINE
  5
3D56
330
448F
100
AcDbEntity
  8
V0-OBRYS
  6
CONTINUOUS
 62
    90
100
AcDbLine
 10
1809.05401
 20
64.393444
 30
0.0
 11
1792.239548
 21
105.542406
 31
0.0
  0
LINE
  5
3D57
330
448F
100
AcDbEntity
  8
V0-OBRYS
  6
CONTINUOUS
 62
    90
100
AcDbLine
 10
1784.750688
 20
48.447608
 30
0.0
 11
1773.989489
 21
67.59321
 31
0.0
  0
LINE
  5
3D58
330
448F
100
AcDbEntity
  8
V0-OBRYS
  6
CONTINUOUS
 62
    90
100
AcDbLine
 10
1773.989489
 20
67.59321
 30
0.0
 11
1779.26444
 21
76.505549
 31
0.0
  0
LINE
  5
3D59
330
448F
100
AcDbEntity
  8
V0-OBRYS
  6
CONTINUOUS
 62
    90
100
AcDbLine
 10
1771.983469
 20
67.59321
 30
0.0
 11
1766.708518
 21
76.505549
 31
0.0
  0
ARC
  5
3D5A
330
448F
100
AcDbEntity
  8
V0-OBRYS
  6
CONTINUOUS
 62
    90
100
AcDbCircle
 10
1772.986479
 20
152.659211
 30
0.0
 40
75.217489
100
AcDbArc
 50
58.71664899999999
 51
121.283351
  0
LINE
  5
3D5C
330
448F
100
AcDbEntity
  8
V0-OBRYS
  6
CONTINUOUS
 62
    90
100
AcDbLine
 10
1734.566962
 20
216.940811
 30
0.0
 11
1723.365117
 21
235.683173
 31
0.0
  0
LINE
  5
3D5D
330
448F
100
AcDbEntity
  8
V0-OBRYS
  6
CONTINUOUS
 62
    90
100
AcDbLine
 10
1734.566962
 20
216.940811
 30
0.0
 11
1723.365117
 21
235.683173
 31
0.0
  0
LINE
  5
3D5E
330
448F
100
AcDbEntity
  8
V0-OBRYS
  6
CONTINUOUS
 62
    90
100
AcDbLine
 10
1735.174044
 20
228.865841
 30
0.0
 11
1734.288396
 21
218.547385
 31
0.0
  0
LINE
  5
3D60
330
448F
100
AcDbEntity
  8
V0-OBRYS
  6
CONTINUOUS
 62
    90
100
AcDbLine
 10
1717.171573
 20
241.446323
 30
0.0
 11
1735.174044
 21
228.865841
 31
0.0
  0
LINE
  5
3D61
330
448F
100
AcDbEntity
  8
V0-OBRYS
  6
CONTINUOUS
 62
    90
100
AcDbLine
 10
1757.436839
 20
216.940811
 30
0.0
 11
1750.472778
 21
245.729965
 31
0.0
  0
LINE
  5
3D62
330
448F
100
AcDbEntity
  8
V0-OBRYS
  6
CONTINUOUS
 62
    90
100
AcDbLine
 10
1761.019307
 20
202.13103
 30
0.0
 11
1750.472778
 21
245.729965
 31
0.0
  0
LINE
  5
3D63
330
448F
100
AcDbEntity
  8
V0-OBRYS
  6
CONTINUOUS
 62
    90
100
AcDbLine
 10
1736.918948
 20
240.924979
 30
0.0
 11
1746.71946
 21
216.940811
 31
0.0
  0
LINE
  5
3D64
330
448F
100
AcDbEntity
  8
V0-OBRYS
  6
CONTINUOUS
 62
    90
100
AcDbLine
 10
1736.918948
 20
240.924979
 30
0.0
 11
1753.73341
 21
199.776017
 31
0.0
  0
LINE
  5
3D65
330
448F
100
AcDbEntity
  8
V0-OBRYS
  6
CONTINUOUS
 62
    90
100
AcDbLine
 10
1736.981405
 20
229.73622
 30
0.0
 11
1745.60089
 21
223.995195
 31
0.0
  0
LINE
  5
3D66
330
448F
100
AcDbEntity
  8
V0-OBRYS
  6
CONTINUOUS
 62
    90
100
AcDbLine
 10
1738.369945
 20
251.654921
 30
0.0
 11
1736.981405
 21
229.73622
 31
0.0
  0
LINE
  5
3D67
330
448F
100
AcDbEntity
  8
V0-OBRYS
  6
CONTINUOUS
 62
    90
100
AcDbLine
 10
1784.953651
 20
202.13103
 30
0.0
 11
1795.50018
 21
245.729965
 31
0.0
  0
LINE
  5
3D68
330
448F
100
AcDbEntity
  8
V0-OBRYS
  6
CONTINUOUS
 62
    90
100
AcDbLine
 10
1765.775487
 20
247.477235
 30
0.0
 11
1768.097808
 21
216.940811
 31
0.0
  0
LINE
  5
3D69
330
448F
100
AcDbEntity
  8
V0-OBRYS
  6
CONTINUOUS
 62
    90
100
AcDbLine
 10
1765.775487
 20
247.477235
 30
0.0
 11
1769.126738
 21
203.411319
 31
0.0
  0
LINE
  5
3D6A
330
448F
100
AcDbEntity
  8
V0-OBRYS
  6
CONTINUOUS
 62
    90
100
AcDbLine
 10
1780.197471
 20
247.477235
 30
0.0
 11
1776.84622
 21
203.411319
 31
0.0
  0
LINE
  5
3D6B
330
448F
100
AcDbEntity
  8
V0-OBRYS
  6
CONTINUOUS
 62
    90
100
AcDbLine
 10
1810.798914
 20
228.865841
 30
0.0
 11
1811.684562
 21
218.547385
 31
0.0
  0
LINE
  5
3D6C
330
448F
100
AcDbEntity
  8
V0-OBRYS
  6
CONTINUOUS
 62
    90
100
AcDbLine
 10
1809.05401
 20
240.924979
 30
0.0
 11
1792.239548
 21
199.776017
 31
0.0
  0
LINE
  5
3D6D
330
448F
100
AcDbEntity
  8
V0-OBRYS
  6
CONTINUOUS
 62
    90
100
AcDbLine
 10
1808.991553
 20
229.73622
 30
0.0
 11
1800.372068
 21
223.995195
 31
0.0
  0
LINE
  5
3D6E
330
448F
100
AcDbEntity
  8
V0-OBRYS
  6
CONTINUOUS
 62
    90
100
AcDbLine
 10
1807.603013
 20
251.654921
 30
0.0
 11
1808.991553
 21
229.73622
 31
0.0
  0
ARC
  5
3D70
330
448F
100
AcDbEntity
  8
V0-OBRYS
  6
CONTINUOUS
 62
    90
100
AcDbCircle
 10
1772.986479
 20
152.659211
 30
0.0
 40
75.217489
100
AcDbArc
 50
328.716649
 51
31.283351
  0
LINE
  5
3D71
330
448F
100
AcDbEntity
  8
V0-OBRYS
  6
CONTINUOUS
 62
    90
100
AcDbLine
 10
1891.520505
 20
92.050642
 30
0.0
 11
1864.468715
 21
96.44774
 31
0.0
  0
LINE
  5
3D72
330
448F
100
AcDbEntity
  8
V0-OBRYS
  6
CONTINUOUS
 62
    90
100
AcDbLine
 10
1847.127527
 20
78.486711
 30
0.0
 11
1838.868391
 21
98.837243
 31
0.0
  0
LINE
  5
3D73
330
448F
100
AcDbEntity
  8
V0-OBRYS
  6
CONTINUOUS
 62
    90
100
AcDbLine
 10
1858.451767
 20
50.583756
 30
0.0
 11
1848.145324
 21
75.978855
 31
0.0
  0
LINE
  5
3D74
330
448F
100
AcDbEntity
  8
V0-OBRYS
  6
CONTINUOUS
 62
    90
100
AcDbLine
 10
1861.252246
 20
116.59168
 30
0.0
 11
1820.103285
 21
133.406143
 31
0.0
  0
LINE
  5
3D75
330
448F
100
AcDbEntity
  8
V0-OBRYS
  6
CONTINUOUS
 62
    90
100
AcDbLine
 10
1861.797256
 20
96.881968
 30
0.0
 11
1840.119123
 21
100.405612
 31
0.0
  0
LINE
  5
3D76
330
448F
100
AcDbEntity
  8
V0-OBRYS
  6
CONTINUOUS
 62
    90
100
AcDbLine
 10
1816.67647
 20
126.546788
 30
0.0
 11
1856.01044
 21
103.03785
 31
0.0
  0
LINE
  5
3D77
330
448F
100
AcDbEntity
  8
V0-OBRYS
  6
CONTINUOUS
 62
    90
100
AcDbLine
 10
1822.458297
 20
140.692039
 30
0.0
 11
1866.057233
 21
130.14551
 31
0.0
  0
LINE
  5
3D7A
330
448F
100
AcDbEntity
  8
V0-OBRYS
  6
CONTINUOUS
 62
    90
100
AcDbLine
 10
1840.119123
 20
100.405612
 30
0.0
 11
1836.440054
 21
110.086487
 31
0.0
  0
LINE
  5
3D7B
330
448F
100
AcDbEntity
  8
V0-OBRYS
  6
CONTINUOUS
 62
    90
100
AcDbLine
 10
1921.554138
 20
87.168865
 30
0.0
 11
1894.108773
 21
91.629936
 31
0.0
  0
LINE
  5
3D7C
330
448F
100
AcDbEntity
  8
V0-OBRYS
  6
CONTINUOUS
 62
    90
100
AcDbLine
 10
1894.276923
 20
207.54402
 30
0.0
 11
1873.972618
 21
189.135624
 31
0.0
  0
LINE
  5
3D7D
330
448F
100
AcDbEntity
  8
V0-OBRYS
  6
CONTINUOUS
 62
    90
100
AcDbLine
 10
1816.67647
 20
178.771635
 30
0.0
 11
1856.01044
 21
202.280573
 31
0.0
  0
LINE
  5
3D7E
330
448F
100
AcDbEntity
  8
V0-OBRYS
  6
CONTINUOUS
 62
    90
100
AcDbLine
 10
1861.252246
 20
188.726743
 30
0.0
 11
1820.103285
 21
171.91228
 31
0.0
  0
LINE
  5
3D7F
330
448F
100
AcDbEntity
  8
V0-OBRYS
  6
CONTINUOUS
 62
    90
100
AcDbLine
 10
1855.696507
 20
172.566039
 30
0.0
 11
1845.833832
 21
175.725554
 31
0.0
  0
LINE
  5
3D80
330
448F
100
AcDbEntity
  8
V0-OBRYS
  6
CONTINUOUS
 62
    90
100
AcDbLine
 10
1856.142888
 20
170.610315
 30
0.0
 11
1848.627787
 21
163.484436
 31
0.0
  0
LINE
  5
3D81
330
448F
100
AcDbEntity
  8
V0-OBRYS
  6
CONTINUOUS
 62
    90
100
AcDbLine
 10
1822.458297
 20
164.626383
 30
0.0
 11
1866.057233
 21
175.172912
 31
0.0
  0
LINE
  5
3D82
330
448F
100
AcDbEntity
  8
V0-OBRYS
  6
CONTINUOUS
 62
    90
100
AcDbLine
 10
1867.804503
 20
159.870203
 30
0.0
 11
1823.738587
 21
156.518953
 31
0.0
  0
LINE
  5
3D83
330
448F
100
AcDbEntity
  8
V0-OBRYS
  6
CONTINUOUS
 62
    90
100
AcDbLine
 10
1867.804503
 20
145.448219
 30
0.0
 11
1823.738587
 21
148.79947
 31
0.0
  0
LINE
  5
3D84
330
448F
100
AcDbEntity
  8
V0-OBRYS
  6
CONTINUOUS
 62
    90
100
AcDbLine
 10
1877.203063
 20
164.379219
 30
0.0
 11
1856.142888
 21
170.610315
 31
0.0
  0
LINE
  5
3D85
330
448F
100
AcDbEntity
  8
V0-OBRYS
  6
CONTINUOUS
 62
    90
100
AcDbLine
 10
1871.967497
 20
187.31773
 30
0.0
 11
1855.696507
 21
172.566039
 31
0.0
  0
LINE
  5
3D87
330
448F
100
AcDbEntity
  8
V0-OBRYS
  6
CONTINUOUS
 62
    90
100
AcDbLine
 10
1906.079019
 20
155.835659
 30
0.0
 11
1879.798369
 21
163.611343
 31
0.0
  0
LINE
  5
3D88
330
448F
100
AcDbEntity
  8
V0-OBRYS
  6
CONTINUOUS
 62
    90
100
AcDbLine
 10
1935.256511
 20
147.202883
 30
0.0
 11
1908.593505
 21
155.091695
 31
0.0
  0
LINE
  5
3D89
330
448F
100
AcDbEntity
  8
V0-OBRYS
  6
CONTINUOUS
 62
    90
100
AcDbLine
 10
1916.819314
 20
227.981522
 30
0.0
 11
1896.219603
 21
209.305303
 31
0.0
  0
LINE
  5
3D8A
330
448F
100
AcDbEntity
  8
V0-OBRYS
  6
CONTINUOUS
 62
    90
100
AcDbLine
 10
1965.02489
 20
138.395281
 30
0.0
 11
1937.730436
 21
146.47092
 31
0.0
  0
ARC
  5
3D8B
330
448F
100
AcDbEntity
  8
V0-OBRYS
  6
CONTINUOUS
 62
    90
100
AcDbCircle
 10
1772.986479
 20
152.659211
 30
0.0
 40
200.0
100
AcDbArc
 50
338.994933
 51
355.290781
  0
LINE
  5
3D8C
330
448F
100
AcDbEntity
  8
V0-OBRYS
  6
CONTINUOUS
 62
    90
100
AcDbLine
 10
1959.696225
 20
80.96911
 30
0.0
 11
1954.718578
 21
81.778195
 31
0.0
  0
LINE
  5
3D8D
330
448F
100
AcDbEntity
  8
V0-OBRYS
  6
CONTINUOUS
 62
    90
100
AcDbLine
 10
1972.311317
 20
136.239438
 30
0.0
 11
1967.475563
 21
137.670197
 31
0.0
  0
ARC
  5
3D8E
330
448F
100
AcDbEntity
  8
VO-OBRYS
  6
CONTINUOUS
100
AcDbCircle
 10
1939.094471
 20
318.767203
 30
0.0
 40
17.3312
100
AcDbArc
 50
315.0
 51
135.0
  0
ARC
  5
3D8F
330
448F
100
AcDbEntity
  8
VO-OBRYS
  6
CONTINUOUS
100
AcDbCircle
 10
1939.094471
 20
318.767203
 30
0.0
 40
14.832799
100
AcDbArc
 50
315.0
 51
135.0
  0
ARC
  5
3D90
330
448F
100
AcDbEntity
  8
V0-OBRYS
  6
CONTINUOUS
 62
    90
100
AcDbCircle
 10
1772.986479
 20
152.659211
 30
0.0
 40
200.0
100
AcDbArc
 50
30.423505
 51
46.719352
  0
ARC
  5
3D91
330
448F
100
AcDbEntity
  8
V0-OBRYS
  6
CONTINUOUS
 62
    90
100
AcDbCircle
 10
1772.986479
 20
152.659211
 30
0.0
 40
200.0
100
AcDbArc
 50
81.852076
 51
98.147924
  0
LINE
  5
3D92
330
448F
100
AcDbEntity
  8
V0-OBRYS
  6
CONTINUOUS
 62
    90
100
AcDbLine
 10
1742.197527
 20
312.074942
 30
0.0
 11
1740.439581
 21
284.325008
 31
0.0
  0
LINE
  5
3D93
330
448F
100
AcDbEntity
  8
V0-OBRYS
  6
CONTINUOUS
 62
    90
100
AcDbLine
 10
1740.273795
 20
281.708018
 30
0.0
 11
1738.541059
 21
254.356026
 31
0.0
  0
LINE
  5
3D94
330
448F
100
AcDbEntity
  8
V0-OBRYS
  6
CONTINUOUS
 62
    90
100
AcDbLine
 10
1744.160217
 20
343.056842
 30
0.0
 11
1742.360638
 21
314.649717
 31
0.0
  0
LINE
  5
3D95
330
448F
100
AcDbEntity
  8
V0-OBRYS
  6
CONTINUOUS
 62
    90
100
AcDbLine
 10
1744.640626
 20
350.640303
 30
0.0
 11
1744.321794
 21
345.607417
 31
0.0
  0
LINE
  5
3D96
330
448F
100
AcDbEntity
  8
V0-OBRYS
  6
CONTINUOUS
 62
    90
100
AcDbLine
 10
1803.775431
 20
312.074942
 30
0.0
 11
1805.533377
 21
284.325008
 31
0.0
  0
LINE
  5
3D97
330
448F
100
AcDbEntity
  8
V0-OBRYS
  6
CONTINUOUS
 62
    90
100
AcDbLine
 10
1805.699163
 20
281.708018
 30
0.0
 11
1807.431899
 21
254.356026
 31
0.0
  0
LINE
  5
3D98
330
448F
100
AcDbEntity
  8
V0-OBRYS
  6
CONTINUOUS
 62
    90
100
AcDbLine
 10
1801.812741
 20
343.056842
 30
0.0
 11
1803.61232
 21
314.649717
 31
0.0
  0
LINE
  5
3D99
330
448F
100
AcDbEntity
  8
V0-OBRYS
  6
CONTINUOUS
 62
    90
100
AcDbLine
 10
1801.332332
 20
350.640303
 30
0.0
 11
1801.651163
 21
345.607417
 31
0.0
  0
LINE
  5
3D9A
330
448F
100
AcDbEntity
  8
V0-OBRYS
  6
CONTINUOUS
 62
    90
100
AcDbLine
 10
1878.426118
 20
276.125066
 30
0.0
 11
1855.634284
 21
260.197682
 31
0.0
  0
LINE
  5
3D9B
330
448F
100
AcDbEntity
  8
V0-OBRYS
  6
CONTINUOUS
 62
    90
100
AcDbLine
 10
1910.100979
 20
298.260083
 30
0.0
 11
1905.967322
 21
295.371403
 31
0.0
  0
LINE
  5
3D9C
330
448F
100
AcDbEntity
  8
V0-OBRYS
  6
CONTINUOUS
 62
    90
100
AcDbLine
 10
1903.87246
 20
293.907472
 30
0.0
 11
1880.540857
 21
277.602887
 31
0.0
  0
CIRCLE
  5
3D9D
330
448F
100
AcDbEntity
  8
V0-OBRYS
  6
CONTINUOUS
 62
    90
100
AcDbCircle
 10
1606.878487
 20
318.767203
 30
0.0
 40
8.017239
  0
LINE
  5
3D9E
330
448F
100
AcDbEntity
  8
V0-VYPLNE
  6
DASHDOT
 62
    63
100
AcDbLine
 10
1772.986479
 20
152.659211
 30
0.0
 11
1586.10174
 21
339.543951
 31
0.0
  0
CIRCLE
  5
3D9F
330
448F
100
AcDbEntity
  8
V0-OBRYS
  6
CONTINUOUS
 62
    90
100
AcDbCircle
 10
1606.878487
 20
-13.44878
 30
0.0
 40
8.017239
  0
LINE
  5
3DA0
330
448F
100
AcDbEntity
  8
V0-VYPLNE
  6
DASHDOT
 62
    63
100
AcDbLine
 10
1772.986479
 20
152.659211
 30
0.0
 11
1586.10174
 21
-34.225528
 31
0.0
  0
CIRCLE
  5
3DA1
330
448F
100
AcDbEntity
  8
V0-OBRYS
  6
CONTINUOUS
 62
    90
100
AcDbCircle
 10
1939.094471
 20
-13.44878
 30
0.0
 40
8.017239
  0
LINE
  5
3DA2
330
448F
100
AcDbEntity
  8
V0-VYPLNE
  6
DASHDOT
 62
    63
100
AcDbLine
 10
1772.986479
 20
152.659211
 30
0.0
 11
1959.871218
 21
-34.225528
 31
0.0
  0
CIRCLE
  5
3DA3
330
448F
100
AcDbEntity
  8
V0-OBRYS
  6
CONTINUOUS
 62
    90
100
AcDbCircle
 10
1939.094471
 20
318.767203
 30
0.0
 40
8.017239
  0
LINE
  5
3DA4
330
448F
100
AcDbEntity
  8
V0-VYPLNE
  6
DASHDOT
 62
    63
100
AcDbLine
 10
1772.986479
 20
152.659211
 30
0.0
 11
1959.871218
 21
339.543951
 31
0.0
  0
POINT
  5
3DBB
330
448F
100
AcDbEntity
  8
V0-VYPLNE
  6
DASHED
 62
    52
100
AcDbPoint
 10
1772.986479
 20
152.659211
 30
0.0
  0
LINE
  5
3DBC
330
448F
100
AcDbEntity
  8
V0-OBRYS
  6
CONTINUOUS
 62
    90
100
AcDbLine
 10
1809.144879
 20
192.835211
 30
0.0
 11
1736.828079
 21
192.835211
 31
0.0
  0
LINE
  5
3DBD
330
448F
100
AcDbEntity
  8
V0-OBRYS
  6
CONTINUOUS
 62
    90
100
AcDbLine
 10
1736.828079
 20
112.483211
 30
0.0
 11
1809.144879
 21
112.483211
 31
0.0
  0
LINE
  5
3DBE
330
448F
100
AcDbEntity
  8
V0-OBRYS
  6
CONTINUOUS
 62
    90
100
AcDbLine
 10
1732.810479
 20
188.817611
 30
0.0
 11
1732.810479
 21
116.500811
 31
0.0
  0
CIRCLE
  5
3DBF
330
448F
100
AcDbEntity
  8
V0-OBRYS
  6
CONTINUOUS
 62
    90
100
AcDbCircle
 10
1742.854479
 20
122.527211
 30
0.0
 40
2.6784
  0
ARC
  5
3DC2
330
448F
100
AcDbEntity
  8
V0-OBRYS
  6
CONTINUOUS
 62
    90
100
AcDbCircle
 10
1736.828079
 20
116.500811
 30
0.0
 40
4.0176
100
AcDbArc
 50
180.0
 51
270.0
  0
CIRCLE
  5
3DC3
330
448F
100
AcDbEntity
  8
V0-OBRYS
  6
CONTINUOUS
 62
    90
100
AcDbCircle
 10
1742.854479
 20
182.791211
 30
0.0
 40
2.6784
  0
ARC
  5
3DC4
330
448F
100
AcDbEntity
  8
V0-OBRYS
  6
CONTINUOUS
 62
    90
100
AcDbCircle
 10
1736.828079
 20
188.817611
 30
0.0
 40
4.0176
100
AcDbArc
 50
90.0
 51
180.0
  0
LINE
  5
3DC5
330
448F
100
AcDbEntity
  8
V0-OBRYS
  6
CONTINUOUS
 62
    90
100
AcDbLine
 10
1813.162479
 20
116.500811
 30
0.0
 11
1813.162479
 21
188.817611
 31
0.0
  0
ARC
  5
3DC7
330
448F
100
AcDbEntity
  8
V0-OBRYS
  6
CONTINUOUS
 62
    90
100
AcDbCircle
 10
1809.144879
 20
116.500811
 30
0.0
 40
4.0176
100
AcDbArc
 50
270.0
 51
0.0
  0
CIRCLE
  5
3DC8
330
448F
100
AcDbEntity
  8
V0-OBRYS
  6
CONTINUOUS
 62
    90
100
AcDbCircle
 10
1803.118479
 20
122.527211
 30
0.0
 40
2.6784
  0
CIRCLE
  5
3DC9
330
448F
100
AcDbEntity
  8
V0-OBRYS
  6
CONTINUOUS
 62
    90
100
AcDbCircle
 10
1803.118479
 20
182.791211
 30
0.0
 40
2.6784
  0
ARC
  5
3DCA
330
448F
100
AcDbEntity
  8
V0-OBRYS
  6
CONTINUOUS
 62
    90
100
AcDbCircle
 10
1809.144879
 20
188.817611
 30
0.0
 40
4.0176
100
AcDbArc
 50
0.0
 51
90.0
  0
LINE
  5
3DCB
330
448F
100
AcDbEntity
  8
VO-OBRYS
  6
CONTINUOUS
100
AcDbLine
 10
1817.903489
 20
176.599476
 30
0.0
 11
1949.582843
 21
308.27883
 31
0.0
  0
LINE
  5
3DCC
330
448F
100
AcDbEntity
  8
VO-OBRYS
  6
CONTINUOUS
100
AcDbLine
 10
1749.046215
 20
107.742201
 30
0.0
 11
1617.36686
 21
-23.937153
 31
0.0
  0
LINE
  5
3DCD
330
448F
100
AcDbEntity
  8
VO-OBRYS
  6
CONTINUOUS
100
AcDbLine
 10
1728.069469
 20
176.599476
 30
0.0
 11
1596.390115
 21
308.27883
 31
0.0
  0
ARC
  5
3DCE
330
448F
100
AcDbEntity
  8
V0-OBRYS
  6
CONTINUOUS
 62
    90
100
AcDbCircle
 10
1772.986479
 20
152.659211
 30
0.0
 40
50.898664
100
AcDbArc
 50
52.123231
 51
127.876769
  0
ARC
  5
3DCF
330
448F
100
AcDbEntity
  8
V0-OBRYS
  6
CONTINUOUS
 62
    90
100
AcDbCircle
 10
1772.986479
 20
152.659211
 30
0.0
 40
50.898664
100
AcDbArc
 50
142.123231
 51
217.876769
  0
ARC
  5
3DD0
330
448F
100
AcDbEntity
  8
V0-OBRYS
  6
CONTINUOUS
 62
    90
100
AcDbCircle
 10
1772.986479
 20
152.659211
 30
0.0
 40
50.898664
100
AcDbArc
 50
232.123231
 51
307.876769
  0
ARC
  5
3DD1
330
448F
100
AcDbEntity
  8
V0-OBRYS
  6
CONTINUOUS
 62
    90
100
AcDbCircle
 10
1772.986479
 20
152.659211
 30
0.0
 40
50.898664
100
AcDbArc
 50
322.123231
 51
37.876769
  0
LINE
  5
3DD2
330
448F
100
AcDbEntity
  8
V0-VYPLNE
  6
DASHDOT
 62
    63
100
AcDbLine
 10
1067.525732
 20
-618.534095
 30
0.0
 11
1224.112425
 21
-618.534095
 31
0.0
  0
ARC
  5
3DD3
330
448F
100
AcDbEntity
  8
V0-OBRYS
  6
CONTINUOUS
 62
    90
 48
2.0
100
AcDbCircle
 10
1100.528356
 20
-530.842475
 30
0.0
 40
7.1
100
AcDbArc
 50
0.0
 51
70.21796999999999
  0
LINE
  5
3DD4
330
448F
100
AcDbEntity
  8
V0-VYPLNE
  6
DASHED
 62
    52
100
AcDbLine
 10
1198.657599
 20
-553.932612
 30
0.0
 11
1186.557528
 21
-419.774006
 31
0.0
  0
LINE
  5
3DD5
330
448F
100
AcDbEntity
  8
V0-VYPLNE
  6
DASHED
 62
    52
100
AcDbLine
 10
1141.598553
 20
-553.932612
 30
0.0
 11
1153.698624
 21
-419.774006
 31
0.0
  0
LINE
  5
3DD6
330
448F
100
AcDbEntity
  8
V0-OBRYS
  6
CONTINUOUS
 62
    90
 48
2.0
100
AcDbLine
 10
1197.474631
 20
-618.53401
 30
0.0
 11
1197.474631
 21
-418.534365
 31
0.0
  0
LINE
  5
3DD7
330
448F
100
AcDbEntity
  8
V0-OBRYS
  6
CONTINUOUS
 62
    90
100
AcDbLine
 10
1119.668356
 20
-368.38401
 30
0.0
 11
1119.668356
 21
-868.6840099999999
 31
0.0
  0
LINE
  5
3DD8
330
448F
100
AcDbEntity
  8
V0-OBRYS
  6
CONTINUOUS
 62
    90
 48
2.0
100
AcDbLine
 10
1107.628356
 20
-368.38401
 30
0.0
 11
1107.628356
 21
-618.53401
 31
0.0
  0
LINE
  5
3DD9
330
448F
100
AcDbEntity
  8
V0-VYPLNE
  6
DASHED
 62
    52
100
AcDbLine
 10
1198.657599
 20
-682.572261
 30
0.0
 11
1186.557528
 21
-816.730867
 31
0.0
  0
LINE
  5
3DDA
330
448F
100
AcDbEntity
  8
V0-VYPLNE
  6
DASHED
 62
    52
100
AcDbLine
 10
1141.598553
 20
-682.572261
 30
0.0
 11
1153.698624
 21
-816.730867
 31
0.0
  0
LINE
  5
3DDB
330
448F
100
AcDbEntity
  8
V0-OBRYS
  6
CONTINUOUS
 62
    90
 48
2.0
100
AcDbLine
 10
1197.474631
 20
-618.53401
 30
0.0
 11
1197.474631
 21
-818.533655
 31
0.0
  0
LINE
  5
3DDC
330
448F
100
AcDbEntity
  8
V0-OBRYS
  6
CONTINUOUS
 62
    90
 48
2.0
100
AcDbLine
 10
1089.937372
 20
-802.715404
 30
0.0
 11
1089.937372
 21
-721.211174
 31
0.0
  0
LINE
  5
3DDD
330
448F
100
AcDbEntity
  8
V0-OBRYS
  6
CONTINUOUS
 62
    90
 48
2.0
100
AcDbLine
 10
1087.720042
 20
-802.715404
 30
0.0
 11
1087.720042
 21
-721.211174
 31
0.0
  0
LINE
  5
3DDE
330
448F
100
AcDbEntity
  8
V0-OBRYS
  6
CONTINUOUS
 62
    90
100
AcDbLine
 10
1119.668356
 20
-868.6840099999999
 30
0.0
 11
1130.831541
 21
-828.8329199999999
 31
0.0
  0
LINE
  5
3DDF
330
448F
100
AcDbEntity
  8
V0-OBRYS
  6
CONTINUOUS
 62
    90
 48
2.0
100
AcDbLine
 10
1119.668356
 20
-868.6840099999999
 30
0.0
 11
1107.628356
 21
-868.6840099999999
 31
0.0
  0
LINE
  5
3DE0
330
448F
100
AcDbEntity
  8
V0-OBRYS
  6
CONTINUOUS
 62
    90
 48
2.0
100
AcDbLine
 10
1105.391825
 20
-829.520229
 30
0.0
 11
1105.391825
 21
-816.27323
 31
0.0
  0
ARC
  5
3DE1
330
448F
100
AcDbEntity
  8
V0-OBRYS
  6
CONTINUOUS
 62
    90
 48
2.0
100
AcDbCircle
 10
1106.51009
 20
-829.520229
 30
0.0
 40
1.118266
100
AcDbArc
 50
180.0
 51
0.0
  0
ARC
  5
3DE2
330
448F
100
AcDbEntity
  8
V0-OBRYS
  6
CONTINUOUS
 62
    90
 48
2.0
100
AcDbCircle
 10
1090.556632
 20
-828.7749720000001
 30
0.0
 40
19.400425
100
AcDbArc
 50
40.121121
 51
83.630132
  0
ARC
  5
3DE3
330
448F
100
AcDbEntity
  8
V0-OBRYS
  6
CONTINUOUS
 62
    90
 48
2.0
100
AcDbCircle
 10
1090.671406
 20
-827.541023
 30
0.0
 40
20.343317
100
AcDbArc
 50
33.633732
 51
82.38191500000001
  0
CIRCLE
  5
3DE4
330
448F
100
AcDbEntity
  8
V0-OBRYS
  6
CONTINUOUS
 62
    90
 48
2.0
100
AcDbCircle
 10
1085.436191
 20
-797.077506
 30
0.0
 40
2.283588
  0
ARC
  5
3DE5
330
448F
100
AcDbEntity
  8
V0-OBRYS
  6
CONTINUOUS
 62
    90
 48
2.0
100
AcDbCircle
 10
1094.820042
 20
-802.715404
 30
0.0
 40
7.1
100
AcDbArc
 50
180.0
 51
252.703019
  0
ARC
  5
3DE6
330
448F
100
AcDbEntity
  8
V0-OBRYS
  6
CONTINUOUS
 62
    90
 48
2.0
100
AcDbCircle
 10
1094.820042
 20
-802.715404
 30
0.0
 40
4.882669
100
AcDbArc
 50
180.0
 51
252.703019
  0
LINE
  5
3DE7
330
448F
100
AcDbEntity
  8
V0-OBRYS
  6
CONTINUOUS
 62
    90
 48
2.0
100
AcDbLine
 10
1197.474631
 20
-818.533655
 30
0.0
 11
1148.880461
 21
-818.533655
 31
0.0
  0
LINE
  5
3DE8
330
448F
100
AcDbEntity
  8
V0-VYPLNE
  6
DASHED
 62
    52
100
AcDbLine
 10
1153.698624
 20
-816.730867
 30
0.0
 11
1186.557528
 21
-816.730867
 31
0.0
  0
ARC
  5
3DE9
330
448F
100
AcDbEntity
  8
V0-OBRYS
  6
CONTINUOUS
 62
    90
 48
2.0
100
AcDbCircle
 10
1148.880461
 20
-839.4981800000001
 30
0.0
 40
20.964525
100
AcDbArc
 50
90.0
 51
149.420799
  0
CIRCLE
  5
3DEA
330
448F
100
AcDbEntity
  8
V0-OBRYS
  6
CONTINUOUS
 62
    90
 48
2.0
100
AcDbCircle
 10
1085.436191
 20
-780.037506
 30
0.0
 40
2.283588
  0
CIRCLE
  5
3DEB
330
448F
100
AcDbEntity
  8
V0-OBRYS
  6
CONTINUOUS
 62
    90
 48
2.0
100
AcDbCircle
 10
1085.436191
 20
-762.997506
 30
0.0
 40
2.283588
  0
CIRCLE
  5
3DEC
330
448F
100
AcDbEntity
  8
V0-OBRYS
  6
CONTINUOUS
 62
    90
 48
2.0
100
AcDbCircle
 10
1085.436191
 20
-728.917506
 30
0.0
 40
2.283588
  0
CIRCLE
  5
3DED
330
448F
100
AcDbEntity
  8
V0-OBRYS
  6
CONTINUOUS
 62
    90
 48
2.0
100
AcDbCircle
 10
1085.436191
 20
-745.957506
 30
0.0
 40
2.283588
  0
LINE
  5
3DEE
330
448F
100
AcDbEntity
  8
V0-OBRYS
  6
CONTINUOUS
 62
    90
 48
2.0
100
AcDbLine
 10
1093.167537
 20
-716.616646
 30
0.0
 11
1103.68174
 21
-714.993032
 31
0.0
  0
LINE
  5
3DEF
330
448F
100
AcDbEntity
  8
V0-OBRYS
  6
CONTINUOUS
 62
    90
 48
2.0
100
AcDbLine
 10
1092.417098
 20
-714.530167
 30
0.0
 11
1102.9313
 21
-712.906553
 31
0.0
  0
ARC
  5
3DF0
330
448F
100
AcDbEntity
  8
V0-OBRYS
  6
CONTINUOUS
 62
    90
 48
2.0
100
AcDbCircle
 10
1094.820042
 20
-721.211174
 30
0.0
 40
7.1
100
AcDbArc
 50
109.78203
 51
180.0
  0
ARC
  5
3DF1
330
448F
100
AcDbEntity
  8
V0-OBRYS
  6
CONTINUOUS
 62
    90
 48
2.0
100
AcDbCircle
 10
1094.820042
 20
-721.211174
 30
0.0
 40
4.882669
100
AcDbArc
 50
109.78203
 51
180.0
  0
ARC
  5
3DF2
330
448F
100
AcDbEntity
  8
V0-OBRYS
  6
CONTINUOUS
 62
    90
 48
2.0
100
AcDbCircle
 10
1100.528356
 20
-706.225546
 30
0.0
 40
9.317330999999999
100
AcDbArc
 50
289.78203
 51
319.642674
  0
ARC
  5
3DF3
330
448F
100
AcDbEntity
  8
V0-OBRYS
  6
CONTINUOUS
 62
    90
 48
2.0
100
AcDbCircle
 10
1100.528356
 20
-706.225546
 30
0.0
 40
7.1
100
AcDbArc
 50
289.78203
 51
0.0
  0
LINE
  5
3DF4
330
448F
100
AcDbEntity
  8
V0-OBRYS
  6
CONTINUOUS
 62
    90
100
AcDbLine
 10
1022.525734
 20
-578.534106
 30
0.0
 11
1067.525734
 21
-578.534106
 31
0.0
  0
LINE
  5
3DF5
330
448F
100
AcDbEntity
  8
V0-OBRYS
  6
CONTINUOUS
 62
    90
100
AcDbLine
 10
1022.525734
 20
-658.534106
 30
0.0
 11
1067.525734
 21
-658.534106
 31
0.0
  0
LINE
  5
3DF6
330
448F
100
AcDbEntity
  8
V0-OBRYS
  6
CONTINUOUS
 62
    90
100
AcDbLine
 10
1022.525734
 20
-618.534106
 30
0.0
 11
1022.525734
 21
-578.534106
 31
0.0
  0
LINE
  5
3DF7
330
448F
100
AcDbEntity
  8
V0-OBRYS
  6
CONTINUOUS
 62
    90
100
AcDbLine
 10
1022.525734
 20
-618.534106
 30
0.0
 11
1022.525734
 21
-658.534106
 31
0.0
  0
ELLIPSE
  5
3DF8
330
448F
100
AcDbEntity
  8
V0-VYPLNE
  6
DASHED
 62
    52
100
AcDbEllipse
 10
1168.628076
 20
-618.534095
 30
0.0
 11
0.0
 21
5.966556111557907
 31
0.0
210
0.0
220
0.0
230
-1.0
 40
0.8522730000000001
 41
0.0
 42
6.283185307179586
  0
LINE
  5
3DF9
330
448F
100
AcDbEntity
  8
V0-VYPLNE
  6
DASHED
 62
    52
100
AcDbLine
 10
1142.104476
 20
-627.889306
 30
0.0
 11
1200.686108
 21
-608.284958
 31
0.0
  0
ELLIPSE
  5
3DFA
330
448F
100
AcDbEntity
  8
V0-OBRYS
  6
CONTINUOUS
 62
    90
100
AcDbEllipse
 10
402.329728
 20
-649.360819
 30
0.0
 11
797.4798954661188
 21
76.20232472788725
 31
0.0
210
0.0
220
0.0
230
-1.0
 40
0.822171
 41
-0.0116123588215666
 42
0.0685565765185466
  0
LINE
  5
3DFB
330
448F
100
AcDbEntity
  8
V0-VYPLNE
  6
DASHED
 62
    52
100
AcDbLine
 10
1141.628076
 20
-618.252437
 30
0.0
 11
1141.628076
 21
-560.496437
 31
0.0
  0
LINE
  5
3DFC
330
448F
100
AcDbEntity
  8
V0-VYPLNE
  6
DASHED
 62
    52
100
AcDbLine
 10
1168.628076
 20
-556.472899
 30
0.0
 11
1168.628076
 21
-618.252437
 31
0.0
  0
LINE
  5
3DFD
330
448F
100
AcDbEntity
  8
V0-VYPLNE
  6
DASHED
 62
    52
100
AcDbLine
 10
1135.535993
 20
-566.533594
 30
0.0
 11
1135.535993
 21
-618.53401
 31
0.0
  0
LINE
  5
3E01
330
448F
100
AcDbEntity
  8
V0-OBRYS
  6
CONTINUOUS
 62
    90
 48
2.0
100
AcDbLine
 10
1106.628106
 20
-618.53401
 30
0.0
 11
1106.628106
 21
-561.533554
 31
0.0
  0
LINE
  5
3E02
330
448F
100
AcDbEntity
  8
V0-OBRYS
  6
CONTINUOUS
 62
    90
100
AcDbLine
 10
1067.525734
 20
-578.534106
 30
0.0
 11
1067.525734
 21
-618.534106
 31
0.0
  0
LINE
  5
3E03
330
448F
100
AcDbEntity
  8
V0-OBRYS
  6
CONTINUOUS
 62
    90
100
AcDbLine
 10
1037.525734
 20
-618.534106
 30
0.0
 11
1037.525734
 21
-578.534106
 31
0.0
  0
LINE
  5
3E04
330
448F
100
AcDbEntity
  8
V0-OBRYS
  6
CONTINUOUS
 62
    90
 48
2.0
100
AcDbLine
 10
1068.627954
 20
-618.53401
 30
0.0
 11
1068.627954
 21
-571.533634
 31
0.0
  0
LINE
  5
3E05
330
448F
100
AcDbEntity
  8
V0-VYPLNE
  6
DASHED
 62
    52
100
AcDbLine
 10
1107.628385
 20
-626.947105
 30
0.0
 11
1135.05583
 21
-626.947105
 31
0.0
  0
LINE
  5
3E06
330
448F
100
AcDbEntity
  8
V0-VYPLNE
  6
DASHDOT
 62
    63
 48
2.0
100
AcDbLine
 10
1106.713274
 20
-618.53401
 30
0.0
 11
1214.173052
 21
-618.53401
 31
0.0
  0
LINE
  5
3E07
330
448F
100
AcDbEntity
  8
V0-VYPLNE
  6
DASHED
 62
    52
100
AcDbLine
 10
1107.628385
 20
-638.460447
 30
0.0
 11
1135.535993
 21
-638.460447
 31
0.0
  0
LINE
  5
3E08
330
448F
100
AcDbEntity
  8
V0-VYPLNE
  6
DASHED
 62
    52
100
AcDbLine
 10
1107.628385
 20
-675.534466
 30
0.0
 11
1130.535953
 21
-675.534466
 31
0.0
  0
LINE
  5
3E09
330
448F
100
AcDbEntity
  8
V0-VYPLNE
  6
DASHED
 62
    52
100
AcDbLine
 10
1107.628385
 20
-649.973787
 30
0.0
 11
1135.05583
 21
-649.973787
 31
0.0
  0
LINE
  5
3E0A
330
448F
100
AcDbEntity
  8
V0-VYPLNE
  6
DASHED
 62
    52
100
AcDbLine
 10
1107.628385
 20
-661.966852
 30
0.0
 11
1135.535993
 21
-661.966852
 31
0.0
  0
LINE
  5
3E0B
330
448F
100
AcDbEntity
  8
V0-VYPLNE
  6
DASHED
 62
    52
100
AcDbLine
 10
1107.628385
 20
-672.041027
 30
0.0
 11
1135.535993
 21
-672.041027
 31
0.0
  0
LINE
  5
3E0C
330
448F
100
AcDbEntity
  8
V0-OBRYS
  6
CONTINUOUS
 62
    90
 48
2.0
100
AcDbLine
 10
1105.988145
 20
-661.966852
 30
0.0
 11
1069.222024
 21
-652.372401
 31
0.0
  0
LINE
  5
3E0D
330
448F
100
AcDbEntity
  8
V0-OBRYS
  6
CONTINUOUS
 62
    90
 48
2.0
100
AcDbLine
 10
1106.468312
 20
-672.041027
 30
0.0
 11
1068.741861
 21
-658.129073
 31
0.0
  0
LINE
  5
3E0E
330
448F
100
AcDbEntity
  8
V0-OBRYS
  6
CONTINUOUS
 62
    90
 48
2.0
100
AcDbLine
 10
1106.628106
 20
-618.53401
 30
0.0
 11
1106.628106
 21
-675.534466
 31
0.0
  0
LINE
  5
3E0F
330
448F
100
AcDbEntity
  8
V0-OBRYS
  6
CONTINUOUS
 62
    90
 48
2.0
100
AcDbLine
 10
1068.627954
 20
-618.53401
 30
0.0
 11
1068.627954
 21
-665.534386
 31
0.0
  0
ARC
  5
3E10
330
448F
100
AcDbEntity
  8
V0-OBRYS
  6
CONTINUOUS
 62
    90
 48
2.0
100
AcDbCircle
 10
1085.704695
 20
-655.996416
 30
0.0
 40
19.559856
100
AcDbArc
 50
209.18492
 51
272.705699
  0
LINE
  5
3E11
330
448F
100
AcDbEntity
  8
V0-OBRYS
  6
CONTINUOUS
 62
    90
 48
2.0
100
AcDbLine
 10
1086.628034
 20
-675.534466
 30
0.0
 11
1107.62833
 21
-675.534466
 31
0.0
  0
LINE
  5
3E12
330
448F
100
AcDbEntity
  8
V0-OBRYS
  6
CONTINUOUS
 62
    90
 48
2.0
100
AcDbLine
 10
1105.988145
 20
-661.966852
 30
0.0
 11
1107.62833
 21
-661.966852
 31
0.0
  0
LINE
  5
3E13
330
448F
100
AcDbEntity
  8
V0-OBRYS
  6
CONTINUOUS
 62
    90
 48
2.0
100
AcDbLine
 10
1106.468312
 20
-672.041027
 30
0.0
 11
1107.62833
 21
-672.041027
 31
0.0
  0
LINE
  5
3E14
330
448F
100
AcDbEntity
  8
V0-OBRYS
  6
CONTINUOUS
 62
    90
 48
2.0
100
AcDbLine
 10
1105.988145
 20
-626.947105
 30
0.0
 11
1068.741861
 21
-626.467383
 31
0.0
  0
LINE
  5
3E15
330
448F
100
AcDbEntity
  8
V0-OBRYS
  6
CONTINUOUS
 62
    90
 48
2.0
100
AcDbLine
 10
1106.468312
 20
-649.973787
 30
0.0
 11
1068.261693
 21
-645.656284
 31
0.0
  0
LINE
  5
3E16
330
448F
100
AcDbEntity
  8
V0-OBRYS
  6
CONTINUOUS
 62
    90
 48
2.0
100
AcDbLine
 10
1105.988145
 20
-638.460447
 30
0.0
 11
1068.741861
 21
-636.541556
 31
0.0
  0
LINE
  5
3E17
330
448F
100
AcDbEntity
  8
V0-OBRYS
  6
CONTINUOUS
 62
    90
100
AcDbLine
 10
1067.525734
 20
-658.534106
 30
0.0
 11
1067.525734
 21
-618.534106
 31
0.0
  0
LINE
  5
3E18
330
448F
100
AcDbEntity
  8
V0-OBRYS
  6
CONTINUOUS
 62
    90
100
AcDbLine
 10
1037.525734
 20
-618.534106
 30
0.0
 11
1037.525734
 21
-658.534106
 31
0.0
  0
LINE
  5
3E19
330
448F
100
AcDbEntity
  8
V0-OBRYS
  6
CONTINUOUS
 62
    90
 48
2.0
100
AcDbLine
 10
1105.988145
 20
-638.460447
 30
0.0
 11
1108.869138
 21
-638.460447
 31
0.0
  0
LINE
  5
3E1A
330
448F
100
AcDbEntity
  8
V0-OBRYS
  6
CONTINUOUS
 62
    90
 48
2.0
100
AcDbLine
 10
1108.869138
 20
-638.460447
 30
0.0
 11
1107.62833
 21
-638.460447
 31
0.0
  0
LINE
  5
3E1B
330
448F
100
AcDbEntity
  8
V0-OBRYS
  6
CONTINUOUS
 62
    90
 48
2.0
100
AcDbLine
 10
1106.468312
 20
-649.973787
 30
0.0
 11
1107.62833
 21
-649.973787
 31
0.0
  0
LINE
  5
3E1C
330
448F
100
AcDbEntity
  8
V0-OBRYS
  6
CONTINUOUS
 62
    90
 48
2.0
100
AcDbLine
 10
1105.988145
 20
-626.947105
 30
0.0
 11
1107.62833
 21
-626.947105
 31
0.0
  0
ELLIPSE
  5
3E1D
330
448F
100
AcDbEntity
  8
V0-OBRYS
  6
CONTINUOUS
 62
    90
100
AcDbEllipse
 10
402.329728
 20
-587.144055
 30
0.0
 11
-797.4798954661162
 21
76.20232472791589
 31
0.0
210
0.0
220
0.0
230
-1.0
 40
0.8221709999999995
 41
3.073036077071169
 42
3.153205012411303
  0
LINE
  5
3E1E
330
448F
100
AcDbEntity
  8
V0-VYPLNE
  6
DASHED
 62
    52
100
AcDbLine
 10
1168.628076
 20
-680.031974
 30
0.0
 11
1168.628076
 21
-618.252437
 31
0.0
  0
LINE
  5
3E1F
330
448F
100
AcDbEntity
  8
V0-VYPLNE
  6
DASHED
 62
    52
100
AcDbLine
 10
1141.628076
 20
-618.252437
 30
0.0
 11
1141.628076
 21
-676.008437
 31
0.0
  0
LINE
  5
3E20
330
448F
100
AcDbEntity
  8
V0-VYPLNE
  6
DASHED
 62
    52
100
AcDbLine
 10
1135.535993
 20
-670.5344260000001
 30
0.0
 11
1135.535993
 21
-618.53401
 31
0.0
  0
ELLIPSE
  5
3E21
330
448F
100
AcDbEntity
  8
V0-VYPLNE
  6
DASHED
 62
    52
100
AcDbEllipse
 10
1169.909997
 20
-553.297342
 30
0.0
 11
-1.950176864043442
 21
126.7224889106881
 31
0.0
210
0.0
220
0.0
230
-1.0
 40
0.9036070000000001
 41
2.943895797789178
 42
3.408155533290548
  0
LINE
  5
3E22
330
448F
100
AcDbEntity
  8
V0-VYPLNE
  6
DASHED
 62
    52
100
AcDbLine
 10
1146.208105
 20
-677.168709
 30
0.0
 11
1141.598553
 21
-682.572261
 31
0.0
  0
ARC
  5
3E23
330
448F
100
AcDbEntity
  8
V0-VYPLNE
  6
DASHED
 62
    52
 48
2.0
100
AcDbCircle
 10
1130.535953
 20
-670.5344260000001
 30
0.0
 40
5.00004
100
AcDbArc
 50
270.0
 51
0.0
  0
LINE
  5
3E24
330
448F
100
AcDbEntity
  8
V0-VYPLNE
  6
DASHED
 62
    52
100
AcDbLine
 10
1194.048047
 20
-677.168709
 30
0.0
 11
1198.657599
 21
-682.572261
 31
0.0
  0
ELLIPSE
  5
3E25
330
448F
100
AcDbEntity
  8
V0-VYPLNE
  6
DASHED
 62
    52
100
AcDbEllipse
 10
1193.052607
 20
-670.322378
 30
0.0
 11
-6.821210263296962E-13
 21
7.03999999999985
 31
0.0
210
0.0
220
0.0
230
-1.0
 40
0.852273
 41
1.660762687017287
 42
2.929991421004677
  0
LINE
  5
3E26
330
448F
100
AcDbEntity
  8
V0-VYPLNE
  6
DASHED
 62
    52
100
AcDbLine
 10
1107.628385
 20
-561.533554
 30
0.0
 11
1130.535953
 21
-561.533554
 31
0.0
  0
LINE
  5
3E27
330
448F
100
AcDbEntity
  8
V0-VYPLNE
  6
DASHED
 62
    52
100
AcDbLine
 10
1107.628385
 20
-565.026994
 30
0.0
 11
1135.535993
 21
-565.026994
 31
0.0
  0
LINE
  5
3E28
330
448F
100
AcDbEntity
  8
V0-VYPLNE
  6
DASHED
 62
    52
100
AcDbLine
 10
1107.628385
 20
-575.101169
 30
0.0
 11
1135.535993
 21
-575.101169
 31
0.0
  0
LINE
  5
3E29
330
448F
100
AcDbEntity
  8
V0-VYPLNE
  6
DASHED
 62
    52
100
AcDbLine
 10
1107.628385
 20
-587.094233
 30
0.0
 11
1135.05583
 21
-587.094233
 31
0.0
  0
LINE
  5
3E2A
330
448F
100
AcDbEntity
  8
V0-VYPLNE
  6
DASHED
 62
    52
100
AcDbLine
 10
1107.628385
 20
-598.607573
 30
0.0
 11
1135.535993
 21
-598.607573
 31
0.0
  0
LINE
  5
3E2B
330
448F
100
AcDbEntity
  8
V0-VYPLNE
  6
DASHED
 62
    52
100
AcDbLine
 10
1107.628385
 20
-610.120915
 30
0.0
 11
1135.05583
 21
-610.120915
 31
0.0
  0
ARC
  5
3E2C
330
448F
100
AcDbEntity
  8
V0-OBRYS
  6
CONTINUOUS
 62
    90
 48
2.0
100
AcDbCircle
 10
1085.704695
 20
-581.071605
 30
0.0
 40
19.559856
100
AcDbArc
 50
87.29430100000002
 51
150.81508
  0
LINE
  5
3E2D
330
448F
100
AcDbEntity
  8
V0-OBRYS
  6
CONTINUOUS
 62
    90
 48
2.0
100
AcDbLine
 10
1106.468312
 20
-565.026994
 30
0.0
 11
1068.741861
 21
-578.938947
 31
0.0
  0
LINE
  5
3E2E
330
448F
100
AcDbEntity
  8
V0-OBRYS
  6
CONTINUOUS
 62
    90
 48
2.0
100
AcDbLine
 10
1106.468312
 20
-587.094233
 30
0.0
 11
1068.261693
 21
-591.411736
 31
0.0
  0
LINE
  5
3E2F
330
448F
100
AcDbEntity
  8
V0-OBRYS
  6
CONTINUOUS
 62
    90
 48
2.0
100
AcDbLine
 10
1105.988145
 20
-575.101169
 30
0.0
 11
1069.222024
 21
-584.695619
 31
0.0
  0
LINE
  5
3E30
330
448F
100
AcDbEntity
  8
V0-OBRYS
  6
CONTINUOUS
 62
    90
 48
2.0
100
AcDbLine
 10
1105.988145
 20
-598.607573
 30
0.0
 11
1068.741861
 21
-600.526465
 31
0.0
  0
LINE
  5
3E31
330
448F
100
AcDbEntity
  8
V0-OBRYS
  6
CONTINUOUS
 62
    90
 48
2.0
100
AcDbLine
 10
1105.988145
 20
-610.120915
 30
0.0
 11
1068.741861
 21
-610.600638
 31
0.0
  0
LINE
  5
3E32
330
448F
100
AcDbEntity
  8
V0-OBRYS
  6
CONTINUOUS
 62
    90
 48
2.0
100
AcDbLine
 10
1105.988145
 20
-598.607573
 30
0.0
 11
1108.869138
 21
-598.607573
 31
0.0
  0
LINE
  5
3E33
330
448F
100
AcDbEntity
  8
V0-OBRYS
  6
CONTINUOUS
 62
    90
 48
2.0
100
AcDbLine
 10
1105.988145
 20
-610.120915
 30
0.0
 11
1107.62833
 21
-610.120915
 31
0.0
  0
LINE
  5
3E34
330
448F
100
AcDbEntity
  8
V0-OBRYS
  6
CONTINUOUS
 62
    90
 48
2.0
100
AcDbLine
 10
1108.869138
 20
-598.607573
 30
0.0
 11
1107.62833
 21
-598.607573
 31
0.0
  0
LINE
  5
3E35
330
448F
100
AcDbEntity
  8
V0-OBRYS
  6
CONTINUOUS
 62
    90
 48
2.0
100
AcDbLine
 10
1105.988145
 20
-575.101169
 30
0.0
 11
1107.62833
 21
-575.101169
 31
0.0
  0
LINE
  5
3E36
330
448F
100
AcDbEntity
  8
V0-OBRYS
  6
CONTINUOUS
 62
    90
 48
2.0
100
AcDbLine
 10
1106.468312
 20
-587.094233
 30
0.0
 11
1107.62833
 21
-587.094233
 31
0.0
  0
LINE
  5
3E37
330
448F
100
AcDbEntity
  8
V0-OBRYS
  6
CONTINUOUS
 62
    90
 48
2.0
100
AcDbLine
 10
1086.628034
 20
-561.533554
 30
0.0
 11
1107.62833
 21
-561.533554
 31
0.0
  0
LINE
  5
3E38
330
448F
100
AcDbEntity
  8
V0-OBRYS
  6
CONTINUOUS
 62
    90
 48
2.0
100
AcDbLine
 10
1106.468312
 20
-565.026994
 30
0.0
 11
1107.62833
 21
-565.026994
 31
0.0
  0
ELLIPSE
  5
3E39
330
448F
100
AcDbEntity
  8
V0-VYPLNE
  6
DASHED
 62
    52
100
AcDbEllipse
 10
1169.909997
 20
-683.207532
 30
0.0
 11
1.950176864045261
 21
126.7224889106881
 31
0.0
210
0.0
220
0.0
230
-1.0
 40
0.9036069999999999
 41
-0.2665628797007695
 42
0.1976968558005663
  0
LINE
  5
3E3A
330
448F
100
AcDbEntity
  8
V0-VYPLNE
  6
DASHED
 62
    52
100
AcDbLine
 10
1146.208105
 20
-559.3361640000001
 30
0.0
 11
1141.598553
 21
-553.932612
 31
0.0
  0
ARC
  5
3E3B
330
448F
100
AcDbEntity
  8
V0-VYPLNE
  6
DASHED
 62
    52
 48
2.0
100
AcDbCircle
 10
1130.535953
 20
-566.533594
 30
0.0
 40
5.00004
100
AcDbArc
 50
0.0
 51
90.0
  0
LINE
  5
3E3C
330
448F
100
AcDbEntity
  8
V0-VYPLNE
  6
DASHED
 62
    52
100
AcDbLine
 10
1194.048047
 20
-559.3361640000001
 30
0.0
 11
1198.657599
 21
-553.932612
 31
0.0
  0
LINE
  5
3E3D
330
448F
100
AcDbEntity
  8
V0-OBRYS
  6
CONTINUOUS
 62
    90
 48
2.0
100
AcDbLine
 10
1087.720042
 20
-434.352616
 30
0.0
 11
1087.720042
 21
-515.856846
 31
0.0
  0
LINE
  5
3E3E
330
448F
100
AcDbEntity
  8
V0-OBRYS
  6
CONTINUOUS
 62
    90
 48
2.0
100
AcDbLine
 10
1089.937372
 20
-434.352616
 30
0.0
 11
1089.937372
 21
-515.856846
 31
0.0
  0
LINE
  5
3E3F
330
448F
100
AcDbEntity
  8
V0-OBRYS
  6
CONTINUOUS
 62
    90
 48
2.0
100
AcDbLine
 10
1092.417098
 20
-522.537854
 30
0.0
 11
1102.9313
 21
-524.161467
 31
0.0
  0
LINE
  5
3E40
330
448F
100
AcDbEntity
  8
V0-OBRYS
  6
CONTINUOUS
 62
    90
 48
2.0
100
AcDbLine
 10
1093.167537
 20
-520.451374
 30
0.0
 11
1103.68174
 21
-522.074988
 31
0.0
  0
ARC
  5
3E41
330
448F
100
AcDbEntity
  8
V0-OBRYS
  6
CONTINUOUS
 62
    90
 48
2.0
100
AcDbCircle
 10
1094.820042
 20
-515.856846
 30
0.0
 40
7.1
100
AcDbArc
 50
180.0
 51
250.21797
  0
ARC
  5
3E42
330
448F
100
AcDbEntity
  8
V0-OBRYS
  6
CONTINUOUS
 62
    90
 48
2.0
100
AcDbCircle
 10
1094.820042
 20
-515.856846
 30
0.0
 40
4.882669
100
AcDbArc
 50
180.0
 51
250.21797
  0
CIRCLE
  5
3E43
330
448F
100
AcDbEntity
  8
V0-OBRYS
  6
CONTINUOUS
 62
    90
 48
2.0
100
AcDbCircle
 10
1085.535968
 20
-508.150514
 30
0.0
 40
2.283588
  0
ARC
  5
3E44
330
448F
100
AcDbEntity
  8
V0-OBRYS
  6
CONTINUOUS
 62
    90
 48
2.0
100
AcDbCircle
 10
1100.528356
 20
-530.842475
 30
0.0
 40
9.317330999999999
100
AcDbArc
 50
40.357326
 51
70.21796999999999
  0
CIRCLE
  5
3E45
330
448F
100
AcDbEntity
  8
V0-OBRYS
  6
CONTINUOUS
 62
    90
 48
2.0
100
AcDbCircle
 10
1085.535968
 20
-491.110514
 30
0.0
 40
2.283588
  0
CIRCLE
  5
3E46
330
448F
100
AcDbEntity
  8
V0-OBRYS
  6
CONTINUOUS
 62
    90
 48
2.0
100
AcDbCircle
 10
1085.535968
 20
-457.030514
 30
0.0
 40
2.283588
  0
CIRCLE
  5
3E47
330
448F
100
AcDbEntity
  8
V0-OBRYS
  6
CONTINUOUS
 62
    90
 48
2.0
100
AcDbCircle
 10
1085.535968
 20
-474.070514
 30
0.0
 40
2.283588
  0
CIRCLE
  5
3E48
330
448F
100
AcDbEntity
  8
V0-OBRYS
  6
CONTINUOUS
 62
    90
 48
2.0
100
AcDbCircle
 10
1085.535968
 20
-439.990514
 30
0.0
 40
2.283588
  0
LINE
  5
3E49
330
448F
100
AcDbEntity
  8
V0-OBRYS
  6
CONTINUOUS
 62
    90
100
AcDbLine
 10
1119.668356
 20
-368.38401
 30
0.0
 11
1130.831541
 21
-408.2351
 31
0.0
  0
LINE
  5
3E4A
330
448F
100
AcDbEntity
  8
V0-OBRYS
  6
CONTINUOUS
 62
    90
 48
2.0
100
AcDbLine
 10
1105.391825
 20
-382.547792
 30
0.0
 11
1105.391825
 21
-420.79479
 31
0.0
  0
ARC
  5
3E4B
330
448F
100
AcDbEntity
  8
V0-OBRYS
  6
CONTINUOUS
 62
    90
 48
2.0
100
AcDbCircle
 10
1090.556632
 20
-408.293048
 30
0.0
 40
19.400425
100
AcDbArc
 50
276.369868
 51
319.878879
  0
ARC
  5
3E4C
330
448F
100
AcDbEntity
  8
V0-OBRYS
  6
CONTINUOUS
 62
    90
 48
2.0
100
AcDbCircle
 10
1090.671406
 20
-409.526997
 30
0.0
 40
20.343317
100
AcDbArc
 50
277.618085
 51
326.366268
  0
ARC
  5
3E4D
330
448F
100
AcDbEntity
  8
V0-OBRYS
  6
CONTINUOUS
 62
    90
 48
2.0
100
AcDbCircle
 10
1094.820042
 20
-434.352616
 30
0.0
 40
7.1
100
AcDbArc
 50
107.296981
 51
180.0
  0
ARC
  5
3E4E
330
448F
100
AcDbEntity
  8
V0-OBRYS
  6
CONTINUOUS
 62
    90
 48
2.0
100
AcDbCircle
 10
1094.820042
 20
-434.352616
 30
0.0
 40
4.882669
100
AcDbArc
 50
107.296981
 51
180.0
  0
LINE
  5
3E4F
330
448F
100
AcDbEntity
  8
V0-OBRYS
  6
CONTINUOUS
 62
    90
 48
2.0
100
AcDbLine
 10
1119.668356
 20
-368.38401
 30
0.0
 11
1107.628356
 21
-368.38401
 31
0.0
  0
ARC
  5
3E50
330
448F
100
AcDbEntity
  8
V0-OBRYS
  6
CONTINUOUS
 62
    90
 48
2.0
100
AcDbCircle
 10
1106.51009
 20
-382.547792
 30
0.0
 40
1.118266
100
AcDbArc
 50
0.0
 51
180.0
  0
LINE
  5
3E51
330
448F
100
AcDbEntity
  8
V0-OBRYS
  6
CONTINUOUS
 62
    90
 48
2.0
100
AcDbLine
 10
1197.474631
 20
-418.534365
 30
0.0
 11
1148.880461
 21
-418.534365
 31
0.0
  0
LINE
  5
3E52
330
448F
100
AcDbEntity
  8
V0-VYPLNE
  6
DASHED
 62
    52
100
AcDbLine
 10
1153.698624
 20
-419.774006
 30
0.0
 11
1186.557528
 21
-419.774006
 31
0.0
  0
ARC
  5
3E53
330
448F
100
AcDbEntity
  8
V0-OBRYS
  6
CONTINUOUS
 62
    90
 48
2.0
100
AcDbCircle
 10
1148.880461
 20
-397.56984
 30
0.0
 40
20.964525
100
AcDbArc
 50
210.579201
 51
270.0
  0
LINE
  5
3E56
330
448F
100
AcDbEntity
  8
V0-OBRYS
  6
CONTINUOUS
 62
    90
100
AcDbLine
 10
1107.628356
 20
-868.6840099999999
 30
0.0
 11
1107.628385
 21
-610.120915
 31
0.0
  0
POINT
  5
3F37
330
448F
100
AcDbEntity
  8
V0-VYPLNE
  6
CONTINUOUS
 62
    41
100
AcDbPoint
 10
1197.474631
 20
152.659211
 30
0.0
  0
POINT
  5
3F38
330
448F
100
AcDbEntity
  8
V0-VYPLNE
  6
CONTINUOUS
 62
    41
100
AcDbPoint
 10
1197.474631
 20
-618.53401
 30
0.0
  0
DIMENSION
  5
4315
330
448F
100
AcDbEntity
  8
V0-VYPLNE
  6
CONTINUOUS
 62
    41
100
AcDbDimension
  2
*D11
 10
1198.474631
 20
-200.5282479999902
 30
0.0
 11
1110.5001825
 21
-183.5282479999902
 31
0.0
 70
    32
  3
ED30
100
AcDbAlignedDimension
 13
1022.525734
 23
112.659115
 33
0.0
 14
1198.474631
 24
-47.340434
 34
0.0
100
AcDbRotatedDimension
  0
DIMENSION
  5
4377
330
448F
100
AcDbEntity
  8
V0-VYPLNE
  6
CONTINUOUS
 62
    41
100
AcDbDimension
  2
*D12
 10
1334.257975
 20
-85.11853200000002
 30
0.0
 11
1317.257975
 21
149.822673
 31
0.0
 70
    32
  1
%%C464
  3
ED30
100
AcDbAlignedDimension
 13
1128.05535
 23
384.763878
 33
0.0
 14
1128.05535
 24
-85.118532
 34
0.0
 50
90.0
100
AcDbRotatedDimension
  0
LWPOLYLINE
  5
438C
330
448F
100
AcDbEntity
  8
V0-OBRYS
  6
CONTINUOUS
 62
    41
100
AcDbPolyline
 90
        4
 70
     1
 43
0.0
 10
1545.934147336407
 20
-76.75874958996513
 10
1559.625331
 20
-61.803396
 10
1551.52459626632
 20
-80.3907359895106
 10
1551.52459626632
 20
-80.3907359895106
1001
VDEXTRAPARAM
1071
       65
1071
        0
1071
        0
1040
1.0
1000

1000

1040
0.0
1040
0.0
  0
HATCH
  5
451E
330
448F
100
AcDbEntity
  8
V0-OBRYS
  6
CONTINUOUS
 62
    41
100
AcDbHatch
 10
0.0
 20
0.0
 30
0.0
210
0.0
220
0.0
230
1.0
  2
SOLID
 70
     1
 71
     0
 91
        1
 92
        2
 72
     0
 73
     1
 93
        3
 10
1545.934147336407
 20
-76.75874958996513
 10
1559.625331
 20
-61.803396
 10
1551.52459626632
 20
-80.3907359895106
 97
        0
 75
     0
 76
     1
 98
        1
 10
0.0
 20
0.0
1001
VDEXTRAPARAM
1071
       65
1071
        0
1071
        0
1040
1.0
1000

1000

1040
0.0
1040
0.0
1001
VD_TEMPHATCH
1000
VD_TEMPHATCH
  0
LWPOLYLINE
  5
438D
330
448F
100
AcDbEntity
  8
V0-OBRYS
  6
CONTINUOUS
 62
    41
100
AcDbPolyline
 90
        3
 70
     0
 43
0.0
 10
1548.729371801364
 20
-78.57474278973787
 10
1504.797553
 20
-146.195753
 10
1230.773931
 20
-146.195753
  0
TEXT
  5
4392
330
448F
100
AcDbEntity
  8
V0-OBRYS
  6
CONTINUOUS
 62
    41
100
AcDbText
 10
1147.083267285715
 20
-144.195753
 30
0.0
 40
30.0
  1
4 OTVORY %%c10
  7
ED40
100
AcDbText
  0
VIEWPORT
  5
451F
330
448B
100
AcDbEntity
 67
     1
  8
0
 60
     1
100
AcDbViewport
 10
261.517699
 20
148.5
 30
0.0
 40
297.0
 41
297.0
 68
     0
 69
     1
1001
VD_INVISIBLE_NOT_FOR_READ
1000
VD_INVISIBLE_NOT_FOR_READ
1001
ACAD
1000
MVIEW
1002
{
1070
    16
1010
0.0
1020
0.0
1030
0.0
1010
0.0
1020
0.0
1030
1.0
1040
6.2831853071796
1040
297.0
1040
261.517699
1040
148.5
1040
0.0
1040
0.0
1040
0.0
1070
     0
1070
   100
1070
     0
1070
     1
1070
     0
1070
     0
1070
     0
1070
     0
1040
0.0
1040
0.0
1040
0.0
1040
1.0
1040
1.0
1040
0.0
1040
0.0
1070
     0
1002
{
1002
}
1002
}
  0
VIEWPORT
  5
4520
330
448B
100
AcDbEntity
 67
     1
  8
0
 60
     1
100
AcDbViewport
 10
261.517699
 20
148.5
 30
0.0
 40
297.0
 41
297.0
 68
     0
 69
     2
1001
VD_INVISIBLE_NOT_FOR_READ
1000
VD_INVISIBLE_NOT_FOR_READ
1001
ACAD
1000
MVIEW
1002
{
1070
    16
1010
0.0
1020
0.0
1030
0.0
1010
0.0
1020
0.0
1030
1.0
1040
6.2831853071796
1040
297.0
1040
261.517699
1040
148.5
1040
0.0
1040
0.0
1040
0.0
1070
     0
1070
   100
1070
     0
1070
     1
1070
     0
1070
     0
1070
     0
1070
     0
1040
0.0
1040
0.0
1040
0.0
1040
1.0
1040
1.0
1040
0.0
1040
0.0
1070
     0
1002
{
1002
}
1002
}
  0
ENDSEC
  0
SECTION
  2
OBJECTS
  0
DICTIONARY
  5
447C
330
0
100
AcDbDictionary
  3
ACAD_GROUP
350
447D
  3
ACAD_LAYOUT
350
448A
  3
ACAD_MLINESTYLE
350
4487
  3
ACAD_PLOTSETTINGS
350
4489
  3
ACDBHEADERROUNDTRIPXREC
350
4521
  3
VECTORDRAW_OBJECTS
350
449F
  0
DICTIONARY
  5
4541
330
4499
100
AcDbDictionary
280
     1
  3
ACAD_XREC_ROUNDTRIP
360
4542
  0
DICTIONARY
  5
447D
102
{ACAD_REACTORS
330
447C
102
}
330
447C
100
AcDbDictionary
  0
DICTIONARY
  5
448A
102
{ACAD_REACTORS
330
447C
102
}
330
447C
100
AcDbDictionary
  0
DICTIONARY
  5
4487
102
{ACAD_REACTORS
330
447C
102
}
330
447C
100
AcDbDictionary
  3
STANDARD
350
4488
  0
DICTIONARY
  5
4489
102
{ACAD_REACTORS
330
447C
102
}
330
447C
100
AcDbDictionary
  0
DICTIONARY
  5
4521
102
{ACAD_REACTORS
330
447C
102
}
330
447C
100
AcDbDictionary
  3
CEPSNTYPE
350
452A
  3
DIMSTYLEDATA
350
4540
  3
FINGERPRINTGUID
350
452B
  3
HYPERLINKBASE
350
4524
  3
INSUNITS
350
4529
  3
LAYOUTDICT
350
4526
  3
LWETCUNION
350
4528
  3
PLOTSETDICT
350
4527
  3
PSVPSCALE
350
452D
  3
PUCSBASE
350
4530
  3
PUCSORGBACK
350
4536
  3
PUCSORGBOTTOM
350
4532
  3
PUCSORGFRONT
350
4535
  3
PUCSORGLEFT
350
4533
  3
PUCSORGRIGHT
350
4534
  3
PUCSORGTOP
350
4531
  3
PUCSORTHOREF
350
452E
  3
PUCSORTHOVIEW
350
452F
  3
STYLESHEET
350
4525
  3
TSTACKALIGN
350
4522
  3
TSTACKSIZE
350
4523
  3
UCSBASE
350
4539
  3
UCSORGBACK
350
453F
  3
UCSORGBOTTOM
350
453B
  3
UCSORGFRONT
350
453E
  3
UCSORGLEFT
350
453C
  3
UCSORGRIGHT
350
453D
  3
UCSORGTOP
350
453A
  3
UCSORTHOREF
350
4537
  3
UCSORTHOVIEW
350
4538
  3
VERSIONGUID
350
452C
  0
DICTIONARY
  5
449F
102
{ACAD_REACTORS
330
447C
102
}
330
447C
100
AcDbDictionary
  3
SERIALNO
350
44A0
  0
XRECORD
  5
4542
102
{ACAD_REACTORS
330
4541
102
}
330
4541
100
AcDbXrecord
102
UCS
 74
     0
 71
     1
 10
0.0
 20
0.0
 30
0.0
 10
1.0
 20
0.0
 30
0.0
 10
0.0
 20
1.0
 30
0.0
146
0.0
 79
     0
102
VIEW
281
     0
  0
MLINESTYLE
  5
4488
102
{ACAD_REACTORS
330
4487
102
}
330
4487
100
AcDbMlineStyle
  2
Standard
 70
     0
  3

 62
   256
 51
90.0
 52
90.0
 71
     2
 49
0.5
 62
   256
  6
BYLAYER
 49
-0.5
 62
   256
  6
BYLAYER
  0
XRECORD
  5
452A
102
{ACAD_REACTORS
330
4521
102
}
330
4521
100
AcDbXrecord
 90
        0
  0
XRECORD
  5
4540
102
{ACAD_REACTORS
330
4521
102
}
330
4521
100
AcDbXrecord
1000
DSTYLE
1002
{
1070
    41
 40
30.0
1070
   342
340
90
1070
   177
 70
    41
1070
   178
 70
    41
1070
   271
 70
     0
1070
    44
 40
1.25
1070
    42
 40
1.0
1070
   147
 40
2.0
1070
    77
 70
     1
1070
    73
 70
     0
1070
   174
 70
     1
1070
   172
 70
     1
1070
    74
 70
     0
1070
   340
340
F38
1070
   140
 40
30.0
1070
   288
 70
     1
1002
}
  0
XRECORD
  5
452B
102
{ACAD_REACTORS
330
4521
102
}
330
4521
100
AcDbXrecord
  1
{FAEB1C30-E019-11D5-929B-00C0DF256EC4}
  0
XRECORD
  5
4524
102
{ACAD_REACTORS
330
4521
102
}
330
4521
100
AcDbXrecord
  1

  0
XRECORD
  5
4529
102
{ACAD_REACTORS
330
4521
102
}
330
4521
100
AcDbXrecord
 90
        1
  0
XRECORD
  5
4526
102
{ACAD_REACTORS
330
4521
102
}
330
4521
100
AcDbXrecord
340
448A
  0
XRECORD
  5
4528
102
{ACAD_REACTORS
330
4521
102
}
330
4521
100
AcDbXrecord
 90
     2560
  0
XRECORD
  5
4527
102
{ACAD_REACTORS
330
4521
102
}
330
4521
100
AcDbXrecord
340
4489
  0
XRECORD
  5
452D
102
{ACAD_REACTORS
330
4521
102
}
330
4521
100
AcDbXrecord
 40
0.0
  0
XRECORD
  5
4530
102
{ACAD_REACTORS
330
4521
102
}
330
4521
100
AcDbXrecord
340
0
  0
XRECORD
  5
4536
102
{ACAD_REACTORS
330
4521
102
}
330
4521
100
AcDbXrecord
 10
0.0
 20
0.0
 30
0.0
  0
XRECORD
  5
4532
102
{ACAD_REACTORS
330
4521
102
}
330
4521
100
AcDbXrecord
 10
0.0
 20
0.0
 30
0.0
  0
XRECORD
  5
4535
102
{ACAD_REACTORS
330
4521
102
}
330
4521
100
AcDbXrecord
 10
0.0
 20
0.0
 30
0.0
  0
XRECORD
  5
4533
102
{ACAD_REACTORS
330
4521
102
}
330
4521
100
AcDbXrecord
 10
0.0
 20
0.0
 30
0.0
  0
XRECORD
  5
4534
102
{ACAD_REACTORS
330
4521
102
}
330
4521
100
AcDbXrecord
 10
0.0
 20
0.0
 30
0.0
  0
XRECORD
  5
4531
102
{ACAD_REACTORS
330
4521
102
}
330
4521
100
AcDbXrecord
 10
0.0
 20
0.0
 30
0.0
  0
XRECORD
  5
452E
102
{ACAD_REACTORS
330
4521
102
}
330
4521
100
AcDbXrecord
340
0
  0
XRECORD
  5
452F
102
{ACAD_REACTORS
330
4521
102
}
330
4521
100
AcDbXrecord
 70
     0
  0
XRECORD
  5
4525
102
{ACAD_REACTORS
330
4521
102
}
330
4521
100
AcDbXrecord
  1

  0
XRECORD
  5
4522
102
{ACAD_REACTORS
330
4521
102
}
330
4521
100
AcDbXrecord
 90
        1
  0
XRECORD
  5
4523
102
{ACAD_REACTORS
330
4521
102
}
330
4521
100
AcDbXrecord
 90
       70
  0
XRECORD
  5
4539
102
{ACAD_REACTORS
330
4521
102
}
330
4521
100
AcDbXrecord
340
0
  0
XRECORD
  5
453F
102
{ACAD_REACTORS
330
4521
102
}
330
4521
100
AcDbXrecord
 10
0.0
 20
0.0
 30
0.0
  0
XRECORD
  5
453B
102
{ACAD_REACTORS
330
4521
102
}
330
4521
100
AcDbXrecord
 10
0.0
 20
0.0
 30
0.0
  0
XRECORD
  5
453E
102
{ACAD_REACTORS
330
4521
102
}
330
4521
100
AcDbXrecord
 10
0.0
 20
0.0
 30
0.0
  0
XRECORD
  5
453C
102
{ACAD_REACTORS
330
4521
102
}
330
4521
100
AcDbXrecord
 10
0.0
 20
0.0
 30
0.0
  0
XRECORD
  5
453D
102
{ACAD_REACTORS
330
4521
102
}
330
4521
100
AcDbXrecord
 10
0.0
 20
0.0
 30
0.0
  0
XRECORD
  5
453A
102
{ACAD_REACTORS
330
4521
102
}
330
4521
100
AcDbXrecord
 10
0.0
 20
0.0
 30
0.0
  0
XRECORD
  5
4537
102
{ACAD_REACTORS
330
4521
102
}
330
4521
100
AcDbXrecord
340
0
  0
XRECORD
  5
4538
102
{ACAD_REACTORS
330
4521
102
}
330
4521
100
AcDbXrecord
 70
     0
  0
XRECORD
  5
452C
102
{ACAD_REACTORS
330
4521
102
}
330
4521
100
AcDbXrecord
  1
{FAEB1C32-E019-11D5-929B-00C0DF256EC4}
  0
XRECORD
  5
44A0
102
{ACAD_REACTORS
330
449F
102
}
330
449F
100
AcDbXrecord
1000
rInJVR9YY4Q8hfPWdUq5j5319
1070
     4
1070
     6
  0
ENDSEC
  0
EOF
