  0
SECTION
  2
HEADER
  9
$ACADVER
  1
AC1014
  9
$ACADMAINTVER
 70
     9
  9
$DWGCODEPAGE
  3
ANSI_1250
  9
$INSBASE
 10
0.0
 20
0.0
 30
0.0
  9
$EXTMIN
 10
891.7136976153845
 20
-749.502559
 30
0.0
  9
$EXTMAX
 10
1729.979104395604
 20
318.282265
 30
0.0
  9
$LIMMIN
 10
0.0
 20
0.0
  9
$LIMMAX
 10
0.0
 20
0.0
  9
$ORTHOMODE
 70
     1
  9
$REGENMODE
 70
     1
  9
$FILLMODE
 70
     1
  9
$QTEXTMODE
 70
     0
  9
$MIRRTEXT
 70
     1
  9
$DRAGMODE
 70
     2
  9
$LTSCALE
 40
1.0
  9
$OSMODE
 70
    37
  9
$ATTMODE
 70
     1
  9
$TEXTSIZE
 40
0.2
  9
$TRACEWID
 40
0.05
  9
$TEXTSTYLE
  7
ED40
  9
$CLAYER
  8
V0-VYPLNE
  9
$CELTYPE
  6
CONTINUOUS
  9
$CECOLOR
 62
    41
  9
$CELTSCALE
 40
1.0
  9
$DELOBJ
 70
     1
  9
$DISPSILH
 70
     0
  9
$DIMSCALE
 40
1.0
  9
$DIMASZ
 40
20.0
  9
$DIMEXO
 40
1.0
  9
$DIMDLI
 40
0.38
  9
$DIMRND
 40
0.0
  9
$DIMDLE
 40
0.0
  9
$DIMEXE
 40
1.25
  9
$DIMTP
 40
0.0
  9
$DIMTM
 40
0.0
  9
$DIMTXT
 40
20.0
  9
$DIMCEN
 40
0.09
  9
$DIMTSZ
 40
0.0
  9
$DIMTOL
 70
     0
  9
$DIMLIM
 70
     0
  9
$DIMTIH
 70
     0
  9
$DIMTOH
 70
     0
  9
$DIMSE1
 70
     0
  9
$DIMSE2
 70
     0
  9
$DIMTAD
 70
     1
  9
$DIMZIN
 70
     0
  9
$DIMBLK
  1
OPEN
  9
$DIMASO
 70
     1
  9
$DIMSHO
 70
     1
  9
$DIMPOST
  1

  9
$DIMAPOST
  1

  9
$DIMALT
 70
     0
  9
$DIMALTD
 70
     2
  9
$DIMALTF
 40
25.4
  9
$DIMLFAC
 40
1.0
  9
$DIMTOFL
 70
     1
  9
$DIMTVP
 40
0.0
  9
$DIMTIX
 70
     1
  9
$DIMSOXD
 70
     0
  9
$DIMSAH
 70
     0
  9
$DIMBLK1
  1

  9
$DIMBLK2
  1

  9
$DIMSTYLE
  2
ED30
  9
$DIMCLRD
 70
     0
  9
$DIMCLRE
 70
    41
  9
$DIMCLRT
 70
    41
  9
$DIMTFAC
 40
1.0
  9
$DIMGAP
 40
2.0
  9
$DIMJUST
 70
     0
  9
$DIMSD1
 70
     0
  9
$DIMSD2
 70
     0
  9
$DIMTOLJ
 70
     1
  9
$DIMTZIN
 70
     0
  9
$DIMALTZ
 70
     0
  9
$DIMALTTZ
 70
     0
  9
$DIMFIT
 70
     3
  9
$DIMUPT
 70
     1
  9
$DIMUNIT
 70
     2
  9
$DIMDEC
 70
     0
  9
$DIMTDEC
 70
     4
  9
$DIMALTU
 70
     2
  9
$DIMALTTD
 70
     2
  9
$DIMTXSTY
  7
ED20
  9
$DIMAUNIT
 70
     0
  9
$LUNITS
 70
     2
  9
$LUPREC
 70
     4
  9
$SKETCHINC
 40
0.1
  9
$FILLETRAD
 40
0.5
  9
$AUNITS
 70
     0
  9
$AUPREC
 70
     0
  9
$MENU
  1
.
  9
$ELEVATION
 40
0.0
  9
$PELEVATION
 40
0.0
  9
$THICKNESS
 40
0.0
  9
$LIMCHECK
 70
     0
  9
$BLIPMODE
 70
     0
  9
$CHAMFERA
 40
0.5
  9
$CHAMFERB
 40
0.5
  9
$CHAMFERC
 40
1.0
  9
$CHAMFERD
 40
0.0
  9
$SKPOLY
 70
     0
  9
$TDCREATE
 40
2455643.629713681
  9
$TDUPDATE
 40
2455643.629713692
  9
$TDINDWG
 40
0.0000000116
  9
$TDUSRTIMER
 40
0.0000000116
  9
$USRTIMER
 70
     1
  9
$ANGBASE
 50
0.0
  9
$ANGDIR
 70
     0
  9
$PDMODE
 70
    35
  9
$PDSIZE
 40
20.0
  9
$PLINEWID
 40
0.0
  9
$COORDS
 70
     1
  9
$SPLFRAME
 70
     0
  9
$SPLINETYPE
 70
     6
  9
$SPLINESEGS
 70
     8
  9
$ATTDIA
 70
     0
  9
$ATTREQ
 70
     1
  9
$HANDLING
 70
     1
  9
$HANDSEED
  5
3961
  9
$SURFTAB1
 70
     6
  9
$SURFTAB2
 70
     6
  9
$SURFTYPE
 70
     6
  9
$SURFU
 70
     6
  9
$SURFV
 70
     6
  9
$UCSNAME
  2

  9
$UCSORG
 10
0.0
 20
0.0
 30
0.0
  9
$UCSXDIR
 10
1.0
 20
0.0
 30
0.0
  9
$UCSYDIR
 10
0.0
 20
1.0
 30
0.0
  9
$PUCSNAME
  2

  9
$PUCSORG
 10
0.0
 20
0.0
 30
0.0
  9
$PUCSXDIR
 10
1.0
 20
0.0
 30
0.0
  9
$PUCSYDIR
 10
0.0
 20
1.0
 30
0.0
  9
$USERI1
 70
     0
  9
$USERI2
 70
     0
  9
$USERI3
 70
     0
  9
$USERI4
 70
     0
  9
$USERI5
 70
     0
  9
$USERR1
 40
0.0
  9
$USERR2
 40
0.0
  9
$USERR3
 40
0.0
  9
$USERR4
 40
0.0
  9
$USERR5
 40
0.0
  9
$WORLDVIEW
 70
     1
  9
$SHADEDGE
 70
     3
  9
$SHADEDIF
 70
    70
  9
$TILEMODE
 70
     1
  9
$MAXACTVP
 70
    64
  9
$PINSBASE
 10
0.0
 20
0.0
 30
0.0
  9
$PLIMCHECK
 70
     0
  9
$PEXTMIN
 10
1.000000000000000E+20
 20
1.000000000000000E+20
 30
1.000000000000000E+20
  9
$PEXTMAX
 10
-1.000000000000000E+20
 20
-1.000000000000000E+20
 30
-1.000000000000000E+20
  9
$PLIMMIN
 10
0.0
 20
0.0
  9
$PLIMMAX
 10
0.0
 20
0.0
  9
$UNITMODE
 70
     0
  9
$VISRETAIN
 70
     1
  9
$PLINEGEN
 70
     0
  9
$PSLTSCALE
 70
     1
  9
$TREEDEPTH
 70
  3020
  9
$PICKSTYLE
 70
     1
  9
$CMLSTYLE
  2
STANDARD
  9
$CMLJUST
 70
     0
  9
$CMLSCALE
 40
1.0
  9
$PROXYGRAPHICS
 70
     1
  9
$MEASUREMENT
 70
     0
  0
ENDSEC
  0
SECTION
  2
CLASSES
  0
CLASS
  1
ACDBDICTIONARYWDFLT
  2
AcDbDictionaryWithDefault
  3
ObjectDBX Classes
 90
        0
280
     0
281
     0
  0
CLASS
  1
XRECORD
  2
AcDbXrecord
  3
AutoCAD 2000
 90
        0
280
     0
281
     0
  0
CLASS
  1
LWPOLYLINE
  2
AcDbPolyline
  3
AutoCAD 2000
 90
        0
280
     0
281
     1
  0
CLASS
  1
HATCH
  2
AcDbHatch
  3
AutoCAD 2000
 90
        0
280
     0
281
     1
  0
CLASS
  1
ACDBPLACEHOLDER
  2
AcDbPlaceHolder
  3
ObjectDBX Classes
 90
        0
280
     0
281
     0
  0
CLASS
  1
LAYOUT
  2
AcDbLayout
  3
ObjectDBX Classes
 90
        0
280
     0
281
     0
  0
ENDSEC
  0
SECTION
  2
TABLES
  0
TABLE
  2
VPORT
  5
3895
330
0
100
AcDbSymbolTable
 70
     2
  0
VPORT
  5
38B6
102
{ACAD_XDICTIONARY
360
395F
102
}
330
3895
100
AcDbSymbolTableRecord
100
AcDbViewportTableRecord
  2
*ACTIVE
 70
     0
 10
0.0
 20
0.0
 11
1.0
 21
1.0
 12
1281.271618
 22
-119.363804
 13
0.0
 23
0.0
 14
10.0
 24
10.0
 15
10.0
 25
10.0
 16
0.0
 26
0.0
 36
1.0
 17
0.0
 27
0.0
 37
0.0
 40
1300.710395
 41
0.0136515836452994
 42
50.0
 43
0.0
 44
0.0
 50
0.0
 51
0.0000000000007958
 71
     0
 72
   100
 73
     1
 74
     3
 75
     0
 76
     0
 77
     0
 78
     0
  0
ENDTAB
  0
TABLE
  2
LTYPE
  5
3892
330
0
100
AcDbSymbolTable
 70
    25
  0
LTYPE
  5
38A1
330
3892
100
AcDbSymbolTableRecord
100
AcDbLinetypeTableRecord
  2
BYBLOCK
 70
     0
  3

 72
    65
 73
     0
 40
0.0
  0
LTYPE
  5
38A2
330
3892
100
AcDbSymbolTableRecord
100
AcDbLinetypeTableRecord
  2
BYLAYER
 70
     0
  3

 72
    65
 73
     0
 40
0.0
  0
LTYPE
  5
38A3
330
3892
100
AcDbSymbolTableRecord
100
AcDbLinetypeTableRecord
  2
CONTINUOUS
 70
     0
  3
Solid line
 72
    65
 73
     0
 40
0.0
  0
LTYPE
  5
38BE
330
3892
100
AcDbSymbolTableRecord
100
AcDbLinetypeTableRecord
  2
CENTER
 70
     0
  3
Center ____ _ ____ _ ____ _ ____ _ ____ _ ____
 72
    65
 73
     4
 40
2.0
 49
1.25
 74
     0
 49
-0.25
 74
     0
 49
0.25
 74
     0
 49
-0.25
 74
     0
  0
LTYPE
  5
38BF
330
3892
100
AcDbSymbolTableRecord
100
AcDbLinetypeTableRecord
  2
DASHDOT
 70
     0
  3
Dashdot __ . __ . __ . __ . __ . __ . __ . __
 72
    65
 73
     4
 40
1.0
 49
0.5
 74
     0
 49
-0.25
 74
     0
 49
0.0
 74
     0
 49
-0.25
 74
     0
  0
LTYPE
  5
38C0
330
3892
100
AcDbSymbolTableRecord
100
AcDbLinetypeTableRecord
  2
DASHED
 70
     0
  3
Dashed __ __ __ __ __ __ __ __ __ __ __ __ __ _
 72
    65
 73
     2
 40
0.75
 49
0.5
 74
     0
 49
-0.25
 74
     0
  0
LTYPE
  5
38C1
330
3892
100
AcDbSymbolTableRecord
100
AcDbLinetypeTableRecord
  2
HIDDEN
 70
     0
  3
Hidden __ __ __ __ __ __ __ __ __ __ __ __ __ __
 72
    65
 73
     2
 40
0.375
 49
0.25
 74
     0
 49
-0.125
 74
     0
  0
LTYPE
  5
38C2
330
3892
100
AcDbSymbolTableRecord
100
AcDbLinetypeTableRecord
  2
HIDDEN2
 70
     0
  3
Hidden2 _ _ _ _ _ _ _ _ _ _ _ _ _ _ _ _ _ 
 72
    65
 73
     2
 40
0.1875
 49
0.125
 74
     0
 49
-0.0625
 74
     0
  0
LTYPE
  5
38C3
330
3892
100
AcDbSymbolTableRecord
100
AcDbLinetypeTableRecord
  2
BORDER
 70
     0
  3
Border __ __ . __ __ . __ __ . __ __ . __ __ .
 72
    65
 73
     6
 40
1.75
 49
0.5
 74
     0
 49
-0.25
 74
     0
 49
0.5
 74
     0
 49
-0.25
 74
     0
 49
0.0
 74
     0
 49
-0.25
 74
     0
  0
LTYPE
  5
38C4
330
3892
100
AcDbSymbolTableRecord
100
AcDbLinetypeTableRecord
  2
BORDER2
 70
     0
  3
Border2 __.__.__.__.__.__.__.__.__.__.__.
 72
    65
 73
     6
 40
0.875
 49
0.25
 74
     0
 49
-0.125
 74
     0
 49
0.25
 74
     0
 49
-0.125
 74
     0
 49
0.0
 74
     0
 49
-0.125
 74
     0
  0
LTYPE
  5
38C5
330
3892
100
AcDbSymbolTableRecord
100
AcDbLinetypeTableRecord
  2
BORDERX2
 70
     0
  3
Borderx2  ____  ____  .  ____  ____  .  ___
 72
    65
 73
     6
 40
3.5
 49
1.0
 74
     0
 49
-0.5
 74
     0
 49
1.0
 74
     0
 49
-0.5
 74
     0
 49
0.0
 74
     0
 49
-0.5
 74
     0
  0
LTYPE
  5
38C6
330
3892
100
AcDbSymbolTableRecord
100
AcDbLinetypeTableRecord
  2
CENTER2
 70
     0
  3
Center2  ___ _ ___ _ ___ _ ___ _ ___ _ ___
 72
    65
 73
     4
 40
1.125
 49
0.75
 74
     0
 49
-0.125
 74
     0
 49
0.125
 74
     0
 49
-0.125
 74
     0
  0
LTYPE
  5
38C7
330
3892
100
AcDbSymbolTableRecord
100
AcDbLinetypeTableRecord
  2
CENTERX2
 70
     0
  3
Centerx2  ________  __  ________  __  _____
 72
    65
 73
     4
 40
4.0
 49
2.5
 74
     0
 49
-0.5
 74
     0
 49
0.5
 74
     0
 49
-0.5
 74
     0
  0
LTYPE
  5
38C8
330
3892
100
AcDbSymbolTableRecord
100
AcDbLinetypeTableRecord
  2
DASHDOT2
 70
     0
  3
Dashdot2  _._._._._._._._._._._._._._._.
 72
    65
 73
     4
 40
0.5
 49
0.25
 74
     0
 49
-0.125
 74
     0
 49
0.0
 74
     0
 49
-0.125
 74
     0
  0
LTYPE
  5
38C9
330
3892
100
AcDbSymbolTableRecord
100
AcDbLinetypeTableRecord
  2
DASHDOTX2
 70
     0
  3
Dashdotx2 ____  .  ____  .  ____  .  ___
 72
    65
 73
     4
 40
2.0
 49
1.0
 74
     0
 49
-0.5
 74
     0
 49
0.0
 74
     0
 49
-0.5
 74
     0
  0
LTYPE
  5
38CA
330
3892
100
AcDbSymbolTableRecord
100
AcDbLinetypeTableRecord
  2
DASHED2
 70
     0
  3
Dashed2 _ _ _ _ _ _ _ _ _ _ _ _ _ _ _ _ _ 
 72
    65
 73
     2
 40
0.375
 49
0.25
 74
     0
 49
-0.125
 74
     0
  0
LTYPE
  5
38CB
330
3892
100
AcDbSymbolTableRecord
100
AcDbLinetypeTableRecord
  2
DASHEDX2
 70
     0
  3
Dashedx2 ____  ____  ____  ____  ____  ___
 72
    65
 73
     2
 40
1.5
 49
1.0
 74
     0
 49
-0.5
 74
     0
  0
LTYPE
  5
38CC
330
3892
100
AcDbSymbolTableRecord
100
AcDbLinetypeTableRecord
  2
DIVIDE
 70
     0
  3
Divide ____ . . ____ . . ____ . . ____ . . ____
 72
    65
 73
     6
 40
1.25
 49
0.5
 74
     0
 49
-0.25
 74
     0
 49
0.0
 74
     0
 49
-0.25
 74
     0
 49
0.0
 74
     0
 49
-0.25
 74
     0
  0
LTYPE
  5
38CD
330
3892
100
AcDbSymbolTableRecord
100
AcDbLinetypeTableRecord
  2
DIVIDE2
 70
     0
  3
Divide2 __..__..__..__..__..__..__..__.._
 72
    65
 73
     6
 40
0.625
 49
0.25
 74
     0
 49
-0.125
 74
     0
 49
0.0
 74
     0
 49
-0.125
 74
     0
 49
0.0
 74
     0
 49
-0.125
 74
     0
  0
LTYPE
  5
38CE
330
3892
100
AcDbSymbolTableRecord
100
AcDbLinetypeTableRecord
  2
DIVIDEX2
 70
     0
  3
Dividex2 ________  .  .  ________  .  .  _
 72
    65
 73
     6
 40
2.5
 49
1.0
 74
     0
 49
-0.5
 74
     0
 49
0.0
 74
     0
 49
-0.5
 74
     0
 49
0.0
 74
     0
 49
-0.5
 74
     0
  0
LTYPE
  5
38CF
330
3892
100
AcDbSymbolTableRecord
100
AcDbLinetypeTableRecord
  2
DOT
 70
     0
  3
Dot . . . . . . . . . . . . . . . . . . . . . . . .
 72
    65
 73
     2
 40
0.25
 49
0.0
 74
     0
 49
-0.25
 74
     0
  0
LTYPE
  5
38D0
330
3892
100
AcDbSymbolTableRecord
100
AcDbLinetypeTableRecord
  2
DOT2
 70
     0
  3
Dot2 ........................................
 72
    65
 73
     2
 40
0.125
 49
0.0
 74
     0
 49
-0.125
 74
     0
  0
LTYPE
  5
38D1
330
3892
100
AcDbSymbolTableRecord
100
AcDbLinetypeTableRecord
  2
DOTX2
 70
     0
  3
Dotx2 .  .  .  .  .  .  .  .  .  .  .  .  .  .
 72
    65
 73
     2
 40
0.5
 49
0.0
 74
     0
 49
-0.5
 74
     0
  0
LTYPE
  5
38D2
330
3892
100
AcDbSymbolTableRecord
100
AcDbLinetypeTableRecord
  2
HIDDENX2
 70
     0
  3
Hiddenx2 ____ ____ ____ ____ ____ ____ ____ 
 72
    65
 73
     2
 40
0.75
 49
0.5
 74
     0
 49
-0.25
 74
     0
  0
LTYPE
  5
38D3
330
3892
100
AcDbSymbolTableRecord
100
AcDbLinetypeTableRecord
  2
PHANTOM
 70
     0
  3
Phantom ______  __  __  ______  __  __  ______ 
 72
    65
 73
     6
 40
2.5
 49
1.25
 74
     0
 49
-0.25
 74
     0
 49
0.25
 74
     0
 49
-0.25
 74
     0
 49
0.25
 74
     0
 49
-0.25
 74
     0
  0
LTYPE
  5
38D4
330
3892
100
AcDbSymbolTableRecord
100
AcDbLinetypeTableRecord
  2
PHANTOM2
 70
     0
  3
Phantom2 ___ _ _ ___ _ _ ___ _ _ ___ _ _
 72
    65
 73
     6
 40
1.25
 49
0.625
 74
     0
 49
-0.125
 74
     0
 49
0.125
 74
     0
 49
-0.125
 74
     0
 49
0.125
 74
     0
 49
-0.125
 74
     0
  0
LTYPE
  5
38D5
330
3892
100
AcDbSymbolTableRecord
100
AcDbLinetypeTableRecord
  2
PHANTOMX2
 70
     0
  3
Phantomx2 ____________    ____    ____   _
 72
    65
 73
     6
 40
5.0
 49
2.5
 74
     0
 49
-0.5
 74
     0
 49
0.5
 74
     0
 49
-0.5
 74
     0
 49
0.5
 74
     0
 49
-0.5
 74
     0
  0
ENDTAB
  0
TABLE
  2
LAYER
  5
388F
330
0
100
AcDbSymbolTable
 70
     5
  0
LAYER
  5
389D
330
388F
100
AcDbSymbolTableRecord
100
AcDbLayerTableRecord
  2
0
 70
     0
 62
     7
  6
CONTINUOUS
  0
LAYER
  5
9E
330
388F
100
AcDbSymbolTableRecord
100
AcDbLayerTableRecord
  2
DEFPOINTS
 70
     0
 62
     7
  6
CONTINUOUS
  0
LAYER
  5
377
330
388F
100
AcDbSymbolTableRecord
100
AcDbLayerTableRecord
  2
V0-OBRYS
 70
     0
 62
    90
  6
CONTINUOUS
  0
LAYER
  5
378
330
388F
100
AcDbSymbolTableRecord
100
AcDbLayerTableRecord
  2
V0-VYPLNE
 70
     0
 62
    63
  6
DASHDOT
  0
LAYER
  5
1540
330
388F
100
AcDbSymbolTableRecord
100
AcDbLayerTableRecord
  2
VO-OBRYS
 70
     0
 62
    90
  6
CONTINUOUS
  0
ENDTAB
  0
TABLE
  2
STYLE
  5
3890
330
0
100
AcDbSymbolTable
 70
     6
  0
STYLE
  5
389E
330
3890
100
AcDbSymbolTableRecord
100
AcDbTextStyleTableRecord
  2
STANDARD
 70
     0
 40
0.0
 41
1.0
 50
0.0
 71
     0
 42
0.2
  3
ISOCP.shx
  4

1001
ACAD
1000
ISOCP.shx
1071
        0
  0
STYLE
  5
331
330
3890
100
AcDbSymbolTableRecord
100
AcDbTextStyleTableRecord
  2
ED20
 70
     0
 40
20.0
 41
1.0
 50
0.0
 71
     0
 42
0.2
  3
ISOCP.shx
  4

1001
ACAD
1000
ISOCP.shx
1071
        0
  0
STYLE
  5
648
330
3890
100
AcDbSymbolTableRecord
100
AcDbTextStyleTableRecord
  2
ED10
 70
     0
 40
10.0
 41
1.0
 50
0.0
 71
     0
 42
0.2
  3
ISOCP.shx
  4

1001
ACAD
1000
ISOCP.shx
1071
        0
  0
STYLE
  5
F38
330
3890
100
AcDbSymbolTableRecord
100
AcDbTextStyleTableRecord
  2
ED30
 70
     0
 40
30.0
 41
1.0
 50
0.0
 71
     0
 42
0.2
  3
ISOCP.shx
  4

1001
ACAD
1000
ISOCP.shx
1071
        0
  0
STYLE
  5
F39
330
3890
100
AcDbSymbolTableRecord
100
AcDbTextStyleTableRecord
  2
ED40
 70
     0
 40
40.0
 41
1.0
 50
0.0
 71
     0
 42
0.2
  3
ISOCP.shx
  4

1001
ACAD
1000
ISOCP.shx
1071
        0
  0
STYLE
  5
1B9D
330
3890
100
AcDbSymbolTableRecord
100
AcDbTextStyleTableRecord
  2
VD_RECOV_1_1B9D_
 70
     0
 40
0.0
 41
1.0
 50
0.0
 71
     0
 42
0.2
  3
ltypeshp.shx
  4

1001
ACAD
1000
ltypeshp.shx
1071
        0
  0
ENDTAB
  0
TABLE
  2
VIEW
  5
3893
330
0
100
AcDbSymbolTable
 70
     0
  0
ENDTAB
  0
TABLE
  2
UCS
  5
3894
330
0
100
AcDbSymbolTable
 70
     0
  0
ENDTAB
  0
TABLE
  2
APPID
  5
3896
330
0
100
AcDbSymbolTable
 70
     6
  0
APPID
  5
389F
330
3896
100
AcDbSymbolTableRecord
100
AcDbRegAppTableRecord
  2
ACAD
 70
     0
  0
APPID
  5
38B7
330
3896
100
AcDbSymbolTableRecord
100
AcDbRegAppTableRecord
  2
VD_INVISIBLE_NOT_FOR_READ
 70
     0
  0
APPID
  5
38B8
330
3896
100
AcDbSymbolTableRecord
100
AcDbRegAppTableRecord
  2
VD_TEMPHATCH
 70
     0
  0
APPID
  5
38B9
330
3896
100
AcDbSymbolTableRecord
100
AcDbRegAppTableRecord
  2
VDEXTRAPARAM
 70
     0
  0
APPID
  5
38BA
330
3896
100
AcDbSymbolTableRecord
100
AcDbRegAppTableRecord
  2
PE_URL
 70
     0
  0
APPID
  5
38BB
330
3896
100
AcDbSymbolTableRecord
100
AcDbRegAppTableRecord
  2
VD_UNKNOWN
 70
     0
  0
ENDTAB
  0
TABLE
  2
DIMSTYLE
  5
3897
330
0
100
AcDbSymbolTable
 70
     3
  0
DIMSTYLE
105
38B4
330
3897
100
AcDbSymbolTableRecord
100
AcDbDimStyleTableRecord
  2
STANDARD
 70
     0
  3

  4

  5
OPEN
  6

  7

 40
1.0
 41
15.0
 42
0.625
 43
0.38
 44
1.25
 45
0.0
 46
0.0
 47
0.0
 48
0.0
140
15.0
141
0.09
142
0.0
143
25.4
144
1.0
145
0.0
146
1.0
147
3.0
 71
     0
 72
     0
 73
     0
 74
     0
 75
     0
 76
     0
 77
     1
 78
     0
170
     0
171
     2
172
     1
173
     0
174
     1
175
     0
176
     0
177
     0
178
     0
270
     2
271
     0
272
     4
273
     2
274
     2
340
331
275
     0
280
     0
281
     0
282
     0
283
     1
284
     0
285
     0
286
     0
287
     3
288
     1
  0
DIMSTYLE
105
FE9
330
3897
100
AcDbSymbolTableRecord
100
AcDbDimStyleTableRecord
  2
ED20
 70
     0
  3

  4

  5
OPEN
  6

  7

 40
1.0
 41
20.0
 42
1.0
 43
0.38
 44
1.25
 45
0.0
 46
0.0
 47
0.0
 48
0.0
140
20.0
141
0.09
142
0.0
143
25.4
144
1.0
145
0.0
146
1.0
147
2.0
 71
     0
 72
     0
 73
     0
 74
     0
 75
     0
 76
     0
 77
     1
 78
     0
170
     0
171
     2
172
     1
173
     0
174
     1
175
     0
176
     0
177
    41
178
    41
270
     2
271
     0
272
     4
273
     2
274
     2
340
331
275
     0
280
     0
281
     0
282
     0
283
     1
284
     0
285
     0
286
     0
287
     3
288
     1
  0
DIMSTYLE
105
320E
102
{ACAD_REACTORS
330
2A43
330
2E52
330
2E78
330
2E92
330
2FD1
330
3081
330
372F
102
}
330
3897
100
AcDbSymbolTableRecord
100
AcDbDimStyleTableRecord
  2
ED30
 70
     0
  3

  4

  5
OPEN
  6

  7

 40
1.0
 41
20.0
 42
1.0
 43
0.38
 44
1.25
 45
0.0
 46
0.0
 47
0.0
 48
0.0
140
20.0
141
0.09
142
0.0
143
25.4
144
1.0
145
0.0
146
1.0
147
2.0
 71
     0
 72
     0
 73
     0
 74
     0
 75
     0
 76
     0
 77
     1
 78
     0
170
     0
171
     2
172
     1
173
     0
174
     1
175
     0
176
     0
177
    41
178
    41
270
     2
271
     0
272
     4
273
     2
274
     2
340
331
275
     0
280
     0
281
     0
282
     0
283
     1
284
     0
285
     0
286
     0
287
     3
288
     1
  0
ENDTAB
  0
TABLE
  2
BLOCK_RECORD
  5
388E
330
0
100
AcDbSymbolTable
 70
    13
  0
BLOCK_RECORD
  5
38AC
330
388E
100
AcDbSymbolTableRecord
100
AcDbBlockTableRecord
  2
*MODEL_SPACE
  0
BLOCK_RECORD
  5
38A8
330
388E
100
AcDbSymbolTableRecord
100
AcDbBlockTableRecord
  2
*PAPER_SPACE
  0
BLOCK_RECORD
  5
90
330
388E
100
AcDbSymbolTableRecord
100
AcDbBlockTableRecord
  2
_OPEN
  0
BLOCK_RECORD
  5
31B2
330
388E
100
AcDbSymbolTableRecord
100
AcDbBlockTableRecord
  2
VD_ANONYM_31B2
  0
BLOCK_RECORD
  5
36F3
330
388E
100
AcDbSymbolTableRecord
100
AcDbBlockTableRecord
  2
VD_ANONYM_36F3
  0
BLOCK_RECORD
  5
37B2
330
388E
100
AcDbSymbolTableRecord
100
AcDbBlockTableRecord
  2
VDDIM_DEFAULT
  0
BLOCK_RECORD
  5
37B4
330
388E
100
AcDbSymbolTableRecord
100
AcDbBlockTableRecord
  2
VDDIM_NONE
  0
BLOCK_RECORD
  5
38E1
330
388E
100
AcDbSymbolTableRecord
100
AcDbBlockTableRecord
  2
*D6
  0
BLOCK_RECORD
  5
38EE
330
388E
100
AcDbSymbolTableRecord
100
AcDbBlockTableRecord
  2
*D7
  0
BLOCK_RECORD
  5
38FB
330
388E
100
AcDbSymbolTableRecord
100
AcDbBlockTableRecord
  2
*D8
  0
BLOCK_RECORD
  5
3908
330
388E
100
AcDbSymbolTableRecord
100
AcDbBlockTableRecord
  2
*D9
  0
BLOCK_RECORD
  5
3916
330
388E
100
AcDbSymbolTableRecord
100
AcDbBlockTableRecord
  2
*D10
  0
BLOCK_RECORD
  5
3923
330
388E
100
AcDbSymbolTableRecord
100
AcDbBlockTableRecord
  2
*D11
  0
BLOCK_RECORD
  5
3930
330
388E
100
AcDbSymbolTableRecord
100
AcDbBlockTableRecord
  2
*D12
  0
ENDTAB
  0
ENDSEC
  0
SECTION
  2
BLOCKS
  0
BLOCK
  5
38AD
330
38AC
100
AcDbEntity
  8
0
100
AcDbBlockBegin
  2
*MODEL_SPACE
 70
     0
 71
     0
 10
0.0
 20
0.0
 30
0.0
  3
*MODEL_SPACE
  1

  0
ENDBLK
  5
38AE
330
38AC
100
AcDbEntity
  8
0
100
AcDbBlockEnd
  0
BLOCK
  5
38A9
330
38A8
100
AcDbEntity
 67
     1
  8
0
100
AcDbBlockBegin
  2
*PAPER_SPACE
 70
     0
 71
     0
 10
0.0
 20
0.0
 30
0.0
  3
*PAPER_SPACE
  1

  0
ENDBLK
  5
38AA
330
38A8
100
AcDbEntity
 67
     1
  8
0
100
AcDbBlockEnd
  0
BLOCK
  5
38D6
330
90
100
AcDbEntity
  8
0
100
AcDbBlockBegin
  2
_OPEN
 70
     0
 71
     0
 10
0.0
 20
0.0
 30
0.0
  3
_OPEN
  1

  0
LINE
  5
92
330
90
100
AcDbEntity
  8
0
  6
BYBLOCK
 62
     0
100
AcDbLine
 10
-1.0
 20
0.166667
 30
0.0
 11
0.0
 21
0.0
 31
0.0
  0
LINE
  5
93
330
90
100
AcDbEntity
  8
0
  6
BYBLOCK
 62
     0
100
AcDbLine
 10
0.0
 20
0.0
 30
0.0
 11
-1.0
 21
-0.166667
 31
0.0
  0
LINE
  5
94
330
90
100
AcDbEntity
  8
0
  6
BYBLOCK
 62
     0
100
AcDbLine
 10
0.0
 20
0.0
 30
0.0
 11
-1.0
 21
0.0
 31
0.0
  0
ENDBLK
  5
38D7
330
90
100
AcDbEntity
  8
0
100
AcDbBlockEnd
  0
BLOCK
  5
38D8
330
31B2
100
AcDbEntity
  8
0
100
AcDbBlockBegin
  2
VD_ANONYM_31B2
 70
     0
 71
     0
 10
0.0
 20
0.0
 30
0.0
  3
VD_ANONYM_31B2
  1

  0
LINE
  5
3277
330
31B2
100
AcDbEntity
  8
0
  6
BYBLOCK
 62
    41
100
AcDbLine
 10
984.032515
 20
-7.521735
 30
0.0
 11
984.032515
 21
-280.557769
 31
0.0
  0
LINE
  5
3278
330
31B2
100
AcDbEntity
  8
0
  6
BYBLOCK
 62
    41
100
AcDbLine
 10
1096.237272
 20
-107.710174
 30
0.0
 11
1096.237272
 21
-280.557769
 31
0.0
  0
LINE
  5
3279
330
31B2
100
AcDbEntity
  8
0
  6
BYBLOCK
 62
    41
100
AcDbLine
 10
1014.032515
 20
-279.307769
 30
0.0
 11
1066.237272
 21
-279.307769
 31
0.0
  0
INSERT
  5
327A
330
31B2
100
AcDbEntity
  8
0
  6
BYBLOCK
 62
    41
100
AcDbBlockReference
  2
_OPEN
 10
984.032515
 20
-279.307769
 30
0.0
 41
30.0
 42
30.0
 43
30.0
 50
180.0
  0
INSERT
  5
327B
330
31B2
100
AcDbEntity
  8
0
  6
BYBLOCK
 62
    41
100
AcDbBlockReference
  2
_OPEN
 10
1096.237272
 20
-279.307769
 30
0.0
 41
30.0
 42
30.0
 43
30.0
  0
POINT
  5
327D
330
31B2
100
AcDbEntity
  8
DEFPOINTS
  6
BYBLOCK
 62
     0
100
AcDbPoint
 10
984.032515
 20
-6.521735
 30
0.0
  0
POINT
  5
327E
330
31B2
100
AcDbEntity
  8
DEFPOINTS
  6
BYBLOCK
 62
     0
100
AcDbPoint
 10
1096.237272
 20
-106.710174
 30
0.0
  0
POINT
  5
327F
330
31B2
100
AcDbEntity
  8
DEFPOINTS
  6
BYBLOCK
 62
     0
100
AcDbPoint
 10
1096.237272
 20
-279.307769
 30
0.0
  0
TEXT
  5
37AF
330
31B2
100
AcDbEntity
  8
0
  6
BYBLOCK
 62
    41
100
AcDbText
 10
998.885456
 20
-277.304816
 30
0.0
 40
30.0
  1
112
  7
ED40
100
AcDbText
  0
ENDBLK
  5
38D9
330
31B2
100
AcDbEntity
  8
0
100
AcDbBlockEnd
  0
BLOCK
  5
38DA
330
36F3
100
AcDbEntity
  8
0
100
AcDbBlockBegin
  2
VD_ANONYM_36F3
 70
     0
 71
     0
 10
0.0
 20
0.0
 30
0.0
  3
VD_ANONYM_36F3
  1

  0
LINE
  5
3701
330
36F3
100
AcDbEntity
  8
0
  6
BYBLOCK
 62
    41
100
AcDbLine
 10
947.914891
 20
94.063641
 30
0.0
 11
947.914891
 21
367.90433
 31
0.0
  0
LINE
  5
3702
330
36F3
100
AcDbEntity
  8
0
  6
BYBLOCK
 62
    41
100
AcDbLine
 10
1096.525369
 20
211.563326
 30
0.0
 11
1096.525369
 21
367.90433
 31
0.0
  0
LINE
  5
3703
330
36F3
100
AcDbEntity
  8
0
  6
BYBLOCK
 62
    41
100
AcDbLine
 10
977.914891
 20
366.65433
 30
0.0
 11
1066.525369
 21
366.65433
 31
0.0
  0
INSERT
  5
3704
330
36F3
100
AcDbEntity
  8
0
  6
BYBLOCK
 62
    41
100
AcDbBlockReference
  2
_OPEN
 10
947.914891
 20
366.65433
 30
0.0
 41
30.0
 42
30.0
 43
30.0
 50
180.0
  0
INSERT
  5
3705
330
36F3
100
AcDbEntity
  8
0
  6
BYBLOCK
 62
    41
100
AcDbBlockReference
  2
_OPEN
 10
1096.525369
 20
366.65433
 30
0.0
 41
30.0
 42
30.0
 43
30.0
  0
POINT
  5
3707
330
36F3
100
AcDbEntity
  8
DEFPOINTS
  6
BYBLOCK
 62
     0
100
AcDbPoint
 10
947.914891
 20
93.063641
 30
0.0
  0
POINT
  5
3708
330
36F3
100
AcDbEntity
  8
DEFPOINTS
  6
BYBLOCK
 62
     0
100
AcDbPoint
 10
1096.525369
 20
210.563326
 30
0.0
  0
POINT
  5
3709
330
36F3
100
AcDbEntity
  8
DEFPOINTS
  6
BYBLOCK
 62
     0
100
AcDbPoint
 10
1096.525369
 20
366.65433
 30
0.0
  0
TEXT
  5
37B0
330
36F3
100
AcDbEntity
  8
0
  6
BYBLOCK
 62
    41
100
AcDbText
 10
977.9344157142858
 20
368.65433
 30
0.0
 40
30.0
  1
149
  7
ED40
100
AcDbText
  0
ENDBLK
  5
38DB
330
36F3
100
AcDbEntity
  8
0
100
AcDbBlockEnd
  0
BLOCK
  5
38DC
330
37B2
100
AcDbEntity
  8
0
100
AcDbBlockBegin
  2
VDDIM_DEFAULT
 70
     0
 71
     0
 10
0.0
 20
0.0
 30
0.0
  3
VDDIM_DEFAULT
  1

  0
LWPOLYLINE
  5
37B3
330
37B2
100
AcDbEntity
  8
0
  6
CONTINUOUS
 62
     0
100
AcDbPolyline
 90
        4
 70
     0
 43
0.0
 10
0.0
 20
0.0
 10
-1.0
 20
-0.1665
 10
-1.0
 20
0.1665
 10
0.0
 20
0.0
1001
VDEXTRAPARAM
1071
        1
1071
        0
1071
        0
1040
1.0
1000

1000

1040
0.0
1040
0.0
  0
HATCH
  5
38E0
330
37B2
100
AcDbEntity
  8
0
  6
CONTINUOUS
 62
     0
100
AcDbHatch
 10
0.0
 20
0.0
 30
0.0
210
0.0
220
0.0
230
1.0
  2
SOLID
 70
     1
 71
     0
 91
        1
 92
        2
 72
     0
 73
     1
 93
        3
 10
0.0
 20
0.0
 10
-1.0
 20
-0.1665
 10
-1.0
 20
0.1665
 97
        0
 75
     0
 76
     1
 98
        1
 10
0.0
 20
0.0
1001
VDEXTRAPARAM
1071
        1
1071
        0
1071
        0
1040
1.0
1000

1000

1040
0.0
1040
0.0
1001
VD_TEMPHATCH
1000
VD_TEMPHATCH
  0
ENDBLK
  5
38DD
330
37B2
100
AcDbEntity
  8
0
100
AcDbBlockEnd
  0
BLOCK
  5
38DE
330
37B4
100
AcDbEntity
  8
0
100
AcDbBlockBegin
  2
VDDIM_NONE
 70
     0
 71
     0
 10
0.0
 20
0.0
 30
0.0
  3
VDDIM_NONE
  1

  0
ENDBLK
  5
38DF
330
37B4
100
AcDbEntity
  8
0
100
AcDbBlockEnd
  0
BLOCK
  5
38EC
330
38E1
100
AcDbEntity
  8
0
100
AcDbBlockBegin
  2
*D6
 70
     1
 71
     0
 10
0.0
 20
0.0
 30
0.0
  3
*D6
  1

  0
LINE
  5
38E2
330
38E1
100
AcDbEntity
  8
V0-VYPLNE
 62
    41
100
AcDbLine
 10
1310.774186
 20
-78.21148599999999
 30
0.0
 11
1310.774186
 21
-183.2361219999729
 31
0.0
  0
LINE
  5
38E3
330
38E1
100
AcDbEntity
  8
V0-VYPLNE
 62
    41
100
AcDbLine
 10
1710.49505
 20
-78.21148599999999
 30
0.0
 11
1710.49505
 21
-183.236121999973
 31
0.0
  0
LINE
  5
38E4
330
38E1
100
AcDbEntity
  8
V0-VYPLNE
 62
     0
100
AcDbLine
 10
1340.774186
 20
-181.9861219999729
 30
0.0
 11
1465.254669428571
 21
-181.9861219999729
 31
0.0
  0
LINE
  5
38E5
330
38E1
100
AcDbEntity
  8
V0-VYPLNE
 62
     0
100
AcDbLine
 10
1680.49505
 20
-181.986121999973
 30
0.0
 11
1546.397526571429
 21
-181.9861219999729
 31
0.0
  0
INSERT
  5
38E6
330
38E1
100
AcDbEntity
  8
V0-VYPLNE
 62
     0
100
AcDbBlockReference
  2
_OPEN
 10
1310.774186
 20
-181.9861219999729
 30
0.0
 41
30.0
 42
30.0
 43
30.0
 50
180.0
  0
INSERT
  5
38E7
330
38E1
100
AcDbEntity
  8
V0-VYPLNE
 62
     0
100
AcDbBlockReference
  2
_OPEN
 10
1710.49505
 20
-181.986121999973
 30
0.0
 41
30.0
 42
30.0
 43
30.0
  0
MTEXT
  5
38E8
330
38E1
100
AcDbEntity
  8
V0-VYPLNE
 62
    41
100
AcDbMText
 10
1505.826098
 20
-181.986122
 30
0.0
 40
30.0
 41
0.0
 71
     5
 72
     1
  1
\A1;400
  7
ED20
  0
POINT
  5
38E9
330
38E1
100
AcDbEntity
  8
DEFPOINTS
 62
     0
100
AcDbPoint
 10
1310.774186
 20
-77.21148599999999
 30
0.0
  0
POINT
  5
38EA
330
38E1
100
AcDbEntity
  8
DEFPOINTS
 62
     0
100
AcDbPoint
 10
1710.49505
 20
-77.21148599999999
 30
0.0
  0
POINT
  5
38EB
330
38E1
100
AcDbEntity
  8
DEFPOINTS
 62
     0
100
AcDbPoint
 10
1710.49505
 20
-181.986121999973
 30
0.0
  0
ENDBLK
  5
38ED
330
38E1
100
AcDbEntity
  8
0
100
AcDbBlockEnd
  0
BLOCK
  5
38F9
330
38EE
100
AcDbEntity
  8
0
100
AcDbBlockBegin
  2
*D7
 70
     1
 71
     0
 10
0.0
 20
0.0
 30
0.0
  3
*D7
  1

  0
LINE
  5
38EF
330
38EE
100
AcDbEntity
  8
V0-VYPLNE
 62
    41
100
AcDbLine
 10
1092.525369
 20
275.83195
 30
0.0
 11
1172.287233000003
 21
275.83195
 31
0.0
  0
LINE
  5
38F0
330
38EE
100
AcDbEntity
  8
V0-VYPLNE
 62
    41
100
AcDbLine
 10
1092.525369
 20
-39.16742
 30
0.0
 11
1172.287233000003
 21
-39.16742000000001
 31
0.0
  0
LINE
  5
38F1
330
38EE
100
AcDbEntity
  8
V0-VYPLNE
 62
     0
100
AcDbLine
 10
1171.037233000003
 20
245.83195
 30
0.0
 11
1171.037233000003
 21
169.5843421428571
 31
0.0
  0
LINE
  5
38F2
330
38EE
100
AcDbEntity
  8
V0-VYPLNE
 62
     0
100
AcDbLine
 10
1171.037233000003
 20
-9.167419999999993
 30
0.0
 11
1171.037233000003
 21
61.29862785714289
 31
0.0
  0
INSERT
  5
38F3
330
38EE
100
AcDbEntity
  8
V0-VYPLNE
 62
     0
100
AcDbBlockReference
  2
_OPEN
 10
1171.037233000003
 20
275.83195
 30
0.0
 41
30.0
 42
30.0
 43
30.0
 50
90.0
  0
INSERT
  5
38F4
330
38EE
100
AcDbEntity
  8
V0-VYPLNE
 62
     0
100
AcDbBlockReference
  2
_OPEN
 10
1171.037233000003
 20
-39.16741999999999
 30
0.0
 41
30.0
 42
30.0
 43
30.0
 50
270.0
  0
MTEXT
  5
38F5
330
38EE
100
AcDbEntity
  8
V0-VYPLNE
 62
    41
100
AcDbMText
 10
1171.037233
 20
115.441485
 30
0.0
 40
30.0
 41
0.0
 71
     5
 72
     1
  1
%%c\A1;315
  7
ED20
 11
0.0
 21
1.0
 31
0.0
  0
POINT
  5
38F6
330
38EE
100
AcDbEntity
  8
DEFPOINTS
 62
     0
100
AcDbPoint
 10
1091.525369
 20
275.83195
 30
0.0
  0
POINT
  5
38F7
330
38EE
100
AcDbEntity
  8
DEFPOINTS
 62
     0
100
AcDbPoint
 10
1091.525369
 20
-39.16742
 30
0.0
  0
POINT
  5
38F8
330
38EE
100
AcDbEntity
  8
DEFPOINTS
 62
     0
100
AcDbPoint
 10
1171.037233000003
 20
-39.16742000000001
 30
0.0
  0
ENDBLK
  5
38FA
330
38EE
100
AcDbEntity
  8
0
100
AcDbBlockEnd
  0
BLOCK
  5
3906
330
38FB
100
AcDbEntity
  8
0
100
AcDbBlockBegin
  2
*D8
 70
     1
 71
     0
 10
0.0
 20
0.0
 30
0.0
  3
*D8
  1

  0
LINE
  5
38FC
330
38FB
100
AcDbEntity
  8
V0-OBRYS
 62
    41
100
AcDbLine
 10
1024.03515
 20
-82.617735
 30
0.0
 11
1024.03515
 21
-170.4149139999953
 31
0.0
  0
LINE
  5
38FD
330
38FB
100
AcDbEntity
  8
V0-OBRYS
 62
    41
100
AcDbLine
 10
1091.525369
 20
-40.16742
 30
0.0
 11
1091.525369
 21
-170.4149139999953
 31
0.0
  0
LINE
  5
38FE
330
38FB
100
AcDbEntity
  8
V0-OBRYS
 62
     0
100
AcDbLine
 10
1054.03515
 20
-169.1649139999953
 30
0.0
 11
1031.145710428571
 21
-169.1649139999953
 31
0.0
  0
LINE
  5
38FF
330
38FB
100
AcDbEntity
  8
V0-OBRYS
 62
     0
100
AcDbLine
 10
1061.525369
 20
-169.1649139999953
 30
0.0
 11
1082.288567571429
 21
-169.1649139999953
 31
0.0
  0
INSERT
  5
3900
330
38FB
100
AcDbEntity
  8
V0-OBRYS
 62
     0
100
AcDbBlockReference
  2
_OPEN
 10
1024.03515
 20
-169.1649139999953
 30
0.0
 41
30.0
 42
30.0
 43
30.0
 50
180.0
  0
INSERT
  5
3901
330
38FB
100
AcDbEntity
  8
V0-OBRYS
 62
     0
100
AcDbBlockReference
  2
_OPEN
 10
1091.525369
 20
-169.1649139999953
 30
0.0
 41
30.0
 42
30.0
 43
30.0
  0
MTEXT
  5
3902
330
38FB
100
AcDbEntity
  8
V0-OBRYS
 62
    41
100
AcDbMText
 10
1056.717139
 20
-169.164914
 30
0.0
 40
30.0
 41
0.0
 71
     5
 72
     1
  1
\A1;67
  7
ED20
  0
POINT
  5
3903
330
38FB
100
AcDbEntity
  8
DEFPOINTS
 62
     0
100
AcDbPoint
 10
1024.03515
 20
-81.617735
 30
0.0
  0
POINT
  5
3904
330
38FB
100
AcDbEntity
  8
DEFPOINTS
 62
     0
100
AcDbPoint
 10
1091.525369
 20
-39.16742
 30
0.0
  0
POINT
  5
3905
330
38FB
100
AcDbEntity
  8
DEFPOINTS
 62
     0
100
AcDbPoint
 10
1091.525369
 20
-169.1649139999953
 30
0.0
  0
ENDBLK
  5
3907
330
38FB
100
AcDbEntity
  8
0
100
AcDbBlockEnd
  0
BLOCK
  5
3914
330
3908
100
AcDbEntity
  8
0
100
AcDbBlockBegin
  2
*D9
 70
     1
 71
     0
 10
0.0
 20
0.0
 30
0.0
  3
*D9
  1

  0
LINE
  5
3909
330
3908
100
AcDbEntity
  8
V0-OBRYS
 62
    41
100
AcDbLine
 10
1011.91515
 20
-82.617735
 30
0.0
 11
1011.91515
 21
-123.4038140000048
 31
0.0
  0
LINE
  5
390A
330
3908
100
AcDbEntity
  8
V0-OBRYS
 62
    41
100
AcDbLine
 10
1024.03515
 20
-82.617735
 30
0.0
 11
1024.03515
 21
-123.4038140000048
 31
0.0
  0
LINE
  5
390B
330
3908
100
AcDbEntity
  8
V0-OBRYS
 62
     0
100
AcDbLine
 10
1054.03515
 20
-122.1538140000048
 30
0.0
 11
1084.03515
 21
-122.1538140000048
 31
0.0
  0
LINE
  5
390C
330
3908
100
AcDbEntity
  8
V0-OBRYS
 62
     0
100
AcDbLine
 10
981.91515
 20
-122.1538140000048
 30
0.0
 11
906.3714068571429
 21
-122.1538140000048
 31
0.0
  0
LINE
  5
390D
330
3908
100
AcDbEntity
  8
V0-OBRYS
 62
     0
100
AcDbLine
 10
1011.91515
 20
-122.1538140000048
 30
0.0
 11
1024.03515
 21
-122.1538140000048
 31
0.0
  0
INSERT
  5
390E
330
3908
100
AcDbEntity
  8
V0-OBRYS
 62
     0
100
AcDbBlockReference
  2
_OPEN
 10
1011.91515
 20
-122.1538140000048
 30
0.0
 41
30.0
 42
30.0
 43
30.0
  0
INSERT
  5
390F
330
3908
100
AcDbEntity
  8
V0-OBRYS
 62
     0
100
AcDbBlockReference
  2
_OPEN
 10
1024.03515
 20
-122.1538140000048
 30
0.0
 41
30.0
 42
30.0
 43
30.0
 50
180.0
  0
MTEXT
  5
3910
330
3908
100
AcDbEntity
  8
V0-OBRYS
 62
    41
100
AcDbMText
 10
930.514264
 20
-122.153814
 30
0.0
 40
30.0
 41
0.0
 71
     5
 72
     1
  1
\A1;12
  7
ED20
  0
POINT
  5
3911
330
3908
100
AcDbEntity
  8
DEFPOINTS
 62
     0
100
AcDbPoint
 10
1011.91515
 20
-81.617735
 30
0.0
  0
POINT
  5
3912
330
3908
100
AcDbEntity
  8
DEFPOINTS
 62
     0
100
AcDbPoint
 10
1024.03515
 20
-81.617735
 30
0.0
  0
POINT
  5
3913
330
3908
100
AcDbEntity
  8
DEFPOINTS
 62
     0
100
AcDbPoint
 10
1024.03515
 20
-122.1538140000048
 30
0.0
  0
ENDBLK
  5
3915
330
3908
100
AcDbEntity
  8
0
100
AcDbBlockEnd
  0
BLOCK
  5
3921
330
3916
100
AcDbEntity
  8
0
100
AcDbBlockBegin
  2
*D10
 70
     1
 71
     0
 10
0.0
 20
0.0
 30
0.0
  3
*D10
  1

  0
LINE
  5
3917
330
3916
100
AcDbEntity
  8
V0-OBRYS
 62
    41
100
AcDbLine
 10
1001.915043
 20
175.332721
 30
0.0
 11
903.3483130000022
 21
175.332721
 31
0.0
  0
LINE
  5
3918
330
3916
100
AcDbEntity
  8
V0-OBRYS
 62
    41
100
AcDbLine
 10
1001.915043
 20
61.331809
 30
0.0
 11
903.3483130000022
 21
61.33180900000001
 31
0.0
  0
LINE
  5
3919
330
3916
100
AcDbEntity
  8
V0-OBRYS
 62
     0
100
AcDbLine
 10
904.5983130000022
 20
145.3327209999999
 30
0.0
 11
904.5983130000022
 21
169.8896997142857
 31
0.0
  0
LINE
  5
391A
330
3916
100
AcDbEntity
  8
V0-OBRYS
 62
     0
100
AcDbLine
 10
904.5983130000022
 20
91.33180899999991
 30
0.0
 11
904.5983130000022
 21
64.46112828571434
 31
0.0
  0
INSERT
  5
391B
330
3916
100
AcDbEntity
  8
V0-OBRYS
 62
     0
100
AcDbBlockReference
  2
_OPEN
 10
904.5983130000022
 20
175.3327209999999
 30
0.0
 41
30.0
 42
30.0
 43
30.0
 50
90.0
  0
INSERT
  5
391C
330
3916
100
AcDbEntity
  8
V0-OBRYS
 62
     0
100
AcDbBlockReference
  2
_OPEN
 10
904.5983130000022
 20
61.33180899999991
 30
0.0
 41
30.0
 42
30.0
 43
30.0
 50
270.0
  0
MTEXT
  5
391D
330
3916
100
AcDbEntity
  8
V0-OBRYS
 62
    41
100
AcDbMText
 10
904.598313
 20
117.175414
 30
0.0
 40
30.0
 41
0.0
 71
     5
 72
     1
  1
%%c\A1;114
  7
ED20
 11
0.0
 21
1.0
 31
0.0
  0
POINT
  5
391E
330
3916
100
AcDbEntity
  8
DEFPOINTS
 62
     0
100
AcDbPoint
 10
1002.915043
 20
175.332721
 30
0.0
  0
POINT
  5
391F
330
3916
100
AcDbEntity
  8
DEFPOINTS
 62
     0
100
AcDbPoint
 10
1002.915043
 20
61.331809
 30
0.0
  0
POINT
  5
3920
330
3916
100
AcDbEntity
  8
DEFPOINTS
 62
     0
100
AcDbPoint
 10
904.5983130000022
 20
61.33180900000001
 30
0.0
  0
ENDBLK
  5
3922
330
3916
100
AcDbEntity
  8
0
100
AcDbBlockEnd
  0
BLOCK
  5
392E
330
3923
100
AcDbEntity
  8
0
100
AcDbBlockBegin
  2
*D11
 70
     1
 71
     0
 10
0.0
 20
0.0
 30
0.0
  3
*D11
  1

  0
LINE
  5
3924
330
3923
100
AcDbEntity
  8
V0-OBRYS
 62
    41
100
AcDbLine
 10
1345.408874
 20
-47.893438
 30
0.0
 11
1345.408874
 21
-134.0881550000049
 31
0.0
  0
LINE
  5
3925
330
3923
100
AcDbEntity
  8
V0-OBRYS
 62
    41
100
AcDbLine
 10
1675.860362
 20
-47.893438
 30
0.0
 11
1675.860362
 21
-134.0881550000049
 31
0.0
  0
LINE
  5
3926
330
3923
100
AcDbEntity
  8
V0-OBRYS
 62
     0
100
AcDbLine
 10
1375.408874
 20
-132.8381550000049
 30
0.0
 11
1469.531896428571
 21
-132.8381550000049
 31
0.0
  0
LINE
  5
3927
330
3923
100
AcDbEntity
  8
V0-OBRYS
 62
     0
100
AcDbLine
 10
1645.860362
 20
-132.8381550000049
 30
0.0
 11
1550.674753571429
 21
-132.8381550000049
 31
0.0
  0
INSERT
  5
3928
330
3923
100
AcDbEntity
  8
V0-OBRYS
 62
     0
100
AcDbBlockReference
  2
_OPEN
 10
1345.408874
 20
-132.8381550000049
 30
0.0
 41
30.0
 42
30.0
 43
30.0
 50
180.0
  0
INSERT
  5
3929
330
3923
100
AcDbEntity
  8
V0-OBRYS
 62
     0
100
AcDbBlockReference
  2
_OPEN
 10
1675.860362
 20
-132.8381550000049
 30
0.0
 41
30.0
 42
30.0
 43
30.0
  0
MTEXT
  5
392A
330
3923
100
AcDbEntity
  8
V0-OBRYS
 62
    41
100
AcDbMText
 10
1510.103325
 20
-132.838155
 30
0.0
 40
30.0
 41
0.0
 71
     5
 72
     1
  1
330
  7
ED20
  0
POINT
  5
392B
330
3923
100
AcDbEntity
  8
DEFPOINTS
 62
     0
100
AcDbPoint
 10
1345.408874
 20
-46.893438
 30
0.0
  0
POINT
  5
392C
330
3923
100
AcDbEntity
  8
DEFPOINTS
 62
     0
100
AcDbPoint
 10
1675.860362
 20
-46.893438
 30
0.0
  0
POINT
  5
392D
330
3923
100
AcDbEntity
  8
DEFPOINTS
 62
     0
100
AcDbPoint
 10
1675.860362
 20
-132.8381550000049
 30
0.0
  0
ENDBLK
  5
392F
330
3923
100
AcDbEntity
  8
0
100
AcDbBlockEnd
  0
BLOCK
  5
393A
330
3930
100
AcDbEntity
  8
0
100
AcDbBlockBegin
  2
*D12
 70
     1
 71
     0
 10
0.0
 20
0.0
 30
0.0
  3
*D12
  1

  0
LINE
  5
3931
330
3930
100
AcDbEntity
  8
V0-VYPLNE
 62
    41
100
AcDbLine
 10
942.914891
 20
77.33226500000001
 30
0.0
 11
942.914891
 21
-219.6822450000014
 31
0.0
  0
LINE
  5
3932
330
3930
100
AcDbEntity
  8
V0-VYPLNE
 62
    41
100
AcDbLine
 10
1091.525369
 20
-41.16742
 30
0.0
 11
1091.525369
 21
-219.6822450000014
 31
0.0
  0
LINE
  5
3933
330
3930
100
AcDbEntity
  8
V0-VYPLNE
 62
     0
100
AcDbLine
 10
972.914891
 20
-218.4322450000014
 30
0.0
 11
1061.525369
 21
-218.4322450000014
 31
0.0
  0
INSERT
  5
3934
330
3930
100
AcDbEntity
  8
V0-VYPLNE
 62
     0
100
AcDbBlockReference
  2
_OPEN
 10
942.914891
 20
-218.4322450000014
 30
0.0
 41
30.0
 42
30.0
 43
30.0
 50
180.0
  0
INSERT
  5
3935
330
3930
100
AcDbEntity
  8
V0-VYPLNE
 62
     0
100
AcDbBlockReference
  2
_OPEN
 10
1091.525369
 20
-218.4322450000014
 30
0.0
 41
30.0
 42
30.0
 43
30.0
  0
MTEXT
  5
3936
330
3930
100
AcDbEntity
  8
V0-VYPLNE
 62
    41
100
AcDbMText
 10
1017.22013
 20
-201.4322450000014
 30
0.0
 40
30.0
 41
0.0
 71
     5
 72
     1
  1
\A1;149
  7
ED20
  0
POINT
  5
3937
330
3930
100
AcDbEntity
  8
DEFPOINTS
 62
     0
100
AcDbPoint
 10
942.914891
 20
78.33226500000001
 30
0.0
  0
POINT
  5
3938
330
3930
100
AcDbEntity
  8
DEFPOINTS
 62
     0
100
AcDbPoint
 10
1091.525369
 20
-40.16742
 30
0.0
  0
POINT
  5
3939
330
3930
100
AcDbEntity
  8
DEFPOINTS
 62
     0
100
AcDbPoint
 10
1091.525369
 20
-218.4322450000014
 30
0.0
  0
ENDBLK
  5
393B
330
3930
100
AcDbEntity
  8
0
100
AcDbBlockEnd
  0
ENDSEC
  0
SECTION
  2
ENTITIES
  0
LINE
  5
2A41
330
38AC
100
AcDbEntity
  8
V0-OBRYS
  6
CONTINUOUS
100
AcDbLine
 10
1697.79905
 20
-81.528126
 30
0.0
 11
1323.470186
 21
-81.528126
 31
0.0
  0
DIMENSION
  5
2A43
330
38AC
100
AcDbEntity
  8
V0-VYPLNE
  6
CONTINUOUS
 62
    41
100
AcDbDimension
  2
*D6
 10
1710.49505
 20
-181.986121999973
 30
0.0
 11
1505.826098
 21
-181.986122
 31
0.0
 70
   160
  3
ED30
100
AcDbAlignedDimension
 13
1310.774186
 23
-77.21148599999999
 33
0.0
 14
1710.49505
 24
-77.21148599999999
 34
0.0
100
AcDbRotatedDimension
1001
ACAD
1000
DSTYLE
1002
{
1070
    41
1040
30.0
1070
   140
1040
30.0
1002
}
  0
LINE
  5
2A44
330
38AC
100
AcDbEntity
  8
V0-OBRYS
  6
CONTINUOUS
100
AcDbLine
 10
1323.470186
 20
318.192738
 30
0.0
 11
1697.79905
 21
318.192738
 31
0.0
  0
LINE
  5
2A45
330
38AC
100
AcDbEntity
  8
V0-OBRYS
  6
CONTINUOUS
100
AcDbLine
 10
1310.774186
 20
-68.832126
 30
0.0
 11
1310.774186
 21
305.496738
 31
0.0
  0
ARC
  5
2A48
330
38AC
100
AcDbEntity
  8
V0-OBRYS
  6
CONTINUOUS
100
AcDbCircle
 10
1323.470186
 20
-68.832126
 30
0.0
 40
12.696
100
AcDbArc
 50
180.0
 51
270.0
  0
CIRCLE
  5
2A49
330
38AC
100
AcDbEntity
  8
V0-OBRYS
  6
CONTINUOUS
 62
    90
100
AcDbCircle
 10
1345.408874
 20
283.55805
 30
0.0
 40
5.058239
  0
ARC
  5
2A4A
330
38AC
100
AcDbEntity
  8
V0-VYPLNE
100
AcDbCircle
 10
1514.765841
 20
127.148404
 30
0.0
 40
230.533641
100
AcDbArc
 50
132.153029
 51
142.398921
  0
ARC
  5
2A4B
330
38AC
100
AcDbEntity
  8
V0-OBRYS
  6
CONTINUOUS
100
AcDbCircle
 10
1323.470186
 20
305.496738
 30
0.0
 40
12.696
100
AcDbArc
 50
90.0
 51
180.0
  0
LINE
  5
2A4C
330
38AC
100
AcDbEntity
  8
V0-OBRYS
  6
CONTINUOUS
100
AcDbLine
 10
1710.49505
 20
305.496738
 30
0.0
 11
1710.49505
 21
-68.83212600000002
 31
0.0
  0
ARC
  5
2A4D
330
38AC
100
AcDbEntity
  8
V0-OBRYS
  6
CONTINUOUS
100
AcDbCircle
 10
1697.79905
 20
-68.832126
 30
0.0
 40
12.696
100
AcDbArc
 50
270.0
 51
0.0
  0
POINT
  5
2A51
330
38AC
100
AcDbEntity
  8
V0-VYPLNE
  6
DASHED
 62
    52
100
AcDbPoint
 10
1510.634618
 20
118.332306
 30
0.0
  0
ARC
  5
2A52
330
38AC
100
AcDbEntity
  8
V0-OBRYS
  6
CONTINUOUS
100
AcDbCircle
 10
1697.79905
 20
305.496738
 30
0.0
 40
12.696
100
AcDbArc
 50
0.0
 51
90.0
  0
CIRCLE
  5
2C08
330
38AC
100
AcDbEntity
  8
V0-OBRYS
  6
CONTINUOUS
 62
    90
100
AcDbCircle
 10
1510.634618
 20
118.332306
 30
0.0
 40
151.646843
  0
CIRCLE
  5
2C09
330
38AC
100
AcDbEntity
  8
V0-OBRYS
  6
CONTINUOUS
 62
    90
100
AcDbCircle
 10
1510.634618
 20
118.332306
 30
0.0
 40
172.364527
  0
LINE
  5
2C0A
330
38AC
100
AcDbEntity
  8
V0-OBRYS
  6
CONTINUOUS
 62
    90
100
AcDbLine
 10
1435.965424
 20
112.65365
 30
0.0
 11
1460.012858
 21
114.482478
 31
0.0
  0
LINE
  5
2C0B
330
38AC
100
AcDbEntity
  8
V0-OBRYS
  6
CONTINUOUS
 62
    90
100
AcDbLine
 10
1435.965424
 20
124.010962
 30
0.0
 11
1460.012858
 21
122.182134
 31
0.0
  0
LINE
  5
2C0C
330
38AC
100
AcDbEntity
  8
V0-OBRYS
  6
CONTINUOUS
 62
    90
100
AcDbLine
 10
1460.012858
 20
130.577648
 30
0.0
 11
1437.341399
 21
136.061846
 31
0.0
  0
LINE
  5
2C0D
330
38AC
100
AcDbEntity
  8
V0-OBRYS
  6
CONTINUOUS
 62
    90
100
AcDbLine
 10
1441.125327
 20
146.735487
 30
0.0
 11
1460.012858
 21
139.017584
 31
0.0
  0
LINE
  5
2C0E
330
38AC
100
AcDbEntity
  8
V0-OBRYS
  6
CONTINUOUS
 62
    90
100
AcDbLine
 10
1460.012858
 20
148.587676
 30
0.0
 11
1445.253249
 21
157.409128
 31
0.0
  0
LINE
  5
2C0F
330
38AC
100
AcDbEntity
  8
V0-OBRYS
  6
CONTINUOUS
 62
    90
100
AcDbLine
 10
1457.767661
 20
77.182596
 30
0.0
 11
1460.664928
 21
84.806286
 31
0.0
  0
LINE
  5
2C10
330
38AC
100
AcDbEntity
  8
V0-OBRYS
  6
CONTINUOUS
 62
    90
100
AcDbLine
 10
1452.248543
 20
59.921462
 30
0.0
 11
1458.752613
 21
75.947506
 31
0.0
  0
LINE
  5
2C11
330
38AC
100
AcDbEntity
  8
V0-OBRYS
  6
CONTINUOUS
 62
    90
100
AcDbLine
 10
1460.012858
 20
88.076936
 30
0.0
 11
1445.253249
 21
79.255484
 31
0.0
  0
LINE
  5
2C12
330
38AC
100
AcDbEntity
  8
V0-OBRYS
  6
CONTINUOUS
 62
    90
100
AcDbLine
 10
1441.125327
 20
89.929125
 30
0.0
 11
1460.012858
 21
97.64702800000001
 31
0.0
  0
LINE
  5
2C13
330
38AC
100
AcDbEntity
  8
V0-OBRYS
  6
CONTINUOUS
 62
    90
100
AcDbLine
 10
1460.012858
 20
106.086965
 30
0.0
 11
1437.341399
 21
100.602767
 31
0.0
  0
ARC
  5
2C14
330
38AC
100
AcDbEntity
  8
V0-OBRYS
  6
CONTINUOUS
 62
    90
100
AcDbCircle
 10
1510.634618
 20
118.332306
 30
0.0
 40
59.233773
100
AcDbArc
 50
148.716649
 51
211.283351
  0
ARC
  5
2C15
330
38AC
100
AcDbEntity
  8
V0-OBRYS
  6
CONTINUOUS
 62
    90
100
AcDbCircle
 10
1510.634618
 20
118.332306
 30
0.0
 40
157.5
100
AcDbArc
 50
236.13779
 51
252.433638
  0
LINE
  5
2C16
330
38AC
100
AcDbEntity
  8
VO-OBRYS
  6
CONTINUOUS
100
AcDbLine
 10
1460.012858
 20
87.012185
 30
0.0
 11
1370.173755
 21
-2.826918000000006
 31
0.0
  0
LINE
  5
2C17
330
38AC
100
AcDbEntity
  8
VO-OBRYS
  6
CONTINUOUS
100
AcDbLine
 10
1479.314498
 20
67.71054599999999
 30
0.0
 11
1389.475395
 21
-22.128557
 31
0.0
  0
LINE
  5
2C18
330
38AC
100
AcDbEntity
  8
VO-OBRYS
  6
CONTINUOUS
100
AcDbLine
 10
1459.847886
 20
84.064761
 30
0.0
 11
1371.564981
 21
-4.218143999999995
 31
0.0
  0
LINE
  5
2C19
330
38AC
100
AcDbEntity
  8
VO-OBRYS
  6
CONTINUOUS
100
AcDbLine
 10
1476.367073
 20
67.545574
 30
0.0
 11
1388.084169
 21
-20.737331
 31
0.0
  0
LINE
  5
2C1A
330
38AC
100
AcDbEntity
  8
VO-OBRYS
  6
CONTINUOUS
100
AcDbLine
 10
1460.012858
 20
149.652427
 30
0.0
 11
1370.173755
 21
239.49153
 31
0.0
  0
LINE
  5
2C1B
330
38AC
100
AcDbEntity
  8
VO-OBRYS
  6
CONTINUOUS
100
AcDbLine
 10
1479.314498
 20
168.954066
 30
0.0
 11
1389.475395
 21
258.793169
 31
0.0
  0
LINE
  5
2C1C
330
38AC
100
AcDbEntity
  8
VO-OBRYS
  6
CONTINUOUS
100
AcDbLine
 10
1459.847886
 20
152.599851
 30
0.0
 11
1371.564981
 21
240.882756
 31
0.0
  0
LINE
  5
2C1D
330
38AC
100
AcDbEntity
  8
VO-OBRYS
  6
CONTINUOUS
100
AcDbLine
 10
1476.367073
 20
169.119039
 30
0.0
 11
1388.084169
 21
257.401943
 31
0.0
  0
LINE
  5
2C1E
330
38AC
100
AcDbEntity
  8
V0-OBRYS
  6
CONTINUOUS
 62
    90
100
AcDbLine
 10
1447.242132
 20
201.835987
 30
0.0
 11
1464.933313
 21
189.473041
 31
0.0
  0
CIRCLE
  5
2C1F
330
38AC
100
AcDbEntity
  8
V0-OBRYS
  6
CONTINUOUS
 62
    90
100
AcDbCircle
 10
1510.634618
 20
118.332306
 30
0.0
 40
84.555386
  0
CIRCLE
  5
2C20
330
38AC
100
AcDbEntity
  8
V0-OBRYS
  6
CONTINUOUS
 62
    90
100
AcDbCircle
 10
1510.634618
 20
118.332306
 30
0.0
 40
106.807712
  0
CIRCLE
  5
2C21
330
38AC
100
AcDbEntity
  8
V0-OBRYS
  6
CONTINUOUS
 62
    90
100
AcDbCircle
 10
1510.634618
 20
118.332306
 30
0.0
 40
129.827361
  0
CIRCLE
  5
2C22
330
38AC
100
AcDbEntity
  8
V0-OBRYS
  6
CONTINUOUS
 62
    90
100
AcDbCircle
 10
1510.634618
 20
118.332306
 30
0.0
 40
127.859871
  0
CIRCLE
  5
2C23
330
38AC
100
AcDbEntity
  8
V0-OBRYS
  6
CONTINUOUS
 62
    90
100
AcDbCircle
 10
1510.634618
 20
118.332306
 30
0.0
 40
104.840222
  0
CIRCLE
  5
2C24
330
38AC
100
AcDbEntity
  8
V0-OBRYS
  6
CONTINUOUS
 62
    90
100
AcDbCircle
 10
1510.634618
 20
118.332306
 30
0.0
 40
82.587896
  0
LINE
  5
2C25
330
38AC
100
AcDbEntity
  8
V0-OBRYS
  6
CONTINUOUS
 62
    90
100
AcDbLine
 10
1374.821423
 20
198.088346
 30
0.0
 11
1377.763586
 21
195.420906
 31
0.0
  0
LINE
  5
2C26
330
38AC
100
AcDbEntity
  8
V0-OBRYS
  6
CONTINUOUS
 62
    90
100
AcDbLine
 10
1434.319741
 20
15.744851
 30
0.0
 11
1442.554148
 21
36.034451
 31
0.0
  0
ARC
  5
2C27
330
38AC
100
AcDbEntity
  8
VO-OBRYS
  6
CONTINUOUS
100
AcDbCircle
 10
1379.824575
 20
-12.477737
 30
0.0
 40
13.64832
100
AcDbArc
 50
135.0
 51
315.0
  0
ARC
  5
2C28
330
38AC
100
AcDbEntity
  8
VO-OBRYS
  6
CONTINUOUS
100
AcDbCircle
 10
1379.824575
 20
-12.477737
 30
0.0
 40
11.680829
100
AcDbArc
 50
135.0
 51
315.0
  0
LINE
  5
2C29
330
38AC
100
AcDbEntity
  8
V0-VYPLNE
  6
DASHED
 62
    52
100
AcDbLine
 10
1378.744566
 20
2.924934
 30
0.0
 11
1395.225536
 21
-13.556036
 31
0.0
  0
CIRCLE
  5
2C2A
330
38AC
100
AcDbEntity
  8
V0-OBRYS
  6
CONTINUOUS
 62
    90
100
AcDbCircle
 10
1379.824575
 20
-12.477737
 30
0.0
 40
5.04
  0
LINE
  5
2C2B
330
38AC
100
AcDbEntity
  8
V0-OBRYS
  6
CONTINUOUS
 62
    90
100
AcDbLine
 10
1425.126293
 20
-6.907828
 30
0.0
 11
1433.555712
 21
13.862282
 31
0.0
  0
LINE
  5
2C2C
330
38AC
100
AcDbEntity
  8
V0-OBRYS
  6
CONTINUOUS
 62
    90
100
AcDbLine
 10
1422.876006
 20
-12.45254
 30
0.0
 11
1424.369445
 21
-8.772703
 31
0.0
  0
LINE
  5
2C2D
330
38AC
100
AcDbEntity
  8
V0-OBRYS
  6
CONTINUOUS
 62
    90
100
AcDbLine
 10
1359.40437
 20
107.099461
 30
0.0
 11
1380.898752
 21
113.459027
 31
0.0
  0
ARC
  5
2C2E
330
38AC
100
AcDbEntity
  8
V0-OBRYS
  6
CONTINUOUS
 62
    90
100
AcDbCircle
 10
1510.634618
 20
118.332306
 30
0.0
 40
157.5
100
AcDbArc
 50
184.709219
 51
201.005067
  0
LINE
  5
2C2F
330
38AC
100
AcDbEntity
  8
V0-OBRYS
  6
CONTINUOUS
 62
    90
100
AcDbLine
 10
1363.600693
 20
61.876352
 30
0.0
 11
1367.52059
 21
62.513506
 31
0.0
  0
LINE
  5
2C30
330
38AC
100
AcDbEntity
  8
V0-OBRYS
  6
CONTINUOUS
 62
    90
100
AcDbLine
 10
1353.666308
 20
105.401734
 30
0.0
 11
1357.474465
 21
106.528458
 31
0.0
  0
LINE
  5
2C31
330
38AC
100
AcDbEntity
  8
V0-OBRYS
  6
CONTINUOUS
 62
    90
100
AcDbLine
 10
1393.637587
 20
66.75865899999999
 30
0.0
 11
1415.250812
 21
70.27175200000001
 31
0.0
  0
LINE
  5
2C32
330
38AC
100
AcDbEntity
  8
V0-OBRYS
  6
CONTINUOUS
 62
    90
100
AcDbLine
 10
1369.507123
 20
62.836404
 30
0.0
 11
1391.632205
 21
66.43269700000001
 31
0.0
  0
LINE
  5
2C33
330
38AC
100
AcDbEntity
  8
V0-OBRYS
  6
CONTINUOUS
 62
    90
100
AcDbLine
 10
1443.330704
 20
37.947885
 30
0.0
 11
1451.447027
 21
57.946526
 31
0.0
  0
LINE
  5
2C34
330
38AC
100
AcDbEntity
  8
V0-OBRYS
  6
CONTINUOUS
 62
    90
100
AcDbLine
 10
1417.289072
 20
70.603058
 30
0.0
 11
1438.592357
 21
74.065772
 31
0.0
  0
LINE
  5
2C35
330
38AC
100
AcDbEntity
  8
V0-OBRYS
  6
CONTINUOUS
 62
    90
100
AcDbLine
 10
1440.696132
 20
74.40772699999999
 30
0.0
 11
1457.767661
 21
77.182596
 31
0.0
  0
LINE
  5
2C36
330
38AC
100
AcDbEntity
  8
V0-OBRYS
  6
CONTINUOUS
 62
    90
100
AcDbLine
 10
1405.824243
 20
120.833758
 30
0.0
 11
1426.520255
 21
126.95711
 31
0.0
  0
LINE
  5
2C37
330
38AC
100
AcDbEntity
  8
V0-OBRYS
  6
CONTINUOUS
 62
    90
100
AcDbLine
 10
1397.366261
 20
177.648625
 30
0.0
 11
1413.588533
 21
162.941103
 31
0.0
  0
LINE
  5
2C38
330
38AC
100
AcDbEntity
  8
V0-OBRYS
  6
CONTINUOUS
 62
    90
100
AcDbLine
 10
1382.846968
 20
114.035448
 30
0.0
 11
1403.844085
 21
120.247887
 31
0.0
  0
LINE
  5
2C39
330
38AC
100
AcDbEntity
  8
V0-OBRYS
  6
CONTINUOUS
 62
    90
100
AcDbLine
 10
1379.254621
 20
194.069096
 30
0.0
 11
1395.861079
 21
179.013262
 31
0.0
  0
LINE
  5
2C3A
330
38AC
100
AcDbEntity
  8
V0-OBRYS
  6
CONTINUOUS
 62
    90
100
AcDbLine
 10
1415.118393
 20
161.554093
 30
0.0
 11
1431.108033
 21
147.057481
 31
0.0
  0
LINE
  5
2C3B
330
38AC
100
AcDbEntity
  8
V0-OBRYS
  6
CONTINUOUS
 62
    90
100
AcDbLine
 10
1432.687066
 20
145.62589
 30
0.0
 11
1445.500471
 21
134.008933
 31
0.0
  0
LINE
  5
2C3C
330
38AC
100
AcDbEntity
  8
V0-OBRYS
  6
CONTINUOUS
 62
    90
100
AcDbLine
 10
1428.564059
 20
127.561812
 30
0.0
 11
1445.148946
 21
132.468801
 31
0.0
  0
LINE
  5
2C3D
330
38AC
100
AcDbEntity
  8
V0-OBRYS
  6
CONTINUOUS
 62
    90
100
AcDbLine
 10
1445.148946
 20
132.468801
 30
0.0
 11
1451.067088
 21
126.857171
 31
0.0
  0
LINE
  5
2C3E
330
38AC
100
AcDbEntity
  8
V0-OBRYS
  6
CONTINUOUS
 62
    90
100
AcDbLine
 10
1445.500471
 20
134.008933
 30
0.0
 11
1453.267328
 21
136.497051
 31
0.0
  0
ARC
  5
2C3F
330
38AC
100
AcDbEntity
  8
VO-OBRYS
  6
CONTINUOUS
100
AcDbCircle
 10
1379.824575
 20
249.142349
 30
0.0
 40
13.64832
100
AcDbArc
 50
45.0
 51
225.0
  0
ARC
  5
2C40
330
38AC
100
AcDbEntity
  8
VO-OBRYS
  6
CONTINUOUS
100
AcDbCircle
 10
1379.824575
 20
249.142349
 30
0.0
 40
11.680829
100
AcDbArc
 50
45.0
 51
225.0
  0
LINE
  5
2C41
330
38AC
100
AcDbEntity
  8
V0-OBRYS
  6
CONTINUOUS
 62
    90
100
AcDbLine
 10
1407.561908
 20
229.565311
 30
0.0
 11
1425.935546
 21
216.72545
 31
0.0
  0
ARC
  5
2C42
330
38AC
100
AcDbEntity
  8
V0-OBRYS
  6
CONTINUOUS
 62
    90
100
AcDbCircle
 10
1510.634618
 20
118.332306
 30
0.0
 40
157.5
100
AcDbArc
 50
133.280648
 51
149.576495
  0
LINE
  5
2C43
330
38AC
100
AcDbEntity
  8
V0-OBRYS
  6
CONTINUOUS
 62
    90
100
AcDbLine
 10
1402.65695
 20
232.992993
 30
0.0
 11
1405.912204
 21
230.718157
 31
0.0
  0
CIRCLE
  5
2C44
330
38AC
100
AcDbEntity
  8
V0-OBRYS
  6
CONTINUOUS
 62
    90
100
AcDbCircle
 10
1379.824575
 20
249.142349
 30
0.0
 40
5.04
  0
LINE
  5
2C45
330
38AC
100
AcDbEntity
  8
V0-OBRYS
  6
CONTINUOUS
 62
    90
100
AcDbLine
 10
1427.600902
 20
215.561666
 30
0.0
 11
1445.549471
 21
203.018852
 31
0.0
  0
LINE
  5
2C46
330
38AC
100
AcDbEntity
  8
V0-OBRYS
  6
CONTINUOUS
 62
    90
100
AcDbLine
 10
1646.447814
 20
198.088346
 30
0.0
 11
1643.50565
 21
195.420906
 31
0.0
  0
LINE
  5
2C47
330
38AC
100
AcDbEntity
  8
V0-OBRYS
  6
CONTINUOUS
 62
    90
100
AcDbLine
 10
1574.027104
 20
201.835987
 30
0.0
 11
1556.335923
 21
189.473041
 31
0.0
  0
LINE
  5
2C48
330
38AC
100
AcDbEntity
  8
VO-OBRYS
  6
CONTINUOUS
100
AcDbLine
 10
1561.256378
 20
149.652427
 30
0.0
 11
1651.095481
 21
239.49153
 31
0.0
  0
LINE
  5
2C49
330
38AC
100
AcDbEntity
  8
VO-OBRYS
  6
CONTINUOUS
100
AcDbLine
 10
1541.954739
 20
168.954066
 30
0.0
 11
1631.793842
 21
258.793169
 31
0.0
  0
LINE
  5
2C4A
330
38AC
100
AcDbEntity
  8
VO-OBRYS
  6
CONTINUOUS
100
AcDbLine
 10
1544.902164
 20
169.119039
 30
0.0
 11
1633.185068
 21
257.401943
 31
0.0
  0
LINE
  5
2C4B
330
38AC
100
AcDbEntity
  8
VO-OBRYS
  6
CONTINUOUS
100
AcDbLine
 10
1561.421351
 20
152.599851
 30
0.0
 11
1649.704255
 21
240.882756
 31
0.0
  0
LINE
  5
2C4C
330
38AC
100
AcDbEntity
  8
V0-OBRYS
  6
CONTINUOUS
 62
    90
100
AcDbLine
 10
1642.014615
 20
194.069096
 30
0.0
 11
1625.408158
 21
179.013262
 31
0.0
  0
LINE
  5
2C4D
330
38AC
100
AcDbEntity
  8
V0-OBRYS
  6
CONTINUOUS
 62
    90
100
AcDbLine
 10
1651.762113
 20
62.836404
 30
0.0
 11
1629.637031
 21
66.43269700000001
 31
0.0
  0
CIRCLE
  5
2C4E
330
38AC
100
AcDbEntity
  8
V0-OBRYS
  6
CONTINUOUS
 62
    90
100
AcDbCircle
 10
1641.444662
 20
-12.477737
 30
0.0
 40
5.04
  0
ARC
  5
2C4F
330
38AC
100
AcDbEntity
  8
VO-OBRYS
  6
CONTINUOUS
100
AcDbCircle
 10
1641.444662
 20
-12.477737
 30
0.0
 40
11.680829
100
AcDbArc
 50
225.0
 51
45.0
  0
ARC
  5
2C50
330
38AC
100
AcDbEntity
  8
VO-OBRYS
  6
CONTINUOUS
100
AcDbCircle
 10
1641.444662
 20
-12.477737
 30
0.0
 40
13.64832
100
AcDbArc
 50
225.0
 51
45.0
  0
LINE
  5
2C51
330
38AC
100
AcDbEntity
  8
VO-OBRYS
  6
CONTINUOUS
100
AcDbLine
 10
1561.256378
 20
87.012185
 30
0.0
 11
1651.095481
 21
-2.826918000000006
 31
0.0
  0
LINE
  5
2C52
330
38AC
100
AcDbEntity
  8
VO-OBRYS
  6
CONTINUOUS
100
AcDbLine
 10
1561.421351
 20
84.064761
 30
0.0
 11
1649.704255
 21
-4.218143999999995
 31
0.0
  0
LINE
  5
2C53
330
38AC
100
AcDbEntity
  8
V0-OBRYS
  6
CONTINUOUS
 62
    90
100
AcDbLine
 10
1489.750851
 20
15.59312
 30
0.0
 11
1500.325973
 21
34.407666
 31
0.0
  0
LINE
  5
2C54
330
38AC
100
AcDbEntity
  8
V0-OBRYS
  6
CONTINUOUS
 62
    90
100
AcDbLine
 10
1531.518385
 20
15.59312
 30
0.0
 11
1520.943263
 21
34.407666
 31
0.0
  0
LINE
  5
2C55
330
38AC
100
AcDbEntity
  8
VO-OBRYS
  6
CONTINUOUS
100
AcDbLine
 10
1541.954739
 20
67.71054599999999
 30
0.0
 11
1631.793842
 21
-22.128557
 31
0.0
  0
LINE
  5
2C56
330
38AC
100
AcDbEntity
  8
VO-OBRYS
  6
CONTINUOUS
100
AcDbLine
 10
1544.902164
 20
67.545574
 30
0.0
 11
1633.185068
 21
-20.737331
 31
0.0
  0
LINE
  5
2C57
330
38AC
100
AcDbEntity
  8
V0-OBRYS
  6
CONTINUOUS
 62
    90
100
AcDbLine
 10
1586.949496
 20
15.744851
 30
0.0
 11
1578.715088
 21
36.034451
 31
0.0
  0
LINE
  5
2C58
330
38AC
100
AcDbEntity
  8
V0-OBRYS
  6
CONTINUOUS
 62
    90
100
AcDbLine
 10
1555.237729
 20
-26.606741
 30
0.0
 11
1544.25466
 21
-7.066403999999999
 31
0.0
  0
LINE
  5
2C59
330
38AC
100
AcDbEntity
  8
V0-OBRYS
  6
CONTINUOUS
 62
    90
100
AcDbLine
 10
1466.031507
 20
-26.606741
 30
0.0
 11
1477.014576
 21
-7.066403999999999
 31
0.0
  0
LINE
  5
2C5A
330
38AC
100
AcDbEntity
  8
V0-OBRYS
  6
CONTINUOUS
 62
    90
100
AcDbLine
 10
1463.099508
 20
-31.823158
 30
0.0
 11
1465.045377
 21
-28.361199
 31
0.0
  0
LINE
  5
2C5B
330
38AC
100
AcDbEntity
  8
V0-OBRYS
  6
CONTINUOUS
 62
    90
100
AcDbLine
 10
1478.010064
 20
-5.2953
 30
0.0
 11
1488.739042
 21
13.792978
 31
0.0
  0
LINE
  5
2C5C
330
38AC
100
AcDbEntity
  8
V0-OBRYS
  6
CONTINUOUS
 62
    90
100
AcDbLine
 10
1543.259173
 20
-5.2953
 30
0.0
 11
1532.530194
 21
13.792978
 31
0.0
  0
LINE
  5
2C5D
330
38AC
100
AcDbEntity
  8
V0-OBRYS
  6
CONTINUOUS
 62
    90
100
AcDbLine
 10
1596.142944
 20
-6.907828
 30
0.0
 11
1587.713524
 21
13.862282
 31
0.0
  0
ARC
  5
2C5E
330
38AC
100
AcDbEntity
  8
V0-OBRYS
  6
CONTINUOUS
 62
    90
100
AcDbCircle
 10
1510.634618
 20
118.332306
 30
0.0
 40
157.5
100
AcDbArc
 50
287.566362
 51
303.86221
  0
LINE
  5
2C5F
330
38AC
100
AcDbEntity
  8
V0-OBRYS
  6
CONTINUOUS
 62
    90
100
AcDbLine
 10
1558.169729
 20
-31.823158
 30
0.0
 11
1556.22386
 21
-28.361199
 31
0.0
  0
LINE
  5
2C60
330
38AC
100
AcDbEntity
  8
V0-OBRYS
  6
CONTINUOUS
 62
    90
100
AcDbLine
 10
1598.393231
 20
-12.45254
 30
0.0
 11
1596.899792
 21
-8.772703
 31
0.0
  0
LINE
  5
2C61
330
38AC
100
AcDbEntity
  8
V0-OBRYS
  6
CONTINUOUS
 62
    90
100
AcDbLine
 10
1554.588857
 20
188.252156
 30
0.0
 11
1540.411911
 21
178.345027
 31
0.0
  0
LINE
  5
2C62
330
38AC
100
AcDbEntity
  8
V0-OBRYS
  6
CONTINUOUS
 62
    90
100
AcDbLine
 10
1540.889988
 20
168.954066
 30
0.0
 11
1549.711441
 21
183.713676
 31
0.0
  0
CIRCLE
  5
2C63
330
38AC
100
AcDbEntity
  8
V0-OBRYS
  6
CONTINUOUS
 62
    90
100
AcDbCircle
 10
1548.600938
 20
156.298626
 30
0.0
 40
3.374784
  0
CIRCLE
  5
2C64
330
38AC
100
AcDbEntity
  8
V0-OBRYS
  6
CONTINUOUS
 62
    90
100
AcDbCircle
 10
1548.600938
 20
80.36598600000001
 30
0.0
 40
3.374784
  0
LINE
  5
2C65
330
38AC
100
AcDbEntity
  8
V0-OBRYS
  6
CONTINUOUS
 62
    90
100
AcDbLine
 10
1540.889988
 20
67.71054599999999
 30
0.0
 11
1549.711441
 21
52.950937
 31
0.0
  0
LINE
  5
2C66
330
38AC
100
AcDbEntity
  8
V0-OBRYS
  6
CONTINUOUS
 62
    90
100
AcDbLine
 10
1465.075034
 20
67.71054599999999
 30
0.0
 11
1556.194202
 21
67.71054599999999
 31
0.0
  0
LINE
  5
2C67
330
38AC
100
AcDbEntity
  8
V0-OBRYS
  6
CONTINUOUS
 62
    90
100
AcDbLine
 10
1556.194202
 20
168.954066
 30
0.0
 11
1465.075034
 21
168.954066
 31
0.0
  0
LINE
  5
2C68
330
38AC
100
AcDbEntity
  8
V0-OBRYS
  6
CONTINUOUS
 62
    90
100
AcDbLine
 10
1460.012858
 20
163.89189
 30
0.0
 11
1460.012858
 21
72.772722
 31
0.0
  0
LINE
  5
2C6A
330
38AC
100
AcDbEntity
  8
V0-OBRYS
  6
CONTINUOUS
 62
    90
100
AcDbLine
 10
1501.370304
 20
36.265668
 30
0.0
 11
1509.844748
 21
51.34283
 31
0.0
  0
ARC
  5
2C6B
330
38AC
100
AcDbEntity
  8
V0-OBRYS
  6
CONTINUOUS
 62
    90
100
AcDbCircle
 10
1510.634618
 20
118.332306
 30
0.0
 40
59.233773
100
AcDbArc
 50
238.716649
 51
301.283351
  0
LINE
  5
2C6C
330
38AC
100
AcDbEntity
  8
V0-OBRYS
  6
CONTINUOUS
 62
    90
100
AcDbLine
 10
1498.389277
 20
67.71054599999999
 30
0.0
 11
1492.905079
 21
45.039087
 31
0.0
  0
LINE
  5
2C6D
330
38AC
100
AcDbEntity
  8
V0-OBRYS
  6
CONTINUOUS
 62
    90
100
AcDbLine
 10
1482.231437
 20
48.823014
 30
0.0
 11
1489.94934
 21
67.71054599999999
 31
0.0
  0
LINE
  5
2C6E
330
38AC
100
AcDbEntity
  8
V0-OBRYS
  6
CONTINUOUS
 62
    90
100
AcDbLine
 10
1480.379248
 20
67.71054599999999
 30
0.0
 11
1471.557796
 21
52.950937
 31
0.0
  0
CIRCLE
  5
2C6F
330
38AC
100
AcDbEntity
  8
V0-OBRYS
  6
CONTINUOUS
 62
    90
100
AcDbCircle
 10
1472.668298
 20
80.36598600000001
 30
0.0
 40
3.374784
  0
ARC
  5
2C70
330
38AC
100
AcDbEntity
  8
V0-OBRYS
  6
CONTINUOUS
 62
    90
100
AcDbCircle
 10
1465.075034
 20
72.772722
 30
0.0
 40
5.062176
100
AcDbArc
 50
180.0
 51
270.0
  0
LINE
  5
2C71
330
38AC
100
AcDbEntity
  8
V0-OBRYS
  6
CONTINUOUS
 62
    90
100
AcDbLine
 10
1458.752613
 20
75.947506
 30
0.0
 11
1466.829863
 21
77.07570200000001
 31
0.0
  0
LINE
  5
2C72
330
38AC
100
AcDbEntity
  8
V0-OBRYS
  6
CONTINUOUS
 62
    90
100
AcDbLine
 10
1522.87996
 20
67.71054599999999
 30
0.0
 11
1528.364158
 21
45.039087
 31
0.0
  0
LINE
  5
2C73
330
38AC
100
AcDbEntity
  8
V0-OBRYS
  6
CONTINUOUS
 62
    90
100
AcDbLine
 10
1516.313275
 20
43.663112
 30
0.0
 11
1514.484447
 21
67.71054599999999
 31
0.0
  0
LINE
  5
2C74
330
38AC
100
AcDbEntity
  8
V0-OBRYS
  6
CONTINUOUS
 62
    90
100
AcDbLine
 10
1504.955962
 20
43.663112
 30
0.0
 11
1506.78479
 21
67.71054599999999
 31
0.0
  0
LINE
  5
2C75
330
38AC
100
AcDbEntity
  8
V0-OBRYS
  6
CONTINUOUS
 62
    90
100
AcDbLine
 10
1539.037799
 20
48.823014
 30
0.0
 11
1531.319896
 21
67.71054599999999
 31
0.0
  0
LINE
  5
2C76
330
38AC
100
AcDbEntity
  8
V0-OBRYS
  6
CONTINUOUS
 62
    90
100
AcDbLine
 10
1519.898933
 20
36.265668
 30
0.0
 11
1511.424488
 21
51.34283
 31
0.0
  0
LINE
  5
2C77
330
38AC
100
AcDbEntity
  8
V0-OBRYS
  6
CONTINUOUS
 62
    90
100
AcDbLine
 10
1511.424488
 20
51.34283
 30
0.0
 11
1515.578512
 21
58.361297
 31
0.0
  0
LINE
  5
2C78
330
38AC
100
AcDbEntity
  8
V0-OBRYS
  6
CONTINUOUS
 62
    90
100
AcDbLine
 10
1509.844748
 20
51.34283
 30
0.0
 11
1505.690724
 21
58.361297
 31
0.0
  0
ARC
  5
2C79
330
38AC
100
AcDbEntity
  8
V0-OBRYS
  6
CONTINUOUS
 62
    90
100
AcDbCircle
 10
1510.634618
 20
118.332306
 30
0.0
 40
59.233773
100
AcDbArc
 50
58.71664899999999
 51
121.283351
  0
CIRCLE
  5
2C7A
330
38AC
100
AcDbEntity
  8
V0-OBRYS
  6
CONTINUOUS
 62
    90
100
AcDbCircle
 10
1472.668298
 20
156.298626
 30
0.0
 40
3.374784
  0
LINE
  5
2C7B
330
38AC
100
AcDbEntity
  8
V0-OBRYS
  6
CONTINUOUS
 62
    90
100
AcDbLine
 10
1480.379248
 20
168.954066
 30
0.0
 11
1471.557796
 21
183.713676
 31
0.0
  0
LINE
  5
2C7C
330
38AC
100
AcDbEntity
  8
V0-OBRYS
  6
CONTINUOUS
 62
    90
100
AcDbLine
 10
1480.379248
 20
168.954066
 30
0.0
 11
1471.557796
 21
183.713676
 31
0.0
  0
LINE
  5
2C7D
330
38AC
100
AcDbEntity
  8
V0-OBRYS
  6
CONTINUOUS
 62
    90
100
AcDbLine
 10
1480.857326
 20
178.345027
 30
0.0
 11
1480.159878
 21
170.219243
 31
0.0
  0
ARC
  5
2C7E
330
38AC
100
AcDbEntity
  8
V0-OBRYS
  6
CONTINUOUS
 62
    90
100
AcDbCircle
 10
1465.075034
 20
163.89189
 30
0.0
 40
5.062176
100
AcDbArc
 50
90.0
 51
180.0
  0
LINE
  5
2C7F
330
38AC
100
AcDbEntity
  8
V0-OBRYS
  6
CONTINUOUS
 62
    90
100
AcDbLine
 10
1466.68038
 20
188.252156
 30
0.0
 11
1480.857326
 21
178.345027
 31
0.0
  0
LINE
  5
2C80
330
38AC
100
AcDbEntity
  8
V0-OBRYS
  6
CONTINUOUS
 62
    90
100
AcDbLine
 10
1498.389277
 20
168.954066
 30
0.0
 11
1492.905079
 21
191.625525
 31
0.0
  0
LINE
  5
2C81
330
38AC
100
AcDbEntity
  8
V0-OBRYS
  6
CONTINUOUS
 62
    90
100
AcDbLine
 10
1498.389277
 20
168.954066
 30
0.0
 11
1492.905079
 21
191.625525
 31
0.0
  0
LINE
  5
2C82
330
38AC
100
AcDbEntity
  8
V0-OBRYS
  6
CONTINUOUS
 62
    90
100
AcDbLine
 10
1482.231437
 20
187.841598
 30
0.0
 11
1489.94934
 21
168.954066
 31
0.0
  0
LINE
  5
2C83
330
38AC
100
AcDbEntity
  8
V0-OBRYS
  6
CONTINUOUS
 62
    90
100
AcDbLine
 10
1482.231437
 20
187.841598
 30
0.0
 11
1489.94934
 21
168.954066
 31
0.0
  0
LINE
  5
2C84
330
38AC
100
AcDbEntity
  8
V0-OBRYS
  6
CONTINUOUS
 62
    90
100
AcDbLine
 10
1482.280622
 20
179.03045
 30
0.0
 11
1489.068467
 21
174.509393
 31
0.0
  0
LINE
  5
2C85
330
38AC
100
AcDbEntity
  8
V0-OBRYS
  6
CONTINUOUS
 62
    90
100
AcDbLine
 10
1483.374098
 20
196.291427
 30
0.0
 11
1482.280622
 21
179.03045
 31
0.0
  0
LINE
  5
2C86
330
38AC
100
AcDbEntity
  8
V0-OBRYS
  6
CONTINUOUS
 62
    90
100
AcDbLine
 10
1522.87996
 20
168.954066
 30
0.0
 11
1528.364158
 21
191.625525
 31
0.0
  0
LINE
  5
2C87
330
38AC
100
AcDbEntity
  8
V0-OBRYS
  6
CONTINUOUS
 62
    90
100
AcDbLine
 10
1504.955962
 20
193.0015
 30
0.0
 11
1506.78479
 21
168.954066
 31
0.0
  0
LINE
  5
2C88
330
38AC
100
AcDbEntity
  8
V0-OBRYS
  6
CONTINUOUS
 62
    90
100
AcDbLine
 10
1504.955962
 20
193.0015
 30
0.0
 11
1506.78479
 21
168.954066
 31
0.0
  0
LINE
  5
2C89
330
38AC
100
AcDbEntity
  8
V0-OBRYS
  6
CONTINUOUS
 62
    90
100
AcDbLine
 10
1516.313275
 20
193.0015
 30
0.0
 11
1514.484447
 21
168.954066
 31
0.0
  0
LINE
  5
2C8A
330
38AC
100
AcDbEntity
  8
V0-OBRYS
  6
CONTINUOUS
 62
    90
100
AcDbLine
 10
1540.411911
 20
178.345027
 30
0.0
 11
1541.109358
 21
170.219243
 31
0.0
  0
LINE
  5
2C8B
330
38AC
100
AcDbEntity
  8
V0-OBRYS
  6
CONTINUOUS
 62
    90
100
AcDbLine
 10
1539.037799
 20
187.841598
 30
0.0
 11
1531.319896
 21
168.954066
 31
0.0
  0
LINE
  5
2C8C
330
38AC
100
AcDbEntity
  8
V0-OBRYS
  6
CONTINUOUS
 62
    90
100
AcDbLine
 10
1538.988614
 20
179.03045
 30
0.0
 11
1532.200769
 21
174.509393
 31
0.0
  0
LINE
  5
2C8D
330
38AC
100
AcDbEntity
  8
V0-OBRYS
  6
CONTINUOUS
 62
    90
100
AcDbLine
 10
1537.895139
 20
196.291427
 30
0.0
 11
1538.988614
 21
179.03045
 31
0.0
  0
LINE
  5
2C8E
330
38AC
100
AcDbEntity
  8
V0-OBRYS
  6
CONTINUOUS
 62
    90
100
AcDbLine
 10
1561.256378
 20
72.772722
 30
0.0
 11
1561.256378
 21
163.89189
 31
0.0
  0
ARC
  5
2C8F
330
38AC
100
AcDbEntity
  8
V0-OBRYS
  6
CONTINUOUS
 62
    90
100
AcDbCircle
 10
1510.634618
 20
118.332306
 30
0.0
 40
59.233773
100
AcDbArc
 50
328.716649
 51
31.283351
  0
LINE
  5
2C90
330
38AC
100
AcDbEntity
  8
V0-OBRYS
  6
CONTINUOUS
 62
    90
100
AcDbLine
 10
1603.980164
 20
70.603058
 30
0.0
 11
1582.676879
 21
74.065772
 31
0.0
  0
LINE
  5
2C91
330
38AC
100
AcDbEntity
  8
V0-OBRYS
  6
CONTINUOUS
 62
    90
100
AcDbLine
 10
1569.020694
 20
59.921462
 30
0.0
 11
1562.516624
 21
75.947506
 31
0.0
  0
LINE
  5
2C92
330
38AC
100
AcDbEntity
  8
V0-OBRYS
  6
CONTINUOUS
 62
    90
100
AcDbLine
 10
1577.938533
 20
37.947885
 30
0.0
 11
1569.822209
 21
57.946526
 31
0.0
  0
LINE
  5
2C93
330
38AC
100
AcDbEntity
  8
V0-OBRYS
  6
CONTINUOUS
 62
    90
100
AcDbLine
 10
1580.14391
 20
89.929125
 30
0.0
 11
1561.256378
 21
97.64702800000001
 31
0.0
  0
LINE
  5
2C94
330
38AC
100
AcDbEntity
  8
V0-OBRYS
  6
CONTINUOUS
 62
    90
100
AcDbLine
 10
1580.573105
 20
74.40772699999999
 30
0.0
 11
1563.501575
 21
77.182596
 31
0.0
  0
LINE
  5
2C95
330
38AC
100
AcDbEntity
  8
V0-OBRYS
  6
CONTINUOUS
 62
    90
100
AcDbLine
 10
1561.256378
 20
88.076936
 30
0.0
 11
1576.015988
 21
79.255484
 31
0.0
  0
LINE
  5
2C96
330
38AC
100
AcDbEntity
  8
V0-OBRYS
  6
CONTINUOUS
 62
    90
100
AcDbLine
 10
1561.256378
 20
106.086965
 30
0.0
 11
1583.927837
 21
100.602767
 31
0.0
  0
ARC
  5
2C97
330
38AC
100
AcDbEntity
  8
V0-OBRYS
  6
CONTINUOUS
 62
    90
100
AcDbCircle
 10
1556.194202
 20
72.772722
 30
0.0
 40
5.062176
100
AcDbArc
 50
270.0
 51
0.0
  0
LINE
  5
2C98
330
38AC
100
AcDbEntity
  8
V0-OBRYS
  6
CONTINUOUS
 62
    90
100
AcDbLine
 10
1562.516624
 20
75.947506
 30
0.0
 11
1554.439374
 21
77.07570200000001
 31
0.0
  0
LINE
  5
2C99
330
38AC
100
AcDbEntity
  8
V0-OBRYS
  6
CONTINUOUS
 62
    90
100
AcDbLine
 10
1563.501575
 20
77.182596
 30
0.0
 11
1560.604309
 21
84.806286
 31
0.0
  0
LINE
  5
2C9A
330
38AC
100
AcDbEntity
  8
V0-OBRYS
  6
CONTINUOUS
 62
    90
100
AcDbLine
 10
1627.63165
 20
66.75865899999999
 30
0.0
 11
1606.018424
 21
70.27175200000001
 31
0.0
  0
LINE
  5
2C9B
330
38AC
100
AcDbEntity
  8
V0-OBRYS
  6
CONTINUOUS
 62
    90
100
AcDbLine
 10
1606.150843
 20
161.554093
 30
0.0
 11
1590.161203
 21
147.057481
 31
0.0
  0
LINE
  5
2C9C
330
38AC
100
AcDbEntity
  8
V0-OBRYS
  6
CONTINUOUS
 62
    90
100
AcDbLine
 10
1561.256378
 20
148.587676
 30
0.0
 11
1576.015988
 21
157.409128
 31
0.0
  0
LINE
  5
2C9D
330
38AC
100
AcDbEntity
  8
V0-OBRYS
  6
CONTINUOUS
 62
    90
100
AcDbLine
 10
1580.14391
 20
146.735487
 30
0.0
 11
1561.256378
 21
139.017584
 31
0.0
  0
LINE
  5
2C9E
330
38AC
100
AcDbEntity
  8
V0-OBRYS
  6
CONTINUOUS
 62
    90
100
AcDbLine
 10
1575.768766
 20
134.008933
 30
0.0
 11
1568.001909
 21
136.497051
 31
0.0
  0
LINE
  5
2C9F
330
38AC
100
AcDbEntity
  8
V0-OBRYS
  6
CONTINUOUS
 62
    90
100
AcDbLine
 10
1576.120291
 20
132.468801
 30
0.0
 11
1570.202149
 21
126.857171
 31
0.0
  0
LINE
  5
2CA0
330
38AC
100
AcDbEntity
  8
V0-OBRYS
  6
CONTINUOUS
 62
    90
100
AcDbLine
 10
1561.256378
 20
130.577648
 30
0.0
 11
1583.927837
 21
136.061846
 31
0.0
  0
LINE
  5
2CA1
330
38AC
100
AcDbEntity
  8
V0-OBRYS
  6
CONTINUOUS
 62
    90
100
AcDbLine
 10
1585.303812
 20
124.010962
 30
0.0
 11
1561.256378
 21
122.182134
 31
0.0
  0
LINE
  5
2CA2
330
38AC
100
AcDbEntity
  8
V0-OBRYS
  6
CONTINUOUS
 62
    90
100
AcDbLine
 10
1585.303812
 20
112.65365
 30
0.0
 11
1561.256378
 21
114.482478
 31
0.0
  0
LINE
  5
2CA3
330
38AC
100
AcDbEntity
  8
V0-OBRYS
  6
CONTINUOUS
 62
    90
100
AcDbLine
 10
1592.705178
 20
127.561812
 30
0.0
 11
1576.120291
 21
132.468801
 31
0.0
  0
LINE
  5
2CA4
330
38AC
100
AcDbEntity
  8
V0-OBRYS
  6
CONTINUOUS
 62
    90
100
AcDbLine
 10
1588.58217
 20
145.62589
 30
0.0
 11
1575.768766
 21
134.008933
 31
0.0
  0
ARC
  5
2CA5
330
38AC
100
AcDbEntity
  8
V0-OBRYS
  6
CONTINUOUS
 62
    90
100
AcDbCircle
 10
1556.194202
 20
163.89189
 30
0.0
 40
5.062176
100
AcDbArc
 50
0.0
 51
90.0
  0
LINE
  5
2CA6
330
38AC
100
AcDbEntity
  8
V0-OBRYS
  6
CONTINUOUS
 62
    90
100
AcDbLine
 10
1615.444994
 20
120.833758
 30
0.0
 11
1594.748982
 21
126.95711
 31
0.0
  0
LINE
  5
2CA7
330
38AC
100
AcDbEntity
  8
V0-OBRYS
  6
CONTINUOUS
 62
    90
100
AcDbLine
 10
1638.422268
 20
114.035448
 30
0.0
 11
1617.425151
 21
120.247887
 31
0.0
  0
LINE
  5
2CA8
330
38AC
100
AcDbEntity
  8
V0-OBRYS
  6
CONTINUOUS
 62
    90
100
AcDbLine
 10
1623.902976
 20
177.648625
 30
0.0
 11
1607.680703
 21
162.941103
 31
0.0
  0
LINE
  5
2CA9
330
38AC
100
AcDbEntity
  8
V0-OBRYS
  6
CONTINUOUS
 62
    90
100
AcDbLine
 10
1661.864867
 20
107.099461
 30
0.0
 11
1640.370484
 21
113.459027
 31
0.0
  0
ARC
  5
2CAA
330
38AC
100
AcDbEntity
  8
V0-OBRYS
  6
CONTINUOUS
 62
    90
100
AcDbCircle
 10
1510.634618
 20
118.332306
 30
0.0
 40
157.5
100
AcDbArc
 50
338.994933
 51
355.290781
  0
LINE
  5
2CAB
330
38AC
100
AcDbEntity
  8
V0-OBRYS
  6
CONTINUOUS
 62
    90
100
AcDbLine
 10
1657.668544
 20
61.876352
 30
0.0
 11
1653.748646
 21
62.513506
 31
0.0
  0
LINE
  5
2CAC
330
38AC
100
AcDbEntity
  8
V0-OBRYS
  6
CONTINUOUS
 62
    90
100
AcDbLine
 10
1667.602928
 20
105.401734
 30
0.0
 11
1663.794772
 21
106.528458
 31
0.0
  0
CIRCLE
  5
2CAD
330
38AC
100
AcDbEntity
  8
V0-OBRYS
  6
CONTINUOUS
 62
    90
100
AcDbCircle
 10
1641.444662
 20
249.142349
 30
0.0
 40
5.04
  0
ARC
  5
2CAE
330
38AC
100
AcDbEntity
  8
VO-OBRYS
  6
CONTINUOUS
100
AcDbCircle
 10
1641.444662
 20
249.142349
 30
0.0
 40
13.64832
100
AcDbArc
 50
315.0
 51
135.0
  0
ARC
  5
2CAF
330
38AC
100
AcDbEntity
  8
VO-OBRYS
  6
CONTINUOUS
100
AcDbCircle
 10
1641.444662
 20
249.142349
 30
0.0
 40
11.680829
100
AcDbArc
 50
315.0
 51
135.0
  0
ARC
  5
2CB0
330
38AC
100
AcDbEntity
  8
V0-OBRYS
  6
CONTINUOUS
 62
    90
100
AcDbCircle
 10
1510.634618
 20
118.332306
 30
0.0
 40
157.5
100
AcDbArc
 50
30.423505
 51
46.719352
  0
ARC
  5
2CB1
330
38AC
100
AcDbEntity
  8
V0-OBRYS
  6
CONTINUOUS
 62
    90
100
AcDbCircle
 10
1510.634618
 20
118.332306
 30
0.0
 40
157.5
100
AcDbArc
 50
81.852076
 51
98.147924
  0
LINE
  5
2CB2
330
38AC
100
AcDbEntity
  8
V0-OBRYS
  6
CONTINUOUS
 62
    90
100
AcDbLine
 10
1486.388318
 20
243.872194
 30
0.0
 11
1485.003936
 21
222.019121
 31
0.0
  0
LINE
  5
2CB3
330
38AC
100
AcDbEntity
  8
V0-OBRYS
  6
CONTINUOUS
 62
    90
100
AcDbLine
 10
1484.87338
 20
219.958241
 30
0.0
 11
1483.50885
 21
198.418548
 31
0.0
  0
LINE
  5
2CB4
330
38AC
100
AcDbEntity
  8
V0-OBRYS
  6
CONTINUOUS
 62
    90
100
AcDbLine
 10
1487.933937
 20
268.27044
 30
0.0
 11
1486.516768
 21
245.89983
 31
0.0
  0
LINE
  5
2CB5
330
38AC
100
AcDbEntity
  8
V0-OBRYS
  6
CONTINUOUS
 62
    90
100
AcDbLine
 10
1488.312259
 20
274.242416
 30
0.0
 11
1488.061179
 21
270.279018
 31
0.0
  0
LINE
  5
2CB6
330
38AC
100
AcDbEntity
  8
V0-OBRYS
  6
CONTINUOUS
 62
    90
100
AcDbLine
 10
1534.880918
 20
243.872194
 30
0.0
 11
1536.265301
 21
222.019121
 31
0.0
  0
LINE
  5
2CB7
330
38AC
100
AcDbEntity
  8
V0-OBRYS
  6
CONTINUOUS
 62
    90
100
AcDbLine
 10
1536.395857
 20
219.958241
 30
0.0
 11
1537.760387
 21
198.418548
 31
0.0
  0
LINE
  5
2CB8
330
38AC
100
AcDbEntity
  8
V0-OBRYS
  6
CONTINUOUS
 62
    90
100
AcDbLine
 10
1533.3353
 20
268.27044
 30
0.0
 11
1534.752468
 21
245.89983
 31
0.0
  0
LINE
  5
2CB9
330
38AC
100
AcDbEntity
  8
V0-OBRYS
  6
CONTINUOUS
 62
    90
100
AcDbLine
 10
1532.956978
 20
274.242416
 30
0.0
 11
1533.208057
 21
270.279018
 31
0.0
  0
LINE
  5
2CBA
330
38AC
100
AcDbEntity
  8
V0-OBRYS
  6
CONTINUOUS
 62
    90
100
AcDbLine
 10
1593.668334
 20
215.561666
 30
0.0
 11
1575.719765
 21
203.018852
 31
0.0
  0
LINE
  5
2CBB
330
38AC
100
AcDbEntity
  8
V0-OBRYS
  6
CONTINUOUS
 62
    90
100
AcDbLine
 10
1618.612287
 20
232.992993
 30
0.0
 11
1615.357032
 21
230.718157
 31
0.0
  0
LINE
  5
2CBC
330
38AC
100
AcDbEntity
  8
V0-OBRYS
  6
CONTINUOUS
 62
    90
100
AcDbLine
 10
1613.707328
 20
229.565311
 30
0.0
 11
1595.333691
 21
216.72545
 31
0.0
  0
LINE
  5
2DBF
330
38AC
100
AcDbEntity
  8
V0-OBRYS
  6
CONTINUOUS
 62
    90
 48
2.0
100
AcDbLine
 10
1011.91515
 20
318.282265
 30
0.0
 11
1011.91515
 21
118.332265
 31
0.0
  0
LINE
  5
2DC2
330
38AC
100
AcDbEntity
  8
V0-VYPLNE
  6
DASHDOT
 62
    63
 48
2.0
100
AcDbLine
 10
980.9083460000001
 20
118.332265
 30
0.0
 11
1106.342133
 21
118.332265
 31
0.0
  0
LINE
  5
2DC5
330
38AC
100
AcDbEntity
  8
V0-OBRYS
  6
CONTINUOUS
 62
    90
 48
2.0
100
AcDbLine
 10
1011.91515
 20
-81.617735
 30
0.0
 11
1011.91515
 21
118.332265
 31
0.0
  0
LINE
  5
2DC6
330
38AC
100
AcDbEntity
  8
V0-OBRYS
  6
CONTINUOUS
 62
    90
 48
2.0
100
AcDbLine
 10
999.57397
 20
-43.76531
 30
0.0
 11
999.57397
 21
28.555345
 31
0.0
  0
LINE
  5
2DC7
330
38AC
100
AcDbEntity
  8
V0-OBRYS
  6
CONTINUOUS
 62
    90
 48
2.0
100
AcDbLine
 10
1001.54146
 20
-43.76531
 30
0.0
 11
1001.54146
 21
28.555345
 31
0.0
  0
LINE
  5
2DC8
330
38AC
100
AcDbEntity
  8
V0-OBRYS
  6
CONTINUOUS
 62
    90
 48
2.0
100
AcDbLine
 10
1024.03515
 20
-81.617735
 30
0.0
 11
1011.91515
 21
-81.617735
 31
0.0
  0
ARC
  5
2DC9
330
38AC
100
AcDbEntity
  8
V0-OBRYS
  6
CONTINUOUS
 62
    90
 48
2.0
100
AcDbCircle
 10
1002.233167
 20
-57.414985
 30
0.0
 40
9.79969
100
AcDbArc
 50
9.512305
 51
76.10915300000001
  0
ARC
  5
2DCA
330
38AC
100
AcDbEntity
  8
V0-OBRYS
  6
CONTINUOUS
 62
    90
 48
2.0
100
AcDbCircle
 10
1002.222173
 20
-57.464234
 30
0.0
 40
7.887007
100
AcDbArc
 50
12.215016
 51
76.966739
  0
ARC
  5
2DCB
330
38AC
100
AcDbEntity
  8
V0-OBRYS
  6
CONTINUOUS
 62
    90
 48
2.0
100
AcDbCircle
 10
1005.87397
 20
-43.76531
 30
0.0
 40
4.332509
100
AcDbArc
 50
180.0
 51
252.703019
  0
ARC
  5
2DCC
330
38AC
100
AcDbEntity
  8
V0-OBRYS
  6
CONTINUOUS
 62
    90
 48
2.0
100
AcDbCircle
 10
1005.87397
 20
-43.76531
 30
0.0
 40
6.3
100
AcDbArc
 50
180.0
 51
252.703019
  0
CIRCLE
  5
2DCD
330
38AC
100
AcDbEntity
  8
V0-OBRYS
  6
CONTINUOUS
 62
    90
 48
2.0
100
AcDbCircle
 10
997.547454
 20
-38.762668
 30
0.0
 40
2.026282
  0
CIRCLE
  5
2DCE
330
38AC
100
AcDbEntity
  8
V0-OBRYS
  6
CONTINUOUS
 62
    90
 48
2.0
100
AcDbCircle
 10
997.547454
 20
-23.642668
 30
0.0
 40
2.026282
  0
LINE
  5
2DCF
330
38AC
100
AcDbEntity
  8
V0-OBRYS
  6
CONTINUOUS
 62
    90
 48
2.0
100
AcDbLine
 10
1009.930622
 20
-67.54987199999999
 30
0.0
 11
1009.930622
 21
-55.795494
 31
0.0
  0
ARC
  5
2DD0
330
38AC
100
AcDbEntity
  8
V0-OBRYS
  6
CONTINUOUS
 62
    90
 48
2.0
100
AcDbCircle
 10
1010.922886
 20
-67.54987199999999
 30
0.0
 40
0.992264
100
AcDbArc
 50
180.0
 51
0.0
  0
ARC
  5
2DD1
330
38AC
100
AcDbEntity
  8
V0-OBRYS
  6
CONTINUOUS
 62
    90
 48
2.0
100
AcDbCircle
 10
1005.61515
 20
41.852452
 30
0.0
 40
6.3
100
AcDbArc
 50
289.78203
 51
0.0
  0
LINE
  5
2DD2
330
38AC
100
AcDbEntity
  8
V0-OBRYS
  6
CONTINUOUS
 62
    90
 48
2.0
100
AcDbLine
 10
1003.74178
 20
34.483563
 30
0.0
 11
1007.74734
 21
35.924234
 31
0.0
  0
LINE
  5
2DD3
330
38AC
100
AcDbEntity
  8
V0-OBRYS
  6
CONTINUOUS
 62
    90
 48
2.0
100
AcDbLine
 10
1004.407663
 20
32.63218
 30
0.0
 11
1008.413223
 21
34.072851
 31
0.0
  0
ARC
  5
2DD4
330
38AC
100
AcDbEntity
  8
V0-OBRYS
  6
CONTINUOUS
 62
    90
 48
2.0
100
AcDbCircle
 10
1005.87397
 20
28.555345
 30
0.0
 40
4.332509
100
AcDbArc
 50
109.78203
 51
180.0
  0
ARC
  5
2DD5
330
38AC
100
AcDbEntity
  8
V0-OBRYS
  6
CONTINUOUS
 62
    90
 48
2.0
100
AcDbCircle
 10
1005.87397
 20
28.555345
 30
0.0
 40
6.3
100
AcDbArc
 50
109.78203
 51
180.0
  0
CIRCLE
  5
2DD6
330
38AC
100
AcDbEntity
  8
V0-OBRYS
  6
CONTINUOUS
 62
    90
 48
2.0
100
AcDbCircle
 10
997.547454
 20
-8.522668
 30
0.0
 40
2.026282
  0
CIRCLE
  5
2DD7
330
38AC
100
AcDbEntity
  8
V0-OBRYS
  6
CONTINUOUS
 62
    90
 48
2.0
100
AcDbCircle
 10
997.547454
 20
6.597332
 30
0.0
 40
2.026282
  0
CIRCLE
  5
2DD8
330
38AC
100
AcDbEntity
  8
V0-OBRYS
  6
CONTINUOUS
 62
    90
 48
2.0
100
AcDbCircle
 10
997.547454
 20
21.717332
 30
0.0
 40
2.026282
  0
ARC
  5
2DD9
330
38AC
100
AcDbEntity
  8
V0-OBRYS
  6
CONTINUOUS
 62
    90
 48
2.0
100
AcDbCircle
 10
1005.61515
 20
41.852452
 30
0.0
 40
8.267491
100
AcDbArc
 50
289.78203
 51
319.642674
  0
ARC
  5
2DDA
330
38AC
100
AcDbEntity
  8
V0-OBRYS
  6
CONTINUOUS
 62
    90
 48
2.0
100
AcDbCircle
 10
1005.87397
 20
208.109185
 30
0.0
 40
4.332509
100
AcDbArc
 50
180.0
 51
250.21797
  0
ARC
  5
2DDB
330
38AC
100
AcDbEntity
  8
V0-OBRYS
  6
CONTINUOUS
 62
    90
 48
2.0
100
AcDbCircle
 10
1005.87397
 20
208.109185
 30
0.0
 40
6.3
100
AcDbArc
 50
180.0
 51
250.21797
  0
LINE
  5
2DDC
330
38AC
100
AcDbEntity
  8
V0-OBRYS
  6
CONTINUOUS
 62
    90
 48
2.0
100
AcDbLine
 10
1004.407663
 20
204.03235
 30
0.0
 11
1008.413223
 21
202.591679
 31
0.0
  0
LINE
  5
2DDD
330
38AC
100
AcDbEntity
  8
V0-OBRYS
  6
CONTINUOUS
 62
    90
 48
2.0
100
AcDbLine
 10
1003.74178
 20
202.180967
 30
0.0
 11
1007.74734
 21
200.740296
 31
0.0
  0
ARC
  5
2DDE
330
38AC
100
AcDbEntity
  8
V0-OBRYS
  6
CONTINUOUS
 62
    90
 48
2.0
100
AcDbCircle
 10
1005.61515
 20
194.812078
 30
0.0
 40
8.267491
100
AcDbArc
 50
40.357326
 51
70.21796999999999
  0
ARC
  5
2DDF
330
38AC
100
AcDbEntity
  8
V0-OBRYS
  6
CONTINUOUS
 62
    90
 48
2.0
100
AcDbCircle
 10
1005.61515
 20
194.812078
 30
0.0
 40
6.3
100
AcDbArc
 50
0.0
 51
70.21796999999999
  0
CIRCLE
  5
2DE0
330
38AC
100
AcDbEntity
  8
V0-OBRYS
  6
CONTINUOUS
 62
    90
 48
2.0
100
AcDbCircle
 10
997.635989
 20
260.307198
 30
0.0
 40
2.026282
  0
LINE
  5
2DE1
330
38AC
100
AcDbEntity
  8
V0-OBRYS
  6
CONTINUOUS
 62
    90
 48
2.0
100
AcDbLine
 10
1001.54146
 20
280.42984
 30
0.0
 11
1001.54146
 21
208.109185
 31
0.0
  0
LINE
  5
2DE2
330
38AC
100
AcDbEntity
  8
V0-OBRYS
  6
CONTINUOUS
 62
    90
 48
2.0
100
AcDbLine
 10
999.57397
 20
280.42984
 30
0.0
 11
999.57397
 21
208.109185
 31
0.0
  0
CIRCLE
  5
2DE3
330
38AC
100
AcDbEntity
  8
V0-OBRYS
  6
CONTINUOUS
 62
    90
 48
2.0
100
AcDbCircle
 10
997.635989
 20
245.187198
 30
0.0
 40
2.026282
  0
CIRCLE
  5
2DE4
330
38AC
100
AcDbEntity
  8
V0-OBRYS
  6
CONTINUOUS
 62
    90
 48
2.0
100
AcDbCircle
 10
997.635989
 20
214.947198
 30
0.0
 40
2.026282
  0
CIRCLE
  5
2DE5
330
38AC
100
AcDbEntity
  8
V0-OBRYS
  6
CONTINUOUS
 62
    90
 48
2.0
100
AcDbCircle
 10
997.635989
 20
230.067198
 30
0.0
 40
2.026282
  0
ARC
  5
2DE6
330
38AC
100
AcDbEntity
  8
V0-OBRYS
  6
CONTINUOUS
 62
    90
 48
2.0
100
AcDbCircle
 10
1002.233167
 20
294.079515
 30
0.0
 40
9.79969
100
AcDbArc
 50
283.890847
 51
350.487695
  0
ARC
  5
2DE7
330
38AC
100
AcDbEntity
  8
V0-OBRYS
  6
CONTINUOUS
 62
    90
 48
2.0
100
AcDbCircle
 10
1002.222173
 20
294.128764
 30
0.0
 40
7.887007
100
AcDbArc
 50
283.033261
 51
347.784984
  0
ARC
  5
2DE8
330
38AC
100
AcDbEntity
  8
V0-OBRYS
  6
CONTINUOUS
 62
    90
 48
2.0
100
AcDbCircle
 10
1005.87397
 20
280.42984
 30
0.0
 40
4.332509
100
AcDbArc
 50
107.296981
 51
180.0
  0
CIRCLE
  5
2DE9
330
38AC
100
AcDbEntity
  8
V0-OBRYS
  6
CONTINUOUS
 62
    90
 48
2.0
100
AcDbCircle
 10
997.635989
 20
275.427198
 30
0.0
 40
2.026282
  0
ARC
  5
2DEA
330
38AC
100
AcDbEntity
  8
V0-OBRYS
  6
CONTINUOUS
 62
    90
 48
2.0
100
AcDbCircle
 10
1005.87397
 20
280.42984
 30
0.0
 40
6.3
100
AcDbArc
 50
107.296981
 51
180.0
  0
ARC
  5
2DEB
330
38AC
100
AcDbEntity
  8
V0-OBRYS
  6
CONTINUOUS
 62
    90
 48
2.0
100
AcDbCircle
 10
1010.922886
 20
304.214402
 30
0.0
 40
0.992264
100
AcDbArc
 50
0.0
 51
180.0
  0
LINE
  5
2DEC
330
38AC
100
AcDbEntity
  8
V0-OBRYS
  6
CONTINUOUS
 62
    90
 48
2.0
100
AcDbLine
 10
1009.930622
 20
304.214402
 30
0.0
 11
1009.930622
 21
292.460024
 31
0.0
  0
LINE
  5
2DED
330
38AC
100
AcDbEntity
  8
V0-OBRYS
  6
CONTINUOUS
 62
    90
 48
2.0
100
AcDbLine
 10
1024.03515
 20
318.282265
 30
0.0
 11
1011.91515
 21
318.282265
 31
0.0
  0
LINE
  5
2E4B
330
38AC
100
AcDbEntity
  8
V0-OBRYS
  6
CONTINUOUS
 62
    90
 48
2.0
100
AcDbLine
 10
1091.525369
 20
-39.16742
 30
0.0
 11
1049.06857
 21
-39.16742
 31
0.0
  0
LINE
  5
2E4C
330
38AC
100
AcDbEntity
  8
V0-OBRYS
  6
CONTINUOUS
 62
    90
 48
2.0
100
AcDbLine
 10
1091.525369
 20
275.83195
 30
0.0
 11
1049.06857
 21
275.83195
 31
0.0
  0
ARC
  5
2E4D
330
38AC
100
AcDbEntity
  8
V0-OBRYS
  6
CONTINUOUS
 62
    90
 48
2.0
100
AcDbCircle
 10
1049.06857
 20
-57.769745
 30
0.0
 40
18.602325
100
AcDbArc
 50
90.0
 51
149.420799
  0
LINE
  5
2E4E
330
38AC
100
AcDbEntity
  8
V0-OBRYS
  6
CONTINUOUS
 62
    90
 48
2.0
100
AcDbLine
 10
1023.797154
 20
-63.97052
 30
0.0
 11
1033.053331
 21
-48.306204
 31
0.0
  0
ARC
  5
2E50
330
38AC
100
AcDbEntity
  8
V0-OBRYS
  6
CONTINUOUS
 62
    90
 48
2.0
100
AcDbCircle
 10
1049.06857
 20
294.434275
 30
0.0
 40
18.602325
100
AcDbArc
 50
210.579201
 51
270.0
  0
LINE
  5
2E51
330
38AC
100
AcDbEntity
  8
V0-OBRYS
  6
CONTINUOUS
 62
    90
 48
2.0
100
AcDbLine
 10
1023.797154
 20
300.63505
 30
0.0
 11
1033.053331
 21
284.970734
 31
0.0
  0
DIMENSION
  5
2E52
330
38AC
100
AcDbEntity
  8
V0-VYPLNE
  6
CONTINUOUS
 62
    41
100
AcDbDimension
  2
*D7
 10
1171.037233000003
 20
-39.16742000000001
 30
0.0
 11
1171.037233
 21
115.441485
 31
0.0
 70
   160
  1
%%c<>
  3
ED30
100
AcDbAlignedDimension
 13
1091.525369
 23
275.83195
 33
0.0
 14
1091.525369
 24
-39.16742
 34
0.0
 50
90.0
100
AcDbRotatedDimension
1001
ACAD
1000
DSTYLE
1002
{
1070
    41
1040
30.0
1070
   140
1040
30.0
1002
}
  0
LINE
  5
2E53
330
38AC
100
AcDbEntity
  8
V0-OBRYS
  6
CONTINUOUS
 62
    90
 48
2.0
100
AcDbLine
 10
1091.525369
 20
118.332265
 30
0.0
 11
1091.525369
 21
275.83195
 31
0.0
  0
LINE
  5
2E54
330
38AC
100
AcDbEntity
  8
V0-OBRYS
  6
CONTINUOUS
 62
    90
 48
2.0
100
AcDbLine
 10
1091.525369
 20
118.332265
 30
0.0
 11
1091.525369
 21
-39.16741999999999
 31
0.0
  0
DIMENSION
  5
2E78
330
38AC
100
AcDbEntity
  8
V0-OBRYS
  6
CONTINUOUS
 62
    90
100
AcDbDimension
  2
*D8
 10
1091.525369
 20
-169.1649139999953
 30
0.0
 11
1056.717139
 21
-169.164914
 31
0.0
 70
   160
  3
ED30
100
AcDbAlignedDimension
 13
1024.03515
 23
-81.617735
 33
0.0
 14
1091.525369
 24
-39.16742
 34
0.0
100
AcDbRotatedDimension
1001
ACAD
1000
DSTYLE
1002
{
1070
    41
1040
30.0
1070
   140
1040
30.0
1002
}
  0
DIMENSION
  5
2E92
330
38AC
100
AcDbEntity
  8
V0-OBRYS
  6
CONTINUOUS
 62
    90
100
AcDbDimension
  2
*D9
 10
1024.03515
 20
-122.1538140000048
 30
0.0
 11
930.514264
 21
-122.153814
 31
0.0
 70
   160
  3
ED30
100
AcDbAlignedDimension
 13
1011.91515
 23
-81.617735
 33
0.0
 14
1024.03515
 24
-81.617735
 34
0.0
100
AcDbRotatedDimension
1001
ACAD
1000
DSTYLE
1002
{
1070
    41
1040
30.0
1070
   140
1040
30.0
1002
}
  0
LINE
  5
2F2A
330
38AC
100
AcDbEntity
  8
V0-OBRYS
  6
CONTINUOUS
 62
    90
 48
2.0
100
AcDbLine
 10
1002.275083
 20
161.765106
 30
0.0
 11
984.508962
 21
152.170656
 31
0.0
  0
LINE
  5
2F2B
330
38AC
100
AcDbEntity
  8
V0-OBRYS
  6
CONTINUOUS
 62
    90
 48
2.0
100
AcDbLine
 10
1002.75525
 20
171.839282
 30
0.0
 11
984.0287990000001
 21
157.927328
 31
0.0
  0
LINE
  5
2F2C
330
38AC
100
AcDbEntity
  8
V0-OBRYS
  6
CONTINUOUS
 62
    90
 48
2.0
100
AcDbLine
 10
1002.275083
 20
126.74536
 30
0.0
 11
984.0287990000001
 21
126.265638
 31
0.0
  0
LINE
  5
2F2D
330
38AC
100
AcDbEntity
  8
V0-OBRYS
  6
CONTINUOUS
 62
    90
 48
2.0
100
AcDbLine
 10
1002.275083
 20
138.258702
 30
0.0
 11
984.0287990000001
 21
136.339811
 31
0.0
  0
LINE
  5
2F2E
330
38AC
100
AcDbEntity
  8
V0-OBRYS
  6
CONTINUOUS
 62
    90
 48
2.0
100
AcDbLine
 10
1002.75525
 20
149.772042
 30
0.0
 11
983.548631
 21
145.454539
 31
0.0
  0
LINE
  5
2F2F
330
38AC
100
AcDbEntity
  8
V0-OBRYS
  6
CONTINUOUS
 62
    90
 48
2.0
100
AcDbLine
 10
1002.275083
 20
98.405828
 30
0.0
 11
984.0287990000001
 21
100.324719
 31
0.0
  0
LINE
  5
2F30
330
38AC
100
AcDbEntity
  8
V0-OBRYS
  6
CONTINUOUS
 62
    90
 48
2.0
100
AcDbLine
 10
1002.275083
 20
109.91917
 30
0.0
 11
984.0287990000001
 21
110.398892
 31
0.0
  0
LINE
  5
2F31
330
38AC
100
AcDbEntity
  8
V0-OBRYS
  6
CONTINUOUS
 62
    90
 48
2.0
100
AcDbLine
 10
1002.75525
 20
86.892488
 30
0.0
 11
983.548631
 21
91.209991
 31
0.0
  0
LINE
  5
2F32
330
38AC
100
AcDbEntity
  8
V0-OBRYS
  6
CONTINUOUS
 62
    90
 48
2.0
100
AcDbLine
 10
1002.75525
 20
64.825248
 30
0.0
 11
984.0287990000001
 21
78.737202
 31
0.0
  0
LINE
  5
2F33
330
38AC
100
AcDbEntity
  8
V0-OBRYS
  6
CONTINUOUS
 62
    90
 48
2.0
100
AcDbLine
 10
1002.275083
 20
74.899424
 30
0.0
 11
984.508962
 21
84.49387400000001
 31
0.0
  0
LINE
  5
2F35
330
38AC
100
AcDbEntity
  8
V0-OBRYS
  6
CONTINUOUS
 62
    90
 48
2.0
100
AcDbLine
 10
993.914971
 20
61.331809
 30
0.0
 11
1011.915267
 21
61.331809
 31
0.0
  0
LINE
  5
2F36
330
38AC
100
AcDbEntity
  8
V0-OBRYS
  6
CONTINUOUS
 62
    90
 48
2.0
100
AcDbLine
 10
993.914971
 20
175.332721
 30
0.0
 11
1011.915267
 21
175.332721
 31
0.0
  0
LINE
  5
2F37
330
38AC
100
AcDbEntity
  8
V0-OBRYS
  6
CONTINUOUS
 62
    90
 48
2.0
100
AcDbLine
 10
983.914891
 20
118.332265
 30
0.0
 11
983.914891
 21
71.331889
 31
0.0
  0
ARC
  5
2F38
330
38AC
100
AcDbEntity
  8
V0-OBRYS
  6
CONTINUOUS
 62
    90
 48
2.0
100
AcDbCircle
 10
993.914971
 20
71.331889
 30
0.0
 40
10.00008
100
AcDbArc
 50
180.0
 51
270.0
  0
LINE
  5
2F39
330
38AC
100
AcDbEntity
  8
V0-OBRYS
  6
CONTINUOUS
 62
    90
 48
2.0
100
AcDbLine
 10
983.914891
 20
118.332265
 30
0.0
 11
983.914891
 21
165.332641
 31
0.0
  0
ARC
  5
2F3A
330
38AC
100
AcDbEntity
  8
V0-OBRYS
  6
CONTINUOUS
 62
    90
 48
2.0
100
AcDbCircle
 10
993.914971
 20
165.332641
 30
0.0
 40
10.00008
100
AcDbArc
 50
90.0
 51
180.0
  0
LINE
  5
2F3C
330
38AC
100
AcDbEntity
  8
V0-OBRYS
  6
CONTINUOUS
 62
    90
 48
2.0
100
AcDbLine
 10
1002.915043
 20
118.332265
 30
0.0
 11
1002.915043
 21
61.331809
 31
0.0
  0
LINE
  5
2F3D
330
38AC
100
AcDbEntity
  8
V0-OBRYS
  6
CONTINUOUS
 62
    90
 48
2.0
100
AcDbLine
 10
1002.75525
 20
64.825248
 30
0.0
 11
1011.915267
 21
64.825248
 31
0.0
  0
LINE
  5
2F3E
330
38AC
100
AcDbEntity
  8
V0-OBRYS
  6
CONTINUOUS
 62
    90
 48
2.0
100
AcDbLine
 10
1005.156076
 20
98.405828
 30
0.0
 11
1011.915267
 21
98.405828
 31
0.0
  0
LINE
  5
2F3F
330
38AC
100
AcDbEntity
  8
V0-OBRYS
  6
CONTINUOUS
 62
    90
 48
2.0
100
AcDbLine
 10
1002.75525
 20
86.892488
 30
0.0
 11
1011.915267
 21
86.892488
 31
0.0
  0
LINE
  5
2F40
330
38AC
100
AcDbEntity
  8
V0-OBRYS
  6
CONTINUOUS
 62
    90
 48
2.0
100
AcDbLine
 10
1002.275083
 20
74.899424
 30
0.0
 11
1011.915267
 21
74.899424
 31
0.0
  0
LINE
  5
2F41
330
38AC
100
AcDbEntity
  8
V0-OBRYS
  6
CONTINUOUS
 62
    90
 48
2.0
100
AcDbLine
 10
1002.275083
 20
98.405828
 30
0.0
 11
1005.156076
 21
98.405828
 31
0.0
  0
LINE
  5
2F42
330
38AC
100
AcDbEntity
  8
V0-OBRYS
  6
CONTINUOUS
 62
    90
 48
2.0
100
AcDbLine
 10
1002.915043
 20
118.332265
 30
0.0
 11
1002.915043
 21
175.332721
 31
0.0
  0
LINE
  5
2F43
330
38AC
100
AcDbEntity
  8
V0-OBRYS
  6
CONTINUOUS
 62
    90
 48
2.0
100
AcDbLine
 10
1005.156076
 20
138.258702
 30
0.0
 11
1011.915267
 21
138.258702
 31
0.0
  0
LINE
  5
2F44
330
38AC
100
AcDbEntity
  8
V0-OBRYS
  6
CONTINUOUS
 62
    90
 48
2.0
100
AcDbLine
 10
1002.275083
 20
109.91917
 30
0.0
 11
1011.915267
 21
109.91917
 31
0.0
  0
LINE
  5
2F45
330
38AC
100
AcDbEntity
  8
V0-OBRYS
  6
CONTINUOUS
 62
    90
 48
2.0
100
AcDbLine
 10
1002.275083
 20
126.74536
 30
0.0
 11
1011.915267
 21
126.74536
 31
0.0
  0
LINE
  5
2F46
330
38AC
100
AcDbEntity
  8
V0-OBRYS
  6
CONTINUOUS
 62
    90
 48
2.0
100
AcDbLine
 10
1002.75525
 20
149.772042
 30
0.0
 11
1011.915267
 21
149.772042
 31
0.0
  0
LINE
  5
2F47
330
38AC
100
AcDbEntity
  8
V0-OBRYS
  6
CONTINUOUS
 62
    90
 48
2.0
100
AcDbLine
 10
1002.275083
 20
138.258702
 30
0.0
 11
1005.156076
 21
138.258702
 31
0.0
  0
LINE
  5
2F48
330
38AC
100
AcDbEntity
  8
V0-OBRYS
  6
CONTINUOUS
 62
    90
 48
2.0
100
AcDbLine
 10
1002.275083
 20
161.765106
 30
0.0
 11
1011.915267
 21
161.765106
 31
0.0
  0
LINE
  5
2F49
330
38AC
100
AcDbEntity
  8
V0-OBRYS
  6
CONTINUOUS
 62
    90
 48
2.0
100
AcDbLine
 10
1002.75525
 20
171.839282
 30
0.0
 11
1011.915267
 21
171.839282
 31
0.0
  0
LINE
  5
2F62
330
38AC
100
AcDbEntity
  8
V0-VYPLNE
  6
DASHED
 62
    52
 48
2.0
100
AcDbLine
 10
1030.692355
 20
66.33184900000001
 30
0.0
 11
1030.692355
 21
118.332265
 31
0.0
  0
LINE
  5
2F64
330
38AC
100
AcDbEntity
  8
V0-VYPLNE
  6
DASHED
 62
    52
100
AcDbLine
 10
1011.915349
 20
64.825248
 30
0.0
 11
1030.692355
 21
64.825248
 31
0.0
  0
LINE
  5
2F65
330
38AC
100
AcDbEntity
  8
V0-VYPLNE
  6
DASHED
 62
    52
100
AcDbLine
 10
1011.915349
 20
61.331809
 30
0.0
 11
1025.692315
 21
61.331809
 31
0.0
  0
LINE
  5
2F66
330
38AC
100
AcDbEntity
  8
V0-VYPLNE
  6
DASHED
 62
    52
100
AcDbLine
 10
1011.915349
 20
74.899424
 30
0.0
 11
1030.692355
 21
74.899424
 31
0.0
  0
LINE
  5
2F67
330
38AC
100
AcDbEntity
  8
V0-VYPLNE
  6
DASHED
 62
    52
100
AcDbLine
 10
1011.915349
 20
86.892488
 30
0.0
 11
1030.212191
 21
86.892488
 31
0.0
  0
LINE
  5
2F68
330
38AC
100
AcDbEntity
  8
V0-VYPLNE
  6
DASHED
 62
    52
100
AcDbLine
 10
1011.915349
 20
98.405828
 30
0.0
 11
1030.692355
 21
98.405828
 31
0.0
  0
ARC
  5
2F69
330
38AC
100
AcDbEntity
  8
V0-VYPLNE
  6
DASHED
 62
    52
 48
2.0
100
AcDbCircle
 10
1025.692315
 20
66.33184900000001
 30
0.0
 40
5.00004
100
AcDbArc
 50
270.0
 51
0.0
  0
LINE
  5
2F6A
330
38AC
100
AcDbEntity
  8
V0-VYPLNE
  6
DASHED
 62
    52
100
AcDbLine
 10
1011.915349
 20
126.74536
 30
0.0
 11
1030.212191
 21
126.74536
 31
0.0
  0
LINE
  5
2F6B
330
38AC
100
AcDbEntity
  8
V0-VYPLNE
  6
DASHED
 62
    52
100
AcDbLine
 10
1011.915349
 20
138.258702
 30
0.0
 11
1030.692355
 21
138.258702
 31
0.0
  0
LINE
  5
2F6C
330
38AC
100
AcDbEntity
  8
V0-VYPLNE
  6
DASHED
 62
    52
100
AcDbLine
 10
1011.915349
 20
149.772042
 30
0.0
 11
1030.212191
 21
149.772042
 31
0.0
  0
LINE
  5
2F6D
330
38AC
100
AcDbEntity
  8
V0-VYPLNE
  6
DASHED
 62
    52
100
AcDbLine
 10
1011.915349
 20
161.765106
 30
0.0
 11
1030.692355
 21
161.765106
 31
0.0
  0
LINE
  5
2F6E
330
38AC
100
AcDbEntity
  8
V0-VYPLNE
  6
DASHED
 62
    52
100
AcDbLine
 10
1011.915349
 20
171.839282
 30
0.0
 11
1030.692355
 21
171.839282
 31
0.0
  0
LINE
  5
2F6F
330
38AC
100
AcDbEntity
  8
V0-VYPLNE
  6
DASHED
 62
    52
100
AcDbLine
 10
1011.915349
 20
175.332721
 30
0.0
 11
1025.692315
 21
175.332721
 31
0.0
  0
LINE
  5
2F70
330
38AC
100
AcDbEntity
  8
V0-VYPLNE
  6
DASHED
 62
    52
100
AcDbLine
 10
1011.915349
 20
109.91917
 30
0.0
 11
1030.212191
 21
109.91917
 31
0.0
  0
LINE
  5
2F71
330
38AC
100
AcDbEntity
  8
V0-VYPLNE
  6
DASHED
 62
    52
 48
2.0
100
AcDbLine
 10
1030.692355
 20
170.332681
 30
0.0
 11
1030.692355
 21
118.332265
 31
0.0
  0
ARC
  5
2F72
330
38AC
100
AcDbEntity
  8
V0-VYPLNE
  6
DASHED
 62
    52
 48
2.0
100
AcDbCircle
 10
1025.692315
 20
170.332681
 30
0.0
 40
5.00004
100
AcDbArc
 50
0.0
 51
90.0
  0
LINE
  5
2F8B
330
38AC
100
AcDbEntity
  8
V0-VYPLNE
  6
DASHED
 62
    52
 48
2.0
100
AcDbLine
 10
1083.852765
 20
194.792884
 30
0.0
 11
1071.349358
 21
273.313248
 31
0.0
  0
LINE
  5
2F8C
330
38AC
100
AcDbEntity
  8
V0-VYPLNE
  6
DASHED
 62
    52
 48
2.0
100
AcDbLine
 10
1032.991751
 20
194.792884
 30
0.0
 11
1045.495157
 21
273.313248
 31
0.0
  0
LINE
  5
2F8D
330
38AC
100
AcDbEntity
  8
V0-VYPLNE
  6
DASHED
 62
    52
 48
2.0
100
AcDbLine
 10
1083.852765
 20
41.871603
 30
0.0
 11
1071.349358
 21
-36.648761
 31
0.0
  0
LINE
  5
2F8E
330
38AC
100
AcDbEntity
  8
V0-VYPLNE
  6
DASHED
 62
    52
 48
2.0
100
AcDbLine
 10
1032.991751
 20
41.871603
 30
0.0
 11
1045.495157
 21
-36.648761
 31
0.0
  0
LINE
  5
2F8F
330
38AC
100
AcDbEntity
  8
V0-VYPLNE
  6
DASHED
 62
    52
 48
2.0
100
AcDbLine
 10
1045.495157
 20
-36.648761
 30
0.0
 11
1071.349358
 21
-36.648761
 31
0.0
  0
LINE
  5
2F90
330
38AC
100
AcDbEntity
  8
V0-VYPLNE
  6
DASHED
 62
    52
 48
2.0
100
AcDbLine
 10
1033.022258
 20
118.332243
 30
0.0
 11
1033.022258
 21
47.652243
 31
0.0
  0
ARC
  5
2F91
330
38AC
100
AcDbEntity
  8
V0-VYPLNE
  6
DASHED
 62
    52
 48
2.0
100
AcDbCircle
 10
260.208209
 20
126.438246
 30
0.0
 40
827.373758
100
AcDbArc
 50
354.845307
 51
359.438649
  0
LINE
  5
2F92
330
38AC
100
AcDbEntity
  8
V0-VYPLNE
  6
DASHED
 62
    52
 48
2.0
100
AcDbLine
 10
1055.922258
 20
44.108787
 30
0.0
 11
1055.922258
 21
118.332243
 31
0.0
  0
LINE
  5
2F93
330
38AC
100
AcDbEntity
  8
V0-VYPLNE
  6
DASHED
 62
    52
 48
2.0
100
AcDbLine
 10
1033.514538
 20
109.845228
 30
0.0
 11
1085.94889
 21
127.110421
 31
0.0
  0
ARC
  5
2F94
330
38AC
100
AcDbEntity
  8
V0-VYPLNE
  6
DASHED
 62
    52
 48
2.0
100
AcDbCircle
 10
1058.198915
 20
135.323842
 30
0.0
 40
91.214984
100
AcDbArc
 50
253.97752
 51
283.416339
  0
LINE
  5
2F95
330
38AC
100
AcDbEntity
  8
V0-VYPLNE
  6
DASHED
 62
    52
 48
2.0
100
AcDbLine
 10
1037.754954
 20
46.630413
 30
0.0
 11
1032.991751
 21
41.871603
 31
0.0
  0
ARC
  5
2F96
330
38AC
100
AcDbEntity
  8
V0-VYPLNE
  6
DASHED
 62
    52
 48
2.0
100
AcDbCircle
 10
1078.06094
 20
52.659852
 30
0.0
 40
6.2
100
AcDbArc
 50
282.123858
 51
354.845307
  0
LINE
  5
2F97
330
38AC
100
AcDbEntity
  8
V0-VYPLNE
  6
DASHED
 62
    52
 48
2.0
100
AcDbLine
 10
1079.089561
 20
46.630413
 30
0.0
 11
1083.852765
 21
41.871603
 31
0.0
  0
ARC
  5
2F98
330
38AC
100
AcDbEntity
  8
V0-VYPLNE
  6
DASHED
 62
    52
 48
2.0
100
AcDbCircle
 10
1058.198915
 20
101.340644
 30
0.0
 40
91.214984
100
AcDbArc
 50
76.58366100000001
 51
106.02248
  0
LINE
  5
2F99
330
38AC
100
AcDbEntity
  8
V0-VYPLNE
  6
DASHED
 62
    52
 48
2.0
100
AcDbLine
 10
1055.922258
 20
192.5557
 30
0.0
 11
1055.922258
 21
118.332243
 31
0.0
  0
LINE
  5
2F9A
330
38AC
100
AcDbEntity
  8
V0-VYPLNE
  6
DASHED
 62
    52
 48
2.0
100
AcDbLine
 10
1033.022258
 20
118.332243
 30
0.0
 11
1033.022258
 21
189.012243
 31
0.0
  0
CIRCLE
  5
2F9B
330
38AC
100
AcDbEntity
  8
V0-VYPLNE
  6
DASHED
 62
    52
 48
2.0
100
AcDbCircle
 10
1055.922258
 20
118.084192
 30
0.0
 40
5.254637
  0
LINE
  5
2F9C
330
38AC
100
AcDbEntity
  8
V0-VYPLNE
  6
DASHED
 62
    52
 48
2.0
100
AcDbLine
 10
1037.754954
 20
190.034074
 30
0.0
 11
1032.991751
 21
194.792884
 31
0.0
  0
ARC
  5
2F9D
330
38AC
100
AcDbEntity
  8
V0-VYPLNE
  6
DASHED
 62
    52
 48
2.0
100
AcDbCircle
 10
260.208209
 20
110.226241
 30
0.0
 40
827.373758
100
AcDbArc
 50
0.561351
 51
5.154693
  0
LINE
  5
2F9E
330
38AC
100
AcDbEntity
  8
V0-VYPLNE
  6
DASHED
 62
    52
 48
2.0
100
AcDbLine
 10
1079.089561
 20
190.034074
 30
0.0
 11
1083.852765
 21
194.792884
 31
0.0
  0
LINE
  5
2F9F
330
38AC
100
AcDbEntity
  8
V0-VYPLNE
  6
DASHED
 62
    52
 48
2.0
100
AcDbLine
 10
1045.495157
 20
273.313248
 30
0.0
 11
1071.349358
 21
273.313248
 31
0.0
  0
LINE
  5
2FB9
330
38AC
100
AcDbEntity
  8
V0-OBRYS
  6
CONTINUOUS
 62
    90
100
AcDbLine
 10
1024.03515
 20
318.282265
 30
0.0
 11
1024.03515
 21
-81.61773499999998
 31
0.0
  0
DIMENSION
  5
2FD1
330
38AC
100
AcDbEntity
  8
V0-OBRYS
  6
CONTINUOUS
 62
    90
100
AcDbDimension
  2
*D10
 10
904.5983130000022
 20
61.33180900000001
 30
0.0
 11
904.598313
 21
117.175414
 31
0.0
 70
   160
  1
%%c<>
  3
ED30
100
AcDbAlignedDimension
 13
1002.915043
 23
175.332721
 33
0.0
 14
1002.915043
 24
61.331809
 34
0.0
 50
90.0
100
AcDbRotatedDimension
1001
ACAD
1000
DSTYLE
1002
{
1070
    41
1040
30.0
1070
   140
1040
30.0
1002
}
  0
ARC
  5
306F
330
38AC
100
AcDbEntity
  8
V0-VYPLNE
100
AcDbCircle
 10
1501.818521
 20
122.463529
 30
0.0
 40
230.533641
100
AcDbArc
 50
222.153029
 51
232.398921
  0
CIRCLE
  5
3070
330
38AC
100
AcDbEntity
  8
V0-OBRYS
  6
CONTINUOUS
 62
    90
100
AcDbCircle
 10
1345.408874
 20
-46.893438
 30
0.0
 40
5.058239
  0
ARC
  5
3071
330
38AC
100
AcDbEntity
  8
V0-VYPLNE
100
AcDbCircle
 10
1506.503396
 20
109.516208
 30
0.0
 40
230.533641
100
AcDbArc
 50
312.153029
 51
322.398921
  0
CIRCLE
  5
3072
330
38AC
100
AcDbEntity
  8
V0-OBRYS
  6
CONTINUOUS
 62
    90
100
AcDbCircle
 10
1675.860362
 20
-46.893438
 30
0.0
 40
5.058239
  0
ARC
  5
3073
330
38AC
100
AcDbEntity
  8
V0-VYPLNE
100
AcDbCircle
 10
1519.450716
 20
114.201084
 30
0.0
 40
230.533641
100
AcDbArc
 50
42.153029
 51
52.398921
  0
CIRCLE
  5
3074
330
38AC
100
AcDbEntity
  8
V0-OBRYS
  6
CONTINUOUS
 62
    90
100
AcDbCircle
 10
1675.860362
 20
283.55805
 30
0.0
 40
5.058239
  0
DIMENSION
  5
3081
330
38AC
100
AcDbEntity
  8
V0-OBRYS
  6
CONTINUOUS
 62
    90
100
AcDbDimension
  2
*D11
 10
1675.860362
 20
-132.8381550000049
 30
0.0
 11
1510.103325
 21
-132.838155
 31
0.0
 70
   160
  1
330
  3
ED30
100
AcDbAlignedDimension
 13
1345.408874
 23
-46.893438
 33
0.0
 14
1675.860362
 24
-46.893438
 34
0.0
100
AcDbRotatedDimension
1001
ACAD
1000
DSTYLE
1002
{
1070
    41
1040
30.0
1070
   140
1040
30.0
1002
}
  0
LINE
  5
30AE
330
38AC
100
AcDbEntity
  8
V0-OBRYS
  6
CONTINUOUS
 62
    90
100
AcDbLine
 10
942.914891
 20
78.33226500000001
 30
0.0
 11
983.914891
 21
78.33226500000001
 31
0.0
  0
LINE
  5
30AF
330
38AC
100
AcDbEntity
  8
V0-OBRYS
  6
CONTINUOUS
 62
    90
100
AcDbLine
 10
942.914891
 20
158.332265
 30
0.0
 11
983.914891
 21
158.332265
 31
0.0
  0
LINE
  5
30B0
330
38AC
100
AcDbEntity
  8
V0-OBRYS
  6
CONTINUOUS
 62
    90
100
AcDbLine
 10
942.914891
 20
118.332265
 30
0.0
 11
942.914891
 21
78.33226500000001
 31
0.0
  0
LINE
  5
30B1
330
38AC
100
AcDbEntity
  8
V0-OBRYS
  6
CONTINUOUS
 62
    90
100
AcDbLine
 10
942.914891
 20
118.332265
 30
0.0
 11
942.914891
 21
158.332265
 31
0.0
  0
LINE
  5
30B2
330
38AC
100
AcDbEntity
  8
V0-OBRYS
  6
CONTINUOUS
 62
    90
100
AcDbLine
 10
983.914891
 20
78.33226500000001
 30
0.0
 11
983.914891
 21
118.332265
 31
0.0
  0
LINE
  5
30B3
330
38AC
100
AcDbEntity
  8
V0-OBRYS
  6
CONTINUOUS
 62
    90
100
AcDbLine
 10
957.914891
 20
118.332265
 30
0.0
 11
957.914891
 21
78.33226500000001
 31
0.0
  0
LINE
  5
30B4
330
38AC
100
AcDbEntity
  8
V0-OBRYS
  6
CONTINUOUS
 62
    90
100
AcDbLine
 10
957.914891
 20
118.332265
 30
0.0
 11
957.914891
 21
158.332265
 31
0.0
  0
LINE
  5
30B5
330
38AC
100
AcDbEntity
  8
V0-OBRYS
  6
CONTINUOUS
 62
    90
100
AcDbLine
 10
983.914891
 20
158.332265
 30
0.0
 11
983.914891
 21
118.332265
 31
0.0
  0
LINE
  5
30CC
330
38AC
100
AcDbEntity
  8
V0-OBRYS
  6
CONTINUOUS
 62
    90
100
AcDbLine
 10
1024.03515
 20
-349.602559
 30
0.0
 11
1024.03515
 21
-749.502559
 31
0.0
  0
LINE
  5
30CD
330
38AC
100
AcDbEntity
  8
V0-OBRYS
  6
CONTINUOUS
 62
    90
 48
2.0
100
AcDbLine
 10
1009.930622
 20
-735.434697
 30
0.0
 11
1009.930622
 21
-723.6803180000001
 31
0.0
  0
LINE
  5
30CE
330
38AC
100
AcDbEntity
  8
V0-OBRYS
  6
CONTINUOUS
 62
    90
 48
2.0
100
AcDbLine
 10
1011.91515
 20
-749.502559
 30
0.0
 11
1011.91515
 21
-549.552559
 31
0.0
  0
ARC
  5
30CF
330
38AC
100
AcDbEntity
  8
V0-OBRYS
  6
CONTINUOUS
 62
    90
 48
2.0
100
AcDbCircle
 10
1010.922886
 20
-735.434697
 30
0.0
 40
0.992264
100
AcDbArc
 50
180.0
 51
0.0
  0
LINE
  5
30D0
330
38AC
100
AcDbEntity
  8
V0-OBRYS
  6
CONTINUOUS
 62
    90
 48
2.0
100
AcDbLine
 10
1024.03515
 20
-749.502559
 30
0.0
 11
1011.91515
 21
-749.502559
 31
0.0
  0
LINE
  5
30D1
330
38AC
100
AcDbEntity
  8
V0-VYPLNE
  6
DASHED
 62
    52
 48
2.0
100
AcDbLine
 10
1083.852765
 20
-473.09194
 30
0.0
 11
1071.349358
 21
-394.571577
 31
0.0
  0
LINE
  5
30D2
330
38AC
100
AcDbEntity
  8
V0-VYPLNE
  6
DASHED
 62
    52
 48
2.0
100
AcDbLine
 10
1032.991751
 20
-473.09194
 30
0.0
 11
1045.495157
 21
-394.571577
 31
0.0
  0
ARC
  5
30D3
330
38AC
100
AcDbEntity
  8
V0-OBRYS
  6
CONTINUOUS
 62
    90
 48
2.0
100
AcDbCircle
 10
1005.87397
 20
-459.775639
 30
0.0
 40
4.332509
100
AcDbArc
 50
180.0
 51
250.21797
  0
ARC
  5
30D4
330
38AC
100
AcDbEntity
  8
V0-OBRYS
  6
CONTINUOUS
 62
    90
 48
2.0
100
AcDbCircle
 10
1005.87397
 20
-459.775639
 30
0.0
 40
6.3
100
AcDbArc
 50
180.0
 51
250.21797
  0
LINE
  5
30D5
330
38AC
100
AcDbEntity
  8
V0-OBRYS
  6
CONTINUOUS
 62
    90
 48
2.0
100
AcDbLine
 10
1011.91515
 20
-349.602559
 30
0.0
 11
1011.91515
 21
-549.552559
 31
0.0
  0
LINE
  5
30D6
330
38AC
100
AcDbEntity
  8
V0-OBRYS
  6
CONTINUOUS
 62
    90
 48
2.0
100
AcDbLine
 10
1091.525369
 20
-549.552559
 30
0.0
 11
1091.525369
 21
-392.052874
 31
0.0
  0
LINE
  5
30D7
330
38AC
100
AcDbEntity
  8
V0-VYPLNE
  6
DASHED
 62
    52
 48
2.0
100
AcDbLine
 10
1033.022258
 20
-549.552581
 30
0.0
 11
1033.022258
 21
-620.232581
 31
0.0
  0
ARC
  5
30D8
330
38AC
100
AcDbEntity
  8
V0-VYPLNE
  6
DASHED
 62
    52
 48
2.0
100
AcDbCircle
 10
260.208209
 20
-541.446578
 30
0.0
 40
827.373758
100
AcDbArc
 50
354.845307
 51
359.438649
  0
LINE
  5
30D9
330
38AC
100
AcDbEntity
  8
V0-VYPLNE
  6
DASHED
 62
    52
 48
2.0
100
AcDbLine
 10
1055.922258
 20
-623.776037
 30
0.0
 11
1055.922258
 21
-549.552581
 31
0.0
  0
LINE
  5
30DA
330
38AC
100
AcDbEntity
  8
V0-VYPLNE
  6
DASHED
 62
    52
 48
2.0
100
AcDbLine
 10
1030.692355
 20
-601.552975
 30
0.0
 11
1030.692355
 21
-549.552559
 31
0.0
  0
LINE
  5
30DB
330
38AC
100
AcDbEntity
  8
V0-OBRYS
  6
CONTINUOUS
 62
    90
 48
2.0
100
AcDbLine
 10
1002.915043
 20
-549.552559
 30
0.0
 11
1002.915043
 21
-606.553015
 31
0.0
  0
ARC
  5
30DC
330
38AC
100
AcDbEntity
  8
V0-OBRYS
  6
CONTINUOUS
 62
    90
 48
2.0
100
AcDbCircle
 10
993.914971
 20
-596.5529350000001
 30
0.0
 40
10.00008
100
AcDbArc
 50
180.0
 51
270.0
  0
LINE
  5
30DD
330
38AC
100
AcDbEntity
  8
V0-OBRYS
  6
CONTINUOUS
 62
    90
 48
2.0
100
AcDbLine
 10
1002.75525
 20
-603.059576
 30
0.0
 11
984.0287990000001
 21
-589.147622
 31
0.0
  0
LINE
  5
30DE
330
38AC
100
AcDbEntity
  8
V0-OBRYS
  6
CONTINUOUS
 62
    90
 48
2.0
100
AcDbLine
 10
1091.525369
 20
-549.552559
 30
0.0
 11
1091.525369
 21
-707.052244
 31
0.0
  0
LINE
  5
30DF
330
38AC
100
AcDbEntity
  8
V0-VYPLNE
  6
DASHED
 62
    52
 48
2.0
100
AcDbLine
 10
1083.852765
 20
-626.013222
 30
0.0
 11
1071.349358
 21
-704.533585
 31
0.0
  0
ARC
  5
30E0
330
38AC
100
AcDbEntity
  8
V0-VYPLNE
  6
DASHED
 62
    52
 48
2.0
100
AcDbCircle
 10
1058.198915
 20
-532.560982
 30
0.0
 40
91.214984
100
AcDbArc
 50
253.97752
 51
283.416339
  0
LINE
  5
30E1
330
38AC
100
AcDbEntity
  8
V0-OBRYS
  6
CONTINUOUS
 62
    90
 48
2.0
100
AcDbLine
 10
1091.525369
 20
-707.052244
 30
0.0
 11
1049.06857
 21
-707.052244
 31
0.0
  0
LINE
  5
30E2
330
38AC
100
AcDbEntity
  8
V0-VYPLNE
  6
DASHED
 62
    52
 48
2.0
100
AcDbLine
 10
1032.991751
 20
-626.013222
 30
0.0
 11
1045.495157
 21
-704.533585
 31
0.0
  0
LINE
  5
30E3
330
38AC
100
AcDbEntity
  8
V0-OBRYS
  6
CONTINUOUS
 62
    90
 48
2.0
100
AcDbLine
 10
999.57397
 20
-711.650134
 30
0.0
 11
999.57397
 21
-639.329479
 31
0.0
  0
LINE
  5
30E4
330
38AC
100
AcDbEntity
  8
V0-OBRYS
  6
CONTINUOUS
 62
    90
 48
2.0
100
AcDbLine
 10
1001.54146
 20
-711.650134
 30
0.0
 11
1001.54146
 21
-639.329479
 31
0.0
  0
ARC
  5
30E5
330
38AC
100
AcDbEntity
  8
V0-OBRYS
  6
CONTINUOUS
 62
    90
 48
2.0
100
AcDbCircle
 10
1049.06857
 20
-725.654569
 30
0.0
 40
18.602325
100
AcDbArc
 50
90.0
 51
149.420799
  0
ARC
  5
30E6
330
38AC
100
AcDbEntity
  8
V0-OBRYS
  6
CONTINUOUS
 62
    90
 48
2.0
100
AcDbCircle
 10
1002.233167
 20
-725.299809
 30
0.0
 40
9.79969
100
AcDbArc
 50
9.512305
 51
76.10915300000001
  0
ARC
  5
30E7
330
38AC
100
AcDbEntity
  8
V0-OBRYS
  6
CONTINUOUS
 62
    90
 48
2.0
100
AcDbCircle
 10
1002.222173
 20
-725.349058
 30
0.0
 40
7.887007
100
AcDbArc
 50
12.215016
 51
76.966739
  0
ARC
  5
30E8
330
38AC
100
AcDbEntity
  8
V0-OBRYS
  6
CONTINUOUS
 62
    90
 48
2.0
100
AcDbCircle
 10
1005.87397
 20
-711.650134
 30
0.0
 40
6.3
100
AcDbArc
 50
180.0
 51
252.703019
  0
LINE
  5
30E9
330
38AC
100
AcDbEntity
  8
V0-OBRYS
  6
CONTINUOUS
 62
    90
 48
2.0
100
AcDbLine
 10
1023.797154
 20
-731.855344
 30
0.0
 11
1033.053331
 21
-716.191028
 31
0.0
  0
ARC
  5
30EA
330
38AC
100
AcDbEntity
  8
V0-OBRYS
  6
CONTINUOUS
 62
    90
 48
2.0
100
AcDbCircle
 10
1005.87397
 20
-711.650134
 30
0.0
 40
4.332509
100
AcDbArc
 50
180.0
 51
252.703019
  0
CIRCLE
  5
30EB
330
38AC
100
AcDbEntity
  8
V0-OBRYS
  6
CONTINUOUS
 62
    90
 48
2.0
100
AcDbCircle
 10
997.547454
 20
-706.6474920000001
 30
0.0
 40
2.026282
  0
LINE
  5
30EC
330
38AC
100
AcDbEntity
  8
V0-VYPLNE
  6
DASHED
 62
    52
 48
2.0
100
AcDbLine
 10
1045.495157
 20
-704.533585
 30
0.0
 11
1071.349358
 21
-704.533585
 31
0.0
  0
CIRCLE
  5
30ED
330
38AC
100
AcDbEntity
  8
V0-OBRYS
  6
CONTINUOUS
 62
    90
 48
2.0
100
AcDbCircle
 10
997.547454
 20
-691.5274920000001
 30
0.0
 40
2.026282
  0
CIRCLE
  5
30EE
330
38AC
100
AcDbEntity
  8
V0-OBRYS
  6
CONTINUOUS
 62
    90
 48
2.0
100
AcDbCircle
 10
997.547454
 20
-676.4074920000001
 30
0.0
 40
2.026282
  0
LINE
  5
30EF
330
38AC
100
AcDbEntity
  8
V0-OBRYS
  6
CONTINUOUS
 62
    90
 48
2.0
100
AcDbLine
 10
1002.75525
 20
-603.059576
 30
0.0
 11
1011.915267
 21
-603.059576
 31
0.0
  0
LINE
  5
30F0
330
38AC
100
AcDbEntity
  8
V0-OBRYS
  6
CONTINUOUS
 62
    90
 48
2.0
100
AcDbLine
 10
993.914971
 20
-606.553015
 30
0.0
 11
1011.915267
 21
-606.553015
 31
0.0
  0
ARC
  5
30F1
330
38AC
100
AcDbEntity
  8
V0-OBRYS
  6
CONTINUOUS
 62
    90
 48
2.0
100
AcDbCircle
 10
1005.61515
 20
-626.032372
 30
0.0
 40
6.3
100
AcDbArc
 50
289.78203
 51
0.0
  0
LINE
  5
30F2
330
38AC
100
AcDbEntity
  8
V0-OBRYS
  6
CONTINUOUS
 62
    90
 48
2.0
100
AcDbLine
 10
1003.74178
 20
-633.401262
 30
0.0
 11
1007.74734
 21
-631.96059
 31
0.0
  0
ARC
  5
30F3
330
38AC
100
AcDbEntity
  8
V0-OBRYS
  6
CONTINUOUS
 62
    90
 48
2.0
100
AcDbCircle
 10
1005.61515
 20
-626.032372
 30
0.0
 40
8.267491
100
AcDbArc
 50
289.78203
 51
319.642674
  0
CIRCLE
  5
30F4
330
38AC
100
AcDbEntity
  8
V0-OBRYS
  6
CONTINUOUS
 62
    90
 48
2.0
100
AcDbCircle
 10
997.547454
 20
-661.287492
 30
0.0
 40
2.026282
  0
LINE
  5
30F5
330
38AC
100
AcDbEntity
  8
V0-OBRYS
  6
CONTINUOUS
 62
    90
 48
2.0
100
AcDbLine
 10
1004.407663
 20
-635.252645
 30
0.0
 11
1008.413223
 21
-633.811973
 31
0.0
  0
ARC
  5
30F6
330
38AC
100
AcDbEntity
  8
V0-OBRYS
  6
CONTINUOUS
 62
    90
 48
2.0
100
AcDbCircle
 10
1005.87397
 20
-639.329479
 30
0.0
 40
4.332509
100
AcDbArc
 50
109.78203
 51
180.0
  0
ARC
  5
30F7
330
38AC
100
AcDbEntity
  8
V0-OBRYS
  6
CONTINUOUS
 62
    90
 48
2.0
100
AcDbCircle
 10
1005.87397
 20
-639.329479
 30
0.0
 40
6.3
100
AcDbArc
 50
109.78203
 51
180.0
  0
CIRCLE
  5
30F8
330
38AC
100
AcDbEntity
  8
V0-OBRYS
  6
CONTINUOUS
 62
    90
 48
2.0
100
AcDbCircle
 10
997.547454
 20
-646.167492
 30
0.0
 40
2.026282
  0
LINE
  5
30F9
330
38AC
100
AcDbEntity
  8
V0-VYPLNE
  6
DASHED
 62
    52
 48
2.0
100
AcDbLine
 10
1037.754954
 20
-621.254412
 30
0.0
 11
1032.991751
 21
-626.013222
 31
0.0
  0
LINE
  5
30FA
330
38AC
100
AcDbEntity
  8
V0-VYPLNE
  6
DASHED
 62
    52
100
AcDbLine
 10
1011.915349
 20
-603.059576
 30
0.0
 11
1030.692355
 21
-603.059576
 31
0.0
  0
LINE
  5
30FB
330
38AC
100
AcDbEntity
  8
V0-VYPLNE
  6
DASHED
 62
    52
100
AcDbLine
 10
1011.915349
 20
-606.553015
 30
0.0
 11
1025.692315
 21
-606.553015
 31
0.0
  0
ARC
  5
30FC
330
38AC
100
AcDbEntity
  8
V0-VYPLNE
  6
DASHED
 62
    52
 48
2.0
100
AcDbCircle
 10
1025.692315
 20
-601.552975
 30
0.0
 40
5.00004
100
AcDbArc
 50
270.0
 51
0.0
  0
ARC
  5
30FD
330
38AC
100
AcDbEntity
  8
V0-VYPLNE
  6
DASHED
 62
    52
 48
2.0
100
AcDbCircle
 10
1078.06094
 20
-615.224972
 30
0.0
 40
6.2
100
AcDbArc
 50
282.123858
 51
354.845307
  0
LINE
  5
30FE
330
38AC
100
AcDbEntity
  8
V0-VYPLNE
  6
DASHED
 62
    52
 48
2.0
100
AcDbLine
 10
1079.089561
 20
-621.254412
 30
0.0
 11
1083.852765
 21
-626.013222
 31
0.0
  0
LINE
  5
30FF
330
38AC
100
AcDbEntity
  8
V0-VYPLNE
  6
DASHDOT
 62
    63
 48
2.0
100
AcDbLine
 10
980.9083460000001
 20
-549.552559
 30
0.0
 11
1106.342133
 21
-549.552559
 31
0.0
  0
LINE
  5
3100
330
38AC
100
AcDbEntity
  8
V0-VYPLNE
  6
DASHED
 62
    52
 48
2.0
100
AcDbLine
 10
1033.514538
 20
-558.039596
 30
0.0
 11
1085.94889
 21
-540.774404
 31
0.0
  0
ARC
  5
3101
330
38AC
100
AcDbEntity
  8
V0-VYPLNE
  6
DASHED
 62
    52
 48
2.0
100
AcDbCircle
 10
1058.198915
 20
-566.54418
 30
0.0
 40
91.214984
100
AcDbArc
 50
76.58366100000001
 51
106.02248
  0
LINE
  5
3102
330
38AC
100
AcDbEntity
  8
V0-OBRYS
  6
CONTINUOUS
 62
    90
100
AcDbLine
 10
942.914891
 20
-549.552559
 30
0.0
 11
942.914891
 21
-509.552559
 31
0.0
  0
LINE
  5
3103
330
38AC
100
AcDbEntity
  8
V0-OBRYS
  6
CONTINUOUS
 62
    90
100
AcDbLine
 10
957.914891
 20
-549.552559
 30
0.0
 11
957.914891
 21
-509.552559
 31
0.0
  0
LINE
  5
3104
330
38AC
100
AcDbEntity
  8
V0-OBRYS
  6
CONTINUOUS
 62
    90
100
AcDbLine
 10
983.914891
 20
-509.552559
 30
0.0
 11
983.914891
 21
-549.552559
 31
0.0
  0
LINE
  5
3105
330
38AC
100
AcDbEntity
  8
V0-VYPLNE
  6
DASHED
 62
    52
 48
2.0
100
AcDbLine
 10
1055.922258
 20
-475.329125
 30
0.0
 11
1055.922258
 21
-549.552581
 31
0.0
  0
LINE
  5
3106
330
38AC
100
AcDbEntity
  8
V0-VYPLNE
  6
DASHED
 62
    52
 48
2.0
100
AcDbLine
 10
1033.022258
 20
-549.552581
 30
0.0
 11
1033.022258
 21
-478.872581
 31
0.0
  0
LINE
  5
3107
330
38AC
100
AcDbEntity
  8
V0-VYPLNE
  6
DASHED
 62
    52
 48
2.0
100
AcDbLine
 10
1030.692355
 20
-497.552143
 30
0.0
 11
1030.692355
 21
-549.552559
 31
0.0
  0
LINE
  5
3108
330
38AC
100
AcDbEntity
  8
V0-OBRYS
  6
CONTINUOUS
 62
    90
 48
2.0
100
AcDbLine
 10
1002.915043
 20
-549.552559
 30
0.0
 11
1002.915043
 21
-492.552103
 31
0.0
  0
LINE
  5
3109
330
38AC
100
AcDbEntity
  8
V0-OBRYS
  6
CONTINUOUS
 62
    90
 48
2.0
100
AcDbLine
 10
983.914891
 20
-549.552559
 30
0.0
 11
983.914891
 21
-502.552183
 31
0.0
  0
LINE
  5
310A
330
38AC
100
AcDbEntity
  8
V0-OBRYS
  6
CONTINUOUS
 62
    90
 48
2.0
100
AcDbLine
 10
1002.275083
 20
-529.626122
 30
0.0
 11
984.0287990000001
 21
-531.545014
 31
0.0
  0
LINE
  5
310B
330
38AC
100
AcDbEntity
  8
V0-OBRYS
  6
CONTINUOUS
 62
    90
 48
2.0
100
AcDbLine
 10
1002.275083
 20
-541.139464
 30
0.0
 11
1011.915267
 21
-541.139464
 31
0.0
  0
LINE
  5
310C
330
38AC
100
AcDbEntity
  8
V0-OBRYS
  6
CONTINUOUS
 62
    90
 48
2.0
100
AcDbLine
 10
1002.275083
 20
-557.965654
 30
0.0
 11
1011.915267
 21
-557.965654
 31
0.0
  0
LINE
  5
310D
330
38AC
100
AcDbEntity
  8
V0-OBRYS
  6
CONTINUOUS
 62
    90
 48
2.0
100
AcDbLine
 10
1002.275083
 20
-592.985401
 30
0.0
 11
1011.915267
 21
-592.985401
 31
0.0
  0
LINE
  5
310E
330
38AC
100
AcDbEntity
  8
V0-OBRYS
  6
CONTINUOUS
 62
    90
 48
2.0
100
AcDbLine
 10
1002.75525
 20
-580.992336
 30
0.0
 11
1011.915267
 21
-580.992336
 31
0.0
  0
LINE
  5
310F
330
38AC
100
AcDbEntity
  8
V0-OBRYS
  6
CONTINUOUS
 62
    90
 48
2.0
100
AcDbLine
 10
1005.156076
 20
-569.4789960000001
 30
0.0
 11
1011.915267
 21
-569.4789960000001
 31
0.0
  0
LINE
  5
3110
330
38AC
100
AcDbEntity
  8
V0-OBRYS
  6
CONTINUOUS
 62
    90
100
AcDbLine
 10
942.914891
 20
-549.552559
 30
0.0
 11
942.914891
 21
-589.552559
 31
0.0
  0
LINE
  5
3111
330
38AC
100
AcDbEntity
  8
V0-OBRYS
  6
CONTINUOUS
 62
    90
100
AcDbLine
 10
957.914891
 20
-549.552559
 30
0.0
 11
957.914891
 21
-589.552559
 31
0.0
  0
LINE
  5
3112
330
38AC
100
AcDbEntity
  8
V0-OBRYS
  6
CONTINUOUS
 62
    90
100
AcDbLine
 10
983.914891
 20
-589.552559
 30
0.0
 11
983.914891
 21
-549.552559
 31
0.0
  0
LINE
  5
3113
330
38AC
100
AcDbEntity
  8
V0-OBRYS
  6
CONTINUOUS
 62
    90
 48
2.0
100
AcDbLine
 10
983.914891
 20
-549.552559
 30
0.0
 11
983.914891
 21
-596.5529350000001
 31
0.0
  0
LINE
  5
3114
330
38AC
100
AcDbEntity
  8
V0-OBRYS
  6
CONTINUOUS
 62
    90
100
AcDbLine
 10
942.914891
 20
-589.552559
 30
0.0
 11
983.914891
 21
-589.552559
 31
0.0
  0
LINE
  5
3115
330
38AC
100
AcDbEntity
  8
V0-OBRYS
  6
CONTINUOUS
 62
    90
 48
2.0
100
AcDbLine
 10
1002.275083
 20
-592.985401
 30
0.0
 11
984.508962
 21
-583.39095
 31
0.0
  0
LINE
  5
3116
330
38AC
100
AcDbEntity
  8
V0-OBRYS
  6
CONTINUOUS
 62
    90
 48
2.0
100
AcDbLine
 10
1002.75525
 20
-580.992336
 30
0.0
 11
983.548631
 21
-576.674833
 31
0.0
  0
LINE
  5
3117
330
38AC
100
AcDbEntity
  8
V0-OBRYS
  6
CONTINUOUS
 62
    90
 48
2.0
100
AcDbLine
 10
1002.275083
 20
-569.4789960000001
 30
0.0
 11
984.0287990000001
 21
-567.560105
 31
0.0
  0
LINE
  5
3118
330
38AC
100
AcDbEntity
  8
V0-OBRYS
  6
CONTINUOUS
 62
    90
 48
2.0
100
AcDbLine
 10
1002.275083
 20
-569.4789960000001
 30
0.0
 11
1005.156076
 21
-569.4789960000001
 31
0.0
  0
LINE
  5
3119
330
38AC
100
AcDbEntity
  8
V0-OBRYS
  6
CONTINUOUS
 62
    90
 48
2.0
100
AcDbLine
 10
1002.275083
 20
-557.965654
 30
0.0
 11
984.0287990000001
 21
-557.4859320000001
 31
0.0
  0
LINE
  5
311A
330
38AC
100
AcDbEntity
  8
V0-OBRYS
  6
CONTINUOUS
 62
    90
 48
2.0
100
AcDbLine
 10
1002.275083
 20
-541.139464
 30
0.0
 11
984.0287990000001
 21
-541.619187
 31
0.0
  0
LINE
  5
311B
330
38AC
100
AcDbEntity
  8
V0-VYPLNE
  6
DASHED
 62
    52
100
AcDbLine
 10
1011.915349
 20
-592.985401
 30
0.0
 11
1030.692355
 21
-592.985401
 31
0.0
  0
LINE
  5
311C
330
38AC
100
AcDbEntity
  8
V0-VYPLNE
  6
DASHED
 62
    52
100
AcDbLine
 10
1011.915349
 20
-580.992336
 30
0.0
 11
1030.212191
 21
-580.992336
 31
0.0
  0
LINE
  5
311D
330
38AC
100
AcDbEntity
  8
V0-VYPLNE
  6
DASHED
 62
    52
100
AcDbLine
 10
1011.915349
 20
-569.4789960000001
 30
0.0
 11
1030.692355
 21
-569.4789960000001
 31
0.0
  0
LINE
  5
3121
330
38AC
100
AcDbEntity
  8
V0-VYPLNE
  6
DASHED
 62
    52
100
AcDbLine
 10
1011.915349
 20
-557.965654
 30
0.0
 11
1030.212191
 21
-557.965654
 31
0.0
  0
LINE
  5
3122
330
38AC
100
AcDbEntity
  8
V0-VYPLNE
  6
DASHED
 62
    52
100
AcDbLine
 10
1011.915349
 20
-541.139464
 30
0.0
 11
1030.212191
 21
-541.139464
 31
0.0
  0
CIRCLE
  5
3123
330
38AC
100
AcDbEntity
  8
V0-VYPLNE
  6
DASHED
 62
    52
 48
2.0
100
AcDbCircle
 10
1055.922258
 20
-549.800632
 30
0.0
 40
5.254637
  0
LINE
  5
3124
330
38AC
100
AcDbEntity
  8
V0-OBRYS
  6
CONTINUOUS
 62
    90
 48
2.0
100
AcDbLine
 10
1002.75525
 20
-496.045543
 30
0.0
 11
1011.915267
 21
-496.045543
 31
0.0
  0
LINE
  5
3125
330
38AC
100
AcDbEntity
  8
V0-OBRYS
  6
CONTINUOUS
 62
    90
 48
2.0
100
AcDbLine
 10
1002.275083
 20
-506.119718
 30
0.0
 11
1011.915267
 21
-506.119718
 31
0.0
  0
LINE
  5
3126
330
38AC
100
AcDbEntity
  8
V0-OBRYS
  6
CONTINUOUS
 62
    90
 48
2.0
100
AcDbLine
 10
1002.75525
 20
-518.112782
 30
0.0
 11
1011.915267
 21
-518.112782
 31
0.0
  0
LINE
  5
3127
330
38AC
100
AcDbEntity
  8
V0-OBRYS
  6
CONTINUOUS
 62
    90
 48
2.0
100
AcDbLine
 10
1005.156076
 20
-529.626122
 30
0.0
 11
1011.915267
 21
-529.626122
 31
0.0
  0
LINE
  5
3128
330
38AC
100
AcDbEntity
  8
V0-OBRYS
  6
CONTINUOUS
 62
    90
 48
2.0
100
AcDbLine
 10
993.914971
 20
-492.552103
 30
0.0
 11
1011.915267
 21
-492.552103
 31
0.0
  0
ARC
  5
3129
330
38AC
100
AcDbEntity
  8
V0-OBRYS
  6
CONTINUOUS
 62
    90
 48
2.0
100
AcDbCircle
 10
993.914971
 20
-502.552183
 30
0.0
 40
10.00008
100
AcDbArc
 50
90.0
 51
180.0
  0
LINE
  5
312A
330
38AC
100
AcDbEntity
  8
V0-OBRYS
  6
CONTINUOUS
 62
    90
 48
2.0
100
AcDbLine
 10
1002.75525
 20
-496.045543
 30
0.0
 11
984.0287990000001
 21
-509.957496
 31
0.0
  0
LINE
  5
312B
330
38AC
100
AcDbEntity
  8
V0-OBRYS
  6
CONTINUOUS
 62
    90
100
AcDbLine
 10
942.914891
 20
-509.552559
 30
0.0
 11
983.914891
 21
-509.552559
 31
0.0
  0
LINE
  5
312C
330
38AC
100
AcDbEntity
  8
V0-OBRYS
  6
CONTINUOUS
 62
    90
 48
2.0
100
AcDbLine
 10
1002.275083
 20
-506.119718
 30
0.0
 11
984.508962
 21
-515.714168
 31
0.0
  0
LINE
  5
312D
330
38AC
100
AcDbEntity
  8
V0-OBRYS
  6
CONTINUOUS
 62
    90
 48
2.0
100
AcDbLine
 10
1002.75525
 20
-518.112782
 30
0.0
 11
983.548631
 21
-522.430285
 31
0.0
  0
LINE
  5
312E
330
38AC
100
AcDbEntity
  8
V0-OBRYS
  6
CONTINUOUS
 62
    90
 48
2.0
100
AcDbLine
 10
1002.275083
 20
-529.626122
 30
0.0
 11
1005.156076
 21
-529.626122
 31
0.0
  0
ARC
  5
312F
330
38AC
100
AcDbEntity
  8
V0-VYPLNE
  6
DASHED
 62
    52
 48
2.0
100
AcDbCircle
 10
1025.692315
 20
-497.552143
 30
0.0
 40
5.00004
100
AcDbArc
 50
0.0
 51
90.0
  0
LINE
  5
3130
330
38AC
100
AcDbEntity
  8
V0-VYPLNE
  6
DASHED
 62
    52
100
AcDbLine
 10
1011.915349
 20
-529.626122
 30
0.0
 11
1030.692355
 21
-529.626122
 31
0.0
  0
LINE
  5
3131
330
38AC
100
AcDbEntity
  8
V0-VYPLNE
  6
DASHED
 62
    52
100
AcDbLine
 10
1011.915349
 20
-518.112782
 30
0.0
 11
1030.212191
 21
-518.112782
 31
0.0
  0
LINE
  5
3132
330
38AC
100
AcDbEntity
  8
V0-VYPLNE
  6
DASHED
 62
    52
100
AcDbLine
 10
1011.915349
 20
-506.119718
 30
0.0
 11
1030.692355
 21
-506.119718
 31
0.0
  0
LINE
  5
3133
330
38AC
100
AcDbEntity
  8
V0-VYPLNE
  6
DASHED
 62
    52
 48
2.0
100
AcDbLine
 10
1037.754954
 20
-477.85075
 30
0.0
 11
1032.991751
 21
-473.09194
 31
0.0
  0
LINE
  5
3134
330
38AC
100
AcDbEntity
  8
V0-VYPLNE
  6
DASHED
 62
    52
100
AcDbLine
 10
1011.915349
 20
-496.045543
 30
0.0
 11
1030.692355
 21
-496.045543
 31
0.0
  0
LINE
  5
3135
330
38AC
100
AcDbEntity
  8
V0-VYPLNE
  6
DASHED
 62
    52
100
AcDbLine
 10
1011.915349
 20
-492.552103
 30
0.0
 11
1025.692315
 21
-492.552103
 31
0.0
  0
ARC
  5
3136
330
38AC
100
AcDbEntity
  8
V0-OBRYS
  6
CONTINUOUS
 62
    90
 48
2.0
100
AcDbCircle
 10
1005.61515
 20
-473.072746
 30
0.0
 40
8.267491
100
AcDbArc
 50
40.357326
 51
70.21796999999999
  0
ARC
  5
3137
330
38AC
100
AcDbEntity
  8
V0-OBRYS
  6
CONTINUOUS
 62
    90
 48
2.0
100
AcDbCircle
 10
1005.61515
 20
-473.072746
 30
0.0
 40
6.3
100
AcDbArc
 50
0.0
 51
70.21796999999999
  0
LINE
  5
3138
330
38AC
100
AcDbEntity
  8
V0-OBRYS
  6
CONTINUOUS
 62
    90
 48
2.0
100
AcDbLine
 10
1004.407663
 20
-463.852474
 30
0.0
 11
1008.413223
 21
-465.293145
 31
0.0
  0
LINE
  5
3139
330
38AC
100
AcDbEntity
  8
V0-OBRYS
  6
CONTINUOUS
 62
    90
 48
2.0
100
AcDbLine
 10
1003.74178
 20
-465.703857
 30
0.0
 11
1007.74734
 21
-467.144528
 31
0.0
  0
ARC
  5
313A
330
38AC
100
AcDbEntity
  8
V0-VYPLNE
  6
DASHED
 62
    52
 48
2.0
100
AcDbCircle
 10
260.208209
 20
-557.658583
 30
0.0
 40
827.373758
100
AcDbArc
 50
0.561351
 51
5.154693
  0
LINE
  5
313B
330
38AC
100
AcDbEntity
  8
V0-VYPLNE
  6
DASHED
 62
    52
 48
2.0
100
AcDbLine
 10
1079.089561
 20
-477.85075
 30
0.0
 11
1083.852765
 21
-473.09194
 31
0.0
  0
LINE
  5
313C
330
38AC
100
AcDbEntity
  8
V0-OBRYS
  6
CONTINUOUS
 62
    90
 48
2.0
100
AcDbLine
 10
1091.525369
 20
-392.052874
 30
0.0
 11
1049.06857
 21
-392.052874
 31
0.0
  0
LINE
  5
313D
330
38AC
100
AcDbEntity
  8
V0-OBRYS
  6
CONTINUOUS
 62
    90
 48
2.0
100
AcDbLine
 10
1001.54146
 20
-387.454984
 30
0.0
 11
1001.54146
 21
-459.775639
 31
0.0
  0
LINE
  5
313E
330
38AC
100
AcDbEntity
  8
V0-OBRYS
  6
CONTINUOUS
 62
    90
 48
2.0
100
AcDbLine
 10
999.57397
 20
-387.454984
 30
0.0
 11
999.57397
 21
-459.775639
 31
0.0
  0
CIRCLE
  5
313F
330
38AC
100
AcDbEntity
  8
V0-OBRYS
  6
CONTINUOUS
 62
    90
 48
2.0
100
AcDbCircle
 10
997.635989
 20
-452.937626
 30
0.0
 40
2.026282
  0
CIRCLE
  5
3140
330
38AC
100
AcDbEntity
  8
V0-OBRYS
  6
CONTINUOUS
 62
    90
 48
2.0
100
AcDbCircle
 10
997.635989
 20
-437.817626
 30
0.0
 40
2.026282
  0
CIRCLE
  5
3141
330
38AC
100
AcDbEntity
  8
V0-OBRYS
  6
CONTINUOUS
 62
    90
 48
2.0
100
AcDbCircle
 10
997.635989
 20
-422.697626
 30
0.0
 40
2.026282
  0
CIRCLE
  5
3142
330
38AC
100
AcDbEntity
  8
V0-OBRYS
  6
CONTINUOUS
 62
    90
 48
2.0
100
AcDbCircle
 10
997.635989
 20
-407.577626
 30
0.0
 40
2.026282
  0
ARC
  5
3143
330
38AC
100
AcDbEntity
  8
V0-OBRYS
  6
CONTINUOUS
 62
    90
 48
2.0
100
AcDbCircle
 10
1049.06857
 20
-373.450549
 30
0.0
 40
18.602325
100
AcDbArc
 50
210.579201
 51
270.0
  0
ARC
  5
3144
330
38AC
100
AcDbEntity
  8
V0-OBRYS
  6
CONTINUOUS
 62
    90
 48
2.0
100
AcDbCircle
 10
1002.233167
 20
-373.80531
 30
0.0
 40
9.79969
100
AcDbArc
 50
283.890847
 51
350.487695
  0
ARC
  5
3145
330
38AC
100
AcDbEntity
  8
V0-OBRYS
  6
CONTINUOUS
 62
    90
 48
2.0
100
AcDbCircle
 10
1002.222173
 20
-373.75606
 30
0.0
 40
7.887007
100
AcDbArc
 50
283.033261
 51
347.784984
  0
LINE
  5
3146
330
38AC
100
AcDbEntity
  8
V0-OBRYS
  6
CONTINUOUS
 62
    90
 48
2.0
100
AcDbLine
 10
1023.797154
 20
-367.249774
 30
0.0
 11
1033.053331
 21
-382.91409
 31
0.0
  0
ARC
  5
3147
330
38AC
100
AcDbEntity
  8
V0-OBRYS
  6
CONTINUOUS
 62
    90
 48
2.0
100
AcDbCircle
 10
1005.87397
 20
-387.454984
 30
0.0
 40
4.332509
100
AcDbArc
 50
107.296981
 51
180.0
  0
CIRCLE
  5
3148
330
38AC
100
AcDbEntity
  8
V0-OBRYS
  6
CONTINUOUS
 62
    90
 48
2.0
100
AcDbCircle
 10
997.635989
 20
-392.457626
 30
0.0
 40
2.026282
  0
ARC
  5
3149
330
38AC
100
AcDbEntity
  8
V0-OBRYS
  6
CONTINUOUS
 62
    90
 48
2.0
100
AcDbCircle
 10
1005.87397
 20
-387.454984
 30
0.0
 40
6.3
100
AcDbArc
 50
107.296981
 51
180.0
  0
ARC
  5
314A
330
38AC
100
AcDbEntity
  8
V0-OBRYS
  6
CONTINUOUS
 62
    90
 48
2.0
100
AcDbCircle
 10
1010.922886
 20
-363.670422
 30
0.0
 40
0.992264
100
AcDbArc
 50
0.0
 51
180.0
  0
LINE
  5
314B
330
38AC
100
AcDbEntity
  8
V0-OBRYS
  6
CONTINUOUS
 62
    90
 48
2.0
100
AcDbLine
 10
1009.930622
 20
-363.670422
 30
0.0
 11
1009.930622
 21
-375.424801
 31
0.0
  0
LINE
  5
314C
330
38AC
100
AcDbEntity
  8
V0-VYPLNE
  6
DASHED
 62
    52
 48
2.0
100
AcDbLine
 10
1045.495157
 20
-394.571577
 30
0.0
 11
1071.349358
 21
-394.571577
 31
0.0
  0
LINE
  5
314D
330
38AC
100
AcDbEntity
  8
V0-OBRYS
  6
CONTINUOUS
 62
    90
 48
2.0
100
AcDbLine
 10
1024.03515
 20
-349.602559
 30
0.0
 11
1011.91515
 21
-349.602559
 31
0.0
  0
TEXT
  5
3152
330
38AC
100
AcDbEntity
  8
V0-VYPLNE
  6
CONTINUOUS
 62
    51
100
AcDbText
 10
1357.920623419574
 20
-491.6025540000992
 30
0.0
 40
30.0
  1
Axiální ventilátor
  7
ED30
100
AcDbText
  0
TEXT
  5
3154
330
38AC
100
AcDbEntity
  8
V0-VYPLNE
 62
     6
100
AcDbText
 10
1305.5835
 20
-435.9367
 30
0.0
 40
40.0
  1
HXBR/HXTR 315
  7
ED40
100
AcDbText
  0
POINT
  5
32BD
330
38AC
100
AcDbEntity
  8
V0-VYPLNE
  6
CONTINUOUS
 62
    41
100
AcDbPoint
 10
1091.525369
 20
118.332265
 30
0.0
  0
POINT
  5
32BE
330
38AC
100
AcDbEntity
  8
V0-VYPLNE
  6
CONTINUOUS
 62
    41
100
AcDbPoint
 10
1091.525369
 20
-549.552559
 30
0.0
  0
DIMENSION
  5
372F
330
38AC
100
AcDbEntity
  8
V0-VYPLNE
  6
CONTINUOUS
 62
    41
100
AcDbDimension
  2
*D12
 10
1091.525369
 20
-218.4322450000014
 30
0.0
 11
1017.22013
 21
-201.4322450000014
 31
0.0
 70
    32
  3
ED30
100
AcDbAlignedDimension
 13
942.914891
 23
78.33226500000001
 33
0.0
 14
1091.525369
 24
-40.16742
 34
0.0
100
AcDbRotatedDimension
1001
ACAD
1000
DSTYLE
1002
{
1070
    41
1040
30.0
1070
   140
1040
30.0
1002
}
  0
LWPOLYLINE
  5
37A8
330
38AC
100
AcDbEntity
  8
V0-OBRYS
  6
CONTINUOUS
 62
    41
100
AcDbPolyline
 90
        4
 70
     1
 43
0.0
 10
1330.185020264547
 20
-60.28542771596989
 10
1345.408874
 20
-46.893438
 10
1335.351279293264
 20
-64.49900245633467
 10
1335.351279293264
 20
-64.49900245633467
1001
VDEXTRAPARAM
1071
       65
1071
        0
1071
        0
1040
1.0
1000

1000

1040
0.0
1040
0.0
  0
HATCH
  5
393C
330
38AC
100
AcDbEntity
  8
V0-OBRYS
  6
CONTINUOUS
 62
    41
100
AcDbHatch
 10
0.0
 20
0.0
 30
0.0
210
0.0
220
0.0
230
1.0
  2
SOLID
 70
     1
 71
     0
 91
        1
 92
        2
 72
     0
 73
     1
 93
        3
 10
1330.185020264547
 20
-60.28542771596989
 10
1345.408874
 20
-46.893438
 10
1335.351279293264
 20
-64.49900245633467
 97
        0
 75
     0
 76
     1
 98
        1
 10
0.0
 20
0.0
1001
VDEXTRAPARAM
1071
       65
1071
        0
1071
        0
1040
1.0
1000

1000

1040
0.0
1040
0.0
1001
VD_TEMPHATCH
1000
VD_TEMPHATCH
  0
LWPOLYLINE
  5
37A9
330
38AC
100
AcDbEntity
  8
V0-OBRYS
  6
CONTINUOUS
 62
    41
100
AcDbPolyline
 90
        3
 70
     0
 43
0.0
 10
1332.768149778906
 20
-62.39221508615228
 10
1297.453255
 20
-105.691766
 10
1107.437507
 20
-105.691766
  0
TEXT
  5
37AE
330
38AC
100
AcDbEntity
  8
V0-OBRYS
  6
CONTINUOUS
 62
    41
100
AcDbText
 10
1051.643731190476
 20
-103.691766
 30
0.0
 40
20.0
  1
4 OTVORY %%c10
  7
ED40
100
AcDbText
  0
VIEWPORT
  5
393D
330
38A8
100
AcDbEntity
 67
     1
  8
0
 60
     1
100
AcDbViewport
 10
261.517699
 20
148.5
 30
0.0
 40
297.0
 41
297.0
 68
     0
 69
     1
1001
VD_INVISIBLE_NOT_FOR_READ
1000
VD_INVISIBLE_NOT_FOR_READ
1001
ACAD
1000
MVIEW
1002
{
1070
    16
1010
0.0
1020
0.0
1030
0.0
1010
0.0
1020
0.0
1030
1.0
1040
6.2831853071796
1040
297.0
1040
261.517699
1040
148.5
1040
0.0
1040
0.0
1040
0.0
1070
     0
1070
   100
1070
     0
1070
     1
1070
     0
1070
     0
1070
     0
1070
     0
1040
0.0
1040
0.0
1040
0.0
1040
1.0
1040
1.0
1040
0.0
1040
0.0
1070
     0
1002
{
1002
}
1002
}
  0
VIEWPORT
  5
393E
330
38A8
100
AcDbEntity
 67
     1
  8
0
 60
     1
100
AcDbViewport
 10
261.517699
 20
148.5
 30
0.0
 40
297.0
 41
297.0
 68
     0
 69
     2
1001
VD_INVISIBLE_NOT_FOR_READ
1000
VD_INVISIBLE_NOT_FOR_READ
1001
ACAD
1000
MVIEW
1002
{
1070
    16
1010
0.0
1020
0.0
1030
0.0
1010
0.0
1020
0.0
1030
1.0
1040
6.2831853071796
1040
297.0
1040
261.517699
1040
148.5
1040
0.0
1040
0.0
1040
0.0
1070
     0
1070
   100
1070
     0
1070
     1
1070
     0
1070
     0
1070
     0
1070
     0
1040
0.0
1040
0.0
1040
0.0
1040
1.0
1040
1.0
1040
0.0
1040
0.0
1070
     0
1002
{
1002
}
1002
}
  0
ENDSEC
  0
SECTION
  2
OBJECTS
  0
DICTIONARY
  5
3899
330
0
100
AcDbDictionary
  3
ACAD_GROUP
350
389A
  3
ACAD_LAYOUT
350
38A7
  3
ACAD_MLINESTYLE
350
38A4
  3
ACAD_PLOTSETTINGS
350
38A6
  3
ACDBHEADERROUNDTRIPXREC
350
393F
  3
VECTORDRAW_OBJECTS
350
38BC
  0
DICTIONARY
  5
395F
330
38B6
100
AcDbDictionary
280
     1
  3
ACAD_XREC_ROUNDTRIP
360
3960
  0
DICTIONARY
  5
389A
102
{ACAD_REACTORS
330
3899
102
}
330
3899
100
AcDbDictionary
  0
DICTIONARY
  5
38A7
102
{ACAD_REACTORS
330
3899
102
}
330
3899
100
AcDbDictionary
  0
DICTIONARY
  5
38A4
102
{ACAD_REACTORS
330
3899
102
}
330
3899
100
AcDbDictionary
  3
STANDARD
350
38A5
  0
DICTIONARY
  5
38A6
102
{ACAD_REACTORS
330
3899
102
}
330
3899
100
AcDbDictionary
  0
DICTIONARY
  5
393F
102
{ACAD_REACTORS
330
3899
102
}
330
3899
100
AcDbDictionary
  3
CEPSNTYPE
350
3948
  3
DIMSTYLEDATA
350
395E
  3
FINGERPRINTGUID
350
3949
  3
HYPERLINKBASE
350
3942
  3
INSUNITS
350
3947
  3
LAYOUTDICT
350
3944
  3
LWETCUNION
350
3946
  3
PLOTSETDICT
350
3945
  3
PSVPSCALE
350
394B
  3
PUCSBASE
350
394E
  3
PUCSORGBACK
350
3954
  3
PUCSORGBOTTOM
350
3950
  3
PUCSORGFRONT
350
3953
  3
PUCSORGLEFT
350
3951
  3
PUCSORGRIGHT
350
3952
  3
PUCSORGTOP
350
394F
  3
PUCSORTHOREF
350
394C
  3
PUCSORTHOVIEW
350
394D
  3
STYLESHEET
350
3943
  3
TSTACKALIGN
350
3940
  3
TSTACKSIZE
350
3941
  3
UCSBASE
350
3957
  3
UCSORGBACK
350
395D
  3
UCSORGBOTTOM
350
3959
  3
UCSORGFRONT
350
395C
  3
UCSORGLEFT
350
395A
  3
UCSORGRIGHT
350
395B
  3
UCSORGTOP
350
3958
  3
UCSORTHOREF
350
3955
  3
UCSORTHOVIEW
350
3956
  3
VERSIONGUID
350
394A
  0
DICTIONARY
  5
38BC
102
{ACAD_REACTORS
330
3899
102
}
330
3899
100
AcDbDictionary
  3
SERIALNO
350
38BD
  0
XRECORD
  5
3960
102
{ACAD_REACTORS
330
395F
102
}
330
395F
100
AcDbXrecord
102
UCS
 74
     0
 71
     1
 10
0.0
 20
0.0
 30
0.0
 10
1.0
 20
0.0
 30
0.0
 10
0.0
 20
1.0
 30
0.0
146
0.0
 79
     0
102
VIEW
281
     0
  0
MLINESTYLE
  5
38A5
102
{ACAD_REACTORS
330
38A4
102
}
330
38A4
100
AcDbMlineStyle
  2
Standard
 70
     0
  3

 62
   256
 51
90.0
 52
90.0
 71
     2
 49
0.5
 62
   256
  6
BYLAYER
 49
-0.5
 62
   256
  6
BYLAYER
  0
XRECORD
  5
3948
102
{ACAD_REACTORS
330
393F
102
}
330
393F
100
AcDbXrecord
 90
        0
  0
XRECORD
  5
395E
102
{ACAD_REACTORS
330
393F
102
}
330
393F
100
AcDbXrecord
1000
DSTYLE
1002
{
1070
    41
 40
20.0
1070
   342
340
90
1070
   177
 70
    41
1070
   178
 70
    41
1070
   271
 70
     0
1070
    44
 40
1.25
1070
    42
 40
1.0
1070
   147
 40
2.0
1070
    77
 70
     1
1070
    73
 70
     0
1070
   174
 70
     1
1070
   172
 70
     1
1070
    74
 70
     0
1070
   340
340
331
1070
   140
 40
20.0
1070
   288
 70
     1
1002
}
  0
XRECORD
  5
3949
102
{ACAD_REACTORS
330
393F
102
}
330
393F
100
AcDbXrecord
  1
{FAEB1C30-E019-11D5-929B-00C0DF256EC4}
  0
XRECORD
  5
3942
102
{ACAD_REACTORS
330
393F
102
}
330
393F
100
AcDbXrecord
  1

  0
XRECORD
  5
3947
102
{ACAD_REACTORS
330
393F
102
}
330
393F
100
AcDbXrecord
 90
        1
  0
XRECORD
  5
3944
102
{ACAD_REACTORS
330
393F
102
}
330
393F
100
AcDbXrecord
340
38A7
  0
XRECORD
  5
3946
102
{ACAD_REACTORS
330
393F
102
}
330
393F
100
AcDbXrecord
 90
     2560
  0
XRECORD
  5
3945
102
{ACAD_REACTORS
330
393F
102
}
330
393F
100
AcDbXrecord
340
38A6
  0
XRECORD
  5
394B
102
{ACAD_REACTORS
330
393F
102
}
330
393F
100
AcDbXrecord
 40
0.0
  0
XRECORD
  5
394E
102
{ACAD_REACTORS
330
393F
102
}
330
393F
100
AcDbXrecord
340
0
  0
XRECORD
  5
3954
102
{ACAD_REACTORS
330
393F
102
}
330
393F
100
AcDbXrecord
 10
0.0
 20
0.0
 30
0.0
  0
XRECORD
  5
3950
102
{ACAD_REACTORS
330
393F
102
}
330
393F
100
AcDbXrecord
 10
0.0
 20
0.0
 30
0.0
  0
XRECORD
  5
3953
102
{ACAD_REACTORS
330
393F
102
}
330
393F
100
AcDbXrecord
 10
0.0
 20
0.0
 30
0.0
  0
XRECORD
  5
3951
102
{ACAD_REACTORS
330
393F
102
}
330
393F
100
AcDbXrecord
 10
0.0
 20
0.0
 30
0.0
  0
XRECORD
  5
3952
102
{ACAD_REACTORS
330
393F
102
}
330
393F
100
AcDbXrecord
 10
0.0
 20
0.0
 30
0.0
  0
XRECORD
  5
394F
102
{ACAD_REACTORS
330
393F
102
}
330
393F
100
AcDbXrecord
 10
0.0
 20
0.0
 30
0.0
  0
XRECORD
  5
394C
102
{ACAD_REACTORS
330
393F
102
}
330
393F
100
AcDbXrecord
340
0
  0
XRECORD
  5
394D
102
{ACAD_REACTORS
330
393F
102
}
330
393F
100
AcDbXrecord
 70
     0
  0
XRECORD
  5
3943
102
{ACAD_REACTORS
330
393F
102
}
330
393F
100
AcDbXrecord
  1

  0
XRECORD
  5
3940
102
{ACAD_REACTORS
330
393F
102
}
330
393F
100
AcDbXrecord
 90
        1
  0
XRECORD
  5
3941
102
{ACAD_REACTORS
330
393F
102
}
330
393F
100
AcDbXrecord
 90
       70
  0
XRECORD
  5
3957
102
{ACAD_REACTORS
330
393F
102
}
330
393F
100
AcDbXrecord
340
0
  0
XRECORD
  5
395D
102
{ACAD_REACTORS
330
393F
102
}
330
393F
100
AcDbXrecord
 10
0.0
 20
0.0
 30
0.0
  0
XRECORD
  5
3959
102
{ACAD_REACTORS
330
393F
102
}
330
393F
100
AcDbXrecord
 10
0.0
 20
0.0
 30
0.0
  0
XRECORD
  5
395C
102
{ACAD_REACTORS
330
393F
102
}
330
393F
100
AcDbXrecord
 10
0.0
 20
0.0
 30
0.0
  0
XRECORD
  5
395A
102
{ACAD_REACTORS
330
393F
102
}
330
393F
100
AcDbXrecord
 10
0.0
 20
0.0
 30
0.0
  0
XRECORD
  5
395B
102
{ACAD_REACTORS
330
393F
102
}
330
393F
100
AcDbXrecord
 10
0.0
 20
0.0
 30
0.0
  0
XRECORD
  5
3958
102
{ACAD_REACTORS
330
393F
102
}
330
393F
100
AcDbXrecord
 10
0.0
 20
0.0
 30
0.0
  0
XRECORD
  5
3955
102
{ACAD_REACTORS
330
393F
102
}
330
393F
100
AcDbXrecord
340
0
  0
XRECORD
  5
3956
102
{ACAD_REACTORS
330
393F
102
}
330
393F
100
AcDbXrecord
 70
     0
  0
XRECORD
  5
394A
102
{ACAD_REACTORS
330
393F
102
}
330
393F
100
AcDbXrecord
  1
{FAEB1C32-E019-11D5-929B-00C0DF256EC4}
  0
XRECORD
  5
38BD
102
{ACAD_REACTORS
330
38BC
102
}
330
38BC
100
AcDbXrecord
1000
rInJVR9YY4Q8hfPWdUq5j5319
1070
     4
1070
     6
  0
ENDSEC
  0
EOF
