  0
SECTION
  2
HEADER
  9
$ACADVER
  1
AC1014
  9
$ACADMAINTVER
 70
     9
  9
$DWGCODEPAGE
  3
ANSI_1250
  9
$INSBASE
 10
0.0
 20
0.0
 30
0.0
  9
$EXTMIN
 10
-161.125832
 20
-564.7406130000001
 30
0.0
  9
$EXTMAX
 10
554.4121043956044
 20
246.873585
 30
0.0
  9
$LIMMIN
 10
0.0
 20
0.0
  9
$LIMMAX
 10
0.0
 20
0.0
  9
$ORTHOMODE
 70
     0
  9
$REGENMODE
 70
     1
  9
$FILLMODE
 70
     1
  9
$QTEXTMODE
 70
     0
  9
$MIRRTEXT
 70
     1
  9
$DRAGMODE
 70
     2
  9
$LTSCALE
 40
1.0
  9
$OSMODE
 70
    37
  9
$ATTMODE
 70
     1
  9
$TEXTSIZE
 40
0.2
  9
$TRACEWID
 40
0.05
  9
$TEXTSTYLE
  7
ED40
  9
$CLAYER
  8
V0-VYPLNE
  9
$CELTYPE
  6
CONTINUOUS
  9
$CECOLOR
 62
    41
  9
$CELTSCALE
 40
1.0
  9
$DELOBJ
 70
     1
  9
$DISPSILH
 70
     0
  9
$DIMSCALE
 40
1.0
  9
$DIMASZ
 40
20.0
  9
$DIMEXO
 40
1.0
  9
$DIMDLI
 40
0.38
  9
$DIMRND
 40
0.0
  9
$DIMDLE
 40
0.0
  9
$DIMEXE
 40
1.25
  9
$DIMTP
 40
0.0
  9
$DIMTM
 40
0.0
  9
$DIMTXT
 40
20.0
  9
$DIMCEN
 40
0.09
  9
$DIMTSZ
 40
0.0
  9
$DIMTOL
 70
     0
  9
$DIMLIM
 70
     0
  9
$DIMTIH
 70
     0
  9
$DIMTOH
 70
     0
  9
$DIMSE1
 70
     0
  9
$DIMSE2
 70
     0
  9
$DIMTAD
 70
     1
  9
$DIMZIN
 70
     0
  9
$DIMBLK
  1
OPEN
  9
$DIMASO
 70
     1
  9
$DIMSHO
 70
     1
  9
$DIMPOST
  1

  9
$DIMAPOST
  1

  9
$DIMALT
 70
     0
  9
$DIMALTD
 70
     2
  9
$DIMALTF
 40
25.4
  9
$DIMLFAC
 40
1.0
  9
$DIMTOFL
 70
     1
  9
$DIMTVP
 40
0.0
  9
$DIMTIX
 70
     1
  9
$DIMSOXD
 70
     0
  9
$DIMSAH
 70
     0
  9
$DIMBLK1
  1

  9
$DIMBLK2
  1

  9
$DIMSTYLE
  2
ED20
  9
$DIMCLRD
 70
     0
  9
$DIMCLRE
 70
    41
  9
$DIMCLRT
 70
    41
  9
$DIMTFAC
 40
1.0
  9
$DIMGAP
 40
2.0
  9
$DIMJUST
 70
     0
  9
$DIMSD1
 70
     0
  9
$DIMSD2
 70
     0
  9
$DIMTOLJ
 70
     1
  9
$DIMTZIN
 70
     0
  9
$DIMALTZ
 70
     0
  9
$DIMALTTZ
 70
     0
  9
$DIMFIT
 70
     3
  9
$DIMUPT
 70
     1
  9
$DIMUNIT
 70
     2
  9
$DIMDEC
 70
     0
  9
$DIMTDEC
 70
     4
  9
$DIMALTU
 70
     2
  9
$DIMALTTD
 70
     2
  9
$DIMTXSTY
  7
ED20
  9
$DIMAUNIT
 70
     0
  9
$LUNITS
 70
     2
  9
$LUPREC
 70
     4
  9
$SKETCHINC
 40
0.1
  9
$FILLETRAD
 40
0.5
  9
$AUNITS
 70
     0
  9
$AUPREC
 70
     0
  9
$MENU
  1
.
  9
$ELEVATION
 40
0.0
  9
$PELEVATION
 40
0.0
  9
$THICKNESS
 40
0.0
  9
$LIMCHECK
 70
     0
  9
$BLIPMODE
 70
     0
  9
$CHAMFERA
 40
0.5
  9
$CHAMFERB
 40
0.5
  9
$CHAMFERC
 40
1.0
  9
$CHAMFERD
 40
0.0
  9
$SKPOLY
 70
     0
  9
$TDCREATE
 40
2455643.629110567
  9
$TDUPDATE
 40
2455643.629110579
  9
$TDINDWG
 40
0.0000000116
  9
$TDUSRTIMER
 40
0.0000000116
  9
$USRTIMER
 70
     1
  9
$ANGBASE
 50
0.0
  9
$ANGDIR
 70
     0
  9
$PDMODE
 70
    35
  9
$PDSIZE
 40
20.0
  9
$PLINEWID
 40
0.0
  9
$COORDS
 70
     1
  9
$SPLFRAME
 70
     0
  9
$SPLINETYPE
 70
     6
  9
$SPLINESEGS
 70
     8
  9
$ATTDIA
 70
     0
  9
$ATTREQ
 70
     1
  9
$HANDLING
 70
     1
  9
$HANDSEED
  5
2F9D
  9
$SURFTAB1
 70
     6
  9
$SURFTAB2
 70
     6
  9
$SURFTYPE
 70
     6
  9
$SURFU
 70
     6
  9
$SURFV
 70
     6
  9
$UCSNAME
  2

  9
$UCSORG
 10
0.0
 20
0.0
 30
0.0
  9
$UCSXDIR
 10
1.0
 20
0.0
 30
0.0
  9
$UCSYDIR
 10
0.0
 20
1.0
 30
0.0
  9
$PUCSNAME
  2

  9
$PUCSORG
 10
0.0
 20
0.0
 30
0.0
  9
$PUCSXDIR
 10
1.0
 20
0.0
 30
0.0
  9
$PUCSYDIR
 10
0.0
 20
1.0
 30
0.0
  9
$USERI1
 70
     0
  9
$USERI2
 70
     0
  9
$USERI3
 70
     0
  9
$USERI4
 70
     0
  9
$USERI5
 70
     0
  9
$USERR1
 40
0.0
  9
$USERR2
 40
0.0
  9
$USERR3
 40
0.0
  9
$USERR4
 40
0.0
  9
$USERR5
 40
0.0
  9
$WORLDVIEW
 70
     1
  9
$SHADEDGE
 70
     3
  9
$SHADEDIF
 70
    70
  9
$TILEMODE
 70
     1
  9
$MAXACTVP
 70
    64
  9
$PINSBASE
 10
0.0
 20
0.0
 30
0.0
  9
$PLIMCHECK
 70
     0
  9
$PEXTMIN
 10
1.000000000000000E+20
 20
1.000000000000000E+20
 30
1.000000000000000E+20
  9
$PEXTMAX
 10
-1.000000000000000E+20
 20
-1.000000000000000E+20
 30
-1.000000000000000E+20
  9
$PLIMMIN
 10
0.0
 20
0.0
  9
$PLIMMAX
 10
0.0
 20
0.0
  9
$UNITMODE
 70
     0
  9
$VISRETAIN
 70
     1
  9
$PLINEGEN
 70
     0
  9
$PSLTSCALE
 70
     1
  9
$TREEDEPTH
 70
  3020
  9
$PICKSTYLE
 70
     1
  9
$CMLSTYLE
  2
STANDARD
  9
$CMLJUST
 70
     0
  9
$CMLSCALE
 40
1.0
  9
$PROXYGRAPHICS
 70
     1
  9
$MEASUREMENT
 70
     0
  0
ENDSEC
  0
SECTION
  2
CLASSES
  0
CLASS
  1
ACDBDICTIONARYWDFLT
  2
AcDbDictionaryWithDefault
  3
ObjectDBX Classes
 90
        0
280
     0
281
     0
  0
CLASS
  1
XRECORD
  2
AcDbXrecord
  3
AutoCAD 2000
 90
        0
280
     0
281
     0
  0
CLASS
  1
LWPOLYLINE
  2
AcDbPolyline
  3
AutoCAD 2000
 90
        0
280
     0
281
     1
  0
CLASS
  1
HATCH
  2
AcDbHatch
  3
AutoCAD 2000
 90
        0
280
     0
281
     1
  0
CLASS
  1
ACDBPLACEHOLDER
  2
AcDbPlaceHolder
  3
ObjectDBX Classes
 90
        0
280
     0
281
     0
  0
CLASS
  1
LAYOUT
  2
AcDbLayout
  3
ObjectDBX Classes
 90
        0
280
     0
281
     0
  0
ENDSEC
  0
SECTION
  2
TABLES
  0
TABLE
  2
VPORT
  5
2EDD
330
0
100
AcDbSymbolTable
 70
     2
  0
VPORT
  5
2EFE
102
{ACAD_XDICTIONARY
360
2F9B
102
}
330
2EDD
100
AcDbSymbolTableRecord
100
AcDbViewportTableRecord
  2
*ACTIVE
 70
     0
 10
0.0
 20
0.0
 11
1.0
 21
1.0
 12
160.077525
 22
-123.353768
 13
0.0
 23
0.0
 14
10.0
 24
10.0
 15
10.0
 25
10.0
 16
0.0
 26
0.0
 36
1.0
 17
0.0
 27
0.0
 37
0.0
 40
912.359055
 41
0.0194624656360241
 42
50.0
 43
0.0
 44
0.0
 50
0.0
 51
0.0000000000007958
 71
     0
 72
   100
 73
     1
 74
     3
 75
     0
 76
     0
 77
     0
 78
     0
  0
ENDTAB
  0
TABLE
  2
LTYPE
  5
2EDA
330
0
100
AcDbSymbolTable
 70
    25
  0
LTYPE
  5
2EE9
330
2EDA
100
AcDbSymbolTableRecord
100
AcDbLinetypeTableRecord
  2
BYBLOCK
 70
     0
  3

 72
    65
 73
     0
 40
0.0
  0
LTYPE
  5
2EEA
330
2EDA
100
AcDbSymbolTableRecord
100
AcDbLinetypeTableRecord
  2
BYLAYER
 70
     0
  3

 72
    65
 73
     0
 40
0.0
  0
LTYPE
  5
2EEB
330
2EDA
100
AcDbSymbolTableRecord
100
AcDbLinetypeTableRecord
  2
CONTINUOUS
 70
     0
  3
Solid line
 72
    65
 73
     0
 40
0.0
  0
LTYPE
  5
2F06
330
2EDA
100
AcDbSymbolTableRecord
100
AcDbLinetypeTableRecord
  2
CENTER
 70
     0
  3
Center ____ _ ____ _ ____ _ ____ _ ____ _ ____
 72
    65
 73
     4
 40
2.0
 49
1.25
 74
     0
 49
-0.25
 74
     0
 49
0.25
 74
     0
 49
-0.25
 74
     0
  0
LTYPE
  5
2F07
330
2EDA
100
AcDbSymbolTableRecord
100
AcDbLinetypeTableRecord
  2
DASHDOT
 70
     0
  3
Dashdot __ . __ . __ . __ . __ . __ . __ . __
 72
    65
 73
     4
 40
1.0
 49
0.5
 74
     0
 49
-0.25
 74
     0
 49
0.0
 74
     0
 49
-0.25
 74
     0
  0
LTYPE
  5
2F08
330
2EDA
100
AcDbSymbolTableRecord
100
AcDbLinetypeTableRecord
  2
DASHED
 70
     0
  3
Dashed __ __ __ __ __ __ __ __ __ __ __ __ __ _
 72
    65
 73
     2
 40
0.75
 49
0.5
 74
     0
 49
-0.25
 74
     0
  0
LTYPE
  5
2F09
330
2EDA
100
AcDbSymbolTableRecord
100
AcDbLinetypeTableRecord
  2
HIDDEN
 70
     0
  3
Hidden __ __ __ __ __ __ __ __ __ __ __ __ __ __
 72
    65
 73
     2
 40
0.375
 49
0.25
 74
     0
 49
-0.125
 74
     0
  0
LTYPE
  5
2F0A
330
2EDA
100
AcDbSymbolTableRecord
100
AcDbLinetypeTableRecord
  2
HIDDEN2
 70
     0
  3
Hidden2 _ _ _ _ _ _ _ _ _ _ _ _ _ _ _ _ _ 
 72
    65
 73
     2
 40
0.1875
 49
0.125
 74
     0
 49
-0.0625
 74
     0
  0
LTYPE
  5
2F0B
330
2EDA
100
AcDbSymbolTableRecord
100
AcDbLinetypeTableRecord
  2
BORDER
 70
     0
  3
Border __ __ . __ __ . __ __ . __ __ . __ __ .
 72
    65
 73
     6
 40
1.75
 49
0.5
 74
     0
 49
-0.25
 74
     0
 49
0.5
 74
     0
 49
-0.25
 74
     0
 49
0.0
 74
     0
 49
-0.25
 74
     0
  0
LTYPE
  5
2F0C
330
2EDA
100
AcDbSymbolTableRecord
100
AcDbLinetypeTableRecord
  2
BORDER2
 70
     0
  3
Border2 __.__.__.__.__.__.__.__.__.__.__.
 72
    65
 73
     6
 40
0.875
 49
0.25
 74
     0
 49
-0.125
 74
     0
 49
0.25
 74
     0
 49
-0.125
 74
     0
 49
0.0
 74
     0
 49
-0.125
 74
     0
  0
LTYPE
  5
2F0D
330
2EDA
100
AcDbSymbolTableRecord
100
AcDbLinetypeTableRecord
  2
BORDERX2
 70
     0
  3
Borderx2  ____  ____  .  ____  ____  .  ___
 72
    65
 73
     6
 40
3.5
 49
1.0
 74
     0
 49
-0.5
 74
     0
 49
1.0
 74
     0
 49
-0.5
 74
     0
 49
0.0
 74
     0
 49
-0.5
 74
     0
  0
LTYPE
  5
2F0E
330
2EDA
100
AcDbSymbolTableRecord
100
AcDbLinetypeTableRecord
  2
CENTER2
 70
     0
  3
Center2  ___ _ ___ _ ___ _ ___ _ ___ _ ___
 72
    65
 73
     4
 40
1.125
 49
0.75
 74
     0
 49
-0.125
 74
     0
 49
0.125
 74
     0
 49
-0.125
 74
     0
  0
LTYPE
  5
2F0F
330
2EDA
100
AcDbSymbolTableRecord
100
AcDbLinetypeTableRecord
  2
CENTERX2
 70
     0
  3
Centerx2  ________  __  ________  __  _____
 72
    65
 73
     4
 40
4.0
 49
2.5
 74
     0
 49
-0.5
 74
     0
 49
0.5
 74
     0
 49
-0.5
 74
     0
  0
LTYPE
  5
2F10
330
2EDA
100
AcDbSymbolTableRecord
100
AcDbLinetypeTableRecord
  2
DASHDOT2
 70
     0
  3
Dashdot2  _._._._._._._._._._._._._._._.
 72
    65
 73
     4
 40
0.5
 49
0.25
 74
     0
 49
-0.125
 74
     0
 49
0.0
 74
     0
 49
-0.125
 74
     0
  0
LTYPE
  5
2F11
330
2EDA
100
AcDbSymbolTableRecord
100
AcDbLinetypeTableRecord
  2
DASHDOTX2
 70
     0
  3
Dashdotx2 ____  .  ____  .  ____  .  ___
 72
    65
 73
     4
 40
2.0
 49
1.0
 74
     0
 49
-0.5
 74
     0
 49
0.0
 74
     0
 49
-0.5
 74
     0
  0
LTYPE
  5
2F12
330
2EDA
100
AcDbSymbolTableRecord
100
AcDbLinetypeTableRecord
  2
DASHED2
 70
     0
  3
Dashed2 _ _ _ _ _ _ _ _ _ _ _ _ _ _ _ _ _ 
 72
    65
 73
     2
 40
0.375
 49
0.25
 74
     0
 49
-0.125
 74
     0
  0
LTYPE
  5
2F13
330
2EDA
100
AcDbSymbolTableRecord
100
AcDbLinetypeTableRecord
  2
DASHEDX2
 70
     0
  3
Dashedx2 ____  ____  ____  ____  ____  ___
 72
    65
 73
     2
 40
1.5
 49
1.0
 74
     0
 49
-0.5
 74
     0
  0
LTYPE
  5
2F14
330
2EDA
100
AcDbSymbolTableRecord
100
AcDbLinetypeTableRecord
  2
DIVIDE
 70
     0
  3
Divide ____ . . ____ . . ____ . . ____ . . ____
 72
    65
 73
     6
 40
1.25
 49
0.5
 74
     0
 49
-0.25
 74
     0
 49
0.0
 74
     0
 49
-0.25
 74
     0
 49
0.0
 74
     0
 49
-0.25
 74
     0
  0
LTYPE
  5
2F15
330
2EDA
100
AcDbSymbolTableRecord
100
AcDbLinetypeTableRecord
  2
DIVIDE2
 70
     0
  3
Divide2 __..__..__..__..__..__..__..__.._
 72
    65
 73
     6
 40
0.625
 49
0.25
 74
     0
 49
-0.125
 74
     0
 49
0.0
 74
     0
 49
-0.125
 74
     0
 49
0.0
 74
     0
 49
-0.125
 74
     0
  0
LTYPE
  5
2F16
330
2EDA
100
AcDbSymbolTableRecord
100
AcDbLinetypeTableRecord
  2
DIVIDEX2
 70
     0
  3
Dividex2 ________  .  .  ________  .  .  _
 72
    65
 73
     6
 40
2.5
 49
1.0
 74
     0
 49
-0.5
 74
     0
 49
0.0
 74
     0
 49
-0.5
 74
     0
 49
0.0
 74
     0
 49
-0.5
 74
     0
  0
LTYPE
  5
2F17
330
2EDA
100
AcDbSymbolTableRecord
100
AcDbLinetypeTableRecord
  2
DOT
 70
     0
  3
Dot . . . . . . . . . . . . . . . . . . . . . . . .
 72
    65
 73
     2
 40
0.25
 49
0.0
 74
     0
 49
-0.25
 74
     0
  0
LTYPE
  5
2F18
330
2EDA
100
AcDbSymbolTableRecord
100
AcDbLinetypeTableRecord
  2
DOT2
 70
     0
  3
Dot2 ........................................
 72
    65
 73
     2
 40
0.125
 49
0.0
 74
     0
 49
-0.125
 74
     0
  0
LTYPE
  5
2F19
330
2EDA
100
AcDbSymbolTableRecord
100
AcDbLinetypeTableRecord
  2
DOTX2
 70
     0
  3
Dotx2 .  .  .  .  .  .  .  .  .  .  .  .  .  .
 72
    65
 73
     2
 40
0.5
 49
0.0
 74
     0
 49
-0.5
 74
     0
  0
LTYPE
  5
2F1A
330
2EDA
100
AcDbSymbolTableRecord
100
AcDbLinetypeTableRecord
  2
HIDDENX2
 70
     0
  3
Hiddenx2 ____ ____ ____ ____ ____ ____ ____ 
 72
    65
 73
     2
 40
0.75
 49
0.5
 74
     0
 49
-0.25
 74
     0
  0
LTYPE
  5
2F1B
330
2EDA
100
AcDbSymbolTableRecord
100
AcDbLinetypeTableRecord
  2
PHANTOM
 70
     0
  3
Phantom ______  __  __  ______  __  __  ______ 
 72
    65
 73
     6
 40
2.5
 49
1.25
 74
     0
 49
-0.25
 74
     0
 49
0.25
 74
     0
 49
-0.25
 74
     0
 49
0.25
 74
     0
 49
-0.25
 74
     0
  0
LTYPE
  5
2F1C
330
2EDA
100
AcDbSymbolTableRecord
100
AcDbLinetypeTableRecord
  2
PHANTOM2
 70
     0
  3
Phantom2 ___ _ _ ___ _ _ ___ _ _ ___ _ _
 72
    65
 73
     6
 40
1.25
 49
0.625
 74
     0
 49
-0.125
 74
     0
 49
0.125
 74
     0
 49
-0.125
 74
     0
 49
0.125
 74
     0
 49
-0.125
 74
     0
  0
LTYPE
  5
2F1D
330
2EDA
100
AcDbSymbolTableRecord
100
AcDbLinetypeTableRecord
  2
PHANTOMX2
 70
     0
  3
Phantomx2 ____________    ____    ____   _
 72
    65
 73
     6
 40
5.0
 49
2.5
 74
     0
 49
-0.5
 74
     0
 49
0.5
 74
     0
 49
-0.5
 74
     0
 49
0.5
 74
     0
 49
-0.5
 74
     0
  0
ENDTAB
  0
TABLE
  2
LAYER
  5
2ED7
330
0
100
AcDbSymbolTable
 70
     5
  0
LAYER
  5
2EE5
330
2ED7
100
AcDbSymbolTableRecord
100
AcDbLayerTableRecord
  2
0
 70
     0
 62
     7
  6
CONTINUOUS
  0
LAYER
  5
9E
330
2ED7
100
AcDbSymbolTableRecord
100
AcDbLayerTableRecord
  2
DEFPOINTS
 70
     0
 62
     7
  6
CONTINUOUS
  0
LAYER
  5
377
330
2ED7
100
AcDbSymbolTableRecord
100
AcDbLayerTableRecord
  2
V0-OBRYS
 70
     0
 62
    90
  6
CONTINUOUS
  0
LAYER
  5
378
330
2ED7
100
AcDbSymbolTableRecord
100
AcDbLayerTableRecord
  2
V0-VYPLNE
 70
     0
 62
    63
  6
DASHDOT
  0
LAYER
  5
1540
330
2ED7
100
AcDbSymbolTableRecord
100
AcDbLayerTableRecord
  2
VO-OBRYS
 70
     0
 62
    90
  6
CONTINUOUS
  0
ENDTAB
  0
TABLE
  2
STYLE
  5
2ED8
330
0
100
AcDbSymbolTable
 70
     6
  0
STYLE
  5
2EE6
330
2ED8
100
AcDbSymbolTableRecord
100
AcDbTextStyleTableRecord
  2
STANDARD
 70
     0
 40
0.0
 41
1.0
 50
0.0
 71
     0
 42
0.2
  3
ISOCP.shx
  4

1001
ACAD
1000
ISOCP.shx
1071
        0
  0
STYLE
  5
331
330
2ED8
100
AcDbSymbolTableRecord
100
AcDbTextStyleTableRecord
  2
ED20
 70
     0
 40
20.0
 41
1.0
 50
0.0
 71
     0
 42
0.2
  3
ISOCP.shx
  4

1001
ACAD
1000
ISOCP.shx
1071
        0
  0
STYLE
  5
648
330
2ED8
100
AcDbSymbolTableRecord
100
AcDbTextStyleTableRecord
  2
ED10
 70
     0
 40
10.0
 41
1.0
 50
0.0
 71
     0
 42
0.2
  3
ISOCP.shx
  4

1001
ACAD
1000
ISOCP.shx
1071
        0
  0
STYLE
  5
F38
330
2ED8
100
AcDbSymbolTableRecord
100
AcDbTextStyleTableRecord
  2
ED30
 70
     0
 40
30.0
 41
1.0
 50
0.0
 71
     0
 42
0.2
  3
ISOCP.shx
  4

1001
ACAD
1000
ISOCP.shx
1071
        0
  0
STYLE
  5
F39
330
2ED8
100
AcDbSymbolTableRecord
100
AcDbTextStyleTableRecord
  2
ED40
 70
     0
 40
40.0
 41
1.0
 50
0.0
 71
     0
 42
0.2
  3
ISOCP.shx
  4

1001
ACAD
1000
ISOCP.shx
1071
        0
  0
STYLE
  5
1B9D
330
2ED8
100
AcDbSymbolTableRecord
100
AcDbTextStyleTableRecord
  2
VD_RECOV_1_1B9D_
 70
     0
 40
0.0
 41
1.0
 50
0.0
 71
     0
 42
0.2
  3
ltypeshp.shx
  4

1001
ACAD
1000
ltypeshp.shx
1071
        0
  0
ENDTAB
  0
TABLE
  2
VIEW
  5
2EDB
330
0
100
AcDbSymbolTable
 70
     0
  0
ENDTAB
  0
TABLE
  2
UCS
  5
2EDC
330
0
100
AcDbSymbolTable
 70
     0
  0
ENDTAB
  0
TABLE
  2
APPID
  5
2EDE
330
0
100
AcDbSymbolTable
 70
     7
  0
APPID
  5
2EE7
330
2EDE
100
AcDbSymbolTableRecord
100
AcDbRegAppTableRecord
  2
ACAD
 70
     0
  0
APPID
  5
2EFF
330
2EDE
100
AcDbSymbolTableRecord
100
AcDbRegAppTableRecord
  2
VD_INVISIBLE_NOT_FOR_READ
 70
     0
  0
APPID
  5
2F00
330
2EDE
100
AcDbSymbolTableRecord
100
AcDbRegAppTableRecord
  2
VD_TEMPHATCH
 70
     0
  0
APPID
  5
2F01
330
2EDE
100
AcDbSymbolTableRecord
100
AcDbRegAppTableRecord
  2
VDEXTRAPARAM
 70
     0
  0
APPID
  5
2F02
330
2EDE
100
AcDbSymbolTableRecord
100
AcDbRegAppTableRecord
  2
PE_URL
 70
     0
  0
APPID
  5
2F03
330
2EDE
100
AcDbSymbolTableRecord
100
AcDbRegAppTableRecord
  2
VD_UNKNOWN
 70
     0
  0
APPID
  5
2F2C
330
2EDE
100
AcDbSymbolTableRecord
100
AcDbRegAppTableRecord
  2
CONTENTBLOCKICON
 70
     0
  0
ENDTAB
  0
TABLE
  2
DIMSTYLE
  5
2EDF
330
0
100
AcDbSymbolTable
 70
     2
  0
DIMSTYLE
105
2EFC
330
2EDF
100
AcDbSymbolTableRecord
100
AcDbDimStyleTableRecord
  2
STANDARD
 70
     0
  3

  4

  5
OPEN
  6

  7

 40
1.0
 41
15.0
 42
0.625
 43
0.38
 44
1.25
 45
0.0
 46
0.0
 47
0.0
 48
0.0
140
15.0
141
0.09
142
0.0
143
25.4
144
1.0
145
0.0
146
1.0
147
3.0
 71
     0
 72
     0
 73
     0
 74
     0
 75
     0
 76
     0
 77
     1
 78
     0
170
     0
171
     2
172
     1
173
     0
174
     1
175
     0
176
     0
177
     0
178
     0
270
     2
271
     0
272
     4
273
     2
274
     2
340
331
275
     0
280
     0
281
     0
282
     0
283
     1
284
     0
285
     0
286
     0
287
     3
288
     1
  0
DIMSTYLE
105
FE9
102
{ACAD_REACTORS
330
2375
330
2382
330
239C
330
23D4
330
23E1
330
2DB2
102
}
330
2EDF
100
AcDbSymbolTableRecord
100
AcDbDimStyleTableRecord
  2
ED20
 70
     0
  3

  4

  5
OPEN
  6

  7

 40
1.0
 41
20.0
 42
1.0
 43
0.38
 44
1.25
 45
0.0
 46
0.0
 47
0.0
 48
0.0
140
20.0
141
0.09
142
0.0
143
25.4
144
1.0
145
0.0
146
1.0
147
2.0
 71
     0
 72
     0
 73
     0
 74
     0
 75
     0
 76
     0
 77
     1
 78
     0
170
     0
171
     2
172
     1
173
     0
174
     1
175
     0
176
     0
177
    41
178
    41
270
     2
271
     0
272
     4
273
     2
274
     2
340
331
275
     0
280
     0
281
     0
282
     0
283
     1
284
     0
285
     0
286
     0
287
     3
288
     1
  0
ENDTAB
  0
TABLE
  2
BLOCK_RECORD
  5
2ED6
330
0
100
AcDbSymbolTable
 70
    14
  0
BLOCK_RECORD
  5
2EF4
330
2ED6
100
AcDbSymbolTableRecord
100
AcDbBlockTableRecord
  2
*MODEL_SPACE
  0
BLOCK_RECORD
  5
2EF0
330
2ED6
100
AcDbSymbolTableRecord
100
AcDbBlockTableRecord
  2
*PAPER_SPACE
  0
BLOCK_RECORD
  5
90
330
2ED6
100
AcDbSymbolTableRecord
100
AcDbBlockTableRecord
  2
_OPEN
  0
BLOCK_RECORD
  5
2383
330
2ED6
100
AcDbSymbolTableRecord
100
AcDbBlockTableRecord
  2
VD_ANONYM_2383
  0
BLOCK_RECORD
  5
2414
330
2ED6
100
AcDbSymbolTableRecord
100
AcDbBlockTableRecord
  2
VD_ANONYM_2414
  0
BLOCK_RECORD
  5
2421
330
2ED6
100
AcDbSymbolTableRecord
100
AcDbBlockTableRecord
  2
VD_ANONYM_2421
  0
BLOCK_RECORD
  5
267B
330
2ED6
100
AcDbSymbolTableRecord
100
AcDbBlockTableRecord
  2
ASVORK
1001
CONTENTBLOCKICON
1071
        0
1004
2800000020000000200000000100040000000000000200000000000000000000000000000000000000000000000080000080000000808000800000008000800080800000C0C0C000808080000000FF0000FF000000FFFF00FF000000FF00FF00FFFF0000FFFFFF00FFFFAAAAAAAAAAAAAAAAAAAAAAAAFFFF
1004
FFFFAFFFFFAFFFFFFFFFFFFFFFFAFFFFFFFFAFFFFFAFFFFFFFFFFFFFFFFAFFFFFFFFAFFFFFAFFFFFFFFFFFFFFFFAFFFFFFFFAFFFFFAFFFFFFFFFFFFFFFFAFFFFFFFFAFFFFFAFFFFFFFFFFFFFFFFAFFFFFFFFAFFFFFAFFFFFFFFFFFFFFFFAFFFFFFFFAFFFFFAFFFFFFFFFFFFFFFFAFFFFFFFFAFFFFFAFFFFF
1004
FFFFFFFFFFFAFFFFFFFFAFFFFFAFFFFFFFFFFFFFFFFAFFFFFFFFAFFFFFAFFFFFFFFFFFFFFFFAFFFFFFFFAFFFFFAFFFFFFFFFFFFFFFFAFFFFFFFFAFFFFFAFFFFFFFFFFFFFFFFAFFFFFFFFAFFFFFAFFFFFFFFFFFFFFFFAFFFFFFFFAFFFFFAFFFFFFFFFFFFFFFFAFFFFFFFFAFFFFFAFFFFFFFFFFFFFFFFAFFFF
1004
FFFFAFFFFFAFFFFFFFFFFFFFFFFFFFFFFFFFAFFFFFAFFFFFFFFFFFFFFFFAFFFFFFFFAFFFFFAFFFFFFFFFFFFFFFFAFFFFFFFFAFFFFFAFFFFFFFFFFFFFFFFAFFFFFFFFAFFFFFAFFFFFFFFFFFFFFFFAFFFFFFFFAFFFFFAFFFFFFFFFFFFFFFFAFFFFFFFFAFFFFFAFFFFFFFFFFFFFFFFAFFFFFFFFAFFFFFAFFFFF
1004
FFFFFFFFFFFAFFFFFFFFAFFFFFAFFFFFFFFFFFFFFFFAFFFFFFFFAFFFFFAFFFFFFFFFFFFFFFFAFFFFFFFFAFFFFFAFFFFFFFFFFFFFFFFAFFFFFFFFAFFFFFAFFFFFFFFFFFFFFFFAFFFFFFFFAFFFFFAFFFFFFFFFFFFFFFFAFFFFFFFFAFFFFFAFFFFFFFFFFFFFFFFAFFFFFFFFAFFFFFAFFFFFFFFFFFFFFFFAFFFF
1004
FFFFAAAAAAAAAAAAAAAAAAAAAAAAFFFF
  0
BLOCK_RECORD
  5
2E06
330
2ED6
100
AcDbSymbolTableRecord
100
AcDbBlockTableRecord
  2
VDDIM_DEFAULT
  0
BLOCK_RECORD
  5
2E08
330
2ED6
100
AcDbSymbolTableRecord
100
AcDbBlockTableRecord
  2
VDDIM_NONE
  0
BLOCK_RECORD
  5
2F2E
330
2ED6
100
AcDbSymbolTableRecord
100
AcDbBlockTableRecord
  2
*D8
  0
BLOCK_RECORD
  5
2F3A
330
2ED6
100
AcDbSymbolTableRecord
100
AcDbBlockTableRecord
  2
*D9
  0
BLOCK_RECORD
  5
2F46
330
2ED6
100
AcDbSymbolTableRecord
100
AcDbBlockTableRecord
  2
*D10
  0
BLOCK_RECORD
  5
2F53
330
2ED6
100
AcDbSymbolTableRecord
100
AcDbBlockTableRecord
  2
*D11
  0
BLOCK_RECORD
  5
2F5F
330
2ED6
100
AcDbSymbolTableRecord
100
AcDbBlockTableRecord
  2
*D12
  0
BLOCK_RECORD
  5
2F6C
330
2ED6
100
AcDbSymbolTableRecord
100
AcDbBlockTableRecord
  2
*D13
  0
ENDTAB
  0
ENDSEC
  0
SECTION
  2
BLOCKS
  0
BLOCK
  5
2EF5
330
2EF4
100
AcDbEntity
  8
0
100
AcDbBlockBegin
  2
*MODEL_SPACE
 70
     0
 71
     0
 10
0.0
 20
0.0
 30
0.0
  3
*MODEL_SPACE
  1

  0
ENDBLK
  5
2EF6
330
2EF4
100
AcDbEntity
  8
0
100
AcDbBlockEnd
  0
BLOCK
  5
2EF1
330
2EF0
100
AcDbEntity
 67
     1
  8
0
100
AcDbBlockBegin
  2
*PAPER_SPACE
 70
     0
 71
     0
 10
0.0
 20
0.0
 30
0.0
  3
*PAPER_SPACE
  1

  0
ENDBLK
  5
2EF2
330
2EF0
100
AcDbEntity
 67
     1
  8
0
100
AcDbBlockEnd
  0
BLOCK
  5
2F1E
330
90
100
AcDbEntity
  8
0
100
AcDbBlockBegin
  2
_OPEN
 70
     0
 71
     0
 10
0.0
 20
0.0
 30
0.0
  3
_OPEN
  1

  0
LINE
  5
92
330
90
100
AcDbEntity
  8
0
  6
BYBLOCK
 62
     0
100
AcDbLine
 10
-1.0
 20
0.166667
 30
0.0
 11
0.0
 21
0.0
 31
0.0
  0
LINE
  5
93
330
90
100
AcDbEntity
  8
0
  6
BYBLOCK
 62
     0
100
AcDbLine
 10
0.0
 20
0.0
 30
0.0
 11
-1.0
 21
-0.166667
 31
0.0
  0
LINE
  5
94
330
90
100
AcDbEntity
  8
0
  6
BYBLOCK
 62
     0
100
AcDbLine
 10
0.0
 20
0.0
 30
0.0
 11
-1.0
 21
0.0
 31
0.0
  0
ENDBLK
  5
2F1F
330
90
100
AcDbEntity
  8
0
100
AcDbBlockEnd
  0
BLOCK
  5
2F20
330
2383
100
AcDbEntity
  8
0
100
AcDbBlockBegin
  2
VD_ANONYM_2383
 70
     0
 71
     0
 10
0.0
 20
0.0
 30
0.0
  3
VD_ANONYM_2383
  1

  0
LINE
  5
2DD5
330
2383
100
AcDbEntity
  8
0
  6
BYBLOCK
 62
    41
100
AcDbLine
 10
-143.125832
 20
146.373585
 30
0.0
 11
-211.017301
 21
146.373585
 31
0.0
  0
LINE
  5
2DD6
330
2383
100
AcDbEntity
  8
0
  6
BYBLOCK
 62
    41
100
AcDbLine
 10
-143.125832
 20
32.373585
 30
0.0
 11
-211.017301
 21
32.373585
 31
0.0
  0
LINE
  5
2DD7
330
2383
100
AcDbEntity
  8
0
  6
BYBLOCK
 62
    41
100
AcDbLine
 10
-209.767301
 20
126.373585
 30
0.0
 11
-209.767301
 21
52.37358500000001
 31
0.0
  0
INSERT
  5
2DD8
330
2383
100
AcDbEntity
  8
0
  6
BYBLOCK
 62
    41
100
AcDbBlockReference
  2
_OPEN
 10
-209.767301
 20
146.373585
 30
0.0
 41
20.0
 42
20.0
 43
20.0
 50
90.0
  0
INSERT
  5
2DD9
330
2383
100
AcDbEntity
  8
0
  6
BYBLOCK
 62
    41
100
AcDbBlockReference
  2
_OPEN
 10
-209.767301
 20
32.373585
 30
0.0
 41
20.0
 42
20.0
 43
20.0
 50
270.0
  0
POINT
  5
2DDB
330
2383
100
AcDbEntity
  8
DEFPOINTS
  6
BYBLOCK
 62
     0
100
AcDbPoint
 10
-142.125832
 20
146.373585
 30
0.0
  0
POINT
  5
2DDC
330
2383
100
AcDbEntity
  8
DEFPOINTS
  6
BYBLOCK
 62
     0
100
AcDbPoint
 10
-142.125832
 20
32.373585
 30
0.0
  0
POINT
  5
2DDD
330
2383
100
AcDbEntity
  8
DEFPOINTS
  6
BYBLOCK
 62
     0
100
AcDbPoint
 10
-209.767301
 20
32.373585
 30
0.0
  0
TEXT
  5
2E02
330
2383
100
AcDbEntity
  8
0
  6
BYBLOCK
 62
    41
100
AcDbText
 10
-211.767301
 20
51.27834690476198
 30
0.0
 40
20.0
  1
Ř114
 50
90.0
  7
ED40
100
AcDbText
  0
ENDBLK
  5
2F21
330
2383
100
AcDbEntity
  8
0
100
AcDbBlockEnd
  0
BLOCK
  5
2F22
330
2414
100
AcDbEntity
  8
0
100
AcDbBlockBegin
  2
VD_ANONYM_2414
 70
     0
 71
     0
 10
0.0
 20
0.0
 30
0.0
  3
VD_ANONYM_2414
  1

  0
LINE
  5
2D91
330
2414
100
AcDbEntity
  8
0
  6
BYBLOCK
 62
    41
100
AcDbLine
 10
-161.125832
 20
41.373585
 30
0.0
 11
-161.125832
 21
-145.542279
 31
0.0
  0
LINE
  5
2D92
330
2414
100
AcDbEntity
  8
0
  6
BYBLOCK
 62
    41
100
AcDbLine
 10
-88.125832
 20
-143.292279
 30
0.0
 11
-88.125832
 21
-143.042279
 31
0.0
  0
LINE
  5
2D93
330
2414
100
AcDbEntity
  8
0
  6
BYBLOCK
 62
    41
100
AcDbLine
 10
-141.125832
 20
-144.292279
 30
0.0
 11
-108.125832
 21
-144.292279
 31
0.0
  0
INSERT
  5
2D94
330
2414
100
AcDbEntity
  8
0
  6
BYBLOCK
 62
    41
100
AcDbBlockReference
  2
_OPEN
 10
-161.125832
 20
-144.292279
 30
0.0
 41
20.0
 42
20.0
 43
20.0
 50
180.0
  0
INSERT
  5
2D95
330
2414
100
AcDbEntity
  8
0
  6
BYBLOCK
 62
    41
100
AcDbBlockReference
  2
_OPEN
 10
-88.125832
 20
-144.292279
 30
0.0
 41
20.0
 42
20.0
 43
20.0
  0
POINT
  5
2D97
330
2414
100
AcDbEntity
  8
DEFPOINTS
  6
BYBLOCK
 62
     0
100
AcDbPoint
 10
-161.125832
 20
42.373585
 30
0.0
  0
POINT
  5
2D98
330
2414
100
AcDbEntity
  8
DEFPOINTS
  6
BYBLOCK
 62
     0
100
AcDbPoint
 10
-88.125832
 20
-144.292279
 30
0.0
  0
POINT
  5
2D99
330
2414
100
AcDbEntity
  8
DEFPOINTS
  6
BYBLOCK
 62
     0
100
AcDbPoint
 10
-88.125832
 20
-144.292279
 30
0.0
  0
TEXT
  5
2E03
330
2414
100
AcDbEntity
  8
0
  6
BYBLOCK
 62
    41
100
AcDbText
 10
-143.6734510476191
 20
-142.292279
 30
0.0
 40
20.0
  1
73
  7
ED40
100
AcDbText
  0
ENDBLK
  5
2F23
330
2414
100
AcDbEntity
  8
0
100
AcDbBlockEnd
  0
BLOCK
  5
2F24
330
2421
100
AcDbEntity
  8
0
100
AcDbBlockBegin
  2
VD_ANONYM_2421
 70
     0
 71
     0
 10
0.0
 20
0.0
 30
0.0
  3
VD_ANONYM_2421
  1

  0
LINE
  5
2D9C
330
2421
100
AcDbEntity
  8
0
  6
BYBLOCK
 62
    41
100
AcDbLine
 10
-161.125832
 20
-145.292279
 30
0.0
 11
-161.125832
 21
-177.440515
 31
0.0
  0
LINE
  5
2D9D
330
2421
100
AcDbEntity
  8
0
  6
BYBLOCK
 62
    41
100
AcDbLine
 10
-35.125832
 20
-145.292279
 30
0.0
 11
-35.125832
 21
-177.440515
 31
0.0
  0
LINE
  5
2D9E
330
2421
100
AcDbEntity
  8
0
  6
BYBLOCK
 62
    41
100
AcDbLine
 10
-141.125832
 20
-176.190515
 30
0.0
 11
-55.125832
 21
-176.190515
 31
0.0
  0
INSERT
  5
2D9F
330
2421
100
AcDbEntity
  8
0
  6
BYBLOCK
 62
    41
100
AcDbBlockReference
  2
_OPEN
 10
-161.125832
 20
-176.190515
 30
0.0
 41
20.0
 42
20.0
 43
20.0
 50
180.0
  0
INSERT
  5
2DA0
330
2421
100
AcDbEntity
  8
0
  6
BYBLOCK
 62
    41
100
AcDbBlockReference
  2
_OPEN
 10
-35.125832
 20
-176.190515
 30
0.0
 41
20.0
 42
20.0
 43
20.0
  0
POINT
  5
2DA2
330
2421
100
AcDbEntity
  8
DEFPOINTS
  6
BYBLOCK
 62
     0
100
AcDbPoint
 10
-161.125832
 20
-144.292279
 30
0.0
  0
POINT
  5
2DA3
330
2421
100
AcDbEntity
  8
DEFPOINTS
  6
BYBLOCK
 62
     0
100
AcDbPoint
 10
-35.125832
 20
-144.292279
 30
0.0
  0
POINT
  5
2DA4
330
2421
100
AcDbEntity
  8
DEFPOINTS
  6
BYBLOCK
 62
     0
100
AcDbPoint
 10
-35.125832
 20
-176.190515
 30
0.0
  0
TEXT
  5
2E04
330
2421
100
AcDbEntity
  8
0
  6
BYBLOCK
 62
    41
100
AcDbText
 10
-128.125832
 20
-174.188546
 30
0.0
 40
20.0
  1
126
  7
ED40
100
AcDbText
  0
ENDBLK
  5
2F25
330
2421
100
AcDbEntity
  8
0
100
AcDbBlockEnd
  0
BLOCK
  5
2F26
330
267B
100
AcDbEntity
  8
0
100
AcDbBlockBegin
  2
ASVORK
 70
     0
 71
     0
 10
0.0
 20
0.0
 30
0.0
  3
ASVORK
  1

  0
LINE
  5
267D
330
267B
100
AcDbEntity
  8
V0-OBRYS
  6
CONTINUOUS
 62
    90
100
AcDbLine
 10
-60.0
 20
-40.0
 30
0.0
 11
0.0
 21
-40.0
 31
0.0
  0
LINE
  5
267E
330
267B
100
AcDbEntity
  8
V0-OBRYS
  6
CONTINUOUS
 62
    90
100
AcDbLine
 10
-60.0
 20
40.0
 30
0.0
 11
0.0
 21
40.0
 31
0.0
  0
LINE
  5
267F
330
267B
100
AcDbEntity
  8
V0-OBRYS
  6
CONTINUOUS
 62
    90
100
AcDbLine
 10
-60.0
 20
0.0
 30
0.0
 11
-60.0
 21
-40.0
 31
0.0
  0
LINE
  5
2680
330
267B
100
AcDbEntity
  8
V0-OBRYS
  6
CONTINUOUS
 62
    90
100
AcDbLine
 10
-60.0
 20
0.0
 30
0.0
 11
-60.0
 21
40.0
 31
0.0
  0
LINE
  5
2681
330
267B
100
AcDbEntity
  8
V0-OBRYS
  6
CONTINUOUS
 62
    90
100
AcDbLine
 10
0.0
 20
-40.0
 30
0.0
 11
0.0
 21
0.0
 31
0.0
  0
LINE
  5
2682
330
267B
100
AcDbEntity
  8
V0-OBRYS
  6
CONTINUOUS
 62
    90
100
AcDbLine
 10
-45.0
 20
0.0
 30
0.0
 11
-45.0
 21
-40.0
 31
0.0
  0
LINE
  5
2683
330
267B
100
AcDbEntity
  8
V0-OBRYS
  6
CONTINUOUS
 62
    90
100
AcDbLine
 10
-45.0
 20
0.0
 30
0.0
 11
-45.0
 21
40.0
 31
0.0
  0
LINE
  5
2684
330
267B
100
AcDbEntity
  8
V0-OBRYS
  6
CONTINUOUS
 62
    90
100
AcDbLine
 10
0.0
 20
40.0
 30
0.0
 11
0.0
 21
0.0
 31
0.0
  0
ENDBLK
  5
2F27
330
267B
100
AcDbEntity
  8
0
100
AcDbBlockEnd
  0
BLOCK
  5
2F28
330
2E06
100
AcDbEntity
  8
0
100
AcDbBlockBegin
  2
VDDIM_DEFAULT
 70
     0
 71
     0
 10
0.0
 20
0.0
 30
0.0
  3
VDDIM_DEFAULT
  1

  0
LWPOLYLINE
  5
2E07
330
2E06
100
AcDbEntity
  8
0
  6
CONTINUOUS
 62
     0
100
AcDbPolyline
 90
        4
 70
     0
 43
0.0
 10
0.0
 20
0.0
 10
-1.0
 20
-0.1665
 10
-1.0
 20
0.1665
 10
0.0
 20
0.0
1001
VDEXTRAPARAM
1071
        1
1071
        0
1071
        0
1040
1.0
1000

1000

1040
0.0
1040
0.0
  0
HATCH
  5
2F2D
330
2E06
100
AcDbEntity
  8
0
  6
CONTINUOUS
 62
     0
100
AcDbHatch
 10
0.0
 20
0.0
 30
0.0
210
0.0
220
0.0
230
1.0
  2
SOLID
 70
     1
 71
     0
 91
        1
 92
        2
 72
     0
 73
     1
 93
        3
 10
0.0
 20
0.0
 10
-1.0
 20
-0.1665
 10
-1.0
 20
0.1665
 97
        0
 75
     0
 76
     1
 98
        1
 10
0.0
 20
0.0
1001
VDEXTRAPARAM
1071
        1
1071
        0
1071
        0
1040
1.0
1000

1000

1040
0.0
1040
0.0
1001
VD_TEMPHATCH
1000
VD_TEMPHATCH
  0
ENDBLK
  5
2F29
330
2E06
100
AcDbEntity
  8
0
100
AcDbBlockEnd
  0
BLOCK
  5
2F2A
330
2E08
100
AcDbEntity
  8
0
100
AcDbBlockBegin
  2
VDDIM_NONE
 70
     0
 71
     0
 10
0.0
 20
0.0
 30
0.0
  3
VDDIM_NONE
  1

  0
ENDBLK
  5
2F2B
330
2E08
100
AcDbEntity
  8
0
100
AcDbBlockEnd
  0
BLOCK
  5
2F38
330
2F2E
100
AcDbEntity
  8
0
100
AcDbBlockBegin
  2
*D8
 70
     1
 71
     0
 10
0.0
 20
0.0
 30
0.0
  3
*D8
  1

  0
LINE
  5
2F2F
330
2F2E
100
AcDbEntity
  8
V0-VYPLNE
 62
    41
100
AcDbLine
 10
-34.125832
 20
216.373585
 30
0.0
 11
9.593768000000026
 21
216.373585
 31
0.0
  0
LINE
  5
2F30
330
2F2E
100
AcDbEntity
  8
V0-VYPLNE
 62
    41
100
AcDbLine
 10
-34.125832
 20
-37.626415
 30
0.0
 11
9.593768000000011
 21
-37.626415
 31
0.0
  0
LINE
  5
2F31
330
2F2E
100
AcDbEntity
  8
V0-VYPLNE
 62
     0
100
AcDbLine
 10
8.343768000000024
 20
196.373585
 30
0.0
 11
8.343767999999999
 21
-17.62641500000001
 31
0.0
  0
INSERT
  5
2F32
330
2F2E
100
AcDbEntity
  8
V0-VYPLNE
 62
     0
100
AcDbBlockReference
  2
_OPEN
 10
8.343768000000026
 20
216.373585
 30
0.0
 41
20.0
 42
20.0
 43
20.0
 50
90.0
  0
INSERT
  5
2F33
330
2F2E
100
AcDbEntity
  8
V0-VYPLNE
 62
     0
100
AcDbBlockReference
  2
_OPEN
 10
8.343767999999997
 20
-37.62641500000001
 30
0.0
 41
20.0
 42
20.0
 43
20.0
 50
270.0
  0
MTEXT
  5
2F34
330
2F2E
100
AcDbEntity
  8
V0-VYPLNE
 62
    41
100
AcDbMText
 10
-3.656231999999989
 20
89.37358499999999
 30
0.0
 40
20.0
 41
0.0
 71
     5
 72
     1
  1
%%c250
  7
ED20
 11
6.294177777402463E-17
 21
1.0
 31
0.0
  0
POINT
  5
2F35
330
2F2E
100
AcDbEntity
  8
DEFPOINTS
 62
     0
100
AcDbPoint
 10
-35.125832
 20
216.373585
 30
0.0
  0
POINT
  5
2F36
330
2F2E
100
AcDbEntity
  8
DEFPOINTS
 62
     0
100
AcDbPoint
 10
-35.125832
 20
-37.626415
 30
0.0
  0
POINT
  5
2F37
330
2F2E
100
AcDbEntity
  8
DEFPOINTS
 62
     0
100
AcDbPoint
 10
8.343768000000011
 20
-37.626415
 30
0.0
  0
ENDBLK
  5
2F39
330
2F2E
100
AcDbEntity
  8
0
100
AcDbBlockEnd
  0
BLOCK
  5
2F44
330
2F3A
100
AcDbEntity
  8
0
100
AcDbBlockBegin
  2
*D9
 70
     1
 71
     0
 10
0.0
 20
0.0
 30
0.0
  3
*D9
  1

  0
LINE
  5
2F3B
330
2F3A
100
AcDbEntity
  8
V0-VYPLNE
 62
    41
100
AcDbLine
 10
-87.125832
 20
236.373585
 30
0.0
 11
39.94935199999966
 21
236.373585
 31
0.0
  0
LINE
  5
2F3C
330
2F3A
100
AcDbEntity
  8
V0-VYPLNE
 62
    41
100
AcDbLine
 10
-87.125832
 20
-57.626415
 30
0.0
 11
39.94935199999964
 21
-57.62641500000001
 31
0.0
  0
LINE
  5
2F3D
330
2F3A
100
AcDbEntity
  8
V0-VYPLNE
 62
     0
100
AcDbLine
 10
38.69935199999967
 20
216.373585
 30
0.0
 11
38.69935199999963
 21
-37.62641500000001
 31
0.0
  0
INSERT
  5
2F3E
330
2F3A
100
AcDbEntity
  8
V0-VYPLNE
 62
     0
100
AcDbBlockReference
  2
_OPEN
 10
38.69935199999968
 20
236.373585
 30
0.0
 41
20.0
 42
20.0
 43
20.0
 50
89.99999999999999
  0
INSERT
  5
2F3F
330
2F3A
100
AcDbEntity
  8
V0-VYPLNE
 62
     0
100
AcDbBlockReference
  2
_OPEN
 10
38.69935199999962
 20
-57.62641500000002
 30
0.0
 41
20.0
 42
20.0
 43
20.0
 50
270.0
  0
MTEXT
  5
2F40
330
2F3A
100
AcDbEntity
  8
V0-VYPLNE
 62
    41
100
AcDbMText
 10
26.69935199999964
 20
89.37358499999999
 30
0.0
 40
20.0
 41
0.0
 71
     5
 72
     1
  1
%%c290
  7
ED20
 11
1.208406013197449E-16
 21
1.0
 31
0.0
  0
POINT
  5
2F41
330
2F3A
100
AcDbEntity
  8
DEFPOINTS
 62
     0
100
AcDbPoint
 10
-88.125832
 20
236.373585
 30
0.0
  0
POINT
  5
2F42
330
2F3A
100
AcDbEntity
  8
DEFPOINTS
 62
     0
100
AcDbPoint
 10
-88.125832
 20
-57.626415
 30
0.0
  0
POINT
  5
2F43
330
2F3A
100
AcDbEntity
  8
DEFPOINTS
 62
     0
100
AcDbPoint
 10
38.69935199999964
 20
-57.62641500000001
 30
0.0
  0
ENDBLK
  5
2F45
330
2F3A
100
AcDbEntity
  8
0
100
AcDbBlockEnd
  0
BLOCK
  5
2F51
330
2F46
100
AcDbEntity
  8
0
100
AcDbBlockBegin
  2
*D10
 70
     1
 71
     0
 10
0.0
 20
0.0
 30
0.0
  3
*D10
  1

  0
LINE
  5
2F47
330
2F46
100
AcDbEntity
  8
V0-VYPLNE
 62
    41
100
AcDbLine
 10
209.454168
 20
-65.64641500000001
 30
0.0
 11
209.454168
 21
-133.7342300000018
 31
0.0
  0
LINE
  5
2F48
330
2F46
100
AcDbEntity
  8
V0-VYPLNE
 62
    41
100
AcDbLine
 10
524.294168
 20
-65.64641500000001
 30
0.0
 11
524.294168
 21
-133.7342300000018
 31
0.0
  0
LINE
  5
2F49
330
2F46
100
AcDbEntity
  8
V0-VYPLNE
 62
     0
100
AcDbLine
 10
229.454168
 20
-132.4842300000018
 30
0.0
 11
337.3075652857143
 21
-132.4842300000018
 31
0.0
  0
LINE
  5
2F4A
330
2F46
100
AcDbEntity
  8
V0-VYPLNE
 62
     0
100
AcDbLine
 10
504.294168
 20
-132.4842300000018
 30
0.0
 11
392.7361367142858
 21
-132.4842300000018
 31
0.0
  0
INSERT
  5
2F4B
330
2F46
100
AcDbEntity
  8
V0-VYPLNE
 62
     0
100
AcDbBlockReference
  2
_OPEN
 10
209.454168
 20
-132.4842300000018
 30
0.0
 41
20.0
 42
20.0
 43
20.0
 50
180.0
  0
INSERT
  5
2F4C
330
2F46
100
AcDbEntity
  8
V0-VYPLNE
 62
     0
100
AcDbBlockReference
  2
_OPEN
 10
524.294168
 20
-132.4842300000018
 30
0.0
 41
20.0
 42
20.0
 43
20.0
  0
MTEXT
  5
2F4D
330
2F46
100
AcDbEntity
  8
V0-VYPLNE
 62
    41
100
AcDbMText
 10
365.021851
 20
-132.48423
 30
0.0
 40
20.0
 41
0.0
 71
     5
 72
     1
  1
\A1;315
  7
ED20
  0
POINT
  5
2F4E
330
2F46
100
AcDbEntity
  8
DEFPOINTS
 62
     0
100
AcDbPoint
 10
209.454168
 20
-64.64641500000001
 30
0.0
  0
POINT
  5
2F4F
330
2F46
100
AcDbEntity
  8
DEFPOINTS
 62
     0
100
AcDbPoint
 10
524.294168
 20
-64.64641500000001
 30
0.0
  0
POINT
  5
2F50
330
2F46
100
AcDbEntity
  8
DEFPOINTS
 62
     0
100
AcDbPoint
 10
524.294168
 20
-132.4842300000018
 30
0.0
  0
ENDBLK
  5
2F52
330
2F46
100
AcDbEntity
  8
0
100
AcDbBlockEnd
  0
BLOCK
  5
2F5D
330
2F53
100
AcDbEntity
  8
0
100
AcDbBlockBegin
  2
*D11
 70
     1
 71
     0
 10
0.0
 20
0.0
 30
0.0
  3
*D11
  1

  0
LINE
  5
2F54
330
2F53
100
AcDbEntity
  8
V0-VYPLNE
 62
    41
100
AcDbLine
 10
236.734168
 20
-41.766415
 30
0.0
 11
236.734168
 21
-103.4066460000031
 31
0.0
  0
LINE
  5
2F55
330
2F53
100
AcDbEntity
  8
V0-VYPLNE
 62
    41
100
AcDbLine
 10
497.014168
 20
-41.766415
 30
0.0
 11
497.014168
 21
-103.4066460000031
 31
0.0
  0
LINE
  5
2F56
330
2F53
100
AcDbEntity
  8
V0-VYPLNE
 62
     0
100
AcDbLine
 10
256.734168
 20
-102.1566460000031
 30
0.0
 11
477.014168
 21
-102.1566460000031
 31
0.0
  0
INSERT
  5
2F57
330
2F53
100
AcDbEntity
  8
V0-VYPLNE
 62
     0
100
AcDbBlockReference
  2
_OPEN
 10
236.734168
 20
-102.1566460000031
 30
0.0
 41
20.0
 42
20.0
 43
20.0
 50
180.0
  0
INSERT
  5
2F58
330
2F53
100
AcDbEntity
  8
V0-VYPLNE
 62
     0
100
AcDbBlockReference
  2
_OPEN
 10
497.014168
 20
-102.1566460000031
 30
0.0
 41
20.0
 42
20.0
 43
20.0
 50
360.0
  0
MTEXT
  5
2F59
330
2F53
100
AcDbEntity
  8
V0-VYPLNE
 62
    41
100
AcDbMText
 10
366.874168
 20
-90.15664600000309
 30
0.0
 40
20.0
 41
0.0
 71
     5
 72
     1
  1
\A1;260
  7
ED20
  0
POINT
  5
2F5A
330
2F53
100
AcDbEntity
  8
DEFPOINTS
 62
     0
100
AcDbPoint
 10
236.734168
 20
-40.766415
 30
0.0
  0
POINT
  5
2F5B
330
2F53
100
AcDbEntity
  8
DEFPOINTS
 62
     0
100
AcDbPoint
 10
497.014168
 20
-40.766415
 30
0.0
  0
POINT
  5
2F5C
330
2F53
100
AcDbEntity
  8
DEFPOINTS
 62
     0
100
AcDbPoint
 10
497.014168
 20
-102.1566460000031
 30
0.0
  0
ENDBLK
  5
2F5E
330
2F53
100
AcDbEntity
  8
0
100
AcDbBlockEnd
  0
BLOCK
  5
2F6A
330
2F5F
100
AcDbEntity
  8
0
100
AcDbBlockBegin
  2
*D12
 70
     1
 71
     0
 10
0.0
 20
0.0
 30
0.0
  3
*D12
  1

  0
LINE
  5
2F60
330
2F5F
100
AcDbEntity
  8
V0-VYPLNE
 62
    41
100
AcDbLine
 10
-88.125832
 20
-69.12641499999999
 30
0.0
 11
-88.125832
 21
-145.5422789999992
 31
0.0
  0
LINE
  5
2F61
330
2F5F
100
AcDbEntity
  8
V0-VYPLNE
 62
    41
100
AcDbLine
 10
-35.125832
 20
-38.626415
 30
0.0
 11
-35.125832
 21
-145.5422789999992
 31
0.0
  0
LINE
  5
2F62
330
2F5F
100
AcDbEntity
  8
V0-VYPLNE
 62
     0
100
AcDbLine
 10
-68.125832
 20
-144.2922789999992
 30
0.0
 11
-78.45701919047619
 21
-144.2922789999992
 31
0.0
  0
LINE
  5
2F63
330
2F5F
100
AcDbEntity
  8
V0-VYPLNE
 62
     0
100
AcDbLine
 10
-55.125832
 20
-144.2922789999992
 30
0.0
 11
-42.07606680952381
 21
-144.2922789999992
 31
0.0
  0
INSERT
  5
2F64
330
2F5F
100
AcDbEntity
  8
V0-VYPLNE
 62
     0
100
AcDbBlockReference
  2
_OPEN
 10
-88.125832
 20
-144.2922789999992
 30
0.0
 41
20.0
 42
20.0
 43
20.0
 50
180.0
  0
INSERT
  5
2F65
330
2F5F
100
AcDbEntity
  8
V0-VYPLNE
 62
     0
100
AcDbBlockReference
  2
_OPEN
 10
-35.125832
 20
-144.2922789999992
 30
0.0
 41
20.0
 42
20.0
 43
20.0
  0
MTEXT
  5
2F66
330
2F5F
100
AcDbEntity
  8
V0-VYPLNE
 62
    41
100
AcDbMText
 10
-60.266543
 20
-144.292279
 30
0.0
 40
20.0
 41
0.0
 71
     5
 72
     1
  1
\A1;53
  7
ED20
  0
POINT
  5
2F67
330
2F5F
100
AcDbEntity
  8
DEFPOINTS
 62
     0
100
AcDbPoint
 10
-88.125832
 20
-68.12641499999999
 30
0.0
  0
POINT
  5
2F68
330
2F5F
100
AcDbEntity
  8
DEFPOINTS
 62
     0
100
AcDbPoint
 10
-35.125832
 20
-37.626415
 30
0.0
  0
POINT
  5
2F69
330
2F5F
100
AcDbEntity
  8
DEFPOINTS
 62
     0
100
AcDbPoint
 10
-35.125832
 20
-144.2922789999992
 30
0.0
  0
ENDBLK
  5
2F6B
330
2F5F
100
AcDbEntity
  8
0
100
AcDbBlockEnd
  0
BLOCK
  5
2F76
330
2F6C
100
AcDbEntity
  8
0
100
AcDbBlockBegin
  2
*D13
 70
     1
 71
     0
 10
0.0
 20
0.0
 30
0.0
  3
*D13
  1

  0
LINE
  5
2F6D
330
2F6C
100
AcDbEntity
  8
V0-VYPLNE
 62
    41
100
AcDbLine
 10
-161.125832
 20
48.373585
 30
0.0
 11
-161.125832
 21
-175.8569260000004
 31
0.0
  0
LINE
  5
2F6E
330
2F6C
100
AcDbEntity
  8
V0-VYPLNE
 62
    41
100
AcDbLine
 10
-35.125832
 20
-39.626415
 30
0.0
 11
-35.125832
 21
-175.8569260000004
 31
0.0
  0
LINE
  5
2F6F
330
2F6C
100
AcDbEntity
  8
V0-VYPLNE
 62
     0
100
AcDbLine
 10
-141.125832
 20
-174.6069260000004
 30
0.0
 11
-55.125832
 21
-174.6069260000004
 31
0.0
  0
INSERT
  5
2F70
330
2F6C
100
AcDbEntity
  8
V0-VYPLNE
 62
     0
100
AcDbBlockReference
  2
_OPEN
 10
-161.125832
 20
-174.6069260000004
 30
0.0
 41
20.0
 42
20.0
 43
20.0
 50
180.0
  0
INSERT
  5
2F71
330
2F6C
100
AcDbEntity
  8
V0-VYPLNE
 62
     0
100
AcDbBlockReference
  2
_OPEN
 10
-35.125832
 20
-174.6069260000004
 30
0.0
 41
20.0
 42
20.0
 43
20.0
  0
MTEXT
  5
2F72
330
2F6C
100
AcDbEntity
  8
V0-VYPLNE
 62
    41
100
AcDbMText
 10
-98.12583200000002
 20
-162.6069260000004
 30
0.0
 40
20.0
 41
0.0
 71
     5
 72
     1
  1
\A1;126
  7
ED20
  0
POINT
  5
2F73
330
2F6C
100
AcDbEntity
  8
DEFPOINTS
 62
     0
100
AcDbPoint
 10
-161.125832
 20
49.373585
 30
0.0
  0
POINT
  5
2F74
330
2F6C
100
AcDbEntity
  8
DEFPOINTS
 62
     0
100
AcDbPoint
 10
-35.125832
 20
-38.626415
 30
0.0
  0
POINT
  5
2F75
330
2F6C
100
AcDbEntity
  8
DEFPOINTS
 62
     0
100
AcDbPoint
 10
-35.125832
 20
-174.6069260000004
 30
0.0
  0
ENDBLK
  5
2F77
330
2F6C
100
AcDbEntity
  8
0
100
AcDbBlockEnd
  0
ENDSEC
  0
SECTION
  2
ENTITIES
  0
TEXT
  5
1347
330
2EF4
100
AcDbEntity
  8
V0-VYPLNE
 62
     6
100
AcDbText
 10
130.0165
 20
-318.8093
 30
0.0
 40
40.0
  1
HXBR/HXTR 250
  7
ED40
100
AcDbText
  0
TEXT
  5
1348
330
2EF4
100
AcDbEntity
  8
V0-VYPLNE
  6
CONTINUOUS
 62
    51
100
AcDbText
 10
188.8602809017857
 20
-374.252508125
 30
0.0
 40
30.0
  1
Axiální ventilátor
  7
ED30
100
AcDbText
  0
LINE
  5
1793
330
2EF4
100
AcDbEntity
  8
V0-VYPLNE
100
AcDbLine
 10
366.874168
 20
89.37358500000001
 30
0.0
 11
366.874168
 21
243.691539
 31
0.0
  0
LINE
  5
1794
330
2EF4
100
AcDbEntity
  8
V0-VYPLNE
100
AcDbLine
 10
518.2847420000001
 20
89.37358500000001
 30
0.0
 11
205.660229
 21
89.37358500000001
 31
0.0
  0
LINE
  5
17A6
330
2EF4
100
AcDbEntity
  8
V0-VYPLNE
  6
DASHDOT
100
AcDbLine
 10
366.874168
 20
89.37358500000001
 30
0.0
 11
366.874168
 21
-49.367464
 31
0.0
  0
LINE
  5
17D7
330
2EF4
100
AcDbEntity
  8
VO-OBRYS
  6
CONTINUOUS
100
AcDbLine
 10
326.698168
 20
114.230823
 30
0.0
 11
255.397292
 21
185.531699
 31
0.0
  0
LINE
  5
17D9
330
2EF4
100
AcDbEntity
  8
V0-VYPLNE
100
AcDbLine
 10
366.874168
 20
89.37358500000001
 30
0.0
 11
225.823644
 21
230.424108
 31
0.0
  0
LINE
  5
17DB
330
2EF4
100
AcDbEntity
  8
VO-OBRYS
  6
CONTINUOUS
100
AcDbLine
 10
342.016929
 20
129.549585
 30
0.0
 11
270.716054
 21
200.85046
 31
0.0
  0
LINE
  5
1835
330
2EF4
100
AcDbEntity
  8
V0-OBRYS
  6
CONTINUOUS
100
AcDbLine
 10
219.454168
 20
246.793585
 30
0.0
 11
514.294168
 21
246.793585
 31
0.0
  0
LINE
  5
1836
330
2EF4
100
AcDbEntity
  8
V0-OBRYS
  6
CONTINUOUS
100
AcDbLine
 10
524.294168
 20
236.793585
 30
0.0
 11
524.294168
 21
-58.04641500000003
 31
0.0
  0
LINE
  5
1837
330
2EF4
100
AcDbEntity
  8
V0-OBRYS
  6
CONTINUOUS
100
AcDbLine
 10
514.294168
 20
-68.046415
 30
0.0
 11
219.454168
 21
-68.046415
 31
0.0
  0
LINE
  5
1838
330
2EF4
100
AcDbEntity
  8
V0-OBRYS
  6
CONTINUOUS
100
AcDbLine
 10
209.454168
 20
-58.046415
 30
0.0
 11
209.454168
 21
236.793585
 31
0.0
  0
LINE
  5
1BDF
330
2EF4
100
AcDbEntity
  8
V0-OBRYS
  6
CONTINUOUS
 62
    90
100
AcDbLine
 10
330.715768
 20
49.197585
 30
0.0
 11
403.032568
 21
49.197585
 31
0.0
  0
LINE
  5
1BE0
330
2EF4
100
AcDbEntity
  8
V0-OBRYS
  6
CONTINUOUS
 62
    90
100
AcDbLine
 10
407.050168
 20
53.215185
 30
0.0
 11
407.050168
 21
125.531985
 31
0.0
  0
LINE
  5
1BE1
330
2EF4
100
AcDbEntity
  8
V0-OBRYS
  6
CONTINUOUS
 62
    90
100
AcDbLine
 10
403.032568
 20
129.549585
 30
0.0
 11
330.715768
 21
129.549585
 31
0.0
  0
LINE
  5
1BE2
330
2EF4
100
AcDbEntity
  8
V0-OBRYS
  6
CONTINUOUS
 62
    90
100
AcDbLine
 10
326.698168
 20
125.531985
 30
0.0
 11
326.698168
 21
53.21518500000001
 31
0.0
  0
ARC
  5
1BE4
330
2EF4
100
AcDbEntity
  8
V0-OBRYS
  6
CONTINUOUS
 62
    90
100
AcDbCircle
 10
330.715768
 20
125.531985
 30
0.0
 40
4.0176
100
AcDbArc
 50
90.0
 51
180.0
  0
ARC
  5
1BE5
330
2EF4
100
AcDbEntity
  8
V0-OBRYS
  6
CONTINUOUS
 62
    90
100
AcDbCircle
 10
330.715768
 20
53.215185
 30
0.0
 40
4.0176
100
AcDbArc
 50
180.0
 51
270.0
  0
ARC
  5
1BE7
330
2EF4
100
AcDbEntity
  8
V0-OBRYS
  6
CONTINUOUS
 62
    90
100
AcDbCircle
 10
403.032568
 20
53.215185
 30
0.0
 40
4.0176
100
AcDbArc
 50
270.0
 51
0.0
  0
ARC
  5
1BE8
330
2EF4
100
AcDbEntity
  8
V0-OBRYS
  6
CONTINUOUS
 62
    90
100
AcDbCircle
 10
403.032568
 20
125.531985
 30
0.0
 40
4.0176
100
AcDbArc
 50
0.0
 51
90.0
  0
CIRCLE
  5
1CB2
330
2EF4
100
AcDbEntity
  8
V0-OBRYS
  6
CONTINUOUS
 62
    90
100
AcDbCircle
 10
336.742168
 20
119.505585
 30
0.0
 40
2.6784
  0
CIRCLE
  5
1CB3
330
2EF4
100
AcDbEntity
  8
V0-OBRYS
  6
CONTINUOUS
 62
    90
100
AcDbCircle
 10
336.742168
 20
59.241585
 30
0.0
 40
2.6784
  0
CIRCLE
  5
1CB4
330
2EF4
100
AcDbEntity
  8
V0-OBRYS
  6
CONTINUOUS
 62
    90
100
AcDbCircle
 10
397.006168
 20
59.241585
 30
0.0
 40
2.6784
  0
CIRCLE
  5
1CB5
330
2EF4
100
AcDbEntity
  8
V0-OBRYS
  6
CONTINUOUS
 62
    90
100
AcDbCircle
 10
397.006168
 20
119.505585
 30
0.0
 40
2.6784
  0
LINE
  5
2026
330
2EF4
100
AcDbEntity
  8
V0-VYPLNE
100
AcDbLine
 10
287.104847
 20
217.239253
 30
0.0
 11
238.750002
 21
168.884409
 31
0.0
  0
CIRCLE
  5
2028
330
2EF4
100
AcDbEntity
  8
V0-OBRYS
  6
CONTINUOUS
 62
    90
100
AcDbCircle
 10
263.056673
 20
193.191079
 30
0.0
 40
4.0
  0
LINE
  5
2058
330
2EF4
100
AcDbEntity
  8
V0-OBRYS
  6
CONTINUOUS
 62
    90
 48
2.0
100
AcDbLine
 10
-88.125832
 20
89.37358500000001
 30
0.0
 11
-88.125832
 21
246.873585
 31
0.0
  0
LINE
  5
2059
330
2EF4
100
AcDbEntity
  8
V0-OBRYS
  6
CONTINUOUS
 62
    90
 48
2.0
100
AcDbLine
 10
-88.125832
 20
246.873585
 30
0.0
 11
-100.125832
 21
246.873585
 31
0.0
  0
LINE
  5
205A
330
2EF4
100
AcDbEntity
  8
V0-OBRYS
  6
CONTINUOUS
 62
    90
 48
2.0
100
AcDbLine
 10
-100.125832
 20
246.873585
 30
0.0
 11
-100.125832
 21
89.37358499999999
 31
0.0
  0
LINE
  5
205B
330
2EF4
100
AcDbEntity
  8
V0-OBRYS
  6
CONTINUOUS
 62
    90
 48
2.0
100
AcDbLine
 10
-35.125832
 20
89.37358500000001
 30
0.0
 11
-35.125832
 21
216.373585
 31
0.0
  0
LINE
  5
205C
330
2EF4
100
AcDbEntity
  8
V0-OBRYS
  6
CONTINUOUS
 62
    90
 48
2.0
100
AcDbLine
 10
-88.125832
 20
236.373585
 30
0.0
 11
-80.66210599999999
 21
223.742651
 31
0.0
  0
LINE
  5
205D
330
2EF4
100
AcDbEntity
  8
V0-OBRYS
  6
CONTINUOUS
 62
    90
 48
2.0
100
AcDbLine
 10
-35.125832
 20
216.373585
 30
0.0
 11
-67.748205
 21
216.373585
 31
0.0
  0
ARC
  5
205F
330
2EF4
100
AcDbEntity
  8
V0-OBRYS
  6
CONTINUOUS
 62
    90
 48
2.0
100
AcDbCircle
 10
-67.748205
 20
231.373585
 30
0.0
 40
15.0
100
AcDbArc
 50
210.579201
 51
270.0
  0
LINE
  5
2060
330
2EF4
100
AcDbEntity
  8
V0-OBRYS
  6
CONTINUOUS
 62
    90
 48
2.0
100
AcDbLine
 10
-131.125832
 20
89.37358500000001
 30
0.0
 11
-131.125832
 21
136.373585
 31
0.0
  0
LINE
  5
2061
330
2EF4
100
AcDbEntity
  8
V0-OBRYS
  6
CONTINUOUS
 62
    90
 48
2.0
100
AcDbLine
 10
-121.125832
 20
146.373585
 30
0.0
 11
-100.125832
 21
146.373585
 31
0.0
  0
LINE
  5
2062
330
2EF4
100
AcDbEntity
  8
V0-OBRYS
  6
CONTINUOUS
 62
    90
 48
2.0
100
AcDbLine
 10
-112.125832
 20
89.37358500000001
 30
0.0
 11
-112.125832
 21
146.373585
 31
0.0
  0
ARC
  5
2063
330
2EF4
100
AcDbEntity
  8
V0-OBRYS
  6
CONTINUOUS
 62
    90
 48
2.0
100
AcDbCircle
 10
-121.125832
 20
136.373585
 30
0.0
 40
10.0
100
AcDbArc
 50
90.0
 51
180.0
  0
LINE
  5
2064
330
2EF4
100
AcDbEntity
  8
V0-OBRYS
  6
CONTINUOUS
 62
    90
 48
2.0
100
AcDbLine
 10
-112.285624
 20
142.880173
 30
0.0
 11
-131.011926
 21
128.968331
 31
0.0
  0
LINE
  5
2065
330
2EF4
100
AcDbEntity
  8
V0-OBRYS
  6
CONTINUOUS
 62
    90
 48
2.0
100
AcDbLine
 10
-112.765788
 20
132.806079
 30
0.0
 11
-130.531766
 21
123.211705
 31
0.0
  0
LINE
  5
2066
330
2EF4
100
AcDbEntity
  8
V0-OBRYS
  6
CONTINUOUS
 62
    90
 48
2.0
100
AcDbLine
 10
-112.285624
 20
120.81311
 30
0.0
 11
-131.49209
 21
116.495642
 31
0.0
  0
LINE
  5
2067
330
2EF4
100
AcDbEntity
  8
V0-OBRYS
  6
CONTINUOUS
 62
    90
 48
2.0
100
AcDbLine
 10
-112.765788
 20
109.299862
 30
0.0
 11
-131.011926
 21
107.380986
 31
0.0
  0
LINE
  5
2068
330
2EF4
100
AcDbEntity
  8
V0-OBRYS
  6
CONTINUOUS
 62
    90
 48
2.0
100
AcDbLine
 10
-112.765788
 20
97.78661200000001
 30
0.0
 11
-131.011926
 21
97.306894
 31
0.0
  0
LINE
  5
2069
330
2EF4
100
AcDbEntity
  8
V0-OBRYS
  6
CONTINUOUS
 62
    90
 48
2.0
100
AcDbLine
 10
-112.285624
 20
142.880173
 30
0.0
 11
-100.125832
 21
142.880173
 31
0.0
  0
LINE
  5
206A
330
2EF4
100
AcDbEntity
  8
V0-OBRYS
  6
CONTINUOUS
 62
    90
 48
2.0
100
AcDbLine
 10
-112.765788
 20
132.806079
 30
0.0
 11
-100.125832
 21
132.806079
 31
0.0
  0
LINE
  5
206B
330
2EF4
100
AcDbEntity
  8
V0-OBRYS
  6
CONTINUOUS
 62
    90
 48
2.0
100
AcDbLine
 10
-112.285624
 20
120.81311
 30
0.0
 11
-100.125832
 21
120.81311
 31
0.0
  0
LINE
  5
206C
330
2EF4
100
AcDbEntity
  8
V0-OBRYS
  6
CONTINUOUS
 62
    90
 48
2.0
100
AcDbLine
 10
-112.765788
 20
109.299862
 30
0.0
 11
-109.884818
 21
109.299862
 31
0.0
  0
LINE
  5
206D
330
2EF4
100
AcDbEntity
  8
V0-OBRYS
  6
CONTINUOUS
 62
    90
 48
2.0
100
AcDbLine
 10
-109.884818
 20
109.299862
 30
0.0
 11
-100.125832
 21
109.299862
 31
0.0
  0
LINE
  5
206E
330
2EF4
100
AcDbEntity
  8
V0-OBRYS
  6
CONTINUOUS
 62
    90
 48
2.0
100
AcDbLine
 10
-112.765788
 20
97.78661200000001
 30
0.0
 11
-100.125832
 21
97.78661200000001
 31
0.0
  0
LINE
  5
2070
330
2EF4
100
AcDbEntity
  8
V0-VYPLNE
  6
DASHED
 62
    52
100
AcDbLine
 10
-83.125832
 20
89.37358500000001
 30
0.0
 11
-83.125832
 21
146.373585
 31
0.0
  0
LINE
  5
2074
330
2EF4
100
AcDbEntity
  8
V0-VYPLNE
  6
DASHED
 62
    52
100
AcDbLine
 10
-60.625832
 20
149.231211
 30
0.0
 11
-60.625832
 21
89.37358500000001
 31
0.0
  0
ARC
  5
2075
330
2EF4
100
AcDbEntity
  8
V0-VYPLNE
  6
DASHED
 62
    52
100
AcDbCircle
 10
-60.625832
 20
59.223628
 30
0.0
 40
90.007583
100
AcDbArc
 50
77.876142
 51
104.476266
  0
LINE
  5
2090
330
2EF4
100
AcDbEntity
  8
V0-VYPLNE
  6
DASHED
 62
    52
 48
2.0
100
AcDbLine
 10
-79.30914199999999
 20
147.197642
 30
0.0
 11
-83.150435
 21
151.035392
 31
0.0
  0
LINE
  5
2091
330
2EF4
100
AcDbEntity
  8
V0-VYPLNE
  6
DASHED
 62
    52
100
AcDbLine
 10
-83.150435
 20
151.035392
 30
0.0
 11
-73.067042
 21
214.358266
 31
0.0
  0
LINE
  5
2092
330
2EF4
100
AcDbEntity
  8
V0-VYPLNE
  6
DASHED
 62
    52
100
AcDbLine
 10
-73.067042
 20
214.358266
 30
0.0
 11
-60.625832
 21
214.358266
 31
0.0
  0
LINE
  5
2093
330
2EF4
100
AcDbEntity
  8
V0-VYPLNE
  6
DASHED
 62
    52
100
AcDbLine
 10
-38.10123
 20
151.035392
 30
0.0
 11
-48.184622
 21
214.358266
 31
0.0
  0
LINE
  5
2094
330
2EF4
100
AcDbEntity
  8
V0-VYPLNE
  6
DASHED
 62
    52
100
AcDbLine
 10
-48.184622
 20
214.358266
 30
0.0
 11
-60.625832
 21
214.358266
 31
0.0
  0
LINE
  5
2095
330
2EF4
100
AcDbEntity
  8
V0-VYPLNE
  6
DASHED
 62
    52
 48
2.0
100
AcDbLine
 10
-41.942523
 20
147.197642
 30
0.0
 11
-38.10123
 21
151.035392
 31
0.0
  0
ARC
  5
2096
330
2EF4
100
AcDbEntity
  8
V0-VYPLNE
  6
DASHED
 62
    52
100
AcDbCircle
 10
-702.33071
 20
82.83648599999999
 30
0.0
 40
667.236902
100
AcDbArc
 50
0.561351
 51
5.154693
  0
ARC
  5
2097
330
2EF4
100
AcDbEntity
  8
V0-VYPLNE
  6
DASHED
 62
    52
100
AcDbCircle
 10
-42.772056
 20
142.33519
 30
0.0
 40
5.0
100
AcDbArc
 50
5.154693
 51
77.876142
  0
LINE
  5
2098
330
2EF4
100
AcDbEntity
  8
V0-VYPLNE
  6
DASHED
 62
    52
100
AcDbLine
 10
-85.55124499999999
 20
141.373585
 30
0.0
 11
-85.55124499999999
 21
89.37358500000001
 31
0.0
  0
LINE
  5
2099
330
2EF4
100
AcDbEntity
  8
V0-VYPLNE
  6
DASHED
 62
    52
100
AcDbLine
 10
-100.125832
 20
146.373585
 30
0.0
 11
-90.55124499999999
 21
146.373585
 31
0.0
  0
ARC
  5
209B
330
2EF4
100
AcDbEntity
  8
V0-VYPLNE
  6
DASHED
 62
    52
 48
2.0
100
AcDbCircle
 10
-90.55124499999999
 20
141.373585
 30
0.0
 40
5.0
100
AcDbArc
 50
0.0
 51
90.0
  0
LINE
  5
209C
330
2EF4
100
AcDbEntity
  8
V0-VYPLNE
  6
DASHED
 62
    52
100
AcDbLine
 10
-100.125832
 20
142.880173
 30
0.0
 11
-85.55124499999999
 21
142.880173
 31
0.0
  0
LINE
  5
209D
330
2EF4
100
AcDbEntity
  8
V0-VYPLNE
  6
DASHED
 62
    52
100
AcDbLine
 10
-100.125832
 20
132.806079
 30
0.0
 11
-85.55124499999999
 21
132.806079
 31
0.0
  0
LINE
  5
209E
330
2EF4
100
AcDbEntity
  8
V0-VYPLNE
  6
DASHED
 62
    52
100
AcDbLine
 10
-100.125832
 20
120.81311
 30
0.0
 11
-86.031404
 21
120.81311
 31
0.0
  0
LINE
  5
209F
330
2EF4
100
AcDbEntity
  8
V0-VYPLNE
  6
DASHED
 62
    52
100
AcDbLine
 10
-100.125832
 20
109.299862
 30
0.0
 11
-85.55124499999999
 21
109.299862
 31
0.0
  0
LINE
  5
20A0
330
2EF4
100
AcDbEntity
  8
V0-VYPLNE
  6
DASHED
 62
    52
100
AcDbLine
 10
-100.125832
 20
97.78661200000001
 30
0.0
 11
-86.031404
 21
97.78661200000001
 31
0.0
  0
LINE
  5
20A2
330
2EF4
100
AcDbEntity
  8
V0-OBRYS
  6
CONTINUOUS
 62
    90
 48
2.0
100
AcDbLine
 10
-101.700854
 20
236.89909
 30
0.0
 11
-101.700854
 21
227.570218
 31
0.0
  0
LINE
  5
20A4
330
2EF4
100
AcDbEntity
  8
V0-OBRYS
  6
CONTINUOUS
 62
    90
 48
2.0
100
AcDbLine
 10
-109.92042
 20
218.022454
 30
0.0
 11
-109.92042
 21
160.625109
 31
0.0
  0
LINE
  5
20A5
330
2EF4
100
AcDbEntity
  8
V0-OBRYS
  6
CONTINUOUS
 62
    90
 48
2.0
100
AcDbLine
 10
-106.612634
 20
155.920174
 30
0.0
 11
-103.433618
 21
154.776784
 31
0.0
  0
ARC
  5
20A6
330
2EF4
100
AcDbEntity
  8
V0-OBRYS
  6
CONTINUOUS
 62
    90
 48
2.0
100
AcDbCircle
 10
-104.92042
 20
160.625109
 30
0.0
 40
5.0
100
AcDbArc
 50
180.0
 51
250.21797
  0
ARC
  5
20A7
330
2EF4
100
AcDbEntity
  8
V0-OBRYS
  6
CONTINUOUS
 62
    90
 48
2.0
100
AcDbCircle
 10
-104.92042
 20
218.022454
 30
0.0
 40
5.0
100
AcDbArc
 50
107.296981
 51
180.0
  0
ARC
  5
20A8
330
2EF4
100
AcDbEntity
  8
V0-OBRYS
  6
CONTINUOUS
 62
    90
 48
2.0
100
AcDbCircle
 10
-107.818671
 20
228.894616
 30
0.0
 40
6.259529
100
AcDbArc
 50
283.033261
 51
347.784984
  0
ARC
  5
20A9
330
2EF4
100
AcDbEntity
  8
V0-OBRYS
  6
CONTINUOUS
 62
    90
 48
2.0
100
AcDbCircle
 10
-105.125832
 20
150.071849
 30
0.0
 40
5.0
100
AcDbArc
 50
0.0
 51
70.21796999999999
  0
CIRCLE
  5
20AC
330
2EF4
100
AcDbEntity
  8
V0-OBRYS
  6
CONTINUOUS
 62
    90
 48
2.0
100
AcDbCircle
 10
-111.4585
 20
214.052103
 30
0.0
 40
1.608161
  0
CIRCLE
  5
20AD
330
2EF4
100
AcDbEntity
  8
V0-OBRYS
  6
CONTINUOUS
 62
    90
 48
2.0
100
AcDbCircle
 10
-111.4585
 20
202.052103
 30
0.0
 40
1.608161
  0
CIRCLE
  5
20AE
330
2EF4
100
AcDbEntity
  8
V0-OBRYS
  6
CONTINUOUS
 62
    90
 48
2.0
100
AcDbCircle
 10
-111.4585
 20
190.052103
 30
0.0
 40
1.608161
  0
CIRCLE
  5
20AF
330
2EF4
100
AcDbEntity
  8
V0-OBRYS
  6
CONTINUOUS
 62
    90
 48
2.0
100
AcDbCircle
 10
-111.4585
 20
178.052103
 30
0.0
 40
1.608161
  0
CIRCLE
  5
20B0
330
2EF4
100
AcDbEntity
  8
V0-OBRYS
  6
CONTINUOUS
 62
    90
 48
2.0
100
AcDbCircle
 10
-111.4585
 20
166.052103
 30
0.0
 40
1.608161
  0
LINE
  5
20B1
330
2EF4
100
AcDbEntity
  8
V0-OBRYS
  6
CONTINUOUS
 62
    90
 48
2.0
100
AcDbLine
 10
-108.358919
 20
218.022454
 30
0.0
 11
-108.358919
 21
160.625109
 31
0.0
  0
ARC
  5
20B2
330
2EF4
100
AcDbEntity
  8
V0-OBRYS
  6
CONTINUOUS
 62
    90
 48
2.0
100
AcDbCircle
 10
-104.92042
 20
218.022454
 30
0.0
 40
3.438499
100
AcDbArc
 50
107.296981
 51
180.0
  0
ARC
  5
20B3
330
2EF4
100
AcDbEntity
  8
V0-OBRYS
  6
CONTINUOUS
 62
    90
 48
2.0
100
AcDbCircle
 10
-107.809946
 20
228.855529
 30
0.0
 40
7.777532
100
AcDbArc
 50
283.890847
 51
350.487695
  0
ARC
  5
20B6
330
2EF4
100
AcDbEntity
  8
V0-OBRYS
  6
CONTINUOUS
 62
    90
 48
2.0
100
AcDbCircle
 10
-104.92042
 20
160.625109
 30
0.0
 40
3.438499
100
AcDbArc
 50
180.0
 51
250.21797
  0
LINE
  5
20BA
330
2EF4
100
AcDbEntity
  8
V0-OBRYS
  6
CONTINUOUS
 62
    90
 48
2.0
100
AcDbLine
 10
-106.084155
 20
157.389525
 30
0.0
 11
-102.90514
 21
156.246135
 31
0.0
  0
ARC
  5
20BB
330
2EF4
100
AcDbEntity
  8
V0-OBRYS
  6
CONTINUOUS
 62
    90
 48
2.0
100
AcDbCircle
 10
-105.125832
 20
150.071849
 30
0.0
 40
6.561501
100
AcDbArc
 50
40.357326
 51
70.21796999999999
  0
ARC
  5
20BC
330
2EF4
100
AcDbEntity
  8
V0-OBRYS
  6
CONTINUOUS
 62
    90
 48
2.0
100
AcDbCircle
 10
-100.913343
 20
236.89909
 30
0.0
 40
0.787511
100
AcDbArc
 50
0.0
 51
180.0
  0
LINE
  5
20BD
330
2EF4
100
AcDbEntity
  8
V0-OBRYS
  6
CONTINUOUS
 62
    90
 48
2.0
100
AcDbLine
 10
-100.125832
 20
-68.12641499999999
 30
0.0
 11
-100.125832
 21
89.37358500000001
 31
0.0
  0
ARC
  5
20BE
330
2EF4
100
AcDbEntity
  8
V0-OBRYS
  6
CONTINUOUS
 62
    90
 48
2.0
100
AcDbCircle
 10
-105.125832
 20
28.67532
 30
0.0
 40
5.0
100
AcDbArc
 50
289.78203
 51
0.0
  0
LINE
  5
20BF
330
2EF4
100
AcDbEntity
  8
V0-VYPLNE
  6
DASHED
 62
    52
100
AcDbLine
 10
-38.10123
 20
27.711778
 30
0.0
 11
-48.184622
 21
-35.611096
 31
0.0
  0
LINE
  5
20C0
330
2EF4
100
AcDbEntity
  8
V0-VYPLNE
  6
DASHED
 62
    52
100
AcDbLine
 10
-83.150435
 20
27.711778
 30
0.0
 11
-73.067042
 21
-35.611096
 31
0.0
  0
LINE
  5
20C1
330
2EF4
100
AcDbEntity
  8
V0-OBRYS
  6
CONTINUOUS
 62
    90
 48
2.0
100
AcDbLine
 10
-88.125832
 20
89.37358500000001
 30
0.0
 11
-88.125832
 21
-68.12641499999999
 31
0.0
  0
LINE
  5
20C2
330
2EF4
100
AcDbEntity
  8
V0-OBRYS
  6
CONTINUOUS
 62
    90
 48
2.0
100
AcDbLine
 10
-35.125832
 20
89.37358500000001
 30
0.0
 11
-35.125832
 21
-37.62641499999999
 31
0.0
  0
LINE
  5
20C3
330
2EF4
100
AcDbEntity
  8
V0-VYPLNE
  6
DASHED
 62
    52
100
AcDbLine
 10
-100.125832
 20
80.96055699999999
 30
0.0
 11
-86.031404
 21
80.96055699999999
 31
0.0
  0
LINE
  5
20C4
330
2EF4
100
AcDbEntity
  8
V0-VYPLNE
  6
DASHED
 62
    52
100
AcDbLine
 10
-100.125832
 20
69.447307
 30
0.0
 11
-85.55124499999999
 21
69.447307
 31
0.0
  0
LINE
  5
20C5
330
2EF4
100
AcDbEntity
  8
V0-VYPLNE
  6
DASHED
 62
    52
100
AcDbLine
 10
-100.125832
 20
57.934059
 30
0.0
 11
-86.031404
 21
57.934059
 31
0.0
  0
LINE
  5
20C6
330
2EF4
100
AcDbEntity
  8
V0-VYPLNE
  6
DASHED
 62
    52
100
AcDbLine
 10
-100.125832
 20
45.941091
 30
0.0
 11
-85.55124499999999
 21
45.941091
 31
0.0
  0
LINE
  5
20C7
330
2EF4
100
AcDbEntity
  8
V0-VYPLNE
  6
DASHED
 62
    52
100
AcDbLine
 10
-100.125832
 20
32.373585
 30
0.0
 11
-90.55124499999999
 21
32.373585
 31
0.0
  0
LINE
  5
20C8
330
2EF4
100
AcDbEntity
  8
V0-VYPLNE
  6
DASHED
 62
    52
100
AcDbLine
 10
-100.125832
 20
35.866996
 30
0.0
 11
-85.55124499999999
 21
35.866996
 31
0.0
  0
LINE
  5
20C9
330
2EF4
100
AcDbEntity
  8
V0-OBRYS
  6
CONTINUOUS
 62
    90
 48
2.0
100
AcDbLine
 10
-112.765788
 20
45.941091
 30
0.0
 11
-100.125832
 21
45.941091
 31
0.0
  0
LINE
  5
20CA
330
2EF4
100
AcDbEntity
  8
V0-OBRYS
  6
CONTINUOUS
 62
    90
 48
2.0
100
AcDbLine
 10
-112.765788
 20
80.96055699999999
 30
0.0
 11
-100.125832
 21
80.96055699999999
 31
0.0
  0
LINE
  5
20CB
330
2EF4
100
AcDbEntity
  8
V0-OBRYS
  6
CONTINUOUS
 62
    90
 48
2.0
100
AcDbLine
 10
-112.765788
 20
69.447307
 30
0.0
 11
-109.884818
 21
69.447307
 31
0.0
  0
LINE
  5
20CC
330
2EF4
100
AcDbEntity
  8
V0-OBRYS
  6
CONTINUOUS
 62
    90
 48
2.0
100
AcDbLine
 10
-112.285624
 20
57.934059
 30
0.0
 11
-100.125832
 21
57.934059
 31
0.0
  0
LINE
  5
20CD
330
2EF4
100
AcDbEntity
  8
V0-OBRYS
  6
CONTINUOUS
 62
    90
 48
2.0
100
AcDbLine
 10
-112.285624
 20
35.866996
 30
0.0
 11
-100.125832
 21
35.866996
 31
0.0
  0
LINE
  5
20CE
330
2EF4
100
AcDbEntity
  8
V0-OBRYS
  6
CONTINUOUS
 62
    90
 48
2.0
100
AcDbLine
 10
-121.125832
 20
32.373585
 30
0.0
 11
-100.125832
 21
32.373585
 31
0.0
  0
LINE
  5
20CF
330
2EF4
100
AcDbEntity
  8
V0-OBRYS
  6
CONTINUOUS
 62
    90
 48
2.0
100
AcDbLine
 10
-112.285624
 20
57.934059
 30
0.0
 11
-131.49209
 21
62.251528
 31
0.0
  0
LINE
  5
20D0
330
2EF4
100
AcDbEntity
  8
V0-OBRYS
  6
CONTINUOUS
 62
    90
 48
2.0
100
AcDbLine
 10
-131.125832
 20
89.37358500000001
 30
0.0
 11
-131.125832
 21
42.373585
 31
0.0
  0
LINE
  5
20D1
330
2EF4
100
AcDbEntity
  8
V0-OBRYS
  6
CONTINUOUS
 62
    90
 48
2.0
100
AcDbLine
 10
-112.125832
 20
89.37358500000001
 30
0.0
 11
-112.125832
 21
32.373585
 31
0.0
  0
LINE
  5
20D2
330
2EF4
100
AcDbEntity
  8
V0-OBRYS
  6
CONTINUOUS
 62
    90
 48
2.0
100
AcDbLine
 10
-112.765788
 20
80.96055699999999
 30
0.0
 11
-131.011926
 21
81.440275
 31
0.0
  0
LINE
  5
20D3
330
2EF4
100
AcDbEntity
  8
V0-OBRYS
  6
CONTINUOUS
 62
    90
 48
2.0
100
AcDbLine
 10
-112.765788
 20
69.447307
 30
0.0
 11
-131.011926
 21
71.36618300000001
 31
0.0
  0
LINE
  5
20D4
330
2EF4
100
AcDbEntity
  8
V0-OBRYS
  6
CONTINUOUS
 62
    90
 48
2.0
100
AcDbLine
 10
-112.765788
 20
45.941091
 30
0.0
 11
-130.531766
 21
55.535465
 31
0.0
  0
LINE
  5
20D5
330
2EF4
100
AcDbEntity
  8
V0-OBRYS
  6
CONTINUOUS
 62
    90
 48
2.0
100
AcDbLine
 10
-112.285624
 20
35.866996
 30
0.0
 11
-131.011926
 21
49.778838
 31
0.0
  0
ARC
  5
20D6
330
2EF4
100
AcDbEntity
  8
V0-OBRYS
  6
CONTINUOUS
 62
    90
 48
2.0
100
AcDbCircle
 10
-121.125832
 20
42.373585
 30
0.0
 40
10.0
100
AcDbArc
 50
180.0
 51
270.0
  0
LINE
  5
20D7
330
2EF4
100
AcDbEntity
  8
V0-OBRYS
  6
CONTINUOUS
 62
    90
 48
2.0
100
AcDbLine
 10
-109.884818
 20
69.447307
 30
0.0
 11
-100.125832
 21
69.447307
 31
0.0
  0
ARC
  5
20D8
330
2EF4
100
AcDbEntity
  8
V0-VYPLNE
  6
DASHED
 62
    52
100
AcDbCircle
 10
-60.625832
 20
119.523541
 30
0.0
 40
90.007583
100
AcDbArc
 50
255.523734
 51
282.123858
  0
LINE
  5
20D9
330
2EF4
100
AcDbEntity
  8
V0-VYPLNE
  6
DASHED
 62
    52
100
AcDbLine
 10
-60.625832
 20
29.515959
 30
0.0
 11
-60.625832
 21
89.37358500000001
 31
0.0
  0
LINE
  5
20DA
330
2EF4
100
AcDbEntity
  8
V0-VYPLNE
  6
DASHED
 62
    52
100
AcDbLine
 10
-83.125832
 20
89.37358500000001
 30
0.0
 11
-83.125832
 21
32.373585
 31
0.0
  0
LINE
  5
20DB
330
2EF4
100
AcDbEntity
  8
V0-VYPLNE
  6
DASHED
 62
    52
100
AcDbLine
 10
-85.55124499999999
 20
37.373585
 30
0.0
 11
-85.55124499999999
 21
89.37358500000001
 31
0.0
  0
ARC
  5
20DC
330
2EF4
100
AcDbEntity
  8
V0-VYPLNE
  6
DASHED
 62
    52
 48
2.0
100
AcDbCircle
 10
-90.55124499999999
 20
37.373585
 30
0.0
 40
5.0
100
AcDbArc
 50
270.0
 51
0.0
  0
LINE
  5
20DD
330
2EF4
100
AcDbEntity
  8
V0-VYPLNE
  6
DASHED
 62
    52
 48
2.0
100
AcDbLine
 10
-79.30914199999999
 20
31.549528
 30
0.0
 11
-83.150435
 21
27.711778
 31
0.0
  0
ARC
  5
20DE
330
2EF4
100
AcDbEntity
  8
V0-VYPLNE
  6
DASHED
 62
    52
100
AcDbCircle
 10
-702.33071
 20
95.91068300000001
 30
0.0
 40
667.236902
100
AcDbArc
 50
354.845307
 51
359.438649
  0
ARC
  5
20DF
330
2EF4
100
AcDbEntity
  8
V0-VYPLNE
  6
DASHED
 62
    52
100
AcDbCircle
 10
-42.772056
 20
36.411979
 30
0.0
 40
5.0
100
AcDbArc
 50
282.123858
 51
354.845307
  0
LINE
  5
20E0
330
2EF4
100
AcDbEntity
  8
V0-VYPLNE
  6
DASHED
 62
    52
 48
2.0
100
AcDbLine
 10
-41.942523
 20
31.549528
 30
0.0
 11
-38.10123
 21
27.711778
 31
0.0
  0
LINE
  5
20E1
330
2EF4
100
AcDbEntity
  8
V0-OBRYS
  6
CONTINUOUS
 62
    90
 48
2.0
100
AcDbLine
 10
-88.125832
 20
-68.12641499999999
 30
0.0
 11
-100.125832
 21
-68.12641499999999
 31
0.0
  0
ARC
  5
20E2
330
2EF4
100
AcDbEntity
  8
V0-OBRYS
  6
CONTINUOUS
 62
    90
 48
2.0
100
AcDbCircle
 10
-107.818671
 20
-50.147446
 30
0.0
 40
6.259529
100
AcDbArc
 50
12.215016
 51
76.966739
  0
ARC
  5
20E3
330
2EF4
100
AcDbEntity
  8
V0-OBRYS
  6
CONTINUOUS
 62
    90
 48
2.0
100
AcDbCircle
 10
-107.809946
 20
-50.10836
 30
0.0
 40
7.777532
100
AcDbArc
 50
9.512305
 51
76.10915300000001
  0
ARC
  5
20E4
330
2EF4
100
AcDbEntity
  8
V0-OBRYS
  6
CONTINUOUS
 62
    90
 48
2.0
100
AcDbCircle
 10
-104.92042
 20
-39.275285
 30
0.0
 40
5.0
100
AcDbArc
 50
180.0
 51
252.703019
  0
LINE
  5
20E5
330
2EF4
100
AcDbEntity
  8
V0-OBRYS
  6
CONTINUOUS
 62
    90
 48
2.0
100
AcDbLine
 10
-108.358919
 20
-39.275285
 30
0.0
 11
-108.358919
 21
18.122061
 31
0.0
  0
LINE
  5
20E6
330
2EF4
100
AcDbEntity
  8
V0-OBRYS
  6
CONTINUOUS
 62
    90
 48
2.0
100
AcDbLine
 10
-109.92042
 20
-39.275285
 30
0.0
 11
-109.92042
 21
18.122061
 31
0.0
  0
CIRCLE
  5
20E7
330
2EF4
100
AcDbEntity
  8
V0-OBRYS
  6
CONTINUOUS
 62
    90
 48
2.0
100
AcDbCircle
 10
-111.528766
 20
12.695066
 30
0.0
 40
1.608161
  0
CIRCLE
  5
20E8
330
2EF4
100
AcDbEntity
  8
V0-OBRYS
  6
CONTINUOUS
 62
    90
 48
2.0
100
AcDbCircle
 10
-111.528766
 20
0.695066
 30
0.0
 40
1.608161
  0
ARC
  5
20E9
330
2EF4
100
AcDbEntity
  8
V0-OBRYS
  6
CONTINUOUS
 62
    90
 48
2.0
100
AcDbCircle
 10
-104.92042
 20
18.122061
 30
0.0
 40
5.0
100
AcDbArc
 50
109.78203
 51
180.0
  0
ARC
  5
20EA
330
2EF4
100
AcDbEntity
  8
V0-OBRYS
  6
CONTINUOUS
 62
    90
 48
2.0
100
AcDbCircle
 10
-105.125832
 20
28.67532
 30
0.0
 40
6.561501
100
AcDbArc
 50
289.78203
 51
319.642674
  0
LINE
  5
20EB
330
2EF4
100
AcDbEntity
  8
V0-OBRYS
  6
CONTINUOUS
 62
    90
 48
2.0
100
AcDbLine
 10
-106.084155
 20
21.357644
 30
0.0
 11
-102.90514
 21
22.501034
 31
0.0
  0
ARC
  5
20EC
330
2EF4
100
AcDbEntity
  8
V0-OBRYS
  6
CONTINUOUS
 62
    90
 48
2.0
100
AcDbCircle
 10
-104.92042
 20
18.122061
 30
0.0
 40
3.438499
100
AcDbArc
 50
109.78203
 51
180.0
  0
LINE
  5
20ED
330
2EF4
100
AcDbEntity
  8
V0-OBRYS
  6
CONTINUOUS
 62
    90
 48
2.0
100
AcDbLine
 10
-106.612634
 20
22.826995
 30
0.0
 11
-103.433618
 21
23.970385
 31
0.0
  0
CIRCLE
  5
20EE
330
2EF4
100
AcDbEntity
  8
V0-OBRYS
  6
CONTINUOUS
 62
    90
 48
2.0
100
AcDbCircle
 10
-111.528766
 20
-11.304934
 30
0.0
 40
1.608161
  0
CIRCLE
  5
20EF
330
2EF4
100
AcDbEntity
  8
V0-OBRYS
  6
CONTINUOUS
 62
    90
 48
2.0
100
AcDbCircle
 10
-111.528766
 20
-23.304934
 30
0.0
 40
1.608161
  0
CIRCLE
  5
20F0
330
2EF4
100
AcDbEntity
  8
V0-OBRYS
  6
CONTINUOUS
 62
    90
 48
2.0
100
AcDbCircle
 10
-111.528766
 20
-35.304934
 30
0.0
 40
1.608161
  0
ARC
  5
20F1
330
2EF4
100
AcDbEntity
  8
V0-OBRYS
  6
CONTINUOUS
 62
    90
 48
2.0
100
AcDbCircle
 10
-104.92042
 20
-39.275285
 30
0.0
 40
3.438499
100
AcDbArc
 50
180.0
 51
252.703019
  0
ARC
  5
20F2
330
2EF4
100
AcDbEntity
  8
V0-OBRYS
  6
CONTINUOUS
 62
    90
 48
2.0
100
AcDbCircle
 10
-100.913343
 20
-58.151921
 30
0.0
 40
0.787511
100
AcDbArc
 50
180.0
 51
0.0
  0
LINE
  5
20F3
330
2EF4
100
AcDbEntity
  8
V0-OBRYS
  6
CONTINUOUS
 62
    90
 48
2.0
100
AcDbLine
 10
-101.700854
 20
-58.151921
 30
0.0
 11
-101.700854
 21
-48.823049
 31
0.0
  0
ARC
  5
20F4
330
2EF4
100
AcDbEntity
  8
V0-OBRYS
  6
CONTINUOUS
 62
    90
 48
2.0
100
AcDbCircle
 10
-67.748205
 20
-52.626415
 30
0.0
 40
15.0
100
AcDbArc
 50
90.0
 51
149.420799
  0
LINE
  5
20F5
330
2EF4
100
AcDbEntity
  8
V0-VYPLNE
  6
DASHED
 62
    52
100
AcDbLine
 10
-48.184622
 20
-35.611096
 30
0.0
 11
-60.625832
 21
-35.611096
 31
0.0
  0
LINE
  5
20F6
330
2EF4
100
AcDbEntity
  8
V0-OBRYS
  6
CONTINUOUS
 62
    90
 48
2.0
100
AcDbLine
 10
-35.125832
 20
-37.626415
 30
0.0
 11
-67.748205
 21
-37.626415
 31
0.0
  0
LINE
  5
20F7
330
2EF4
100
AcDbEntity
  8
V0-VYPLNE
  6
DASHED
 62
    52
100
AcDbLine
 10
-73.067042
 20
-35.611096
 30
0.0
 11
-60.625832
 21
-35.611096
 31
0.0
  0
LINE
  5
20F8
330
2EF4
100
AcDbEntity
  8
V0-OBRYS
  6
CONTINUOUS
 62
    90
 48
2.0
100
AcDbLine
 10
-88.125832
 20
-57.626415
 30
0.0
 11
-80.66210599999999
 21
-44.995482
 31
0.0
  0
LINE
  5
20F9
330
2EF4
100
AcDbEntity
  8
V0-VYPLNE
  6
DASHED
 62
    52
100
AcDbLine
 10
-82.728832
 20
82.529217
 30
0.0
 11
-36.410806
 21
96.45276
 31
0.0
  0
CIRCLE
  5
20FA
330
2EF4
100
AcDbEntity
  8
V0-VYPLNE
  6
DASHED
 62
    52
100
AcDbCircle
 10
-60.625832
 20
89.173543
 30
0.0
 40
4.237611
  0
ARC
  5
218D
330
2EF4
100
AcDbEntity
  8
V0-VYPLNE
100
AcDbCircle
 10
360.976123
 20
88.838675
 30
0.0
 40
181.579742
100
AcDbArc
 50
222.153029
 51
232.398921
  0
CIRCLE
  5
218F
330
2EF4
100
AcDbEntity
  8
V0-OBRYS
  6
CONTINUOUS
 62
    90
100
AcDbCircle
 10
236.734168
 20
-40.766415
 30
0.0
 40
5.58
  0
CIRCLE
  5
2190
330
2EF4
100
AcDbEntity
  8
V0-OBRYS
  6
CONTINUOUS
 62
    90
100
AcDbCircle
 10
263.056673
 20
-14.44391
 30
0.0
 40
4.0
  0
LINE
  5
2191
330
2EF4
100
AcDbEntity
  8
VO-OBRYS
  6
CONTINUOUS
100
AcDbLine
 10
326.698168
 20
64.516346
 30
0.0
 11
255.397292
 21
-6.784529000000006
 31
0.0
  0
LINE
  5
2192
330
2EF4
100
AcDbEntity
  8
VO-OBRYS
  6
CONTINUOUS
100
AcDbLine
 10
342.016929
 20
49.197585
 30
0.0
 11
270.716054
 21
-22.10329099999999
 31
0.0
  0
LINE
  5
2193
330
2EF4
100
AcDbEntity
  8
V0-VYPLNE
100
AcDbLine
 10
239.008499
 20
9.604264000000001
 30
0.0
 11
287.363344
 21
-38.750581
 31
0.0
  0
LINE
  5
2194
330
2EF4
100
AcDbEntity
  8
V0-VYPLNE
100
AcDbLine
 10
366.874168
 20
89.37358500000001
 30
0.0
 11
225.823644
 21
-51.67693899999999
 31
0.0
  0
CIRCLE
  5
2198
330
2EF4
100
AcDbEntity
  8
V0-OBRYS
  6
CONTINUOUS
 62
    90
100
AcDbCircle
 10
470.691662
 20
-14.44391
 30
0.0
 40
4.0
  0
LINE
  5
2199
330
2EF4
100
AcDbEntity
  8
VO-OBRYS
  6
CONTINUOUS
100
AcDbLine
 10
391.731406
 20
49.197585
 30
0.0
 11
463.032282
 21
-22.10329099999999
 31
0.0
  0
LINE
  5
219A
330
2EF4
100
AcDbEntity
  8
VO-OBRYS
  6
CONTINUOUS
100
AcDbLine
 10
407.050168
 20
64.516346
 30
0.0
 11
478.351043
 21
-6.784529000000006
 31
0.0
  0
LINE
  5
219B
330
2EF4
100
AcDbEntity
  8
V0-VYPLNE
100
AcDbLine
 10
446.643488
 20
-38.492084
 30
0.0
 11
494.998333
 21
9.862760999999999
 31
0.0
  0
LINE
  5
219C
330
2EF4
100
AcDbEntity
  8
V0-VYPLNE
100
AcDbLine
 10
366.874168
 20
89.37358500000001
 30
0.0
 11
507.924691
 21
-51.67693899999999
 31
0.0
  0
CIRCLE
  5
21A0
330
2EF4
100
AcDbEntity
  8
V0-OBRYS
  6
CONTINUOUS
 62
    90
100
AcDbCircle
 10
470.691662
 20
193.191079
 30
0.0
 40
4.0
  0
LINE
  5
21A1
330
2EF4
100
AcDbEntity
  8
VO-OBRYS
  6
CONTINUOUS
100
AcDbLine
 10
407.050168
 20
114.230823
 30
0.0
 11
478.351043
 21
185.531699
 31
0.0
  0
LINE
  5
21A2
330
2EF4
100
AcDbEntity
  8
VO-OBRYS
  6
CONTINUOUS
100
AcDbLine
 10
391.731406
 20
129.549585
 30
0.0
 11
463.032282
 21
200.85046
 31
0.0
  0
LINE
  5
21A3
330
2EF4
100
AcDbEntity
  8
V0-VYPLNE
100
AcDbLine
 10
494.739836
 20
169.142905
 30
0.0
 11
446.384992
 21
217.49775
 31
0.0
  0
LINE
  5
21A4
330
2EF4
100
AcDbEntity
  8
V0-VYPLNE
100
AcDbLine
 10
366.874168
 20
89.37358500000001
 30
0.0
 11
507.924691
 21
230.424108
 31
0.0
  0
ARC
  5
21A6
330
2EF4
100
AcDbEntity
  8
VO-OBRYS
  6
CONTINUOUS
100
AcDbCircle
 10
263.056673
 20
-14.44391
 30
0.0
 40
10.832
100
AcDbArc
 50
135.0
 51
315.0
  0
ARC
  5
21A7
330
2EF4
100
AcDbEntity
  8
VO-OBRYS
  6
CONTINUOUS
100
AcDbCircle
 10
470.691662
 20
193.191079
 30
0.0
 40
10.832
100
AcDbArc
 50
315.0
 51
135.0
  0
LINE
  5
21A8
330
2EF4
100
AcDbEntity
  8
VO-OBRYS
  6
CONTINUOUS
100
AcDbLine
 10
326.567237
 20
62.17712
 30
0.0
 11
256.50144
 21
-7.888677000000001
 31
0.0
  0
LINE
  5
21A9
330
2EF4
100
AcDbEntity
  8
VO-OBRYS
  6
CONTINUOUS
100
AcDbLine
 10
339.677703
 20
49.066654
 30
0.0
 11
269.611906
 21
-20.999143
 31
0.0
  0
LINE
  5
21AA
330
2EF4
100
AcDbEntity
  8
VO-OBRYS
  6
CONTINUOUS
100
AcDbLine
 10
394.070632
 20
129.680515
 30
0.0
 11
464.136429
 21
199.746312
 31
0.0
  0
LINE
  5
21AB
330
2EF4
100
AcDbEntity
  8
VO-OBRYS
  6
CONTINUOUS
100
AcDbLine
 10
407.181098
 20
116.570049
 30
0.0
 11
477.246895
 21
186.635846
 31
0.0
  0
ARC
  5
21AC
330
2EF4
100
AcDbEntity
  8
VO-OBRYS
  6
CONTINUOUS
100
AcDbCircle
 10
470.691662
 20
193.191079
 30
0.0
 40
9.270498999999999
100
AcDbArc
 50
315.0
 51
135.0
  0
ARC
  5
21AD
330
2EF4
100
AcDbEntity
  8
VO-OBRYS
  6
CONTINUOUS
100
AcDbCircle
 10
263.056673
 20
-14.44391
 30
0.0
 40
9.270498999999999
100
AcDbArc
 50
135.0
 51
315.0
  0
LINE
  5
21AE
330
2EF4
100
AcDbEntity
  8
V0-VYPLNE
  6
DASHED
 62
    52
100
AcDbLine
 10
262.199523
 20
-2.219568
 30
0.0
 11
275.279658
 21
-15.299703
 31
0.0
  0
LINE
  5
21AF
330
2EF4
100
AcDbEntity
  8
VO-OBRYS
  6
CONTINUOUS
100
AcDbLine
 10
326.567237
 20
116.570049
 30
0.0
 11
256.50144
 21
186.635846
 31
0.0
  0
LINE
  5
21B0
330
2EF4
100
AcDbEntity
  8
VO-OBRYS
  6
CONTINUOUS
100
AcDbLine
 10
394.070632
 20
49.066654
 30
0.0
 11
464.136429
 21
-20.999143
 31
0.0
  0
LINE
  5
21B3
330
2EF4
100
AcDbEntity
  8
VO-OBRYS
  6
CONTINUOUS
100
AcDbLine
 10
339.677703
 20
129.680515
 30
0.0
 11
269.611906
 21
199.746312
 31
0.0
  0
LINE
  5
21B4
330
2EF4
100
AcDbEntity
  8
VO-OBRYS
  6
CONTINUOUS
100
AcDbLine
 10
407.181098
 20
62.17712
 30
0.0
 11
477.246895
 21
-7.888677000000001
 31
0.0
  0
ARC
  5
21B6
330
2EF4
100
AcDbEntity
  8
VO-OBRYS
  6
CONTINUOUS
100
AcDbCircle
 10
263.056673
 20
193.191079
 30
0.0
 40
10.832
100
AcDbArc
 50
45.0
 51
225.0
  0
ARC
  5
21B7
330
2EF4
100
AcDbEntity
  8
VO-OBRYS
  6
CONTINUOUS
100
AcDbCircle
 10
263.056673
 20
193.191079
 30
0.0
 40
9.270498999999999
100
AcDbArc
 50
45.0
 51
225.0
  0
ARC
  5
21B8
330
2EF4
100
AcDbEntity
  8
VO-OBRYS
  6
CONTINUOUS
100
AcDbCircle
 10
470.691662
 20
-14.44391
 30
0.0
 40
10.832
100
AcDbArc
 50
225.0
 51
45.0
  0
ARC
  5
21B9
330
2EF4
100
AcDbEntity
  8
VO-OBRYS
  6
CONTINUOUS
100
AcDbCircle
 10
470.691662
 20
-14.44391
 30
0.0
 40
9.270498999999999
100
AcDbArc
 50
225.0
 51
45.0
  0
POINT
  5
21EA
330
2EF4
100
AcDbEntity
  8
V0-VYPLNE
  6
DASHED
 62
    52
100
AcDbPoint
 10
366.874168
 20
89.37358500000001
 30
0.0
  0
LINE
  5
21F6
330
2EF4
100
AcDbEntity
  8
V0-OBRYS
  6
CONTINUOUS
 62
    90
100
AcDbLine
 10
362.367298
 20
148.63485
 30
0.0
 11
363.818748
 21
129.549585
 31
0.0
  0
LINE
  5
21F7
330
2EF4
100
AcDbEntity
  8
V0-OBRYS
  6
CONTINUOUS
 62
    90
100
AcDbLine
 10
357.155643
 20
129.549585
 30
0.0
 11
352.803104
 21
147.542806
 31
0.0
  0
LINE
  5
21F8
330
2EF4
100
AcDbEntity
  8
V0-OBRYS
  6
CONTINUOUS
 62
    90
100
AcDbLine
 10
344.331961
 20
144.539689
 30
0.0
 11
350.457281
 21
129.549585
 31
0.0
  0
LINE
  5
21F9
330
2EF4
100
AcDbEntity
  8
V0-OBRYS
  6
CONTINUOUS
 62
    90
100
AcDbLine
 10
342.861969
 20
129.549585
 30
0.0
 11
335.860817
 21
141.26356
 31
0.0
  0
LINE
  5
21FA
330
2EF4
100
AcDbEntity
  8
V0-OBRYS
  6
CONTINUOUS
 62
    90
100
AcDbLine
 10
362.367298
 20
148.63485
 30
0.0
 11
363.818748
 21
129.549585
 31
0.0
  0
LINE
  5
21FB
330
2EF4
100
AcDbEntity
  8
V0-OBRYS
  6
CONTINUOUS
 62
    90
100
AcDbLine
 10
357.155643
 20
129.549585
 30
0.0
 11
352.803104
 21
147.542806
 31
0.0
  0
LINE
  5
21FC
330
2EF4
100
AcDbEntity
  8
V0-OBRYS
  6
CONTINUOUS
 62
    90
100
AcDbLine
 10
344.331961
 20
144.539689
 30
0.0
 11
350.457281
 21
129.549585
 31
0.0
  0
LINE
  5
21FD
330
2EF4
100
AcDbEntity
  8
V0-OBRYS
  6
CONTINUOUS
 62
    90
100
AcDbLine
 10
342.861969
 20
129.549585
 30
0.0
 11
335.860817
 21
141.26356
 31
0.0
  0
LINE
  5
21FE
330
2EF4
100
AcDbEntity
  8
V0-OBRYS
  6
CONTINUOUS
 62
    90
100
AcDbLine
 10
390.886366
 20
129.549585
 30
0.0
 11
397.887519
 21
141.26356
 31
0.0
  0
LINE
  5
21FF
330
2EF4
100
AcDbEntity
  8
V0-OBRYS
  6
CONTINUOUS
 62
    90
100
AcDbLine
 10
389.416375
 20
144.539689
 30
0.0
 11
383.291055
 21
129.549585
 31
0.0
  0
LINE
  5
2200
330
2EF4
100
AcDbEntity
  8
V0-OBRYS
  6
CONTINUOUS
 62
    90
100
AcDbLine
 10
376.592693
 20
129.549585
 30
0.0
 11
380.945231
 21
147.542806
 31
0.0
  0
LINE
  5
2201
330
2EF4
100
AcDbEntity
  8
V0-OBRYS
  6
CONTINUOUS
 62
    90
100
AcDbLine
 10
371.381038
 20
148.63485
 30
0.0
 11
369.929587
 21
129.549585
 31
0.0
  0
LINE
  5
2202
330
2EF4
100
AcDbEntity
  8
V0-OBRYS
  6
CONTINUOUS
 62
    90
100
AcDbLine
 10
326.698168
 20
65.361386
 30
0.0
 11
314.984192
 21
58.360234
 31
0.0
  0
LINE
  5
2203
330
2EF4
100
AcDbEntity
  8
V0-OBRYS
  6
CONTINUOUS
 62
    90
100
AcDbLine
 10
311.708063
 20
66.831378
 30
0.0
 11
326.698168
 21
72.95669700000001
 31
0.0
  0
LINE
  5
2204
330
2EF4
100
AcDbEntity
  8
V0-OBRYS
  6
CONTINUOUS
 62
    90
100
AcDbLine
 10
326.698168
 20
79.65506000000001
 30
0.0
 11
308.704946
 21
75.302521
 31
0.0
  0
LINE
  5
2205
330
2EF4
100
AcDbEntity
  8
V0-OBRYS
  6
CONTINUOUS
 62
    90
100
AcDbLine
 10
307.612903
 20
84.866715
 30
0.0
 11
326.698168
 21
86.31816499999999
 31
0.0
  0
LINE
  5
2206
330
2EF4
100
AcDbEntity
  8
V0-OBRYS
  6
CONTINUOUS
 62
    90
100
AcDbLine
 10
307.612903
 20
93.880455
 30
0.0
 11
326.698168
 21
92.42900400000001
 31
0.0
  0
LINE
  5
2207
330
2EF4
100
AcDbEntity
  8
V0-OBRYS
  6
CONTINUOUS
 62
    90
100
AcDbLine
 10
326.698168
 20
99.09211000000001
 30
0.0
 11
308.704946
 21
103.444648
 31
0.0
  0
LINE
  5
2208
330
2EF4
100
AcDbEntity
  8
V0-OBRYS
  6
CONTINUOUS
 62
    90
100
AcDbLine
 10
311.708063
 20
111.915792
 30
0.0
 11
326.698168
 21
105.790472
 31
0.0
  0
LINE
  5
2209
330
2EF4
100
AcDbEntity
  8
V0-OBRYS
  6
CONTINUOUS
 62
    90
100
AcDbLine
 10
326.698168
 20
113.385783
 30
0.0
 11
314.984192
 21
120.386936
 31
0.0
  0
LINE
  5
220A
330
2EF4
100
AcDbEntity
  8
V0-OBRYS
  6
CONTINUOUS
 62
    90
100
AcDbLine
 10
390.886366
 20
49.197585
 30
0.0
 11
397.887519
 21
37.483609
 31
0.0
  0
LINE
  5
220B
330
2EF4
100
AcDbEntity
  8
V0-OBRYS
  6
CONTINUOUS
 62
    90
100
AcDbLine
 10
389.416375
 20
34.20748
 30
0.0
 11
383.291055
 21
49.197585
 31
0.0
  0
LINE
  5
220C
330
2EF4
100
AcDbEntity
  8
V0-OBRYS
  6
CONTINUOUS
 62
    90
100
AcDbLine
 10
376.592693
 20
49.197585
 30
0.0
 11
380.945231
 21
31.204363
 31
0.0
  0
LINE
  5
220D
330
2EF4
100
AcDbEntity
  8
V0-OBRYS
  6
CONTINUOUS
 62
    90
100
AcDbLine
 10
371.381038
 20
30.11232
 30
0.0
 11
369.929587
 21
49.197585
 31
0.0
  0
LINE
  5
220E
330
2EF4
100
AcDbEntity
  8
V0-OBRYS
  6
CONTINUOUS
 62
    90
100
AcDbLine
 10
362.367298
 20
30.11232
 30
0.0
 11
363.818748
 21
49.197585
 31
0.0
  0
LINE
  5
220F
330
2EF4
100
AcDbEntity
  8
V0-OBRYS
  6
CONTINUOUS
 62
    90
100
AcDbLine
 10
357.155643
 20
49.197585
 30
0.0
 11
352.803104
 21
31.204363
 31
0.0
  0
LINE
  5
2210
330
2EF4
100
AcDbEntity
  8
V0-OBRYS
  6
CONTINUOUS
 62
    90
100
AcDbLine
 10
344.331961
 20
34.20748
 30
0.0
 11
350.457281
 21
49.197585
 31
0.0
  0
LINE
  5
2211
330
2EF4
100
AcDbEntity
  8
V0-OBRYS
  6
CONTINUOUS
 62
    90
100
AcDbLine
 10
342.861969
 20
49.197585
 30
0.0
 11
335.860817
 21
37.483609
 31
0.0
  0
LINE
  5
2212
330
2EF4
100
AcDbEntity
  8
V0-OBRYS
  6
CONTINUOUS
 62
    90
100
AcDbLine
 10
407.050168
 20
113.385783
 30
0.0
 11
418.764143
 21
120.386936
 31
0.0
  0
LINE
  5
2213
330
2EF4
100
AcDbEntity
  8
V0-OBRYS
  6
CONTINUOUS
 62
    90
100
AcDbLine
 10
422.040272
 20
111.915792
 30
0.0
 11
407.050168
 21
105.790472
 31
0.0
  0
LINE
  5
2214
330
2EF4
100
AcDbEntity
  8
V0-OBRYS
  6
CONTINUOUS
 62
    90
100
AcDbLine
 10
407.050168
 20
99.09211000000001
 30
0.0
 11
425.043389
 21
103.444648
 31
0.0
  0
LINE
  5
2215
330
2EF4
100
AcDbEntity
  8
V0-OBRYS
  6
CONTINUOUS
 62
    90
100
AcDbLine
 10
426.135433
 20
93.880455
 30
0.0
 11
407.050168
 21
92.42900400000001
 31
0.0
  0
LINE
  5
2216
330
2EF4
100
AcDbEntity
  8
V0-OBRYS
  6
CONTINUOUS
 62
    90
100
AcDbLine
 10
426.135433
 20
84.866715
 30
0.0
 11
407.050168
 21
86.31816499999999
 31
0.0
  0
LINE
  5
2217
330
2EF4
100
AcDbEntity
  8
V0-OBRYS
  6
CONTINUOUS
 62
    90
100
AcDbLine
 10
407.050168
 20
79.65506000000001
 30
0.0
 11
425.043389
 21
75.302521
 31
0.0
  0
LINE
  5
2218
330
2EF4
100
AcDbEntity
  8
V0-OBRYS
  6
CONTINUOUS
 62
    90
100
AcDbLine
 10
422.040272
 20
66.831378
 30
0.0
 11
407.050168
 21
72.95669700000001
 31
0.0
  0
LINE
  5
2219
330
2EF4
100
AcDbEntity
  8
V0-OBRYS
  6
CONTINUOUS
 62
    90
100
AcDbLine
 10
407.050168
 20
65.361386
 30
0.0
 11
418.764143
 21
58.360234
 31
0.0
  0
LINE
  5
221A
330
2EF4
100
AcDbEntity
  8
V0-VYPLNE
  6
DASHDOT
 62
    63
 48
2.0
100
AcDbLine
 10
-153.995273
 20
-407.240613
 30
0.0
 11
-26.491366
 21
-407.240613
 31
0.0
  0
LINE
  5
221B
330
2EF4
100
AcDbEntity
  8
V0-OBRYS
  6
CONTINUOUS
 62
    90
 48
2.0
100
AcDbLine
 10
-100.125832
 20
-249.740613
 30
0.0
 11
-100.125832
 21
-407.240613
 31
0.0
  0
ARC
  5
221C
330
2EF4
100
AcDbEntity
  8
V0-OBRYS
  6
CONTINUOUS
 62
    90
 48
2.0
100
AcDbCircle
 10
-105.125832
 20
-346.542348
 30
0.0
 40
5.0
100
AcDbArc
 50
0.0
 51
70.21796999999999
  0
LINE
  5
221D
330
2EF4
100
AcDbEntity
  8
V0-VYPLNE
  6
DASHED
 62
    52
100
AcDbLine
 10
-38.10123
 20
-345.578806
 30
0.0
 11
-48.184622
 21
-282.255932
 31
0.0
  0
LINE
  5
221E
330
2EF4
100
AcDbEntity
  8
V0-VYPLNE
  6
DASHED
 62
    52
100
AcDbLine
 10
-83.150435
 20
-345.578806
 30
0.0
 11
-73.067042
 21
-282.255932
 31
0.0
  0
LINE
  5
221F
330
2EF4
100
AcDbEntity
  8
V0-OBRYS
  6
CONTINUOUS
 62
    90
 48
2.0
100
AcDbLine
 10
-88.125832
 20
-407.240613
 30
0.0
 11
-88.125832
 21
-249.740613
 31
0.0
  0
LINE
  5
2220
330
2EF4
100
AcDbEntity
  8
V0-OBRYS
  6
CONTINUOUS
 62
    90
 48
2.0
100
AcDbLine
 10
-35.125832
 20
-407.240613
 30
0.0
 11
-35.125832
 21
-280.240613
 31
0.0
  0
CIRCLE
  5
2221
330
2EF4
100
AcDbEntity
  8
V0-OBRYS
  6
CONTINUOUS
 62
    90
 48
2.0
100
AcDbCircle
 10
-111.528766
 20
-483.919131
 30
0.0
 40
1.608161
  0
LINE
  5
2222
330
2EF4
100
AcDbEntity
  8
V0-OBRYS
  6
CONTINUOUS
 62
    90
 48
2.0
100
AcDbLine
 10
-109.92042
 20
-535.889482
 30
0.0
 11
-109.92042
 21
-478.492137
 31
0.0
  0
LINE
  5
2223
330
2EF4
100
AcDbEntity
  8
V0-OBRYS
  6
CONTINUOUS
 62
    90
 48
2.0
100
AcDbLine
 10
-108.358919
 20
-535.889482
 30
0.0
 11
-108.358919
 21
-478.492137
 31
0.0
  0
LINE
  5
2224
330
2EF4
100
AcDbEntity
  8
V0-OBRYS
  6
CONTINUOUS
 62
    90
 48
2.0
100
AcDbLine
 10
-35.125832
 20
-407.240613
 30
0.0
 11
-35.125832
 21
-534.2406130000001
 31
0.0
  0
LINE
  5
2225
330
2EF4
100
AcDbEntity
  8
V0-OBRYS
  6
CONTINUOUS
 62
    90
 48
2.0
100
AcDbLine
 10
-88.125832
 20
-407.240613
 30
0.0
 11
-88.125832
 21
-564.7406130000001
 31
0.0
  0
LINE
  5
2226
330
2EF4
100
AcDbEntity
  8
V0-VYPLNE
  6
DASHED
 62
    52
100
AcDbLine
 10
-83.150435
 20
-468.90242
 30
0.0
 11
-73.067042
 21
-532.225294
 31
0.0
  0
LINE
  5
2227
330
2EF4
100
AcDbEntity
  8
V0-VYPLNE
  6
DASHED
 62
    52
100
AcDbLine
 10
-38.10123
 20
-468.90242
 30
0.0
 11
-48.184622
 21
-532.225294
 31
0.0
  0
LINE
  5
2228
330
2EF4
100
AcDbEntity
  8
V0-OBRYS
  6
CONTINUOUS
 62
    90
 48
2.0
100
AcDbLine
 10
-100.125832
 20
-564.7406130000001
 30
0.0
 11
-100.125832
 21
-407.240613
 31
0.0
  0
LINE
  5
2229
330
2EF4
100
AcDbEntity
  8
V0-OBRYS
  6
CONTINUOUS
 62
    90
 48
2.0
100
AcDbLine
 10
-88.125832
 20
-564.7406130000001
 30
0.0
 11
-100.125832
 21
-564.7406130000001
 31
0.0
  0
ARC
  5
222A
330
2EF4
100
AcDbEntity
  8
V0-OBRYS
  6
CONTINUOUS
 62
    90
 48
2.0
100
AcDbCircle
 10
-100.913343
 20
-554.766119
 30
0.0
 40
0.787511
100
AcDbArc
 50
180.0
 51
0.0
  0
CIRCLE
  5
222B
330
2EF4
100
AcDbEntity
  8
V0-OBRYS
  6
CONTINUOUS
 62
    90
 48
2.0
100
AcDbCircle
 10
-111.528766
 20
-519.919131
 30
0.0
 40
1.608161
  0
CIRCLE
  5
222C
330
2EF4
100
AcDbEntity
  8
V0-OBRYS
  6
CONTINUOUS
 62
    90
 48
2.0
100
AcDbCircle
 10
-111.528766
 20
-531.919131
 30
0.0
 40
1.608161
  0
ARC
  5
222D
330
2EF4
100
AcDbEntity
  8
V0-OBRYS
  6
CONTINUOUS
 62
    90
 48
2.0
100
AcDbCircle
 10
-104.92042
 20
-535.889482
 30
0.0
 40
5.0
100
AcDbArc
 50
180.0
 51
252.703019
  0
ARC
  5
222E
330
2EF4
100
AcDbEntity
  8
V0-OBRYS
  6
CONTINUOUS
 62
    90
 48
2.0
100
AcDbCircle
 10
-104.92042
 20
-535.889482
 30
0.0
 40
3.438499
100
AcDbArc
 50
180.0
 51
252.703019
  0
ARC
  5
222F
330
2EF4
100
AcDbEntity
  8
V0-OBRYS
  6
CONTINUOUS
 62
    90
 48
2.0
100
AcDbCircle
 10
-107.809946
 20
-546.7225570000001
 30
0.0
 40
7.777532
100
AcDbArc
 50
9.512305
 51
76.10915300000001
  0
ARC
  5
2230
330
2EF4
100
AcDbEntity
  8
V0-OBRYS
  6
CONTINUOUS
 62
    90
 48
2.0
100
AcDbCircle
 10
-107.818671
 20
-546.7616440000001
 30
0.0
 40
6.259529
100
AcDbArc
 50
12.215016
 51
76.966739
  0
LINE
  5
2231
330
2EF4
100
AcDbEntity
  8
V0-OBRYS
  6
CONTINUOUS
 62
    90
 48
2.0
100
AcDbLine
 10
-101.700854
 20
-554.766119
 30
0.0
 11
-101.700854
 21
-545.437247
 31
0.0
  0
CIRCLE
  5
2232
330
2EF4
100
AcDbEntity
  8
V0-OBRYS
  6
CONTINUOUS
 62
    90
 48
2.0
100
AcDbCircle
 10
-111.528766
 20
-495.919131
 30
0.0
 40
1.608161
  0
CIRCLE
  5
2233
330
2EF4
100
AcDbEntity
  8
V0-OBRYS
  6
CONTINUOUS
 62
    90
 48
2.0
100
AcDbCircle
 10
-111.528766
 20
-507.919131
 30
0.0
 40
1.608161
  0
LINE
  5
2234
330
2EF4
100
AcDbEntity
  8
V0-OBRYS
  6
CONTINUOUS
 62
    90
 48
2.0
100
AcDbLine
 10
-35.125832
 20
-534.2406130000001
 30
0.0
 11
-67.748205
 21
-534.2406130000001
 31
0.0
  0
LINE
  5
2235
330
2EF4
100
AcDbEntity
  8
V0-VYPLNE
  6
DASHED
 62
    52
100
AcDbLine
 10
-48.184622
 20
-532.225294
 30
0.0
 11
-60.625832
 21
-532.225294
 31
0.0
  0
ARC
  5
2236
330
2EF4
100
AcDbEntity
  8
V0-OBRYS
  6
CONTINUOUS
 62
    90
 48
2.0
100
AcDbCircle
 10
-67.748205
 20
-549.2406130000001
 30
0.0
 40
15.0
100
AcDbArc
 50
90.0
 51
149.420799
  0
LINE
  5
2237
330
2EF4
100
AcDbEntity
  8
V0-OBRYS
  6
CONTINUOUS
 62
    90
 48
2.0
100
AcDbLine
 10
-88.125832
 20
-554.2406130000001
 30
0.0
 11
-80.66210599999999
 21
-541.609679
 31
0.0
  0
LINE
  5
2238
330
2EF4
100
AcDbEntity
  8
V0-VYPLNE
  6
DASHED
 62
    52
100
AcDbLine
 10
-73.067042
 20
-532.225294
 30
0.0
 11
-60.625832
 21
-532.225294
 31
0.0
  0
LINE
  5
2239
330
2EF4
100
AcDbEntity
  8
V0-VYPLNE
  6
DASHED
 62
    52
100
AcDbLine
 10
-100.125832
 20
-460.747201
 30
0.0
 11
-85.55124499999999
 21
-460.747201
 31
0.0
  0
LINE
  5
223A
330
2EF4
100
AcDbEntity
  8
V0-VYPLNE
  6
DASHED
 62
    52
100
AcDbLine
 10
-100.125832
 20
-464.240613
 30
0.0
 11
-90.55124499999999
 21
-464.240613
 31
0.0
  0
LINE
  5
223B
330
2EF4
100
AcDbEntity
  8
V0-VYPLNE
  6
DASHED
 62
    52
100
AcDbLine
 10
-100.125832
 20
-450.673107
 30
0.0
 11
-85.55124499999999
 21
-450.673107
 31
0.0
  0
LINE
  5
223C
330
2EF4
100
AcDbEntity
  8
V0-VYPLNE
  6
DASHED
 62
    52
100
AcDbLine
 10
-100.125832
 20
-438.680138
 30
0.0
 11
-86.031404
 21
-438.680138
 31
0.0
  0
LINE
  5
223D
330
2EF4
100
AcDbEntity
  8
V0-VYPLNE
  6
DASHED
 62
    52
100
AcDbLine
 10
-100.125832
 20
-427.16689
 30
0.0
 11
-85.55124499999999
 21
-427.16689
 31
0.0
  0
LINE
  5
223E
330
2EF4
100
AcDbEntity
  8
V0-VYPLNE
  6
DASHED
 62
    52
100
AcDbLine
 10
-100.125832
 20
-415.65364
 30
0.0
 11
-86.031404
 21
-415.65364
 31
0.0
  0
LINE
  5
223F
330
2EF4
100
AcDbEntity
  8
V0-VYPLNE
  6
DASHED
 62
    52
100
AcDbLine
 10
-100.125832
 20
-398.827585
 30
0.0
 11
-86.031404
 21
-398.827585
 31
0.0
  0
LINE
  5
2240
330
2EF4
100
AcDbEntity
  8
V0-VYPLNE
  6
DASHED
 62
    52
100
AcDbLine
 10
-100.125832
 20
-387.314335
 30
0.0
 11
-85.55124499999999
 21
-387.314335
 31
0.0
  0
LINE
  5
2241
330
2EF4
100
AcDbEntity
  8
V0-VYPLNE
  6
DASHED
 62
    52
100
AcDbLine
 10
-100.125832
 20
-375.801087
 30
0.0
 11
-86.031404
 21
-375.801087
 31
0.0
  0
LINE
  5
2242
330
2EF4
100
AcDbEntity
  8
V0-VYPLNE
  6
DASHED
 62
    52
100
AcDbLine
 10
-100.125832
 20
-363.808119
 30
0.0
 11
-85.55124499999999
 21
-363.808119
 31
0.0
  0
LINE
  5
2243
330
2EF4
100
AcDbEntity
  8
V0-VYPLNE
  6
DASHED
 62
    52
100
AcDbLine
 10
-100.125832
 20
-350.240613
 30
0.0
 11
-90.55124499999999
 21
-350.240613
 31
0.0
  0
LINE
  5
2244
330
2EF4
100
AcDbEntity
  8
V0-VYPLNE
  6
DASHED
 62
    52
100
AcDbLine
 10
-100.125832
 20
-353.734024
 30
0.0
 11
-85.55124499999999
 21
-353.734024
 31
0.0
  0
LINE
  5
2245
330
2EF4
100
AcDbEntity
  8
V0-OBRYS
  6
CONTINUOUS
 62
    90
 48
2.0
100
AcDbLine
 10
-112.125832
 20
-407.240613
 30
0.0
 11
-112.125832
 21
-464.240613
 31
0.0
  0
LINE
  5
2246
330
2EF4
100
AcDbEntity
  8
V0-OBRYS
  6
CONTINUOUS
 62
    90
 48
2.0
100
AcDbLine
 10
-131.125832
 20
-407.240613
 30
0.0
 11
-131.125832
 21
-454.240613
 31
0.0
  0
LINE
  5
2247
330
2EF4
100
AcDbEntity
  8
V0-OBRYS
  6
CONTINUOUS
 62
    90
 48
2.0
100
AcDbLine
 10
-121.125832
 20
-464.240613
 30
0.0
 11
-100.125832
 21
-464.240613
 31
0.0
  0
LINE
  5
2248
330
2EF4
100
AcDbEntity
  8
V0-OBRYS
  6
CONTINUOUS
 62
    90
 48
2.0
100
AcDbLine
 10
-112.285624
 20
-460.747201
 30
0.0
 11
-100.125832
 21
-460.747201
 31
0.0
  0
LINE
  5
2249
330
2EF4
100
AcDbEntity
  8
V0-OBRYS
  6
CONTINUOUS
 62
    90
 48
2.0
100
AcDbLine
 10
-112.285624
 20
-438.680138
 30
0.0
 11
-100.125832
 21
-438.680138
 31
0.0
  0
LINE
  5
224A
330
2EF4
100
AcDbEntity
  8
V0-OBRYS
  6
CONTINUOUS
 62
    90
 48
2.0
100
AcDbLine
 10
-112.765788
 20
-427.16689
 30
0.0
 11
-109.884818
 21
-427.16689
 31
0.0
  0
LINE
  5
224B
330
2EF4
100
AcDbEntity
  8
V0-OBRYS
  6
CONTINUOUS
 62
    90
 48
2.0
100
AcDbLine
 10
-112.765788
 20
-415.65364
 30
0.0
 11
-100.125832
 21
-415.65364
 31
0.0
  0
LINE
  5
224C
330
2EF4
100
AcDbEntity
  8
V0-OBRYS
  6
CONTINUOUS
 62
    90
 48
2.0
100
AcDbLine
 10
-112.765788
 20
-450.673107
 30
0.0
 11
-100.125832
 21
-450.673107
 31
0.0
  0
LINE
  5
224D
330
2EF4
100
AcDbEntity
  8
V0-OBRYS
  6
CONTINUOUS
 62
    90
 48
2.0
100
AcDbLine
 10
-112.285624
 20
-460.747201
 30
0.0
 11
-131.011926
 21
-446.835359
 31
0.0
  0
LINE
  5
224E
330
2EF4
100
AcDbEntity
  8
V0-OBRYS
  6
CONTINUOUS
 62
    90
 48
2.0
100
AcDbLine
 10
-112.765788
 20
-450.673107
 30
0.0
 11
-130.531766
 21
-441.078733
 31
0.0
  0
ARC
  5
224F
330
2EF4
100
AcDbEntity
  8
V0-OBRYS
  6
CONTINUOUS
 62
    90
 48
2.0
100
AcDbCircle
 10
-121.125832
 20
-454.240613
 30
0.0
 40
10.0
100
AcDbArc
 50
180.0
 51
270.0
  0
LINE
  5
2250
330
2EF4
100
AcDbEntity
  8
V0-OBRYS
  6
CONTINUOUS
 62
    90
 48
2.0
100
AcDbLine
 10
-112.765788
 20
-427.16689
 30
0.0
 11
-131.011926
 21
-425.248014
 31
0.0
  0
LINE
  5
2251
330
2EF4
100
AcDbEntity
  8
V0-OBRYS
  6
CONTINUOUS
 62
    90
 48
2.0
100
AcDbLine
 10
-112.765788
 20
-415.65364
 30
0.0
 11
-131.011926
 21
-415.173922
 31
0.0
  0
LINE
  5
2252
330
2EF4
100
AcDbEntity
  8
V0-OBRYS
  6
CONTINUOUS
 62
    90
 48
2.0
100
AcDbLine
 10
-112.285624
 20
-438.680138
 30
0.0
 11
-131.49209
 21
-434.36267
 31
0.0
  0
ARC
  5
2253
330
2EF4
100
AcDbEntity
  8
V0-OBRYS
  6
CONTINUOUS
 62
    90
 48
2.0
100
AcDbCircle
 10
-104.92042
 20
-478.492137
 30
0.0
 40
5.0
100
AcDbArc
 50
109.78203
 51
180.0
  0
ARC
  5
2254
330
2EF4
100
AcDbEntity
  8
V0-OBRYS
  6
CONTINUOUS
 62
    90
 48
2.0
100
AcDbCircle
 10
-105.125832
 20
-467.938877
 30
0.0
 40
6.561501
100
AcDbArc
 50
289.78203
 51
319.642674
  0
ARC
  5
2255
330
2EF4
100
AcDbEntity
  8
V0-OBRYS
  6
CONTINUOUS
 62
    90
 48
2.0
100
AcDbCircle
 10
-105.125832
 20
-467.938877
 30
0.0
 40
5.0
100
AcDbArc
 50
289.78203
 51
0.0
  0
LINE
  5
2256
330
2EF4
100
AcDbEntity
  8
V0-OBRYS
  6
CONTINUOUS
 62
    90
 48
2.0
100
AcDbLine
 10
-106.612634
 20
-473.787202
 30
0.0
 11
-103.433618
 21
-472.643812
 31
0.0
  0
ARC
  5
2257
330
2EF4
100
AcDbEntity
  8
V0-OBRYS
  6
CONTINUOUS
 62
    90
 48
2.0
100
AcDbCircle
 10
-104.92042
 20
-478.492137
 30
0.0
 40
3.438499
100
AcDbArc
 50
109.78203
 51
180.0
  0
LINE
  5
2258
330
2EF4
100
AcDbEntity
  8
V0-OBRYS
  6
CONTINUOUS
 62
    90
 48
2.0
100
AcDbLine
 10
-106.084155
 20
-475.256554
 30
0.0
 11
-102.90514
 21
-474.113164
 31
0.0
  0
LINE
  5
2259
330
2EF4
100
AcDbEntity
  8
V0-OBRYS
  6
CONTINUOUS
 62
    90
 48
2.0
100
AcDbLine
 10
-109.884818
 20
-427.16689
 30
0.0
 11
-100.125832
 21
-427.16689
 31
0.0
  0
LINE
  5
225A
330
2EF4
100
AcDbEntity
  8
V0-OBRYS
  6
CONTINUOUS
 62
    90
 48
2.0
100
AcDbLine
 10
-112.765788
 20
-363.808119
 30
0.0
 11
-100.125832
 21
-363.808119
 31
0.0
  0
LINE
  5
225B
330
2EF4
100
AcDbEntity
  8
V0-OBRYS
  6
CONTINUOUS
 62
    90
 48
2.0
100
AcDbLine
 10
-112.765788
 20
-398.827585
 30
0.0
 11
-100.125832
 21
-398.827585
 31
0.0
  0
LINE
  5
225C
330
2EF4
100
AcDbEntity
  8
V0-OBRYS
  6
CONTINUOUS
 62
    90
 48
2.0
100
AcDbLine
 10
-112.765788
 20
-387.314335
 30
0.0
 11
-109.884818
 21
-387.314335
 31
0.0
  0
LINE
  5
225D
330
2EF4
100
AcDbEntity
  8
V0-OBRYS
  6
CONTINUOUS
 62
    90
 48
2.0
100
AcDbLine
 10
-112.285624
 20
-375.801087
 30
0.0
 11
-100.125832
 21
-375.801087
 31
0.0
  0
LINE
  5
225E
330
2EF4
100
AcDbEntity
  8
V0-OBRYS
  6
CONTINUOUS
 62
    90
 48
2.0
100
AcDbLine
 10
-112.285624
 20
-353.734024
 30
0.0
 11
-100.125832
 21
-353.734024
 31
0.0
  0
LINE
  5
225F
330
2EF4
100
AcDbEntity
  8
V0-OBRYS
  6
CONTINUOUS
 62
    90
 48
2.0
100
AcDbLine
 10
-121.125832
 20
-350.240613
 30
0.0
 11
-100.125832
 21
-350.240613
 31
0.0
  0
LINE
  5
2260
330
2EF4
100
AcDbEntity
  8
V0-OBRYS
  6
CONTINUOUS
 62
    90
 48
2.0
100
AcDbLine
 10
-112.285624
 20
-375.801087
 30
0.0
 11
-131.49209
 21
-380.118556
 31
0.0
  0
LINE
  5
2261
330
2EF4
100
AcDbEntity
  8
V0-OBRYS
  6
CONTINUOUS
 62
    90
 48
2.0
100
AcDbLine
 10
-131.125832
 20
-407.240613
 30
0.0
 11
-131.125832
 21
-360.240613
 31
0.0
  0
LINE
  5
2262
330
2EF4
100
AcDbEntity
  8
V0-OBRYS
  6
CONTINUOUS
 62
    90
 48
2.0
100
AcDbLine
 10
-112.125832
 20
-407.240613
 30
0.0
 11
-112.125832
 21
-350.240613
 31
0.0
  0
LINE
  5
2263
330
2EF4
100
AcDbEntity
  8
V0-OBRYS
  6
CONTINUOUS
 62
    90
 48
2.0
100
AcDbLine
 10
-112.765788
 20
-398.827585
 30
0.0
 11
-131.011926
 21
-399.307304
 31
0.0
  0
LINE
  5
2264
330
2EF4
100
AcDbEntity
  8
V0-OBRYS
  6
CONTINUOUS
 62
    90
 48
2.0
100
AcDbLine
 10
-112.765788
 20
-387.314335
 30
0.0
 11
-131.011926
 21
-389.233211
 31
0.0
  0
LINE
  5
2265
330
2EF4
100
AcDbEntity
  8
V0-OBRYS
  6
CONTINUOUS
 62
    90
 48
2.0
100
AcDbLine
 10
-112.765788
 20
-363.808119
 30
0.0
 11
-130.531766
 21
-373.402493
 31
0.0
  0
LINE
  5
2266
330
2EF4
100
AcDbEntity
  8
V0-OBRYS
  6
CONTINUOUS
 62
    90
 48
2.0
100
AcDbLine
 10
-112.285624
 20
-353.734024
 30
0.0
 11
-131.011926
 21
-367.645867
 31
0.0
  0
ARC
  5
2267
330
2EF4
100
AcDbEntity
  8
V0-OBRYS
  6
CONTINUOUS
 62
    90
 48
2.0
100
AcDbCircle
 10
-121.125832
 20
-360.240613
 30
0.0
 40
10.0
100
AcDbArc
 50
90.0
 51
180.0
  0
LINE
  5
2268
330
2EF4
100
AcDbEntity
  8
V0-OBRYS
  6
CONTINUOUS
 62
    90
 48
2.0
100
AcDbLine
 10
-109.884818
 20
-387.314335
 30
0.0
 11
-100.125832
 21
-387.314335
 31
0.0
  0
ARC
  5
2269
330
2EF4
100
AcDbEntity
  8
V0-VYPLNE
  6
DASHED
 62
    52
100
AcDbCircle
 10
-702.33071
 20
-400.703514
 30
0.0
 40
667.236902
100
AcDbArc
 50
354.845307
 51
359.438649
  0
LINE
  5
226A
330
2EF4
100
AcDbEntity
  8
V0-VYPLNE
  6
DASHED
 62
    52
100
AcDbLine
 10
-85.55124499999999
 20
-459.240613
 30
0.0
 11
-85.55124499999999
 21
-407.240613
 31
0.0
  0
LINE
  5
226B
330
2EF4
100
AcDbEntity
  8
V0-VYPLNE
  6
DASHED
 62
    52
100
AcDbLine
 10
-83.125832
 20
-407.240613
 30
0.0
 11
-83.125832
 21
-464.240613
 31
0.0
  0
LINE
  5
226C
330
2EF4
100
AcDbEntity
  8
V0-VYPLNE
  6
DASHED
 62
    52
100
AcDbLine
 10
-60.625832
 20
-467.098239
 30
0.0
 11
-60.625832
 21
-407.240613
 31
0.0
  0
ARC
  5
226D
330
2EF4
100
AcDbEntity
  8
V0-VYPLNE
  6
DASHED
 62
    52
100
AcDbCircle
 10
-60.625832
 20
-377.090656
 30
0.0
 40
90.007583
100
AcDbArc
 50
255.523734
 51
282.123858
  0
LINE
  5
226E
330
2EF4
100
AcDbEntity
  8
V0-VYPLNE
  6
DASHED
 62
    52
 48
2.0
100
AcDbLine
 10
-79.30914199999999
 20
-465.06467
 30
0.0
 11
-83.150435
 21
-468.90242
 31
0.0
  0
ARC
  5
226F
330
2EF4
100
AcDbEntity
  8
V0-VYPLNE
  6
DASHED
 62
    52
 48
2.0
100
AcDbCircle
 10
-90.55124499999999
 20
-459.240613
 30
0.0
 40
5.0
100
AcDbArc
 50
270.0
 51
0.0
  0
LINE
  5
2270
330
2EF4
100
AcDbEntity
  8
V0-VYPLNE
  6
DASHED
 62
    52
 48
2.0
100
AcDbLine
 10
-41.942523
 20
-465.06467
 30
0.0
 11
-38.10123
 21
-468.90242
 31
0.0
  0
ARC
  5
2271
330
2EF4
100
AcDbEntity
  8
V0-VYPLNE
  6
DASHED
 62
    52
100
AcDbCircle
 10
-42.772056
 20
-460.202218
 30
0.0
 40
5.0
100
AcDbArc
 50
282.123858
 51
354.845307
  0
CIRCLE
  5
2272
330
2EF4
100
AcDbEntity
  8
V0-VYPLNE
  6
DASHED
 62
    52
100
AcDbCircle
 10
-60.625832
 20
-407.440654
 30
0.0
 40
4.237611
  0
LINE
  5
2273
330
2EF4
100
AcDbEntity
  8
V0-VYPLNE
  6
DASHED
 62
    52
100
AcDbLine
 10
-82.728832
 20
-414.08498
 30
0.0
 11
-36.410806
 21
-400.161438
 31
0.0
  0
ARC
  5
2274
330
2EF4
100
AcDbEntity
  8
V0-VYPLNE
  6
DASHED
 62
    52
100
AcDbCircle
 10
-60.625832
 20
-437.390569
 30
0.0
 40
90.007583
100
AcDbArc
 50
77.876142
 51
104.476266
  0
LINE
  5
2275
330
2EF4
100
AcDbEntity
  8
V0-VYPLNE
  6
DASHED
 62
    52
100
AcDbLine
 10
-60.625832
 20
-347.382987
 30
0.0
 11
-60.625832
 21
-407.240613
 31
0.0
  0
LINE
  5
2276
330
2EF4
100
AcDbEntity
  8
V0-VYPLNE
  6
DASHED
 62
    52
100
AcDbLine
 10
-83.125832
 20
-407.240613
 30
0.0
 11
-83.125832
 21
-350.240613
 31
0.0
  0
LINE
  5
2277
330
2EF4
100
AcDbEntity
  8
V0-VYPLNE
  6
DASHED
 62
    52
100
AcDbLine
 10
-85.55124499999999
 20
-355.240613
 30
0.0
 11
-85.55124499999999
 21
-407.240613
 31
0.0
  0
ARC
  5
2278
330
2EF4
100
AcDbEntity
  8
V0-VYPLNE
  6
DASHED
 62
    52
 48
2.0
100
AcDbCircle
 10
-90.55124499999999
 20
-355.240613
 30
0.0
 40
5.0
100
AcDbArc
 50
0.0
 51
90.0
  0
LINE
  5
2279
330
2EF4
100
AcDbEntity
  8
V0-VYPLNE
  6
DASHED
 62
    52
 48
2.0
100
AcDbLine
 10
-79.30914199999999
 20
-349.416556
 30
0.0
 11
-83.150435
 21
-345.578806
 31
0.0
  0
ARC
  5
227A
330
2EF4
100
AcDbEntity
  8
V0-VYPLNE
  6
DASHED
 62
    52
100
AcDbCircle
 10
-702.33071
 20
-413.777712
 30
0.0
 40
667.236902
100
AcDbArc
 50
0.561351
 51
5.154693
  0
ARC
  5
227B
330
2EF4
100
AcDbEntity
  8
V0-VYPLNE
  6
DASHED
 62
    52
100
AcDbCircle
 10
-42.772056
 20
-354.279007
 30
0.0
 40
5.0
100
AcDbArc
 50
5.154693
 51
77.876142
  0
LINE
  5
227C
330
2EF4
100
AcDbEntity
  8
V0-VYPLNE
  6
DASHED
 62
    52
 48
2.0
100
AcDbLine
 10
-41.942523
 20
-349.416556
 30
0.0
 11
-38.10123
 21
-345.578806
 31
0.0
  0
LINE
  5
227D
330
2EF4
100
AcDbEntity
  8
V0-OBRYS
  6
CONTINUOUS
 62
    90
 48
2.0
100
AcDbLine
 10
-88.125832
 20
-249.740613
 30
0.0
 11
-100.125832
 21
-249.740613
 31
0.0
  0
ARC
  5
227E
330
2EF4
100
AcDbEntity
  8
V0-OBRYS
  6
CONTINUOUS
 62
    90
 48
2.0
100
AcDbCircle
 10
-107.818671
 20
-267.719582
 30
0.0
 40
6.259529
100
AcDbArc
 50
283.033261
 51
347.784984
  0
ARC
  5
227F
330
2EF4
100
AcDbEntity
  8
V0-OBRYS
  6
CONTINUOUS
 62
    90
 48
2.0
100
AcDbCircle
 10
-107.809946
 20
-267.758669
 30
0.0
 40
7.777532
100
AcDbArc
 50
283.890847
 51
350.487695
  0
ARC
  5
2280
330
2EF4
100
AcDbEntity
  8
V0-OBRYS
  6
CONTINUOUS
 62
    90
 48
2.0
100
AcDbCircle
 10
-104.92042
 20
-278.591744
 30
0.0
 40
5.0
100
AcDbArc
 50
107.296981
 51
180.0
  0
LINE
  5
2281
330
2EF4
100
AcDbEntity
  8
V0-OBRYS
  6
CONTINUOUS
 62
    90
 48
2.0
100
AcDbLine
 10
-108.358919
 20
-278.591744
 30
0.0
 11
-108.358919
 21
-335.989089
 31
0.0
  0
LINE
  5
2282
330
2EF4
100
AcDbEntity
  8
V0-OBRYS
  6
CONTINUOUS
 62
    90
 48
2.0
100
AcDbLine
 10
-109.92042
 20
-278.591744
 30
0.0
 11
-109.92042
 21
-335.989089
 31
0.0
  0
CIRCLE
  5
2283
330
2EF4
100
AcDbEntity
  8
V0-OBRYS
  6
CONTINUOUS
 62
    90
 48
2.0
100
AcDbCircle
 10
-111.4585
 20
-318.562094
 30
0.0
 40
1.608161
  0
CIRCLE
  5
2284
330
2EF4
100
AcDbEntity
  8
V0-OBRYS
  6
CONTINUOUS
 62
    90
 48
2.0
100
AcDbCircle
 10
-111.4585
 20
-330.562094
 30
0.0
 40
1.608161
  0
ARC
  5
2285
330
2EF4
100
AcDbEntity
  8
V0-OBRYS
  6
CONTINUOUS
 62
    90
 48
2.0
100
AcDbCircle
 10
-104.92042
 20
-335.989089
 30
0.0
 40
5.0
100
AcDbArc
 50
180.0
 51
250.21797
  0
ARC
  5
2286
330
2EF4
100
AcDbEntity
  8
V0-OBRYS
  6
CONTINUOUS
 62
    90
 48
2.0
100
AcDbCircle
 10
-105.125832
 20
-346.542348
 30
0.0
 40
6.561501
100
AcDbArc
 50
40.357326
 51
70.21796999999999
  0
LINE
  5
2287
330
2EF4
100
AcDbEntity
  8
V0-OBRYS
  6
CONTINUOUS
 62
    90
 48
2.0
100
AcDbLine
 10
-106.084155
 20
-339.224672
 30
0.0
 11
-102.90514
 21
-340.368062
 31
0.0
  0
ARC
  5
2288
330
2EF4
100
AcDbEntity
  8
V0-OBRYS
  6
CONTINUOUS
 62
    90
 48
2.0
100
AcDbCircle
 10
-104.92042
 20
-335.989089
 30
0.0
 40
3.438499
100
AcDbArc
 50
180.0
 51
250.21797
  0
LINE
  5
2289
330
2EF4
100
AcDbEntity
  8
V0-OBRYS
  6
CONTINUOUS
 62
    90
 48
2.0
100
AcDbLine
 10
-106.612634
 20
-340.694024
 30
0.0
 11
-103.433618
 21
-341.837414
 31
0.0
  0
CIRCLE
  5
228A
330
2EF4
100
AcDbEntity
  8
V0-OBRYS
  6
CONTINUOUS
 62
    90
 48
2.0
100
AcDbCircle
 10
-111.4585
 20
-282.562094
 30
0.0
 40
1.608161
  0
CIRCLE
  5
228B
330
2EF4
100
AcDbEntity
  8
V0-OBRYS
  6
CONTINUOUS
 62
    90
 48
2.0
100
AcDbCircle
 10
-111.4585
 20
-294.562094
 30
0.0
 40
1.608161
  0
CIRCLE
  5
228C
330
2EF4
100
AcDbEntity
  8
V0-OBRYS
  6
CONTINUOUS
 62
    90
 48
2.0
100
AcDbCircle
 10
-111.4585
 20
-306.562094
 30
0.0
 40
1.608161
  0
ARC
  5
228D
330
2EF4
100
AcDbEntity
  8
V0-OBRYS
  6
CONTINUOUS
 62
    90
 48
2.0
100
AcDbCircle
 10
-104.92042
 20
-278.591744
 30
0.0
 40
3.438499
100
AcDbArc
 50
107.296981
 51
180.0
  0
ARC
  5
228E
330
2EF4
100
AcDbEntity
  8
V0-OBRYS
  6
CONTINUOUS
 62
    90
 48
2.0
100
AcDbCircle
 10
-100.913343
 20
-259.715107
 30
0.0
 40
0.787511
100
AcDbArc
 50
0.0
 51
180.0
  0
LINE
  5
228F
330
2EF4
100
AcDbEntity
  8
V0-OBRYS
  6
CONTINUOUS
 62
    90
 48
2.0
100
AcDbLine
 10
-101.700854
 20
-259.715107
 30
0.0
 11
-101.700854
 21
-269.043979
 31
0.0
  0
ARC
  5
2290
330
2EF4
100
AcDbEntity
  8
V0-OBRYS
  6
CONTINUOUS
 62
    90
 48
2.0
100
AcDbCircle
 10
-67.748205
 20
-265.240613
 30
0.0
 40
15.0
100
AcDbArc
 50
210.579201
 51
270.0
  0
LINE
  5
2291
330
2EF4
100
AcDbEntity
  8
V0-VYPLNE
  6
DASHED
 62
    52
100
AcDbLine
 10
-48.184622
 20
-282.255932
 30
0.0
 11
-60.625832
 21
-282.255932
 31
0.0
  0
LINE
  5
2292
330
2EF4
100
AcDbEntity
  8
V0-OBRYS
  6
CONTINUOUS
 62
    90
 48
2.0
100
AcDbLine
 10
-35.125832
 20
-280.240613
 30
0.0
 11
-67.748205
 21
-280.240613
 31
0.0
  0
LINE
  5
2293
330
2EF4
100
AcDbEntity
  8
V0-VYPLNE
  6
DASHED
 62
    52
100
AcDbLine
 10
-73.067042
 20
-282.255932
 30
0.0
 11
-60.625832
 21
-282.255932
 31
0.0
  0
LINE
  5
2294
330
2EF4
100
AcDbEntity
  8
V0-OBRYS
  6
CONTINUOUS
 62
    90
 48
2.0
100
AcDbLine
 10
-88.125832
 20
-260.240613
 30
0.0
 11
-80.66210599999999
 21
-272.871547
 31
0.0
  0
ARC
  5
2298
330
2EF4
100
AcDbEntity
  8
V0-OBRYS
  6
CONTINUOUS
 62
    90
100
AcDbCircle
 10
366.874168
 20
89.37358500000001
 30
0.0
 40
47.010931
100
AcDbArc
 50
148.716649
 51
211.283351
  0
CIRCLE
  5
2299
330
2EF4
100
AcDbEntity
  8
V0-OBRYS
  6
CONTINUOUS
 62
    90
100
AcDbCircle
 10
366.874168
 20
89.37358500000001
 30
0.0
 40
67.10745
  0
CIRCLE
  5
229A
330
2EF4
100
AcDbEntity
  8
V0-OBRYS
  6
CONTINUOUS
 62
    90
100
AcDbCircle
 10
366.874168
 20
89.37358500000001
 30
0.0
 40
84.76802600000001
  0
CIRCLE
  5
229B
330
2EF4
100
AcDbEntity
  8
V0-OBRYS
  6
CONTINUOUS
 62
    90
100
AcDbCircle
 10
366.874168
 20
89.37358500000001
 30
0.0
 40
103.037588
  0
CIRCLE
  5
229C
330
2EF4
100
AcDbEntity
  8
V0-OBRYS
  6
CONTINUOUS
 62
    90
100
AcDbCircle
 10
366.874168
 20
89.37358500000001
 30
0.0
 40
121.916138
  0
CIRCLE
  5
229D
330
2EF4
100
AcDbEntity
  8
V0-OBRYS
  6
CONTINUOUS
 62
    90
100
AcDbCircle
 10
366.874168
 20
89.37358500000001
 30
0.0
 40
138.358744
  0
CIRCLE
  5
229E
330
2EF4
100
AcDbEntity
  8
V0-OBRYS
  6
CONTINUOUS
 62
    90
100
AcDbCircle
 10
366.874168
 20
89.37358500000001
 30
0.0
 40
136.797244
  0
CIRCLE
  5
229F
330
2EF4
100
AcDbEntity
  8
V0-OBRYS
  6
CONTINUOUS
 62
    90
100
AcDbCircle
 10
366.874168
 20
89.37358500000001
 30
0.0
 40
120.354637
  0
CIRCLE
  5
22A0
330
2EF4
100
AcDbEntity
  8
V0-OBRYS
  6
CONTINUOUS
 62
    90
100
AcDbCircle
 10
366.874168
 20
89.37358500000001
 30
0.0
 40
101.476088
  0
CIRCLE
  5
22A1
330
2EF4
100
AcDbEntity
  8
V0-OBRYS
  6
CONTINUOUS
 62
    90
100
AcDbCircle
 10
366.874168
 20
89.37358500000001
 30
0.0
 40
83.206525
  0
CIRCLE
  5
22A2
330
2EF4
100
AcDbEntity
  8
V0-OBRYS
  6
CONTINUOUS
 62
    90
100
AcDbCircle
 10
366.874168
 20
89.37358500000001
 30
0.0
 40
65.54594899999999
  0
ARC
  5
22A3
330
2EF4
100
AcDbEntity
  8
V0-OBRYS
  6
CONTINUOUS
 62
    90
100
AcDbCircle
 10
366.874168
 20
89.37358500000001
 30
0.0
 40
47.010931
100
AcDbArc
 50
58.71664899999999
 51
121.283351
  0
ARC
  5
22A4
330
2EF4
100
AcDbEntity
  8
V0-OBRYS
  6
CONTINUOUS
 62
    90
100
AcDbCircle
 10
366.874168
 20
89.37358500000001
 30
0.0
 40
47.010931
100
AcDbArc
 50
328.716649
 51
31.283351
  0
ARC
  5
22A5
330
2EF4
100
AcDbEntity
  8
V0-OBRYS
  6
CONTINUOUS
 62
    90
100
AcDbCircle
 10
366.874168
 20
89.37358500000001
 30
0.0
 40
47.010931
100
AcDbArc
 50
238.716649
 51
301.283351
  0
LINE
  5
2308
330
2EF4
100
AcDbEntity
  8
V0-OBRYS
  6
CONTINUOUS
 62
    90
100
AcDbLine
 10
349.158009
 20
213.111767
 30
0.0
 11
348.95874
 21
209.966213
 31
0.0
  0
LINE
  5
2309
330
2EF4
100
AcDbEntity
  8
V0-OBRYS
  6
CONTINUOUS
 62
    90
100
AcDbLine
 10
344.370996
 20
137.546715
 30
0.0
 11
349.758175
 21
133.958574
 31
0.0
  0
LINE
  5
230A
330
2EF4
100
AcDbEntity
  8
V0-OBRYS
  6
CONTINUOUS
 62
    90
100
AcDbLine
 10
348.857754
 20
208.372104
 30
0.0
 11
347.733017
 21
190.617651
 31
0.0
  0
LINE
  5
230B
330
2EF4
100
AcDbEntity
  8
V0-OBRYS
  6
CONTINUOUS
 62
    90
100
AcDbLine
 10
345.238834
 20
151.245903
 30
0.0
 11
344.370996
 21
137.546715
 31
0.0
  0
LINE
  5
230C
330
2EF4
100
AcDbEntity
  8
V0-OBRYS
  6
CONTINUOUS
 62
    90
100
AcDbLine
 10
346.42874
 20
170.029089
 30
0.0
 11
345.34578
 21
152.934094
 31
0.0
  0
LINE
  5
230D
330
2EF4
100
AcDbEntity
  8
V0-OBRYS
  6
CONTINUOUS
 62
    90
100
AcDbLine
 10
347.631073
 20
189.008416
 30
0.0
 11
346.532356
 21
171.664707
 31
0.0
  0
LINE
  5
230F
330
2EF4
100
AcDbEntity
  8
V0-OBRYS
  6
CONTINUOUS
 62
    90
100
AcDbLine
 10
384.590326
 20
213.111767
 30
0.0
 11
384.789595
 21
209.966213
 31
0.0
  0
LINE
  5
2310
330
2EF4
100
AcDbEntity
  8
V0-OBRYS
  6
CONTINUOUS
 62
    90
100
AcDbLine
 10
384.890582
 20
208.372104
 30
0.0
 11
386.015318
 21
190.617651
 31
0.0
  0
LINE
  5
2311
330
2EF4
100
AcDbEntity
  8
V0-OBRYS
  6
CONTINUOUS
 62
    90
100
AcDbLine
 10
386.117263
 20
189.008416
 30
0.0
 11
387.215979
 21
171.664707
 31
0.0
  0
LINE
  5
2312
330
2EF4
100
AcDbEntity
  8
V0-OBRYS
  6
CONTINUOUS
 62
    90
100
AcDbLine
 10
387.319595
 20
170.029089
 30
0.0
 11
388.402555
 21
152.934094
 31
0.0
  0
LINE
  5
2313
330
2EF4
100
AcDbEntity
  8
V0-OBRYS
  6
CONTINUOUS
 62
    90
100
AcDbLine
 10
389.377339
 20
137.546715
 30
0.0
 11
383.990161
 21
133.958574
 31
0.0
  0
LINE
  5
2314
330
2EF4
100
AcDbEntity
  8
V0-OBRYS
  6
CONTINUOUS
 62
    90
100
AcDbLine
 10
388.509501
 20
151.245903
 30
0.0
 11
389.377339
 21
137.546715
 31
0.0
  0
LINE
  5
2316
330
2EF4
100
AcDbEntity
  8
V0-OBRYS
  6
CONTINUOUS
 62
    90
100
AcDbLine
 10
315.1804
 20
101.815352
 30
0.0
 11
321.344572
 21
103.790049
 31
0.0
  0
LINE
  5
2317
330
2EF4
100
AcDbEntity
  8
V0-OBRYS
  6
CONTINUOUS
 62
    90
100
AcDbLine
 10
305.011031
 20
111.035159
 30
0.0
 11
315.1804
 21
101.815352
 31
0.0
  0
LINE
  5
2318
330
2EF4
100
AcDbEntity
  8
V0-OBRYS
  6
CONTINUOUS
 62
    90
100
AcDbLine
 10
259.085917
 20
152.672029
 30
0.0
 11
261.420968
 21
150.555013
 31
0.0
  0
LINE
  5
2319
330
2EF4
100
AcDbEntity
  8
V0-OBRYS
  6
CONTINUOUS
 62
    90
100
AcDbLine
 10
276.978646
 20
136.450028
 30
0.0
 11
289.853465
 21
124.777392
 31
0.0
  0
LINE
  5
231A
330
2EF4
100
AcDbEntity
  8
V0-OBRYS
  6
CONTINUOUS
 62
    90
100
AcDbLine
 10
291.06764
 20
123.67659
 30
0.0
 11
303.75783
 21
112.171343
 31
0.0
  0
LINE
  5
231B
330
2EF4
100
AcDbEntity
  8
V0-OBRYS
  6
CONTINUOUS
 62
    90
100
AcDbLine
 10
262.604329
 20
149.482148
 30
0.0
 11
275.784057
 21
137.533073
 31
0.0
  0
LINE
  5
231D
330
2EF4
100
AcDbEntity
  8
V0-OBRYS
  6
CONTINUOUS
 62
    90
100
AcDbLine
 10
343.241396
 20
137.002728
 30
0.0
 11
342.687866
 21
130.553693
 31
0.0
  0
LINE
  5
231E
330
2EF4
100
AcDbEntity
  8
V0-OBRYS
  6
CONTINUOUS
 62
    90
100
AcDbLine
 10
331.989851
 20
144.865529
 30
0.0
 11
343.241396
 21
137.002728
 31
0.0
  0
LINE
  5
231F
330
2EF4
100
AcDbEntity
  8
V0-OBRYS
  6
CONTINUOUS
 62
    90
100
AcDbLine
 10
281.177605
 20
180.37413
 30
0.0
 11
283.761141
 21
178.568704
 31
0.0
  0
LINE
  5
2320
330
2EF4
100
AcDbEntity
  8
V0-OBRYS
  6
CONTINUOUS
 62
    90
100
AcDbLine
 10
300.974393
 20
166.539744
 30
0.0
 11
315.219289
 21
156.585129
 31
0.0
  0
LINE
  5
2321
330
2EF4
100
AcDbEntity
  8
V0-OBRYS
  6
CONTINUOUS
 62
    90
100
AcDbLine
 10
316.562671
 20
155.646347
 30
0.0
 11
330.603291
 21
145.834485
 31
0.0
  0
LINE
  5
2322
330
2EF4
100
AcDbEntity
  8
V0-OBRYS
  6
CONTINUOUS
 62
    90
100
AcDbLine
 10
285.07043
 20
177.653747
 30
0.0
 11
299.652682
 21
167.463382
 31
0.0
  0
LINE
  5
2324
330
2EF4
100
AcDbEntity
  8
V0-OBRYS
  6
CONTINUOUS
 62
    90
100
AcDbLine
 10
324.916265
 20
56.715085
 30
0.0
 11
327.215683
 21
62.765632
 31
0.0
  0
LINE
  5
2325
330
2EF4
100
AcDbEntity
  8
V0-OBRYS
  6
CONTINUOUS
 62
    90
100
AcDbLine
 10
311.367432
 20
54.512808
 30
0.0
 11
324.916265
 21
56.715085
 31
0.0
  0
LINE
  5
2326
330
2EF4
100
AcDbEntity
  8
V0-OBRYS
  6
CONTINUOUS
 62
    90
100
AcDbLine
 10
250.180576
 20
44.567271
 30
0.0
 11
253.291606
 21
45.07295
 31
0.0
  0
LINE
  5
2327
330
2EF4
100
AcDbEntity
  8
V0-OBRYS
  6
CONTINUOUS
 62
    90
100
AcDbLine
 10
274.019381
 20
48.442118
 30
0.0
 11
291.172734
 21
51.230287
 31
0.0
  0
LINE
  5
2328
330
2EF4
100
AcDbEntity
  8
V0-OBRYS
  6
CONTINUOUS
 62
    90
100
AcDbLine
 10
292.790401
 20
51.493229
 30
0.0
 11
309.69777
 21
54.241415
 31
0.0
  0
LINE
  5
2329
330
2EF4
100
AcDbEntity
  8
V0-OBRYS
  6
CONTINUOUS
 62
    90
100
AcDbLine
 10
254.868219
 20
45.329218
 30
0.0
 11
272.427808
 21
48.183418
 31
0.0
  0
LINE
  5
232B
330
2EF4
100
AcDbEntity
  8
V0-OBRYS
  6
CONTINUOUS
 62
    90
100
AcDbLine
 10
314.901412
 20
100.593025
 30
0.0
 11
319.59835
 21
96.13934999999999
 31
0.0
  0
LINE
  5
232C
330
2EF4
100
AcDbEntity
  8
V0-OBRYS
  6
CONTINUOUS
 62
    90
100
AcDbLine
 10
301.738803
 20
96.698589
 30
0.0
 11
314.901412
 21
100.593025
 31
0.0
  0
LINE
  5
232D
330
2EF4
100
AcDbEntity
  8
V0-OBRYS
  6
CONTINUOUS
 62
    90
100
AcDbLine
 10
242.296144
 20
79.111226
 30
0.0
 11
245.31849
 21
80.00545099999999
 31
0.0
  0
LINE
  5
232E
330
2EF4
100
AcDbEntity
  8
V0-OBRYS
  6
CONTINUOUS
 62
    90
100
AcDbLine
 10
265.455398
 20
85.963379
 30
0.0
 11
282.119776
 21
90.89388700000001
 31
0.0
  0
LINE
  5
232F
330
2EF4
100
AcDbEntity
  8
V0-OBRYS
  6
CONTINUOUS
 62
    90
100
AcDbLine
 10
283.69133
 20
91.358864
 30
0.0
 11
300.116736
 21
96.218667
 31
0.0
  0
LINE
  5
2330
330
2EF4
100
AcDbEntity
  8
V0-OBRYS
  6
CONTINUOUS
 62
    90
100
AcDbLine
 10
246.850161
 20
80.458628
 30
0.0
 11
263.909195
 21
85.505903
 31
0.0
  0
LINE
  5
2332
330
2EF4
100
AcDbEntity
  8
V0-OBRYS
  6
CONTINUOUS
 62
    90
100
AcDbLine
 10
366.247287
 20
36.207334
 30
0.0
 11
362.950442
 21
41.777546
 31
0.0
  0
LINE
  5
2333
330
2EF4
100
AcDbEntity
  8
V0-OBRYS
  6
CONTINUOUS
 62
    90
100
AcDbLine
 10
359.521537
 20
24.241333
 30
0.0
 11
366.247287
 21
36.207334
 31
0.0
  0
LINE
  5
2335
330
2EF4
100
AcDbEntity
  8
V0-OBRYS
  6
CONTINUOUS
 62
    90
100
AcDbLine
 10
340.981664
 20
-8.743563
 30
0.0
 11
349.496727
 21
6.405863999999999
 31
0.0
  0
LINE
  5
2336
330
2EF4
100
AcDbEntity
  8
V0-OBRYS
  6
CONTINUOUS
 62
    90
100
AcDbLine
 10
350.299749
 20
7.834548
 30
0.0
 11
358.692703
 21
22.766727
 31
0.0
  0
LINE
  5
2337
330
2EF4
100
AcDbEntity
  8
V0-OBRYS
  6
CONTINUOUS
 62
    90
100
AcDbLine
 10
329.14789
 20
-29.797418
 30
0.0
 11
330.69223
 21
-27.049832
 31
0.0
  0
LINE
  5
2339
330
2EF4
100
AcDbEntity
  8
V0-OBRYS
  6
CONTINUOUS
 62
    90
100
AcDbLine
 10
325.697973
 20
55.734854
 30
0.0
 11
332.108489
 21
56.630248
 31
0.0
  0
LINE
  5
233A
330
2EF4
100
AcDbEntity
  8
V0-OBRYS
  6
CONTINUOUS
 62
    90
100
AcDbLine
 10
320.536013
 20
43.015772
 30
0.0
 11
325.697973
 21
55.734854
 31
0.0
  0
LINE
  5
233B
330
2EF4
100
AcDbEntity
  8
V0-OBRYS
  6
CONTINUOUS
 62
    90
100
AcDbLine
 10
297.224475
 20
-14.423912
 30
0.0
 11
298.409744
 21
-11.503407
 31
0.0
  0
LINE
  5
233C
330
2EF4
100
AcDbEntity
  8
V0-OBRYS
  6
CONTINUOUS
 62
    90
100
AcDbLine
 10
306.306805
 20
7.954969
 30
0.0
 11
312.842049
 21
24.057826
 31
0.0
  0
LINE
  5
233D
330
2EF4
100
AcDbEntity
  8
V0-OBRYS
  6
CONTINUOUS
 62
    90
100
AcDbLine
 10
313.458363
 20
25.576425
 30
0.0
 11
319.899889
 21
41.448362
 31
0.0
  0
LINE
  5
233E
330
2EF4
100
AcDbEntity
  8
V0-OBRYS
  6
CONTINUOUS
 62
    90
100
AcDbLine
 10
299.010417
 20
-10.023347
 30
0.0
 11
305.700433
 21
6.460867000000002
 31
0.0
  0
LINE
  5
2340
330
2EF4
100
AcDbEntity
  8
V0-OBRYS
  6
CONTINUOUS
 62
    90
100
AcDbLine
 10
408.050362
 20
55.734854
 30
0.0
 11
401.639846
 21
56.630248
 31
0.0
  0
LINE
  5
2341
330
2EF4
100
AcDbEntity
  8
V0-OBRYS
  6
CONTINUOUS
 62
    90
100
AcDbLine
 10
413.212323
 20
43.015772
 30
0.0
 11
408.050362
 21
55.734854
 31
0.0
  0
LINE
  5
2342
330
2EF4
100
AcDbEntity
  8
V0-OBRYS
  6
CONTINUOUS
 62
    90
100
AcDbLine
 10
436.52386
 20
-14.423912
 30
0.0
 11
435.338591
 21
-11.503407
 31
0.0
  0
LINE
  5
2343
330
2EF4
100
AcDbEntity
  8
V0-OBRYS
  6
CONTINUOUS
 62
    90
100
AcDbLine
 10
427.441531
 20
7.954969
 30
0.0
 11
420.906287
 21
24.057826
 31
0.0
  0
LINE
  5
2344
330
2EF4
100
AcDbEntity
  8
V0-OBRYS
  6
CONTINUOUS
 62
    90
100
AcDbLine
 10
420.289973
 20
25.576425
 30
0.0
 11
413.848446
 21
41.448362
 31
0.0
  0
LINE
  5
2345
330
2EF4
100
AcDbEntity
  8
V0-OBRYS
  6
CONTINUOUS
 62
    90
100
AcDbLine
 10
434.737918
 20
-10.023347
 30
0.0
 11
428.047903
 21
6.460867000000002
 31
0.0
  0
LINE
  5
2347
330
2EF4
100
AcDbEntity
  8
V0-OBRYS
  6
CONTINUOUS
 62
    90
100
AcDbLine
 10
367.501049
 20
36.207334
 30
0.0
 11
370.797893
 21
41.777546
 31
0.0
  0
LINE
  5
2348
330
2EF4
100
AcDbEntity
  8
V0-OBRYS
  6
CONTINUOUS
 62
    90
100
AcDbLine
 10
374.226798
 20
24.241333
 30
0.0
 11
367.501049
 21
36.207334
 31
0.0
  0
LINE
  5
2349
330
2EF4
100
AcDbEntity
  8
V0-OBRYS
  6
CONTINUOUS
 62
    90
100
AcDbLine
 10
404.600446
 20
-29.797418
 30
0.0
 11
403.056106
 21
-27.049832
 31
0.0
  0
LINE
  5
234A
330
2EF4
100
AcDbEntity
  8
V0-OBRYS
  6
CONTINUOUS
 62
    90
100
AcDbLine
 10
392.766671
 20
-8.743563
 30
0.0
 11
384.251609
 21
6.405863999999999
 31
0.0
  0
LINE
  5
234B
330
2EF4
100
AcDbEntity
  8
V0-OBRYS
  6
CONTINUOUS
 62
    90
100
AcDbLine
 10
383.448586
 20
7.834548
 30
0.0
 11
375.055632
 21
22.766727
 31
0.0
  0
LINE
  5
234C
330
2EF4
100
AcDbEntity
  8
V0-OBRYS
  6
CONTINUOUS
 62
    90
100
AcDbLine
 10
402.273462
 20
-25.657405
 30
0.0
 11
393.556741
 21
-10.149201
 31
0.0
  0
LINE
  5
234E
330
2EF4
100
AcDbEntity
  8
V0-OBRYS
  6
CONTINUOUS
 62
    90
100
AcDbLine
 10
418.846924
 20
100.593025
 30
0.0
 11
414.149985
 21
96.13934999999999
 31
0.0
  0
LINE
  5
234F
330
2EF4
100
AcDbEntity
  8
V0-OBRYS
  6
CONTINUOUS
 62
    90
100
AcDbLine
 10
432.009532
 20
96.698589
 30
0.0
 11
418.846924
 21
100.593025
 31
0.0
  0
LINE
  5
2351
330
2EF4
100
AcDbEntity
  8
V0-OBRYS
  6
CONTINUOUS
 62
    90
100
AcDbLine
 10
468.292938
 20
85.963379
 30
0.0
 11
451.628559
 21
90.89388700000001
 31
0.0
  0
LINE
  5
2352
330
2EF4
100
AcDbEntity
  8
V0-OBRYS
  6
CONTINUOUS
 62
    90
100
AcDbLine
 10
450.057005
 20
91.358864
 30
0.0
 11
433.631599
 21
96.218667
 31
0.0
  0
LINE
  5
2353
330
2EF4
100
AcDbEntity
  8
V0-OBRYS
  6
CONTINUOUS
 62
    90
100
AcDbLine
 10
491.452191
 20
79.111226
 30
0.0
 11
488.429845
 21
80.00545099999999
 31
0.0
  0
LINE
  5
2355
330
2EF4
100
AcDbEntity
  8
V0-OBRYS
  6
CONTINUOUS
 62
    90
100
AcDbLine
 10
408.83207
 20
56.715085
 30
0.0
 11
406.532652
 21
62.765632
 31
0.0
  0
LINE
  5
2356
330
2EF4
100
AcDbEntity
  8
V0-OBRYS
  6
CONTINUOUS
 62
    90
100
AcDbLine
 10
422.380903
 20
54.512808
 30
0.0
 11
408.83207
 21
56.715085
 31
0.0
  0
LINE
  5
2357
330
2EF4
100
AcDbEntity
  8
V0-OBRYS
  6
CONTINUOUS
 62
    90
100
AcDbLine
 10
483.567759
 20
44.567271
 30
0.0
 11
480.45673
 21
45.07295
 31
0.0
  0
LINE
  5
2358
330
2EF4
100
AcDbEntity
  8
V0-OBRYS
  6
CONTINUOUS
 62
    90
100
AcDbLine
 10
459.728955
 20
48.442118
 30
0.0
 11
442.575601
 21
51.230287
 31
0.0
  0
LINE
  5
2359
330
2EF4
100
AcDbEntity
  8
V0-OBRYS
  6
CONTINUOUS
 62
    90
100
AcDbLine
 10
440.957934
 20
51.493229
 30
0.0
 11
424.050565
 21
54.241415
 31
0.0
  0
LINE
  5
235A
330
2EF4
100
AcDbEntity
  8
V0-OBRYS
  6
CONTINUOUS
 62
    90
100
AcDbLine
 10
478.880116
 20
45.329218
 30
0.0
 11
461.320527
 21
48.183418
 31
0.0
  0
LINE
  5
235C
330
2EF4
100
AcDbEntity
  8
V0-OBRYS
  6
CONTINUOUS
 62
    90
100
AcDbLine
 10
390.50694
 20
137.002728
 30
0.0
 11
391.060469
 21
130.553693
 31
0.0
  0
LINE
  5
235D
330
2EF4
100
AcDbEntity
  8
V0-OBRYS
  6
CONTINUOUS
 62
    90
100
AcDbLine
 10
401.758484
 20
144.865529
 30
0.0
 11
390.50694
 21
137.002728
 31
0.0
  0
LINE
  5
235F
330
2EF4
100
AcDbEntity
  8
V0-OBRYS
  6
CONTINUOUS
 62
    90
100
AcDbLine
 10
432.773942
 20
166.539744
 30
0.0
 11
418.529046
 21
156.585129
 31
0.0
  0
LINE
  5
2360
330
2EF4
100
AcDbEntity
  8
V0-OBRYS
  6
CONTINUOUS
 62
    90
100
AcDbLine
 10
417.185665
 20
155.646347
 30
0.0
 11
403.145045
 21
145.834485
 31
0.0
  0
LINE
  5
2361
330
2EF4
100
AcDbEntity
  8
V0-OBRYS
  6
CONTINUOUS
 62
    90
100
AcDbLine
 10
452.57073
 20
180.37413
 30
0.0
 11
449.987195
 21
178.568704
 31
0.0
  0
LINE
  5
2363
330
2EF4
100
AcDbEntity
  8
V0-OBRYS
  6
CONTINUOUS
 62
    90
100
AcDbLine
 10
418.567935
 20
101.815352
 30
0.0
 11
412.403763
 21
103.790049
 31
0.0
  0
LINE
  5
2364
330
2EF4
100
AcDbEntity
  8
V0-OBRYS
  6
CONTINUOUS
 62
    90
100
AcDbLine
 10
428.737304
 20
111.035159
 30
0.0
 11
418.567935
 21
101.815352
 31
0.0
  0
LINE
  5
2366
330
2EF4
100
AcDbEntity
  8
V0-OBRYS
  6
CONTINUOUS
 62
    90
100
AcDbLine
 10
456.769689
 20
136.450028
 30
0.0
 11
443.89487
 21
124.777392
 31
0.0
  0
LINE
  5
2367
330
2EF4
100
AcDbEntity
  8
V0-OBRYS
  6
CONTINUOUS
 62
    90
100
AcDbLine
 10
442.680695
 20
123.67659
 30
0.0
 11
429.990505
 21
112.171343
 31
0.0
  0
LINE
  5
2368
330
2EF4
100
AcDbEntity
  8
V0-OBRYS
  6
CONTINUOUS
 62
    90
100
AcDbLine
 10
474.662418
 20
152.672029
 30
0.0
 11
472.327368
 21
150.555013
 31
0.0
  0
DIMENSION
  5
2375
330
2EF4
100
AcDbEntity
  8
V0-VYPLNE
  6
CONTINUOUS
 62
    41
100
AcDbDimension
  2
*D8
 10
8.343768000000011
 20
-37.626415
 30
0.0
 11
-3.656231999999989
 21
89.37358499999999
 31
0.0
 70
    32
  1
%%c250
  3
ED20
100
AcDbAlignedDimension
 13
-35.125832
 23
216.373585
 33
0.0
 14
-35.125832
 24
-37.626415
 34
0.0
 50
90.0
100
AcDbRotatedDimension
  0
DIMENSION
  5
2382
330
2EF4
100
AcDbEntity
  8
V0-VYPLNE
  6
CONTINUOUS
 62
    41
100
AcDbDimension
  2
*D9
 10
38.69935199999964
 20
-57.62641500000001
 30
0.0
 11
26.69935199999964
 21
89.37358499999999
 31
0.0
 70
    32
  1
%%c290
  3
ED20
100
AcDbAlignedDimension
 13
-88.125832
 23
236.373585
 33
0.0
 14
-88.125832
 24
-57.626415
 34
0.0
 50
90.0
100
AcDbRotatedDimension
  0
DIMENSION
  5
239C
330
2EF4
100
AcDbEntity
  8
V0-VYPLNE
  6
CONTINUOUS
 62
    41
100
AcDbDimension
  2
*D10
 10
524.294168
 20
-132.4842300000018
 30
0.0
 11
365.021851
 21
-132.48423
 31
0.0
 70
   160
  3
ED20
100
AcDbAlignedDimension
 13
209.454168
 23
-64.64641500000001
 33
0.0
 14
524.294168
 24
-64.64641500000001
 34
0.0
100
AcDbRotatedDimension
  0
CIRCLE
  5
23C2
330
2EF4
100
AcDbEntity
  8
V0-OBRYS
  6
CONTINUOUS
 62
    90
100
AcDbCircle
 10
497.014168
 20
-40.766415
 30
0.0
 40
5.58
  0
ARC
  5
23C3
330
2EF4
100
AcDbEntity
  8
V0-VYPLNE
100
AcDbCircle
 10
367.409077
 20
83.47554
 30
0.0
 40
181.579742
100
AcDbArc
 50
312.153029
 51
322.398921
  0
CIRCLE
  5
23C4
330
2EF4
100
AcDbEntity
  8
V0-OBRYS
  6
CONTINUOUS
 62
    90
100
AcDbCircle
 10
497.014168
 20
219.513585
 30
0.0
 40
5.58
  0
ARC
  5
23C5
330
2EF4
100
AcDbEntity
  8
V0-VYPLNE
100
AcDbCircle
 10
372.772212
 20
89.90849400000001
 30
0.0
 40
181.579742
100
AcDbArc
 50
42.153029
 51
52.398921
  0
CIRCLE
  5
23C6
330
2EF4
100
AcDbEntity
  8
V0-OBRYS
  6
CONTINUOUS
 62
    90
100
AcDbCircle
 10
236.734168
 20
219.513585
 30
0.0
 40
5.58
  0
ARC
  5
23C7
330
2EF4
100
AcDbEntity
  8
V0-VYPLNE
100
AcDbCircle
 10
366.339258
 20
95.271629
 30
0.0
 40
181.579742
100
AcDbArc
 50
132.153029
 51
142.398921
  0
DIMENSION
  5
23D4
330
2EF4
100
AcDbEntity
  8
V0-VYPLNE
  6
CONTINUOUS
 62
    41
100
AcDbDimension
  2
*D11
 10
497.014168
 20
-102.1566460000031
 30
0.0
 11
366.874168
 21
-90.15664600000309
 31
0.0
 70
    32
  3
ED20
100
AcDbAlignedDimension
 13
236.734168
 23
-40.766415
 33
0.0
 14
497.014168
 24
-40.766415
 34
0.0
100
AcDbRotatedDimension
  0
DIMENSION
  5
23E1
330
2EF4
100
AcDbEntity
  8
V0-VYPLNE
  6
CONTINUOUS
 62
    41
100
AcDbDimension
  2
*D12
 10
-35.125832
 20
-144.2922789999992
 30
0.0
 11
-60.266543
 21
-144.292279
 31
0.0
 70
   160
  3
ED20
100
AcDbAlignedDimension
 13
-88.125832
 23
-68.12641499999999
 33
0.0
 14
-35.125832
 24
-37.626415
 34
0.0
100
AcDbRotatedDimension
  0
LINE
  5
2409
330
2EF4
100
AcDbEntity
  8
0
  6
BYBLOCK
 62
    41
100
AcDbLine
 10
-88.125832
 20
-70.12641499999999
 30
0.0
 11
-88.125832
 21
-104.270867
 31
0.0
  0
LINE
  5
240A
330
2EF4
100
AcDbEntity
  8
0
  6
BYBLOCK
 62
    41
100
AcDbLine
 10
-100.125832
 20
-69.12641499999999
 30
0.0
 11
-100.125832
 21
-104.270867
 31
0.0
  0
LINE
  5
240B
330
2EF4
100
AcDbEntity
  8
0
  6
BYBLOCK
 62
    41
100
AcDbLine
 10
-104.125832
 20
-103.020867
 30
0.0
 11
-124.125832
 21
-103.020867
 31
0.0
  0
LINE
  5
240C
330
2EF4
100
AcDbEntity
  8
0
  6
BYBLOCK
 62
    41
100
AcDbLine
 10
-68.125832
 20
-103.020867
 30
0.0
 11
-46.868862
 21
-103.020867
 31
0.0
  0
LINE
  5
240D
330
2EF4
100
AcDbEntity
  8
0
  6
BYBLOCK
 62
    41
100
AcDbLine
 10
-100.125832
 20
-103.020867
 30
0.0
 11
-88.125832
 21
-103.020867
 31
0.0
  0
INSERT
  5
240E
330
2EF4
100
AcDbEntity
  8
0
  6
BYBLOCK
 62
    41
100
AcDbBlockReference
  2
_OPEN
 10
-100.125832
 20
-103.020867
 30
0.0
 41
20.0
 42
20.0
 43
20.0
  0
INSERT
  5
240F
330
2EF4
100
AcDbEntity
  8
0
  6
BYBLOCK
 62
    41
100
AcDbBlockReference
  2
_OPEN
 10
-88.125832
 20
-103.020867
 30
0.0
 41
20.0
 42
20.0
 43
20.0
 50
180.0
  0
POINT
  5
2411
330
2EF4
100
AcDbEntity
  8
DEFPOINTS
  6
BYBLOCK
 62
     0
100
AcDbPoint
 10
-88.125832
 20
-69.12641499999999
 30
0.0
  0
POINT
  5
2412
330
2EF4
100
AcDbEntity
  8
DEFPOINTS
  6
BYBLOCK
 62
     0
100
AcDbPoint
 10
-100.125832
 20
-68.12641499999999
 30
0.0
  0
POINT
  5
2413
330
2EF4
100
AcDbEntity
  8
DEFPOINTS
  6
BYBLOCK
 62
     0
100
AcDbPoint
 10
-100.125832
 20
-103.020867
 30
0.0
  0
ARC
  5
2451
330
2EF4
100
AcDbEntity
  8
V0-OBRYS
  6
CONTINUOUS
100
AcDbCircle
 10
219.454168
 20
236.793585
 30
0.0
 40
10.0
100
AcDbArc
 50
90.0
 51
180.0
  0
ARC
  5
2452
330
2EF4
100
AcDbEntity
  8
V0-OBRYS
  6
CONTINUOUS
100
AcDbCircle
 10
514.294168
 20
236.793585
 30
0.0
 40
10.0
100
AcDbArc
 50
0.0
 51
90.0
  0
ARC
  5
2453
330
2EF4
100
AcDbEntity
  8
V0-OBRYS
  6
CONTINUOUS
100
AcDbCircle
 10
514.294168
 20
-58.046415
 30
0.0
 40
10.0
100
AcDbArc
 50
270.0
 51
360.0
  0
ARC
  5
2454
330
2EF4
100
AcDbEntity
  8
V0-OBRYS
  6
CONTINUOUS
100
AcDbCircle
 10
219.454168
 20
-58.046415
 30
0.0
 40
10.0
100
AcDbArc
 50
180.0
 51
270.0
  0
LINE
  5
250B
330
2EF4
100
AcDbEntity
  8
V0-VYPLNE
  6
DASHDOT
 62
    63
 48
2.0
100
AcDbLine
 10
-138.918926
 20
89.37358500000001
 30
0.0
 11
-20.418921
 21
89.37358500000001
 31
0.0
  0
LINE
  5
2667
330
2EF4
100
AcDbEntity
  8
V0-OBRYS
  6
CONTINUOUS
 62
    90
100
AcDbLine
 10
-161.125832
 20
89.37358500000001
 30
0.0
 11
-161.125832
 21
129.373585
 31
0.0
  0
LINE
  5
2668
330
2EF4
100
AcDbEntity
  8
V0-OBRYS
  6
CONTINUOUS
 62
    90
100
AcDbLine
 10
-161.125832
 20
129.373585
 30
0.0
 11
-131.125832
 21
129.373585
 31
0.0
  0
LINE
  5
2669
330
2EF4
100
AcDbEntity
  8
V0-OBRYS
  6
CONTINUOUS
 62
    90
100
AcDbLine
 10
-131.125832
 20
129.373585
 30
0.0
 11
-131.125832
 21
89.37358500000001
 31
0.0
  0
LINE
  5
266B
330
2EF4
100
AcDbEntity
  8
V0-OBRYS
  6
CONTINUOUS
 62
    90
100
AcDbLine
 10
-146.125832
 20
89.37358500000001
 30
0.0
 11
-146.125832
 21
129.373585
 31
0.0
  0
LINE
  5
266C
330
2EF4
100
AcDbEntity
  8
V0-OBRYS
  6
CONTINUOUS
 62
    90
100
AcDbLine
 10
-161.125832
 20
49.373585
 30
0.0
 11
-131.125832
 21
49.373585
 31
0.0
  0
LINE
  5
266D
330
2EF4
100
AcDbEntity
  8
V0-OBRYS
  6
CONTINUOUS
 62
    90
100
AcDbLine
 10
-161.125832
 20
89.37358500000001
 30
0.0
 11
-161.125832
 21
49.373585
 31
0.0
  0
LINE
  5
266E
330
2EF4
100
AcDbEntity
  8
V0-OBRYS
  6
CONTINUOUS
 62
    90
100
AcDbLine
 10
-146.125832
 20
89.37358500000001
 30
0.0
 11
-146.125832
 21
49.373585
 31
0.0
  0
LINE
  5
266F
330
2EF4
100
AcDbEntity
  8
V0-OBRYS
  6
CONTINUOUS
 62
    90
100
AcDbLine
 10
-131.125832
 20
49.373585
 30
0.0
 11
-131.125832
 21
89.37358500000001
 31
0.0
  0
ARC
  5
26DF
330
2EF4
100
AcDbEntity
  8
V0-OBRYS
  6
CONTINUOUS
 62
    90
100
AcDbCircle
 10
366.874168
 20
89.37358500000001
 30
0.0
 40
125.0
100
AcDbArc
 50
133.280648
 51
149.576495
  0
ARC
  5
26ED
330
2EF4
100
AcDbEntity
  8
V0-OBRYS
  6
CONTINUOUS
 62
    90
100
AcDbCircle
 10
366.874168
 20
89.37358500000001
 30
0.0
 40
125.0
100
AcDbArc
 50
81.852076
 51
98.147924
  0
ARC
  5
26EE
330
2EF4
100
AcDbEntity
  8
V0-OBRYS
  6
CONTINUOUS
 62
    90
100
AcDbCircle
 10
366.874168
 20
89.37358500000001
 30
0.0
 40
125.0
100
AcDbArc
 50
30.423505
 51
46.719352
  0
ARC
  5
26EF
330
2EF4
100
AcDbEntity
  8
V0-OBRYS
  6
CONTINUOUS
 62
    90
100
AcDbCircle
 10
366.874168
 20
89.37358500000001
 30
0.0
 40
125.0
100
AcDbArc
 50
338.994933
 51
355.290781
  0
ARC
  5
26F0
330
2EF4
100
AcDbEntity
  8
V0-OBRYS
  6
CONTINUOUS
 62
    90
100
AcDbCircle
 10
366.874168
 20
89.37358500000001
 30
0.0
 40
125.0
100
AcDbArc
 50
287.566362
 51
303.86221
  0
LINE
  5
26F1
330
2EF4
100
AcDbEntity
  8
V0-OBRYS
  6
CONTINUOUS
 62
    90
100
AcDbLine
 10
331.474873
 20
-25.657405
 30
0.0
 11
340.191595
 21
-10.149201
 31
0.0
  0
LINE
  5
26F2
330
2EF4
100
AcDbEntity
  8
V0-OBRYS
  6
CONTINUOUS
 62
    90
100
AcDbLine
 10
448.677906
 20
177.653747
 30
0.0
 11
434.095654
 21
167.463382
 31
0.0
  0
LINE
  5
26F3
330
2EF4
100
AcDbEntity
  8
V0-OBRYS
  6
CONTINUOUS
 62
    90
100
AcDbLine
 10
471.144007
 20
149.482148
 30
0.0
 11
457.964278
 21
137.533073
 31
0.0
  0
LINE
  5
26F4
330
2EF4
100
AcDbEntity
  8
V0-OBRYS
  6
CONTINUOUS
 62
    90
100
AcDbLine
 10
486.898175
 20
80.458628
 30
0.0
 11
469.839141
 21
85.505903
 31
0.0
  0
ARC
  5
26F5
330
2EF4
100
AcDbEntity
  8
V0-OBRYS
  6
CONTINUOUS
 62
    90
100
AcDbCircle
 10
366.874168
 20
89.37358500000001
 30
0.0
 40
125.0
100
AcDbArc
 50
236.13779
 51
252.433638
  0
ARC
  5
26F6
330
2EF4
100
AcDbEntity
  8
V0-OBRYS
  6
CONTINUOUS
 62
    90
100
AcDbCircle
 10
366.874168
 20
89.37358500000001
 30
0.0
 40
125.0
100
AcDbArc
 50
184.709219
 51
201.005067
  0
POINT
  5
29A2
330
2EF4
100
AcDbEntity
  8
V0-VYPLNE
  6
CONTINUOUS
 62
    41
100
AcDbPoint
 10
-35.125832
 20
89.37358500000001
 30
0.0
  0
POINT
  5
29A3
330
2EF4
100
AcDbEntity
  8
V0-VYPLNE
  6
CONTINUOUS
 62
    41
100
AcDbPoint
 10
-35.125832
 20
-407.240613
 30
0.0
  0
DIMENSION
  5
2DB2
330
2EF4
100
AcDbEntity
  8
V0-VYPLNE
  6
CONTINUOUS
 62
    41
100
AcDbDimension
  2
*D13
 10
-35.125832
 20
-174.6069260000004
 30
0.0
 11
-98.12583200000002
 21
-162.6069260000004
 31
0.0
 70
    32
  3
ED20
100
AcDbAlignedDimension
 13
-161.125832
 23
49.373585
 33
0.0
 14
-35.125832
 24
-38.626415
 34
0.0
100
AcDbRotatedDimension
  0
LINE
  5
2DDF
330
2EF4
100
AcDbEntity
  8
V0-OBRYS
  6
CONTINUOUS
 62
    90
100
AcDbLine
 10
-161.125832
 20
-447.240613
 30
0.0
 11
-131.125832
 21
-447.240613
 31
0.0
  0
LINE
  5
2DE0
330
2EF4
100
AcDbEntity
  8
V0-OBRYS
  6
CONTINUOUS
 62
    90
100
AcDbLine
 10
-161.125832
 20
-367.240613
 30
0.0
 11
-131.125832
 21
-367.240613
 31
0.0
  0
LINE
  5
2DE1
330
2EF4
100
AcDbEntity
  8
V0-OBRYS
  6
CONTINUOUS
 62
    90
100
AcDbLine
 10
-161.125832
 20
-407.240613
 30
0.0
 11
-161.125832
 21
-447.240613
 31
0.0
  0
LINE
  5
2DE2
330
2EF4
100
AcDbEntity
  8
V0-OBRYS
  6
CONTINUOUS
 62
    90
100
AcDbLine
 10
-161.125832
 20
-407.240613
 30
0.0
 11
-161.125832
 21
-367.240613
 31
0.0
  0
LINE
  5
2DE3
330
2EF4
100
AcDbEntity
  8
V0-OBRYS
  6
CONTINUOUS
 62
    90
100
AcDbLine
 10
-131.125832
 20
-447.240613
 30
0.0
 11
-131.125832
 21
-407.240613
 31
0.0
  0
LINE
  5
2DE4
330
2EF4
100
AcDbEntity
  8
V0-OBRYS
  6
CONTINUOUS
 62
    90
100
AcDbLine
 10
-146.125832
 20
-407.240613
 30
0.0
 11
-146.125832
 21
-447.240613
 31
0.0
  0
LINE
  5
2DE5
330
2EF4
100
AcDbEntity
  8
V0-OBRYS
  6
CONTINUOUS
 62
    90
100
AcDbLine
 10
-146.125832
 20
-407.240613
 30
0.0
 11
-146.125832
 21
-367.240613
 31
0.0
  0
LINE
  5
2DE6
330
2EF4
100
AcDbEntity
  8
V0-OBRYS
  6
CONTINUOUS
 62
    90
100
AcDbLine
 10
-131.125832
 20
-367.240613
 30
0.0
 11
-131.125832
 21
-407.240613
 31
0.0
  0
TEXT
  5
2DFA
330
2EF4
100
AcDbEntity
  8
0
  6
BYBLOCK
 62
    41
100
AcDbText
 10
-75.98147747619048
 20
-101.018898
 30
0.0
 40
20.0
  1
12
  7
ED40
100
AcDbText
  0
LWPOLYLINE
  5
2DFB
330
2EF4
100
AcDbEntity
  8
V0-VYPLNE
  6
CONTINUOUS
 62
    41
100
AcDbPolyline
 90
        4
 70
     1
 43
0.0
 10
225.4844725742709
 20
-57.63518685628642
 10
236.734168
 20
-40.766415
 10
231.5635172533762
 20
-60.37191121834525
 10
231.5635172533762
 20
-60.37191121834525
1001
VDEXTRAPARAM
1071
       65
1071
        0
1071
        0
1040
1.0
1000

1000

1040
0.0
1040
0.0
  0
HATCH
  5
2F78
330
2EF4
100
AcDbEntity
  8
V0-VYPLNE
  6
CONTINUOUS
 62
    41
100
AcDbHatch
 10
0.0
 20
0.0
 30
0.0
210
0.0
220
0.0
230
1.0
  2
SOLID
 70
     1
 71
     0
 91
        1
 92
        2
 72
     0
 73
     1
 93
        3
 10
225.4844725742709
 20
-57.63518685628642
 10
236.734168
 20
-40.766415
 10
231.5635172533762
 20
-60.37191121834525
 97
        0
 75
     0
 76
     1
 98
        1
 10
0.0
 20
0.0
1001
VDEXTRAPARAM
1071
       65
1071
        0
1071
        0
1040
1.0
1000

1000

1040
0.0
1040
0.0
1001
VD_TEMPHATCH
1000
VD_TEMPHATCH
  0
LWPOLYLINE
  5
2DFC
330
2EF4
100
AcDbEntity
  8
V0-VYPLNE
  6
CONTINUOUS
 62
    41
100
AcDbPolyline
 90
        3
 70
     0
 43
0.0
 10
228.5239949138235
 20
-59.00354903731584
 10
202.888362
 20
-115.947595
 10
12.872614
 20
-115.947595
  0
TEXT
  5
2E01
330
2EF4
100
AcDbEntity
  8
V0-VYPLNE
  6
CONTINUOUS
 62
    41
100
AcDbText
 10
-42.92116180952382
 20
-113.947595
 30
0.0
 40
20.0
  1
4 OTVORY %%c10
  7
ED40
100
AcDbText
  0
VIEWPORT
  5
2F79
330
2EF0
100
AcDbEntity
 67
     1
  8
0
 60
     1
100
AcDbViewport
 10
261.517699
 20
148.5
 30
0.0
 40
297.0
 41
297.0
 68
     0
 69
     1
1001
VD_INVISIBLE_NOT_FOR_READ
1000
VD_INVISIBLE_NOT_FOR_READ
1001
ACAD
1000
MVIEW
1002
{
1070
    16
1010
0.0
1020
0.0
1030
0.0
1010
0.0
1020
0.0
1030
1.0
1040
6.2831853071796
1040
297.0
1040
261.517699
1040
148.5
1040
0.0
1040
0.0
1040
0.0
1070
     0
1070
   100
1070
     0
1070
     1
1070
     0
1070
     0
1070
     0
1070
     0
1040
0.0
1040
0.0
1040
0.0
1040
1.0
1040
1.0
1040
0.0
1040
0.0
1070
     0
1002
{
1002
}
1002
}
  0
VIEWPORT
  5
2F7A
330
2EF0
100
AcDbEntity
 67
     1
  8
0
 60
     1
100
AcDbViewport
 10
261.517699
 20
148.5
 30
0.0
 40
297.0
 41
297.0
 68
     0
 69
     2
1001
VD_INVISIBLE_NOT_FOR_READ
1000
VD_INVISIBLE_NOT_FOR_READ
1001
ACAD
1000
MVIEW
1002
{
1070
    16
1010
0.0
1020
0.0
1030
0.0
1010
0.0
1020
0.0
1030
1.0
1040
6.2831853071796
1040
297.0
1040
261.517699
1040
148.5
1040
0.0
1040
0.0
1040
0.0
1070
     0
1070
   100
1070
     0
1070
     1
1070
     0
1070
     0
1070
     0
1070
     0
1040
0.0
1040
0.0
1040
0.0
1040
1.0
1040
1.0
1040
0.0
1040
0.0
1070
     0
1002
{
1002
}
1002
}
  0
ENDSEC
  0
SECTION
  2
OBJECTS
  0
DICTIONARY
  5
2EE1
330
0
100
AcDbDictionary
  3
ACAD_GROUP
350
2EE2
  3
ACAD_LAYOUT
350
2EEF
  3
ACAD_MLINESTYLE
350
2EEC
  3
ACAD_PLOTSETTINGS
350
2EEE
  3
ACDBHEADERROUNDTRIPXREC
350
2F7B
  3
VECTORDRAW_OBJECTS
350
2F04
  0
DICTIONARY
  5
2F9B
330
2EFE
100
AcDbDictionary
280
     1
  3
ACAD_XREC_ROUNDTRIP
360
2F9C
  0
DICTIONARY
  5
2EE2
102
{ACAD_REACTORS
330
2EE1
102
}
330
2EE1
100
AcDbDictionary
  0
DICTIONARY
  5
2EEF
102
{ACAD_REACTORS
330
2EE1
102
}
330
2EE1
100
AcDbDictionary
  0
DICTIONARY
  5
2EEC
102
{ACAD_REACTORS
330
2EE1
102
}
330
2EE1
100
AcDbDictionary
  3
STANDARD
350
2EED
  0
DICTIONARY
  5
2EEE
102
{ACAD_REACTORS
330
2EE1
102
}
330
2EE1
100
AcDbDictionary
  0
DICTIONARY
  5
2F7B
102
{ACAD_REACTORS
330
2EE1
102
}
330
2EE1
100
AcDbDictionary
  3
CEPSNTYPE
350
2F84
  3
DIMSTYLEDATA
350
2F9A
  3
FINGERPRINTGUID
350
2F85
  3
HYPERLINKBASE
350
2F7E
  3
INSUNITS
350
2F83
  3
LAYOUTDICT
350
2F80
  3
LWETCUNION
350
2F82
  3
PLOTSETDICT
350
2F81
  3
PSVPSCALE
350
2F87
  3
PUCSBASE
350
2F8A
  3
PUCSORGBACK
350
2F90
  3
PUCSORGBOTTOM
350
2F8C
  3
PUCSORGFRONT
350
2F8F
  3
PUCSORGLEFT
350
2F8D
  3
PUCSORGRIGHT
350
2F8E
  3
PUCSORGTOP
350
2F8B
  3
PUCSORTHOREF
350
2F88
  3
PUCSORTHOVIEW
350
2F89
  3
STYLESHEET
350
2F7F
  3
TSTACKALIGN
350
2F7C
  3
TSTACKSIZE
350
2F7D
  3
UCSBASE
350
2F93
  3
UCSORGBACK
350
2F99
  3
UCSORGBOTTOM
350
2F95
  3
UCSORGFRONT
350
2F98
  3
UCSORGLEFT
350
2F96
  3
UCSORGRIGHT
350
2F97
  3
UCSORGTOP
350
2F94
  3
UCSORTHOREF
350
2F91
  3
UCSORTHOVIEW
350
2F92
  3
VERSIONGUID
350
2F86
  0
DICTIONARY
  5
2F04
102
{ACAD_REACTORS
330
2EE1
102
}
330
2EE1
100
AcDbDictionary
  3
SERIALNO
350
2F05
  0
XRECORD
  5
2F9C
102
{ACAD_REACTORS
330
2F9B
102
}
330
2F9B
100
AcDbXrecord
102
UCS
 74
     0
 71
     1
 10
0.0
 20
0.0
 30
0.0
 10
1.0
 20
0.0
 30
0.0
 10
0.0
 20
1.0
 30
0.0
146
0.0
 79
     0
102
VIEW
281
     0
  0
MLINESTYLE
  5
2EED
102
{ACAD_REACTORS
330
2EEC
102
}
330
2EEC
100
AcDbMlineStyle
  2
Standard
 70
     0
  3

 62
   256
 51
90.0
 52
90.0
 71
     2
 49
0.5
 62
   256
  6
BYLAYER
 49
-0.5
 62
   256
  6
BYLAYER
  0
XRECORD
  5
2F84
102
{ACAD_REACTORS
330
2F7B
102
}
330
2F7B
100
AcDbXrecord
 90
        0
  0
XRECORD
  5
2F9A
102
{ACAD_REACTORS
330
2F7B
102
}
330
2F7B
100
AcDbXrecord
1000
DSTYLE
1002
{
1070
    41
 40
20.0
1070
   342
340
90
1070
   177
 70
    41
1070
   178
 70
    41
1070
   271
 70
     0
1070
    44
 40
1.25
1070
    42
 40
1.0
1070
   147
 40
2.0
1070
    77
 70
     1
1070
    73
 70
     0
1070
   174
 70
     1
1070
   172
 70
     1
1070
    74
 70
     0
1070
   340
340
331
1070
   140
 40
20.0
1070
   288
 70
     1
1002
}
  0
XRECORD
  5
2F85
102
{ACAD_REACTORS
330
2F7B
102
}
330
2F7B
100
AcDbXrecord
  1
{FAEB1C30-E019-11D5-929B-00C0DF256EC4}
  0
XRECORD
  5
2F7E
102
{ACAD_REACTORS
330
2F7B
102
}
330
2F7B
100
AcDbXrecord
  1

  0
XRECORD
  5
2F83
102
{ACAD_REACTORS
330
2F7B
102
}
330
2F7B
100
AcDbXrecord
 90
        1
  0
XRECORD
  5
2F80
102
{ACAD_REACTORS
330
2F7B
102
}
330
2F7B
100
AcDbXrecord
340
2EEF
  0
XRECORD
  5
2F82
102
{ACAD_REACTORS
330
2F7B
102
}
330
2F7B
100
AcDbXrecord
 90
     2560
  0
XRECORD
  5
2F81
102
{ACAD_REACTORS
330
2F7B
102
}
330
2F7B
100
AcDbXrecord
340
2EEE
  0
XRECORD
  5
2F87
102
{ACAD_REACTORS
330
2F7B
102
}
330
2F7B
100
AcDbXrecord
 40
0.0
  0
XRECORD
  5
2F8A
102
{ACAD_REACTORS
330
2F7B
102
}
330
2F7B
100
AcDbXrecord
340
0
  0
XRECORD
  5
2F90
102
{ACAD_REACTORS
330
2F7B
102
}
330
2F7B
100
AcDbXrecord
 10
0.0
 20
0.0
 30
0.0
  0
XRECORD
  5
2F8C
102
{ACAD_REACTORS
330
2F7B
102
}
330
2F7B
100
AcDbXrecord
 10
0.0
 20
0.0
 30
0.0
  0
XRECORD
  5
2F8F
102
{ACAD_REACTORS
330
2F7B
102
}
330
2F7B
100
AcDbXrecord
 10
0.0
 20
0.0
 30
0.0
  0
XRECORD
  5
2F8D
102
{ACAD_REACTORS
330
2F7B
102
}
330
2F7B
100
AcDbXrecord
 10
0.0
 20
0.0
 30
0.0
  0
XRECORD
  5
2F8E
102
{ACAD_REACTORS
330
2F7B
102
}
330
2F7B
100
AcDbXrecord
 10
0.0
 20
0.0
 30
0.0
  0
XRECORD
  5
2F8B
102
{ACAD_REACTORS
330
2F7B
102
}
330
2F7B
100
AcDbXrecord
 10
0.0
 20
0.0
 30
0.0
  0
XRECORD
  5
2F88
102
{ACAD_REACTORS
330
2F7B
102
}
330
2F7B
100
AcDbXrecord
340
0
  0
XRECORD
  5
2F89
102
{ACAD_REACTORS
330
2F7B
102
}
330
2F7B
100
AcDbXrecord
 70
     0
  0
XRECORD
  5
2F7F
102
{ACAD_REACTORS
330
2F7B
102
}
330
2F7B
100
AcDbXrecord
  1

  0
XRECORD
  5
2F7C
102
{ACAD_REACTORS
330
2F7B
102
}
330
2F7B
100
AcDbXrecord
 90
        1
  0
XRECORD
  5
2F7D
102
{ACAD_REACTORS
330
2F7B
102
}
330
2F7B
100
AcDbXrecord
 90
       70
  0
XRECORD
  5
2F93
102
{ACAD_REACTORS
330
2F7B
102
}
330
2F7B
100
AcDbXrecord
340
0
  0
XRECORD
  5
2F99
102
{ACAD_REACTORS
330
2F7B
102
}
330
2F7B
100
AcDbXrecord
 10
0.0
 20
0.0
 30
0.0
  0
XRECORD
  5
2F95
102
{ACAD_REACTORS
330
2F7B
102
}
330
2F7B
100
AcDbXrecord
 10
0.0
 20
0.0
 30
0.0
  0
XRECORD
  5
2F98
102
{ACAD_REACTORS
330
2F7B
102
}
330
2F7B
100
AcDbXrecord
 10
0.0
 20
0.0
 30
0.0
  0
XRECORD
  5
2F96
102
{ACAD_REACTORS
330
2F7B
102
}
330
2F7B
100
AcDbXrecord
 10
0.0
 20
0.0
 30
0.0
  0
XRECORD
  5
2F97
102
{ACAD_REACTORS
330
2F7B
102
}
330
2F7B
100
AcDbXrecord
 10
0.0
 20
0.0
 30
0.0
  0
XRECORD
  5
2F94
102
{ACAD_REACTORS
330
2F7B
102
}
330
2F7B
100
AcDbXrecord
 10
0.0
 20
0.0
 30
0.0
  0
XRECORD
  5
2F91
102
{ACAD_REACTORS
330
2F7B
102
}
330
2F7B
100
AcDbXrecord
340
0
  0
XRECORD
  5
2F92
102
{ACAD_REACTORS
330
2F7B
102
}
330
2F7B
100
AcDbXrecord
 70
     0
  0
XRECORD
  5
2F86
102
{ACAD_REACTORS
330
2F7B
102
}
330
2F7B
100
AcDbXrecord
  1
{FAEB1C32-E019-11D5-929B-00C0DF256EC4}
  0
XRECORD
  5
2F05
102
{ACAD_REACTORS
330
2F04
102
}
330
2F04
100
AcDbXrecord
1000
rInJVR9YY4Q8hfPWdUq5j5319
1070
     4
1070
     6
  0
ENDSEC
  0
EOF
