  0
SECTION
  2
HEADER
  9
$ACADVER
  1
AC1014
  9
$ACADMAINTVER
 70
     0
  9
$DWGCODEPAGE
  3
ANSI_1250
  9
$INSBASE
 10
0.0
 20
0.0
 30
0.0
  9
$EXTMIN
 10
-451.212926
 20
-900.784232
 30
0.0
  9
$EXTMAX
 10
865.196563
 20
406.463616
 30
0.0
  9
$LIMMIN
 10
0.0
 20
0.0
  9
$LIMMAX
 10
420.0
 20
297.0
  9
$ORTHOMODE
 70
     1
  9
$REGENMODE
 70
     1
  9
$FILLMODE
 70
     1
  9
$QTEXTMODE
 70
     0
  9
$MIRRTEXT
 70
     1
  9
$DRAGMODE
 70
     2
  9
$LTSCALE
 40
1.0
  9
$OSMODE
 70
     1
  9
$ATTMODE
 70
     1
  9
$TEXTSIZE
 40
40.0
  9
$TRACEWID
 40
1.0
  9
$TEXTSTYLE
  7
ED40
  9
$CLAYER
  8
V0-OBRYS
  9
$CELTYPE
  6
CONTINUOUS
  9
$CECOLOR
 62
    90
  9
$CELTSCALE
 40
1.0
  9
$DELOBJ
 70
     1
  9
$DISPSILH
 70
     0
  9
$DIMSCALE
 40
1.0
  9
$DIMASZ
 40
30.0
  9
$DIMEXO
 40
1.0
  9
$DIMDLI
 40
3.75
  9
$DIMRND
 40
0.0
  9
$DIMDLE
 40
0.0
  9
$DIMEXE
 40
1.25
  9
$DIMTP
 40
0.0
  9
$DIMTM
 40
0.0
  9
$DIMTXT
 40
30.0
  9
$DIMCEN
 40
3.0
  9
$DIMTSZ
 40
0.0
  9
$DIMTOL
 70
     0
  9
$DIMLIM
 70
     0
  9
$DIMTIH
 70
     0
  9
$DIMTOH
 70
     0
  9
$DIMSE1
 70
     0
  9
$DIMSE2
 70
     0
  9
$DIMTAD
 70
     1
  9
$DIMZIN
 70
     8
  9
$DIMBLK
  1

  9
$DIMASO
 70
     1
  9
$DIMSHO
 70
     1
  9
$DIMPOST
  1

  9
$DIMAPOST
  1

  9
$DIMALT
 70
     0
  9
$DIMALTD
 70
     4
  9
$DIMALTF
 40
0.0394
  9
$DIMLFAC
 40
1.0
  9
$DIMTOFL
 70
     1
  9
$DIMTVP
 40
0.0
  9
$DIMTIX
 70
     0
  9
$DIMSOXD
 70
     0
  9
$DIMSAH
 70
     1
  9
$DIMBLK1
  1
_OPEN
  9
$DIMBLK2
  1
_OPEN
  9
$DIMSTYLE
  2
ED30
  9
$DIMCLRD
 70
    41
  9
$DIMCLRE
 70
    41
  9
$DIMCLRT
 70
    41
  9
$DIMTFAC
 40
1.0
  9
$DIMGAP
 40
2.0
  9
$DIMJUST
 70
     0
  9
$DIMSD1
 70
     0
  9
$DIMSD2
 70
     0
  9
$DIMTOLJ
 70
     1
  9
$DIMTZIN
 70
     8
  9
$DIMALTZ
 70
     0
  9
$DIMALTTZ
 70
     0
  9
$DIMFIT
 70
     3
  9
$DIMUPT
 70
     0
  9
$DIMUNIT
 70
     2
  9
$DIMDEC
 70
     0
  9
$DIMTDEC
 70
     1
  9
$DIMALTU
 70
     8
  9
$DIMALTTD
 70
     4
  9
$DIMTXSTY
  7
ED30
  9
$DIMAUNIT
 70
     0
  9
$LUNITS
 70
     2
  9
$LUPREC
 70
     4
  9
$SKETCHINC
 40
1.0
  9
$FILLETRAD
 40
5.0
  9
$AUNITS
 70
     0
  9
$AUPREC
 70
     0
  9
$MENU
  1
.
  9
$ELEVATION
 40
0.0
  9
$PELEVATION
 40
0.0
  9
$THICKNESS
 40
0.0
  9
$LIMCHECK
 70
     0
  9
$BLIPMODE
 70
     0
  9
$CHAMFERA
 40
0.5
  9
$CHAMFERB
 40
0.5
  9
$CHAMFERC
 40
20.0
  9
$CHAMFERD
 40
0.0
  9
$SKPOLY
 70
     1
  9
$TDCREATE
 40
2451196.643769328
  9
$TDUPDATE
 40
2452915.874434143
  9
$TDINDWG
 40
0.8691951389
  9
$TDUSRTIMER
 40
0.8691951389
  9
$USRTIMER
 70
     1
  9
$ANGBASE
 50
0.0
  9
$ANGDIR
 70
     0
  9
$PDMODE
 70
    35
  9
$PDSIZE
 40
20.0
  9
$PLINEWID
 40
0.0
  9
$COORDS
 70
     1
  9
$SPLFRAME
 70
     0
  9
$SPLINETYPE
 70
     6
  9
$SPLINESEGS
 70
     8
  9
$ATTDIA
 70
     0
  9
$ATTREQ
 70
     1
  9
$HANDLING
 70
     1
  9
$HANDSEED
  5
2570
  9
$SURFTAB1
 70
     6
  9
$SURFTAB2
 70
     6
  9
$SURFTYPE
 70
     6
  9
$SURFU
 70
     6
  9
$SURFV
 70
     6
  9
$UCSNAME
  2

  9
$UCSORG
 10
366.8741676550712
 20
89.37358462115861
 30
0.0
  9
$UCSXDIR
 10
1.0
 20
0.0
 30
0.0
  9
$UCSYDIR
 10
0.0
 20
1.0
 30
0.0
  9
$PUCSNAME
  2

  9
$PUCSORG
 10
0.0
 20
0.0
 30
0.0
  9
$PUCSXDIR
 10
1.0
 20
0.0
 30
0.0
  9
$PUCSYDIR
 10
0.0
 20
1.0
 30
0.0
  9
$USERI1
 70
     0
  9
$USERI2
 70
     0
  9
$USERI3
 70
     0
  9
$USERI4
 70
     0
  9
$USERI5
 70
     0
  9
$USERR1
 40
0.0
  9
$USERR2
 40
0.0
  9
$USERR3
 40
0.0
  9
$USERR4
 40
0.0
  9
$USERR5
 40
0.0
  9
$WORLDVIEW
 70
     1
  9
$SHADEDGE
 70
     3
  9
$SHADEDIF
 70
    70
  9
$TILEMODE
 70
     1
  9
$MAXACTVP
 70
    48
  9
$PINSBASE
 10
0.0
 20
0.0
 30
0.0
  9
$PLIMCHECK
 70
     0
  9
$PEXTMIN
 10
1.000000E+20
 20
1.000000E+20
 30
1.000000E+20
  9
$PEXTMAX
 10
-1.000000E+20
 20
-1.000000E+20
 30
-1.000000E+20
  9
$PLIMMIN
 10
0.0
 20
0.0
  9
$PLIMMAX
 10
420.0
 20
297.0
  9
$UNITMODE
 70
     0
  9
$VISRETAIN
 70
     1
  9
$PLINEGEN
 70
     0
  9
$PSLTSCALE
 70
     0
  9
$TREEDEPTH
 70
  3020
  9
$PICKSTYLE
 70
     0
  9
$CMLSTYLE
  2
STANDARD
  9
$CMLJUST
 70
     1
  9
$CMLSCALE
 40
3.0
  9
$PROXYGRAPHICS
 70
     1
  9
$MEASUREMENT
 70
     1
  0
ENDSEC
  0
SECTION
  2
CLASSES
  0
CLASS
  1
DICTIONARYVAR
  2
AcDbDictionaryVar
  3
"AutoCAD"
 90
        0
280
     0
281
     0
  0
CLASS
  1
LWPOLYLINE
  2
AcDbPolyline
  3
"AutoCAD"
 90
        0
280
     0
281
     1
  0
CLASS
  1
HATCH
  2
AcDbHatch
  3
"ACAD_SEDONA"
 90
        0
280
     0
281
     1
  0
ENDSEC
  0
SECTION
  2
TABLES
  0
TABLE
  2
VPORT
  5
8
100
AcDbSymbolTable
 70
     2
  0
VPORT
  5
256F
100
AcDbSymbolTableRecord
100
AcDbViewportTableRecord
  2
*ACTIVE
 70
     0
 10
0.0
 20
0.0
 11
1.0
 21
1.0
 12
209.531545
 22
-209.307395
 13
0.0
 23
0.0
 14
10.0
 24
10.0
 15
10.0
 25
10.0
 16
0.0
 26
0.0
 36
1.0
 17
0.0
 27
0.0
 37
0.0
 40
1420.215996
 41
1.730469
 42
50.0
 43
0.0
 44
0.0
 50
0.0
 51
0.0
 71
     0
 72
   100
 73
     1
 74
     1
 75
     0
 76
     0
 77
     0
 78
     0
  0
ENDTAB
  0
TABLE
  2
LTYPE
  5
5
100
AcDbSymbolTable
 70
     4
  0
LTYPE
  5
14
100
AcDbSymbolTableRecord
100
AcDbLinetypeTableRecord
  2
BYBLOCK
 70
     0
  3

 72
    65
 73
     0
 40
0.0
  0
LTYPE
  5
15
100
AcDbSymbolTableRecord
100
AcDbLinetypeTableRecord
  2
BYLAYER
 70
     0
  3

 72
    65
 73
     0
 40
0.0
  0
LTYPE
  5
16
100
AcDbSymbolTableRecord
100
AcDbLinetypeTableRecord
  2
CONTINUOUS
 70
     0
  3
Solid line
 72
    65
 73
     0
 40
0.0
  0
LTYPE
  5
7F
100
AcDbSymbolTableRecord
100
AcDbLinetypeTableRecord
  2
DASHDOT
 70
     0
  3
Dash dot __ . __ . __ . __ . __ . __ . __ . __
 72
    65
 73
     4
 40
25.4
 49
12.7
 74
     0
 49
-6.35
 74
     0
 49
0.0
 74
     0
 49
-6.35
 74
     0
  0
LTYPE
  5
1B9E
100
AcDbSymbolTableRecord
100
AcDbLinetypeTableRecord
  2
ACAD_ISO02W100
 70
     0
  3
ISO dash __ __ __ __ __ __ __ __ __ __ __ __ __
 72
    65
 73
     2
 40
15.0
 49
12.0
 74
     0
 49
-3.0
 74
     0
  0
LTYPE
  5
1B9F
100
AcDbSymbolTableRecord
100
AcDbLinetypeTableRecord
  2
DASHED
 70
     0
  3
Dashed __ __ __ __ __ __ __ __ __ __ __ __ __ _
 72
    65
 73
     2
 40
19.05
 49
12.7
 74
     0
 49
-6.35
 74
     0
  0
ENDTAB
  0
TABLE
  2
LAYER
  5
2
100
AcDbSymbolTable
 70
     5
  0
LAYER
  5
F
100
AcDbSymbolTableRecord
100
AcDbLayerTableRecord
  2
0
 70
     0
 62
     7
  6
CONTINUOUS
  0
LAYER
  5
9E
100
AcDbSymbolTableRecord
100
AcDbLayerTableRecord
  2
DEFPOINTS
 70
     0
 62
     7
  6
CONTINUOUS
  0
LAYER
  5
377
100
AcDbSymbolTableRecord
100
AcDbLayerTableRecord
  2
V0-OBRYS
 70
     0
 62
    90
  6
CONTINUOUS
  0
LAYER
  5
378
100
AcDbSymbolTableRecord
100
AcDbLayerTableRecord
  2
V0-VYPLNE
 70
     0
 62
    63
  6
DASHDOT
  0
LAYER
  5
1540
100
AcDbSymbolTableRecord
100
AcDbLayerTableRecord
  2
VO-OBRYS
 70
     0
 62
    90
  6
CONTINUOUS
  0
ENDTAB
  0
TABLE
  2
STYLE
  5
3
100
AcDbSymbolTable
 70
     6
  0
STYLE
  5
10
100
AcDbSymbolTableRecord
100
AcDbTextStyleTableRecord
  2
STANDARD
 70
     0
 40
0.0
 41
1.0
 50
0.0
 71
     0
 42
2.5
  3
ISOCP
  4

  0
STYLE
  5
331
100
AcDbSymbolTableRecord
100
AcDbTextStyleTableRecord
  2
ED20
 70
     0
 40
20.0
 41
1.0
 50
0.0
 71
     0
 42
2.5
  3
ISOCP.shx
  4

  0
STYLE
  5
648
100
AcDbSymbolTableRecord
100
AcDbTextStyleTableRecord
  2
ED10
 70
     0
 40
10.0
 41
1.0
 50
0.0
 71
     0
 42
10.0
  3
ISOCP.shx
  4

  0
STYLE
  5
F38
100
AcDbSymbolTableRecord
100
AcDbTextStyleTableRecord
  2
ED30
 70
     0
 40
30.0
 41
1.0
 50
0.0
 71
     0
 42
2.5
  3
ISOCP.shx
  4

  0
STYLE
  5
F39
100
AcDbSymbolTableRecord
100
AcDbTextStyleTableRecord
  2
ED40
 70
     0
 40
40.0
 41
1.0
 50
0.0
 71
     0
 42
40.0
  3
ISOCP.shx
  4

  0
STYLE
  5
1B9D
100
AcDbSymbolTableRecord
100
AcDbTextStyleTableRecord
  2

 70
     1
 40
0.0
 41
1.0
 50
0.0
 71
     0
 42
40.0
  3
ltypeshp.shx
  4

  0
ENDTAB
  0
TABLE
  2
VIEW
  5
6
100
AcDbSymbolTable
 70
     0
  0
ENDTAB
  0
TABLE
  2
UCS
  5
7
100
AcDbSymbolTable
 70
     0
  0
ENDTAB
  0
TABLE
  2
APPID
  5
9
100
AcDbSymbolTable
 70
     1
  0
APPID
  5
11
100
AcDbSymbolTableRecord
100
AcDbRegAppTableRecord
  2
ACAD
 70
     0
  0
ENDTAB
  0
TABLE
  2
DIMSTYLE
  5
A
100
AcDbSymbolTable
 70
     4
  0
DIMSTYLE
105
1D
100
AcDbSymbolTableRecord
100
AcDbDimStyleTableRecord
  2
STANDARD
 70
     0
  3

  4

  5

  6
_OPEN
  7
_OPEN
 40
0.0
 41
15.0
 42
0.625
 43
3.75
 44
1.25
 45
0.0
 46
0.0
 47
0.0
 48
0.0
140
15.0
141
2.5
142
0.0
143
0.0394
144
1.0
145
0.0
146
1.0
147
3.0
 71
     0
 72
     0
 73
     0
 74
     0
 75
     0
 76
     0
 77
     1
 78
     8
170
     0
171
     4
172
     1
173
     1
174
     0
175
     0
176
     0
177
     0
178
     0
270
     2
271
     0
272
     1
273
     8
274
     4
340
331
275
     0
280
     0
281
     0
282
     0
283
     1
284
     8
285
     0
286
     0
287
     3
288
     0
  0
DIMSTYLE
105
FE9
102
{ACAD_REACTORS
330
1886
330
1893
330
1849
330
21F2
330
225B
102
}
100
AcDbSymbolTableRecord
100
AcDbDimStyleTableRecord
  2
ED20
 70
     0
  3

  4

  5

  6
_OPEN
  7
_OPEN
 40
1.0
 41
20.0
 42
1.0
 43
3.75
 44
1.25
 45
0.0
 46
0.0
 47
0.0
 48
0.0
140
20.0
141
3.0
142
0.0
143
0.0394
144
1.0
145
0.0
146
1.0
147
2.0
 71
     0
 72
     0
 73
     0
 74
     0
 75
     0
 76
     0
 77
     1
 78
     8
170
     0
171
     4
172
     1
173
     1
174
     0
175
     0
176
    41
177
    41
178
    41
270
     2
271
     0
272
     1
273
     8
274
     4
340
331
275
     0
280
     0
281
     0
282
     0
283
     1
284
     8
285
     0
286
     0
287
     3
288
     0
  0
DIMSTYLE
105
2267
100
AcDbSymbolTableRecord
100
AcDbDimStyleTableRecord
  2
ED40
 70
     0
  3

  4

  5

  6
_OPEN
  7
_OPEN
 40
1.0
 41
20.0
 42
1.0
 43
3.75
 44
1.25
 45
0.0
 46
0.0
 47
0.0
 48
0.0
140
20.0
141
3.0
142
0.0
143
0.0394
144
1.0
145
0.0
146
1.0
147
2.0
 71
     0
 72
     0
 73
     0
 74
     0
 75
     0
 76
     0
 77
     1
 78
     8
170
     0
171
     4
172
     1
173
     1
174
     0
175
     0
176
    41
177
    41
178
    41
270
     2
271
     0
272
     1
273
     8
274
     4
340
331
275
     0
280
     0
281
     0
282
     0
283
     1
284
     8
285
     0
286
     0
287
     3
288
     0
  0
DIMSTYLE
105
22B7
102
{ACAD_REACTORS
330
2471
102
}
100
AcDbSymbolTableRecord
100
AcDbDimStyleTableRecord
  2
ED30
 70
     0
  3

  4

  5

  6
_OPEN
  7
_OPEN
 40
1.0
 41
40.0
 42
1.0
 43
3.75
 44
1.25
 45
0.0
 46
0.0
 47
0.0
 48
0.0
140
40.0
141
3.0
142
0.0
143
0.0394
144
1.0
145
0.0
146
1.0
147
2.0
 71
     0
 72
     0
 73
     0
 74
     0
 75
     0
 76
     0
 77
     1
 78
     8
170
     0
171
     4
172
     1
173
     1
174
     0
175
     0
176
    41
177
    41
178
    41
270
     2
271
     0
272
     1
273
     8
274
     4
340
F39
275
     0
280
     0
281
     0
282
     0
283
     1
284
     8
285
     0
286
     0
287
     3
288
     0
  0
ENDTAB
  0
TABLE
  2
BLOCK_RECORD
  5
1
100
AcDbSymbolTable
 70
     7
  0
BLOCK_RECORD
  5
1A
100
AcDbSymbolTableRecord
100
AcDbBlockTableRecord
  2
*MODEL_SPACE
  0
BLOCK_RECORD
  5
17
100
AcDbSymbolTableRecord
100
AcDbBlockTableRecord
  2
*PAPER_SPACE
  0
BLOCK_RECORD
  5
90
100
AcDbSymbolTableRecord
100
AcDbBlockTableRecord
  2
_OPEN
  0
BLOCK_RECORD
  5
187A
100
AcDbSymbolTableRecord
100
AcDbBlockTableRecord
  2
*D1
  0
BLOCK_RECORD
  5
1887
100
AcDbSymbolTableRecord
100
AcDbBlockTableRecord
  2
*D2
  0
BLOCK_RECORD
  5
1A7A
100
AcDbSymbolTableRecord
100
AcDbBlockTableRecord
  2
*D3
  0
BLOCK_RECORD
  5
21E6
100
AcDbSymbolTableRecord
100
AcDbBlockTableRecord
  2
*D4
  0
BLOCK_RECORD
  5
224F
100
AcDbSymbolTableRecord
100
AcDbBlockTableRecord
  2
*D5
  0
BLOCK_RECORD
  5
2465
100
AcDbSymbolTableRecord
100
AcDbBlockTableRecord
  2
*D6
  0
ENDTAB
  0
ENDSEC
  0
SECTION
  2
BLOCKS
  0
BLOCK
  5
1B
100
AcDbEntity
  8
0
100
AcDbBlockBegin
  2
*MODEL_SPACE
 70
     0
 10
0.0
 20
0.0
 30
0.0
  3
*MODEL_SPACE
  1

  0
ENDBLK
  5
1C
100
AcDbEntity
  8
0
100
AcDbBlockEnd
  0
BLOCK
  5
18
100
AcDbEntity
 67
     1
  8
0
100
AcDbBlockBegin
  2
*PAPER_SPACE
 70
     0
 10
0.0
 20
0.0
 30
0.0
  3
*PAPER_SPACE
  1

  0
ENDBLK
  5
19
100
AcDbEntity
 67
     1
  8
0
100
AcDbBlockEnd
  0
BLOCK
  5
91
100
AcDbEntity
  8
0
100
AcDbBlockBegin
  2
_OPEN
 70
     0
 10
0.0
 20
0.0
 30
0.0
  3
_OPEN
  1

  0
LINE
  5
92
100
AcDbEntity
  8
0
  6
BYBLOCK
 62
     0
100
AcDbLine
 10
-1.0
 20
0.166667
 30
0.0
 11
0.0
 21
0.0
 31
0.0
  0
LINE
  5
93
100
AcDbEntity
  8
0
  6
BYBLOCK
 62
     0
100
AcDbLine
 10
0.0
 20
0.0
 30
0.0
 11
-1.0
 21
-0.166667
 31
0.0
  0
LINE
  5
94
100
AcDbEntity
  8
0
  6
BYBLOCK
 62
     0
100
AcDbLine
 10
0.0
 20
0.0
 30
0.0
 11
-1.0
 21
0.0
 31
0.0
  0
ENDBLK
  5
95
100
AcDbEntity
  8
0
100
AcDbBlockEnd
  0
BLOCK
  5
2440
100
AcDbEntity
  8
0
100
AcDbBlockBegin
  2
*D1
 70
     1
 10
0.0
 20
0.0
 30
0.0
  3
*D1
  1

  0
LINE
  5
2441
100
AcDbEntity
  8
0
  6
BYBLOCK
 62
    41
100
AcDbLine
 10
-99.902968
 20
288.853949
 30
0.0
 11
-8.720334
 21
288.853949
 31
0.0
  0
LINE
  5
2442
100
AcDbEntity
  8
0
  6
BYBLOCK
 62
    41
100
AcDbLine
 10
-101.425236
 20
-110.867914
 30
0.0
 11
-8.720334
 21
-110.867914
 31
0.0
  0
LINE
  5
2443
100
AcDbEntity
  8
0
  6
BYBLOCK
 62
    41
100
AcDbLine
 10
-9.970334
 20
258.853949
 30
0.0
 11
-9.970334
 21
-80.867914
 31
0.0
  0
INSERT
  5
2444
100
AcDbEntity
  8
0
  6
BYBLOCK
 62
    41
100
AcDbBlockReference
  2
_OPEN
 10
-9.970334
 20
288.853949
 30
0.0
 41
30.0
 42
30.0
 43
30.0
 50
90.0
  0
INSERT
  5
2445
100
AcDbEntity
  8
0
  6
BYBLOCK
 62
    41
100
AcDbBlockReference
  2
_OPEN
 10
-9.970334
 20
-110.867914
 30
0.0
 41
30.0
 42
30.0
 43
30.0
 50
270.0
  0
MTEXT
  5
2446
100
AcDbEntity
  8
0
  6
BYBLOCK
 62
    41
100
AcDbMText
 10
-26.970334
 20
89.373585
 30
0.0
 40
30.0
 41
0.0
 71
     5
 72
     1
  1
\A1;\U+2205400
  7
ED30
 11
0.0
 21
1.0
 31
0.0
  0
POINT
  5
2447
100
AcDbEntity
  8
DEFPOINTS
  6
BYBLOCK
 62
     0
100
AcDbPoint
 10
-100.902968
 20
288.853949
 30
0.0
  0
POINT
  5
2448
100
AcDbEntity
  8
DEFPOINTS
  6
BYBLOCK
 62
     0
100
AcDbPoint
 10
-102.425236
 20
-110.867914
 30
0.0
  0
POINT
  5
2449
100
AcDbEntity
  8
DEFPOINTS
  6
BYBLOCK
 62
     0
100
AcDbPoint
 10
-9.970334
 20
-110.867914
 30
0.0
  0
ENDBLK
  5
244A
100
AcDbEntity
  8
0
100
AcDbBlockEnd
  0
BLOCK
  5
23C3
100
AcDbEntity
  8
0
100
AcDbBlockBegin
  2
*D2
 70
     1
 10
0.0
 20
0.0
 30
0.0
  3
*D2
  1

  0
LINE
  5
23C4
100
AcDbEntity
  8
0
  6
BYBLOCK
 62
    41
100
AcDbLine
 10
861.342291
 20
-142.781545
 30
0.0
 11
861.342291
 21
-287.393794
 31
0.0
  0
LINE
  5
23C5
100
AcDbEntity
  8
0
  6
BYBLOCK
 62
    41
100
AcDbLine
 10
361.811884
 20
-142.781545
 30
0.0
 11
361.811884
 21
-287.393794
 31
0.0
  0
LINE
  5
23C6
100
AcDbEntity
  8
0
  6
BYBLOCK
 62
    41
100
AcDbLine
 10
831.342291
 20
-286.143794
 30
0.0
 11
391.811884
 21
-286.143794
 31
0.0
  0
INSERT
  5
23C7
100
AcDbEntity
  8
0
  6
BYBLOCK
 62
    41
100
AcDbBlockReference
  2
_OPEN
 10
861.342291
 20
-286.143794
 30
0.0
 41
30.0
 42
30.0
 43
30.0
  0
INSERT
  5
23C8
100
AcDbEntity
  8
0
  6
BYBLOCK
 62
    41
100
AcDbBlockReference
  2
_OPEN
 10
361.811884
 20
-286.143794
 30
0.0
 41
30.0
 42
30.0
 43
30.0
 50
180.0
  0
MTEXT
  5
23C9
100
AcDbEntity
  8
0
  6
BYBLOCK
 62
    41
100
AcDbMText
 10
611.282081
 20
-269.143794
 30
0.0
 40
30.0
 41
0.0
 71
     5
 72
     1
  1
\A1;500
  7
ED30
  0
POINT
  5
23CA
100
AcDbEntity
  8
DEFPOINTS
  6
BYBLOCK
 62
     0
100
AcDbPoint
 10
861.342291
 20
-141.781545
 30
0.0
  0
POINT
  5
23CB
100
AcDbEntity
  8
DEFPOINTS
  6
BYBLOCK
 62
     0
100
AcDbPoint
 10
361.811884
 20
-141.781545
 30
0.0
  0
POINT
  5
23CC
100
AcDbEntity
  8
DEFPOINTS
  6
BYBLOCK
 62
     0
100
AcDbPoint
 10
361.811884
 20
-286.143794
 30
0.0
  0
ENDBLK
  5
23CD
100
AcDbEntity
  8
0
100
AcDbBlockEnd
  0
BLOCK
  5
24C1
100
AcDbEntity
  8
0
100
AcDbBlockBegin
  2
*D3
 70
     1
 10
0.0
 20
0.0
 30
0.0
  3
*D3
  1

  0
LINE
  5
24C2
100
AcDbEntity
  8
0
  6
BYBLOCK
 62
    41
100
AcDbLine
 10
-102.425236
 20
-111.867914
 30
0.0
 11
-102.425236
 21
-269.438133
 31
0.0
  0
LINE
  5
24C3
100
AcDbEntity
  8
0
  6
BYBLOCK
 62
    41
100
AcDbLine
 10
-154.636305
 20
-165.175507
 30
0.0
 11
-154.636305
 21
-269.438133
 31
0.0
  0
LINE
  5
24C4
100
AcDbEntity
  8
0
  6
BYBLOCK
 62
    41
100
AcDbLine
 10
-72.425236
 20
-268.188133
 30
0.0
 11
-42.425236
 21
-268.188133
 31
0.0
  0
LINE
  5
24C5
100
AcDbEntity
  8
0
  6
BYBLOCK
 62
    41
100
AcDbLine
 10
-184.636305
 20
-268.188133
 30
0.0
 11
-214.636305
 21
-268.188133
 31
0.0
  0
LINE
  5
24C6
100
AcDbEntity
  8
0
  6
BYBLOCK
 62
    41
100
AcDbLine
 10
-102.425236
 20
-268.188133
 30
0.0
 11
-154.636305
 21
-268.188133
 31
0.0
  0
INSERT
  5
24C7
100
AcDbEntity
  8
0
  6
BYBLOCK
 62
    41
100
AcDbBlockReference
  2
_OPEN
 10
-102.425236
 20
-268.188133
 30
0.0
 41
30.0
 42
30.0
 43
30.0
 50
180.0
  0
INSERT
  5
24C8
100
AcDbEntity
  8
0
  6
BYBLOCK
 62
    41
100
AcDbBlockReference
  2
_OPEN
 10
-154.636305
 20
-268.188133
 30
0.0
 41
30.0
 42
30.0
 43
30.0
  0
MTEXT
  5
24C9
100
AcDbEntity
  8
0
  6
BYBLOCK
 62
    41
100
AcDbMText
 10
-128.530771
 20
-251.18518
 30
0.0
 40
30.0
 41
0.0
 71
     5
 72
     1
  1
\A1;52
  7
ED30
  0
POINT
  5
24CA
100
AcDbEntity
  8
DEFPOINTS
  6
BYBLOCK
 62
     0
100
AcDbPoint
 10
-102.425236
 20
-110.867914
 30
0.0
  0
POINT
  5
24CB
100
AcDbEntity
  8
DEFPOINTS
  6
BYBLOCK
 62
     0
100
AcDbPoint
 10
-154.636305
 20
-164.175507
 30
0.0
  0
POINT
  5
24CC
100
AcDbEntity
  8
DEFPOINTS
  6
BYBLOCK
 62
     0
100
AcDbPoint
 10
-154.636305
 20
-268.188133
 30
0.0
  0
ENDBLK
  5
24CD
100
AcDbEntity
  8
0
100
AcDbBlockEnd
  0
BLOCK
  5
2488
100
AcDbEntity
  8
0
100
AcDbBlockBegin
  2
*D4
 70
     1
 10
0.0
 20
0.0
 30
0.0
  3
*D4
  1

  0
LINE
  5
2489
100
AcDbEntity
  8
0
  6
BYBLOCK
 62
    41
100
AcDbLine
 10
-139.636305
 20
-166.250507
 30
0.0
 11
-139.636305
 21
-268.414937
 31
0.0
  0
LINE
  5
248A
100
AcDbEntity
  8
0
  6
BYBLOCK
 62
    41
100
AcDbLine
 10
-280.929682
 20
38.172509
 30
0.0
 11
-280.929682
 21
-268.414937
 31
0.0
  0
LINE
  5
248B
100
AcDbEntity
  8
0
  6
BYBLOCK
 62
    41
100
AcDbLine
 10
-169.636305
 20
-267.164937
 30
0.0
 11
-250.929682
 21
-267.164937
 31
0.0
  0
INSERT
  5
248C
100
AcDbEntity
  8
0
  6
BYBLOCK
 62
    41
100
AcDbBlockReference
  2
_OPEN
 10
-139.636305
 20
-267.164937
 30
0.0
 41
30.0
 42
30.0
 43
30.0
  0
INSERT
  5
248D
100
AcDbEntity
  8
0
  6
BYBLOCK
 62
    41
100
AcDbBlockReference
  2
_OPEN
 10
-280.929682
 20
-267.164937
 30
0.0
 41
30.0
 42
30.0
 43
30.0
 50
180.0
  0
MTEXT
  5
248E
100
AcDbEntity
  8
0
  6
BYBLOCK
 62
    41
100
AcDbMText
 10
-210.282994
 20
-250.164937
 30
0.0
 40
30.0
 41
0.0
 71
     5
 72
     1
  1
\A1;141
  7
ED30
  0
POINT
  5
248F
100
AcDbEntity
  8
DEFPOINTS
  6
BYBLOCK
 62
     0
100
AcDbPoint
 10
-139.636305
 20
-165.250507
 30
0.0
  0
POINT
  5
2490
100
AcDbEntity
  8
DEFPOINTS
  6
BYBLOCK
 62
     0
100
AcDbPoint
 10
-280.929682
 20
39.172509
 30
0.0
  0
POINT
  5
2491
100
AcDbEntity
  8
DEFPOINTS
  6
BYBLOCK
 62
     0
100
AcDbPoint
 10
-280.929682
 20
-267.164937
 30
0.0
  0
ENDBLK
  5
2492
100
AcDbEntity
  8
0
100
AcDbBlockEnd
  0
BLOCK
  5
24CE
100
AcDbEntity
  8
0
100
AcDbBlockBegin
  2
*D5
 70
     1
 10
0.0
 20
0.0
 30
0.0
  3
*D5
  1

  0
LINE
  5
24CF
100
AcDbEntity
  8
0
  6
BYBLOCK
 62
    41
100
AcDbLine
 10
401.10907
 20
-124.345652
 30
0.0
 11
401.10907
 21
-227.956505
 31
0.0
  0
LINE
  5
24D0
100
AcDbEntity
  8
0
  6
BYBLOCK
 62
    41
100
AcDbLine
 10
821.045105
 20
-123.345652
 30
0.0
 11
821.045105
 21
-227.956505
 31
0.0
  0
LINE
  5
24D1
100
AcDbEntity
  8
0
  6
BYBLOCK
 62
    41
100
AcDbLine
 10
431.10907
 20
-226.706505
 30
0.0
 11
791.045105
 21
-226.706505
 31
0.0
  0
INSERT
  5
24D2
100
AcDbEntity
  8
0
  6
BYBLOCK
 62
    41
100
AcDbBlockReference
  2
_OPEN
 10
401.10907
 20
-226.706505
 30
0.0
 41
30.0
 42
30.0
 43
30.0
 50
180.0
  0
INSERT
  5
24D3
100
AcDbEntity
  8
0
  6
BYBLOCK
 62
    41
100
AcDbBlockReference
  2
_OPEN
 10
821.045105
 20
-226.706505
 30
0.0
 41
30.0
 42
30.0
 43
30.0
  0
MTEXT
  5
24D4
100
AcDbEntity
  8
0
  6
BYBLOCK
 62
    41
100
AcDbMText
 10
605.779829
 20
-209.703552
 30
0.0
 40
30.0
 41
0.0
 71
     5
 72
     1
  1
\A1;420
  7
ED30
  0
POINT
  5
24D5
100
AcDbEntity
  8
DEFPOINTS
  6
BYBLOCK
 62
     0
100
AcDbPoint
 10
401.10907
 20
-123.345652
 30
0.0
  0
POINT
  5
24D6
100
AcDbEntity
  8
DEFPOINTS
  6
BYBLOCK
 62
     0
100
AcDbPoint
 10
821.045105
 20
-122.345652
 30
0.0
  0
POINT
  5
24D7
100
AcDbEntity
  8
DEFPOINTS
  6
BYBLOCK
 62
     0
100
AcDbPoint
 10
821.045105
 20
-226.706505
 30
0.0
  0
ENDBLK
  5
24D8
100
AcDbEntity
  8
0
100
AcDbBlockEnd
  0
BLOCK
  5
24B6
100
AcDbEntity
  8
0
100
AcDbBlockBegin
  2
*D6
 70
     1
 10
0.0
 20
0.0
 30
0.0
  3
*D6
  1

  0
LINE
  5
24B7
100
AcDbEntity
  8
0
  6
BYBLOCK
 62
    41
100
AcDbLine
 10
-151.871607
 20
296.511153
 30
0.0
 11
36.106613
 21
296.511153
 31
0.0
  0
LINE
  5
24B8
100
AcDbEntity
  8
0
  6
BYBLOCK
 62
    41
100
AcDbLine
 10
-151.871607
 20
-117.763983
 30
0.0
 11
36.106613
 21
-117.763983
 31
0.0
  0
LINE
  5
24B9
100
AcDbEntity
  8
0
  6
BYBLOCK
 62
    41
100
AcDbLine
 10
34.856613
 20
266.511153
 30
0.0
 11
34.856613
 21
-87.763983
 31
0.0
  0
INSERT
  5
24BA
100
AcDbEntity
  8
0
  6
BYBLOCK
 62
    41
100
AcDbBlockReference
  2
_OPEN
 10
34.856613
 20
296.511153
 30
0.0
 41
30.0
 42
30.0
 43
30.0
 50
90.0
  0
INSERT
  5
24BB
100
AcDbEntity
  8
0
  6
BYBLOCK
 62
    41
100
AcDbBlockReference
  2
_OPEN
 10
34.856613
 20
-117.763983
 30
0.0
 41
30.0
 42
30.0
 43
30.0
 50
270.0
  0
MTEXT
  5
24BC
100
AcDbEntity
  8
0
  6
BYBLOCK
 62
    41
100
AcDbMText
 10
17.856613
 20
89.373585
 30
0.0
 40
30.0
 41
0.0
 71
     5
 72
     1
  1
\A1;\U+2205414
  7
ED30
 11
0.0
 21
1.0
 31
0.0
  0
POINT
  5
24BD
100
AcDbEntity
  8
DEFPOINTS
  6
BYBLOCK
 62
     0
100
AcDbPoint
 10
-152.871607
 20
296.511153
 30
0.0
  0
POINT
  5
24BE
100
AcDbEntity
  8
DEFPOINTS
  6
BYBLOCK
 62
     0
100
AcDbPoint
 10
-152.871607
 20
-117.763983
 30
0.0
  0
POINT
  5
24BF
100
AcDbEntity
  8
DEFPOINTS
  6
BYBLOCK
 62
     0
100
AcDbPoint
 10
34.856613
 20
-117.763983
 30
0.0
  0
ENDBLK
  5
24C0
100
AcDbEntity
  8
0
100
AcDbBlockEnd
  0
ENDSEC
  0
SECTION
  2
ENTITIES
  0
TEXT
  5
1347
100
AcDbEntity
  8
V0-VYPLNE
 62
     6
100
AcDbText
 10
317.308879
 20
-575.68395
 30
0.0
 40
48.0
  1
HXM-400
  7
ED40
100
AcDbText
  0
TEXT
  5
1348
100
AcDbEntity
  8
V0-VYPLNE
 62
     4
100
AcDbText
 10
220.639831
 20
-642.482945
 30
0.0
 40
36.0
  1
AXIALNI VENTILATOR
  7
ED30
100
AcDbText
  0
LINE
  5
1789
100
AcDbEntity
  8
VO-OBRYS
  6
CONTINUOUS
100
AcDbLine
 10
679.033521
 20
55.520085
 30
0.0
 11
799.197264
 21
-64.643658
 31
0.0
  0
ARC
  5
1791
100
AcDbEntity
  8
V0-OBRYS
  6
CONTINUOUS
100
AcDbCircle
 10
611.577088
 20
89.373585
 30
0.0
 40
78.162311
100
AcDbArc
 50
148.997281
 51
211.002719
  0
ARC
  5
1792
100
AcDbEntity
  8
V0-OBRYS
100
AcDbCircle
 10
632.996
 20
89.373585
 30
0.0
 40
243.900045
100
AcDbArc
 50
144.17889
 51
215.82111
  0
LINE
  5
1793
100
AcDbEntity
  8
V0-VYPLNE
100
AcDbLine
 10
611.577088
 20
89.373585
 30
0.0
 11
611.577088
 21
320.975887
 31
0.0
  0
LINE
  5
1794
100
AcDbEntity
  8
V0-VYPLNE
100
AcDbLine
 10
852.323271
 20
89.373585
 30
0.0
 11
356.117895
 21
89.373585
 31
0.0
  0
LINE
  5
17A6
100
AcDbEntity
  8
V0-VYPLNE
  6
DASHDOT
100
AcDbLine
 10
611.577088
 20
89.373585
 30
0.0
 11
611.577088
 21
-118.850704
 31
0.0
  0
LINE
  5
17C4
100
AcDbEntity
  8
VO-OBRYS
  6
CONTINUOUS
100
AcDbLine
 10
645.430588
 20
21.917151
 30
0.0
 11
765.594331
 21
-98.246592
 31
0.0
  0
LINE
  5
17C9
100
AcDbEntity
  8
V0-VYPLNE
100
AcDbLine
 10
611.577088
 20
89.373585
 30
0.0
 11
832.965373
 21
-132.014701
 31
0.0
  0
LINE
  5
17CA
100
AcDbEntity
  8
VO-OBRYS
  6
CONTINUOUS
100
AcDbLine
 10
577.723587
 20
21.917151
 30
0.0
 11
457.559845
 21
-98.246592
 31
0.0
  0
LINE
  5
17CC
100
AcDbEntity
  8
V0-VYPLNE
100
AcDbLine
 10
611.577088
 20
89.373585
 30
0.0
 11
389.188802
 21
-133.014701
 31
0.0
  0
LINE
  5
17CE
100
AcDbEntity
  8
VO-OBRYS
  6
CONTINUOUS
100
AcDbLine
 10
544.120654
 20
55.520085
 30
0.0
 11
423.956911
 21
-64.643658
 31
0.0
  0
LINE
  5
17D7
100
AcDbEntity
  8
VO-OBRYS
  6
CONTINUOUS
100
AcDbLine
 10
544.120654
 20
123.227085
 30
0.0
 11
423.956911
 21
243.390828
 31
0.0
  0
LINE
  5
17DB
100
AcDbEntity
  8
VO-OBRYS
  6
CONTINUOUS
100
AcDbLine
 10
577.723587
 20
156.830018
 30
0.0
 11
457.559845
 21
276.993761
 31
0.0
  0
LINE
  5
17E4
100
AcDbEntity
  8
VO-OBRYS
  6
CONTINUOUS
100
AcDbLine
 10
645.430588
 20
156.830018
 30
0.0
 11
765.594331
 21
276.993761
 31
0.0
  0
LINE
  5
17E8
100
AcDbEntity
  8
VO-OBRYS
  6
CONTINUOUS
100
AcDbLine
 10
679.033521
 20
123.227085
 30
0.0
 11
799.197264
 21
243.390828
 31
0.0
  0
LINE
  5
17ED
100
AcDbEntity
  8
V0-VYPLNE
100
AcDbLine
 10
818.487596
 20
224.100496
 30
0.0
 11
745.916044
 21
296.672048
 31
0.0
  0
ARC
  5
17F1
100
AcDbEntity
  8
VO-OBRYS
100
AcDbCircle
 10
638.332568
 20
89.373585
 30
0.0
 40
135.342961
100
AcDbArc
 50
153.381695
 51
206.618305
  0
ARC
  5
17F3
100
AcDbEntity
  8
VO-OBRYS
100
AcDbCircle
 10
637.577059
 20
89.373585
 30
0.0
 40
141.287078
100
AcDbArc
 50
152.355391
 51
207.644609
  0
ARC
  5
17F4
100
AcDbEntity
  8
VO-OBRYS
100
AcDbCircle
 10
611.577088
 20
65.873013
 30
0.0
 40
174.51902
100
AcDbArc
 50
58.377679
 51
121.622321
  0
ARC
  5
17F5
100
AcDbEntity
  8
VO-OBRYS
100
AcDbCircle
 10
611.577088
 20
66.174178
 30
0.0
 40
180.917482
100
AcDbArc
 50
57.827062
 51
122.172938
  0
ARC
  5
17F6
100
AcDbEntity
  8
VO-OBRYS
100
AcDbCircle
 10
611.577088
 20
67.340339
 30
0.0
 40
215.482663
100
AcDbArc
 50
55.519504
 51
124.480496
  0
ARC
  5
17F7
100
AcDbEntity
  8
VO-OBRYS
100
AcDbCircle
 10
611.577088
 20
67.501647
 30
0.0
 40
222.020982
100
AcDbArc
 50
55.176436
 51
124.823564
  0
LINE
  5
1807
100
AcDbEntity
  8
V0-OBRYS
100
AcDbLine
 10
-154.636305
 20
339.11944
 30
0.0
 11
-154.636305
 21
89.373585
 31
0.0
  0
LINE
  5
1808
100
AcDbEntity
  8
V0-OBRYS
100
AcDbLine
 10
-169.510698
 20
89.373585
 30
0.0
 11
-169.510698
 21
339.11944
 31
0.0
  0
LINE
  5
1809
100
AcDbEntity
  8
V0-OBRYS
100
AcDbLine
 10
-154.636305
 20
339.11944
 30
0.0
 11
-169.510698
 21
339.11944
 31
0.0
  0
LINE
  5
180C
100
AcDbEntity
  8
V0-OBRYS
100
AcDbLine
 10
-100.902968
 20
288.853949
 30
0.0
 11
-101.664102
 21
89.373585
 31
0.0
  0
LINE
  5
1811
100
AcDbEntity
  8
V0-OBRYS
100
AcDbLine
 10
-102.425236
 20
-110.867914
 30
0.0
 11
-101.664102
 21
89.373585
 31
0.0
  0
ARC
  5
1812
100
AcDbEntity
  8
V0-OBRYS
100
AcDbCircle
 10
632.88073
 20
89.373585
 30
0.0
 40
250.484402
100
AcDbArc
 50
143.916734
 51
216.083266
  0
LINE
  5
1813
100
AcDbEntity
  8
V0-OBRYS
100
AcDbLine
 10
-295.929682
 20
89.373585
 30
0.0
 11
-295.929682
 21
139.574661
 31
0.0
  0
ARC
  5
1825
100
AcDbEntity
  8
V0-OBRYS
  6
CONTINUOUS
100
AcDbCircle
 10
-290.351785
 20
139.574661
 30
0.0
 40
5.577897
100
AcDbArc
 50
90.0
 51
180.0
  0
LINE
  5
1835
100
AcDbEntity
  8
V0-OBRYS
  6
CONTINUOUS
100
AcDbLine
 10
382.673177
 20
339.138788
 30
0.0
 11
842.732217
 21
339.138788
 31
0.0
  0
LINE
  5
1836
100
AcDbEntity
  8
V0-OBRYS
  6
CONTINUOUS
100
AcDbLine
 10
861.342291
 20
320.528714
 30
0.0
 11
861.342291
 21
-141.781545
 31
0.0
  0
LINE
  5
1837
100
AcDbEntity
  8
V0-OBRYS
  6
CONTINUOUS
100
AcDbLine
 10
842.732217
 20
-160.391619
 30
0.0
 11
382.673177
 21
-160.391619
 31
0.0
  0
LINE
  5
1838
100
AcDbEntity
  8
V0-OBRYS
  6
CONTINUOUS
100
AcDbLine
 10
361.811884
 20
-141.781545
 30
0.0
 11
361.811884
 21
320.528714
 31
0.0
  0
ARC
  5
1839
100
AcDbEntity
  8
V0-OBRYS
  6
CONTINUOUS
100
AcDbCircle
 10
842.732217
 20
320.528714
 30
0.0
 40
18.610074
100
AcDbArc
 50
0.0
 51
90.0
  0
ARC
  5
183A
100
AcDbEntity
  8
V0-OBRYS
  6
CONTINUOUS
100
AcDbCircle
 10
842.732217
 20
-141.781545
 30
0.0
 40
18.610074
100
AcDbArc
 50
270.0
 51
0.0
  0
ARC
  5
183B
100
AcDbEntity
  8
V0-OBRYS
  6
CONTINUOUS
100
AcDbCircle
 10
382.359152
 20
-139.746175
 30
0.0
 40
20.647831
100
AcDbArc
 50
185.657144
 51
270.871423
  0
ARC
  5
183C
100
AcDbEntity
  8
V0-OBRYS
  6
CONTINUOUS
100
AcDbCircle
 10
382.359152
 20
318.493345
 30
0.0
 40
20.647831
100
AcDbArc
 50
89.128577
 51
174.342856
  0
DIMENSION
  5
1849
100
AcDbEntity
  8
V0-VYPLNE
  6
CONTINUOUS
 62
    41
100
AcDbDimension
  2
*D3
 10
-154.636305
 20
-268.188133
 30
0.0
 11
-128.530771
 21
-268.188133
 31
0.0
 70
   160
  3
ED30
100
AcDbAlignedDimension
 13
-102.425236
 23
-110.867914
 33
0.0
 14
-154.636305
 24
-164.175507
 34
0.0
100
AcDbRotatedDimension
1001
ACAD
1000
DSTYLE
1002
{
1070
   140
1040
30.0
1070
   340
1005
F38
1070
    41
1040
30.0
1002
}
  0
DIMENSION
  5
1886
100
AcDbEntity
  8
V0-VYPLNE
  6
CONTINUOUS
 62
    41
100
AcDbDimension
  2
*D1
 10
-9.970334
 20
-110.867914
 30
0.0
 11
-9.970334
 21
89.373585
 31
0.0
 70
   160
  1
%%c<>
  3
ED30
100
AcDbAlignedDimension
 13
-100.902968
 23
288.853949
 33
0.0
 14
-102.425236
 24
-110.867914
 34
0.0
 50
270.0
100
AcDbRotatedDimension
1001
ACAD
1000
DSTYLE
1002
{
1070
   140
1040
30.0
1070
   340
1005
F38
1070
    41
1040
30.0
1002
}
  0
DIMENSION
  5
1893
100
AcDbEntity
  8
V0-VYPLNE
  6
CONTINUOUS
 62
    41
100
AcDbDimension
  2
*D2
 10
361.811884
 20
-286.143794
 30
0.0
 11
611.282081
 21
-286.143794
 31
0.0
 70
   160
  3
ED30
100
AcDbAlignedDimension
 13
861.342291
 23
-141.781545
 33
0.0
 14
361.811884
 24
-141.781545
 34
0.0
100
AcDbRotatedDimension
1001
ACAD
1000
DSTYLE
1002
{
1070
   140
1040
30.0
1070
   340
1005
F38
1070
    41
1040
30.0
1002
}
  0
POINT
  5
18A1
100
AcDbEntity
  8
V0-VYPLNE
  6
CONTINUOUS
 62
    41
100
AcDbPoint
 10
-101.664102
 20
89.373585
 30
0.0
  0
LINE
  5
18D7
100
AcDbEntity
  8
V0-VYPLNE
  6
CONTINUOUS
 62
    41
100
AcDbLine
 10
-345.437373
 20
89.373585
 30
0.0
 11
-451.212926
 21
89.373585
 31
0.0
  0
LINE
  5
18D8
100
AcDbEntity
  8
V0-VYPLNE
  6
CONTINUOUS
 62
    41
100
AcDbLine
 10
-345.437373
 20
89.373585
 30
0.0
 11
-419.542744
 21
107.864856
 31
0.0
  0
LINE
  5
18D9
100
AcDbEntity
  8
V0-VYPLNE
  6
CONTINUOUS
 62
    41
100
AcDbLine
 10
-345.437373
 20
89.373585
 30
0.0
 11
-419.542744
 21
70.882313
 31
0.0
  0
LINE
  5
18DA
100
AcDbEntity
  8
V0-VYPLNE
  6
CONTINUOUS
 62
    41
100
AcDbLine
 10
-345.437373
 20
89.373585
 30
0.0
 11
-345.437373
 21
89.373585
 31
0.0
  0
TEXT
  5
18DD
100
AcDbEntity
  8
V0-VYPLNE
 62
     6
100
AcDbText
 10
-208.453159
 20
366.771474
 30
0.0
 40
38.184
  1
HXM-400
  7
ED30
100
AcDbText
  0
TEXT
  5
18DE
100
AcDbEntity
  8
V0-VYPLNE
 62
     6
100
AcDbText
 10
516.39059
 20
370.173783
 30
0.0
 40
38.184
  1
HXM-400
  7
ED30
100
AcDbText
  0
LINE
  5
1ADA
100
AcDbEntity
  8
V0-OBRYS
  6
CONTINUOUS
100
AcDbLine
 10
-230.540803
 20
145.152558
 30
0.0
 11
-230.540803
 21
89.373585
 31
0.0
  0
LINE
  5
1AE3
100
AcDbEntity
  8
V0-OBRYS
  6
CONTINUOUS
100
AcDbLine
 10
-230.540803
 20
145.152558
 30
0.0
 11
-290.351785
 21
145.152558
 31
0.0
  0
LINE
  5
1AE9
100
AcDbEntity
  8
V0-OBRYS
  6
CONTINUOUS
100
AcDbLine
 10
-169.510698
 20
154.449054
 30
0.0
 11
-191.2856
 21
154.449054
 31
0.0
  0
LINE
  5
1B1D
100
AcDbEntity
  8
VO-OBRYS
  6
CONTINUOUS
100
AcDbLine
 10
-169.788165
 20
329.992286
 30
0.0
 11
-172.69273
 21
324.579103
 31
0.0
  0
LINE
  5
1B24
100
AcDbEntity
  8
V0-OBRYS
  6
CONTINUOUS
100
AcDbLine
 10
-220.104737
 20
168.957207
 30
0.0
 11
-220.104737
 21
89.373585
 31
0.0
  0
LINE
  5
1B25
100
AcDbEntity
  8
V0-OBRYS
  6
CONTINUOUS
100
AcDbLine
 10
-222.893685
 20
168.957207
 30
0.0
 11
-222.893685
 21
89.373585
 31
0.0
  0
LINE
  5
1B2C
100
AcDbEntity
  8
VO-OBRYS
  6
CONTINUOUS
100
AcDbLine
 10
-202.441395
 20
89.373585
 30
0.0
 11
-202.441395
 21
242.335816
 31
0.0
  0
LINE
  5
1B2F
100
AcDbEntity
  8
VO-OBRYS
  6
CONTINUOUS
100
AcDbLine
 10
-200.582096
 20
89.373585
 30
0.0
 11
-200.582096
 21
242.335816
 31
0.0
  0
LINE
  5
1B30
100
AcDbEntity
  8
VO-OBRYS
  6
CONTINUOUS
100
AcDbLine
 10
-193.144899
 20
89.373585
 30
0.0
 11
-193.144899
 21
275.084665
 31
0.0
  0
LINE
  5
1B33
100
AcDbEntity
  8
VO-OBRYS
  6
CONTINUOUS
100
AcDbLine
 10
-191.2856
 20
89.373585
 30
0.0
 11
-191.2856
 21
275.084665
 31
0.0
  0
LINE
  5
1B34
100
AcDbEntity
  8
VO-OBRYS
  6
CONTINUOUS
100
AcDbLine
 10
-183.848404
 20
89.373585
 30
0.0
 11
-183.848404
 21
303.236231
 31
0.0
  0
LINE
  5
1B37
100
AcDbEntity
  8
VO-OBRYS
  6
CONTINUOUS
100
AcDbLine
 10
-181.989105
 20
89.373585
 30
0.0
 11
-181.989105
 21
303.236231
 31
0.0
  0
LINE
  5
1B38
100
AcDbEntity
  8
VO-OBRYS
  6
CONTINUOUS
100
AcDbLine
 10
-174.551908
 20
89.373585
 30
0.0
 11
-174.551908
 21
324.564139
 31
0.0
  0
LINE
  5
1B3B
100
AcDbEntity
  8
VO-OBRYS
  6
CONTINUOUS
100
AcDbLine
 10
-172.692609
 20
89.373585
 30
0.0
 11
-172.692609
 21
324.564139
 31
0.0
  0
ARC
  5
1B3D
100
AcDbEntity
  8
VO-OBRYS
  6
CONTINUOUS
100
AcDbCircle
 10
-182.918754
 20
303.236231
 30
0.0
 40
0.92965
100
AcDbArc
 50
0.0
 51
180.0
  0
ARC
  5
1B3E
100
AcDbEntity
  8
VO-OBRYS
  6
CONTINUOUS
100
AcDbCircle
 10
-192.21525
 20
275.084665
 30
0.0
 40
0.92965
100
AcDbArc
 50
0.0
 51
180.0
  0
ARC
  5
1B3F
100
AcDbEntity
  8
VO-OBRYS
  6
CONTINUOUS
100
AcDbCircle
 10
-201.511745
 20
242.335816
 30
0.0
 40
0.92965
100
AcDbArc
 50
0.0
 51
180.0
  0
LINE
  5
1B44
100
AcDbEntity
  8
VO-OBRYS
  6
CONTINUOUS
100
AcDbLine
 10
-211.737891
 20
89.373585
 30
0.0
 11
-211.737891
 21
210.558839
 31
0.0
  0
LINE
  5
1B45
100
AcDbEntity
  8
V0-VYPLNE
100
AcDbLine
 10
-212.607458
 20
89.373585
 30
0.0
 11
-427.131482
 21
89.373585
 31
0.0
  0
LINE
  5
1B47
100
AcDbEntity
  8
VO-OBRYS
  6
CONTINUOUS
100
AcDbLine
 10
-209.878591
 20
89.373585
 30
0.0
 11
-209.878591
 21
210.558839
 31
0.0
  0
ARC
  5
1B48
100
AcDbEntity
  8
VO-OBRYS
  6
CONTINUOUS
100
AcDbCircle
 10
-210.808241
 20
210.558839
 30
0.0
 40
0.92965
100
AcDbArc
 50
0.0
 51
180.0
  0
LINE
  5
1B51
100
AcDbEntity
  8
VO-OBRYS
  6
CONTINUOUS
100
AcDbLine
 10
-169.361572
 20
328.182586
 30
0.0
 11
-172.096836
 21
322.809312
 31
0.0
  0
LINE
  5
1B56
100
AcDbEntity
  8
VO-OBRYS
  6
CONTINUOUS
100
AcDbLine
 10
-174.551908
 20
322.486962
 30
0.0
 11
-181.989105
 21
300.885166
 31
0.0
  0
LINE
  5
1B57
100
AcDbEntity
  8
VO-OBRYS
  6
CONTINUOUS
100
AcDbLine
 10
-172.096836
 20
322.809312
 30
0.0
 11
-172.692609
 21
321.078852
 31
0.0
  0
LINE
  5
1B58
100
AcDbEntity
  8
VO-OBRYS
  6
CONTINUOUS
100
AcDbLine
 10
-193.144899
 20
267.33315
 30
0.0
 11
-200.582096
 21
241.13407
 31
0.0
  0
LINE
  5
1B59
100
AcDbEntity
  8
VO-OBRYS
  6
CONTINUOUS
100
AcDbLine
 10
-193.144899
 20
260.524591
 30
0.0
 11
-200.582096
 21
234.325511
 31
0.0
  0
LINE
  5
1B5A
100
AcDbEntity
  8
VO-OBRYS
  6
CONTINUOUS
100
AcDbLine
 10
-202.441395
 20
234.584301
 30
0.0
 11
-209.878591
 21
208.385221
 31
0.0
  0
LINE
  5
1B5B
100
AcDbEntity
  8
VO-OBRYS
  6
CONTINUOUS
100
AcDbLine
 10
-202.441395
 20
227.775741
 30
0.0
 11
-209.878591
 21
201.576662
 31
0.0
  0
LINE
  5
1B5C
100
AcDbEntity
  8
VO-OBRYS
  6
CONTINUOUS
100
AcDbLine
 10
-211.737891
 20
201.835451
 30
0.0
 11
-220.739221
 21
170.126384
 31
0.0
  0
LINE
  5
1B5D
100
AcDbEntity
  8
VO-OBRYS
  6
CONTINUOUS
100
AcDbLine
 10
-211.737891
 20
195.026892
 30
0.0
 11
-220.104737
 21
165.552928
 31
0.0
  0
ARC
  5
1B5E
100
AcDbEntity
  8
V0-OBRYS
  6
CONTINUOUS
100
AcDbCircle
 10
-221.499211
 20
168.957207
 30
0.0
 40
1.394474
100
AcDbArc
 50
0.0
 51
180.0
  0
LINE
  5
1B62
100
AcDbEntity
  8
V0-OBRYS
  6
CONTINUOUS
100
AcDbLine
 10
-193.144899
 20
154.449054
 30
0.0
 11
-200.582096
 21
154.449054
 31
0.0
  0
LINE
  5
1B63
100
AcDbEntity
  8
V0-OBRYS
  6
CONTINUOUS
100
AcDbLine
 10
-202.441395
 20
154.449054
 30
0.0
 11
-209.878591
 21
154.449054
 31
0.0
  0
LINE
  5
1B64
100
AcDbEntity
  8
V0-OBRYS
  6
CONTINUOUS
100
AcDbLine
 10
-211.737891
 20
154.449054
 30
0.0
 11
-220.104737
 21
154.449054
 31
0.0
  0
LINE
  5
1B65
100
AcDbEntity
  8
V0-OBRYS
  6
CONTINUOUS
100
AcDbLine
 10
-222.893685
 20
154.449054
 30
0.0
 11
-221.244307
 21
154.449054
 31
0.0
  0
LINE
  5
1B66
100
AcDbEntity
  8
VO-OBRYS
  6
CONTINUOUS
100
AcDbLine
 10
-281.891355
 20
145.934655
 30
0.0
 11
-281.891355
 21
89.481588
 31
0.0
  0
LINE
  5
1B67
100
AcDbEntity
  8
VO-OBRYS
  6
CONTINUOUS
100
AcDbLine
 10
-211.737891
 20
-23.088282
 30
0.0
 11
-220.739221
 21
8.620785
 31
0.0
  0
LINE
  5
1B68
100
AcDbEntity
  8
VO-OBRYS
  6
CONTINUOUS
100
AcDbLine
 10
-211.737891
 20
-16.279723
 30
0.0
 11
-220.104737
 21
13.194242
 31
0.0
  0
LINE
  5
1B69
100
AcDbEntity
  8
VO-OBRYS
  6
CONTINUOUS
100
AcDbLine
 10
-209.878591
 20
89.373585
 30
0.0
 11
-209.878591
 21
-31.81167
 31
0.0
  0
LINE
  5
1B6A
100
AcDbEntity
  8
VO-OBRYS
  6
CONTINUOUS
100
AcDbLine
 10
-211.737891
 20
89.373585
 30
0.0
 11
-211.737891
 21
-31.81167
 31
0.0
  0
LINE
  5
1B6B
100
AcDbEntity
  8
VO-OBRYS
  6
CONTINUOUS
100
AcDbLine
 10
-200.582096
 20
89.373585
 30
0.0
 11
-200.582096
 21
-63.588646
 31
0.0
  0
LINE
  5
1B6C
100
AcDbEntity
  8
VO-OBRYS
  6
CONTINUOUS
100
AcDbLine
 10
-202.441395
 20
89.373585
 30
0.0
 11
-202.441395
 21
-63.588646
 31
0.0
  0
LINE
  5
1B6D
100
AcDbEntity
  8
VO-OBRYS
  6
CONTINUOUS
100
AcDbLine
 10
-191.2856
 20
89.373585
 30
0.0
 11
-191.2856
 21
-96.337496
 31
0.0
  0
LINE
  5
1B6E
100
AcDbEntity
  8
VO-OBRYS
  6
CONTINUOUS
100
AcDbLine
 10
-193.144899
 20
89.373585
 30
0.0
 11
-193.144899
 21
-96.337496
 31
0.0
  0
LINE
  5
1B6F
100
AcDbEntity
  8
VO-OBRYS
  6
CONTINUOUS
100
AcDbLine
 10
-181.989105
 20
89.373585
 30
0.0
 11
-181.989105
 21
-129.086345
 31
0.0
  0
LINE
  5
1B70
100
AcDbEntity
  8
VO-OBRYS
  6
CONTINUOUS
100
AcDbLine
 10
-183.848404
 20
89.373585
 30
0.0
 11
-183.848404
 21
-129.086345
 31
0.0
  0
LINE
  5
1B73
100
AcDbEntity
  8
V0-OBRYS
100
AcDbLine
 10
-169.510698
 20
89.373585
 30
0.0
 11
-169.510698
 21
-160.37227
 31
0.0
  0
LINE
  5
1B74
100
AcDbEntity
  8
V0-OBRYS
  6
CONTINUOUS
100
AcDbLine
 10
-202.441395
 20
24.298116
 30
0.0
 11
-209.878591
 21
24.298116
 31
0.0
  0
LINE
  5
1B75
100
AcDbEntity
  8
V0-OBRYS
  6
CONTINUOUS
100
AcDbLine
 10
-230.540803
 20
33.594611
 30
0.0
 11
-290.351785
 21
33.594611
 31
0.0
  0
LINE
  5
1B76
100
AcDbEntity
  8
VO-OBRYS
  6
CONTINUOUS
100
AcDbLine
 10
-281.891355
 20
32.812514
 30
0.0
 11
-281.891355
 21
89.265581
 31
0.0
  0
LINE
  5
1B77
100
AcDbEntity
  8
V0-OBRYS
100
AcDbLine
 10
-295.929682
 20
89.373585
 30
0.0
 11
-295.929682
 21
39.172509
 31
0.0
  0
ARC
  5
1B78
100
AcDbEntity
  8
V0-OBRYS
  6
CONTINUOUS
100
AcDbCircle
 10
-290.351785
 20
39.172509
 30
0.0
 40
5.577897
100
AcDbArc
 50
180.0
 51
270.0
  0
LINE
  5
1B79
100
AcDbEntity
  8
V0-OBRYS
  6
CONTINUOUS
100
AcDbLine
 10
-230.540803
 20
33.594611
 30
0.0
 11
-230.540803
 21
89.373585
 31
0.0
  0
LINE
  5
1B7B
100
AcDbEntity
  8
V0-OBRYS
  6
CONTINUOUS
100
AcDbLine
 10
-220.104737
 20
9.789962
 30
0.0
 11
-220.104737
 21
89.373585
 31
0.0
  0
LINE
  5
1B7C
100
AcDbEntity
  8
V0-OBRYS
  6
CONTINUOUS
100
AcDbLine
 10
-222.893685
 20
9.789962
 30
0.0
 11
-222.893685
 21
89.373585
 31
0.0
  0
LINE
  5
1B7D
100
AcDbEntity
  8
V0-OBRYS
  6
CONTINUOUS
100
AcDbLine
 10
-222.893685
 20
24.298116
 30
0.0
 11
-221.244307
 21
24.298116
 31
0.0
  0
LINE
  5
1B7F
100
AcDbEntity
  8
V0-OBRYS
  6
CONTINUOUS
100
AcDbLine
 10
-211.737891
 20
24.298116
 30
0.0
 11
-220.104737
 21
24.298116
 31
0.0
  0
ARC
  5
1B80
100
AcDbEntity
  8
V0-OBRYS
  6
CONTINUOUS
100
AcDbCircle
 10
-221.499211
 20
9.789962
 30
0.0
 40
1.394474
100
AcDbArc
 50
180.0
 51
0.0
  0
LINE
  5
1B83
100
AcDbEntity
  8
V0-OBRYS
  6
CONTINUOUS
100
AcDbLine
 10
-193.144899
 20
24.298116
 30
0.0
 11
-200.582096
 21
24.298116
 31
0.0
  0
LINE
  5
1B84
100
AcDbEntity
  8
V0-OBRYS
  6
CONTINUOUS
100
AcDbLine
 10
-183.848404
 20
24.298116
 30
0.0
 11
-191.2856
 21
24.298116
 31
0.0
  0
LINE
  5
1B86
100
AcDbEntity
  8
VO-OBRYS
  6
CONTINUOUS
100
AcDbLine
 10
-202.441395
 20
-49.028572
 30
0.0
 11
-209.878591
 21
-22.829493
 31
0.0
  0
LINE
  5
1B87
100
AcDbEntity
  8
VO-OBRYS
  6
CONTINUOUS
100
AcDbLine
 10
-202.441395
 20
-55.837131
 30
0.0
 11
-209.878591
 21
-29.638052
 31
0.0
  0
ARC
  5
1B88
100
AcDbEntity
  8
VO-OBRYS
  6
CONTINUOUS
100
AcDbCircle
 10
-210.808241
 20
-31.81167
 30
0.0
 40
0.92965
100
AcDbArc
 50
180.0
 51
0.0
  0
LINE
  5
1B8A
100
AcDbEntity
  8
VO-OBRYS
  6
CONTINUOUS
100
AcDbLine
 10
-193.144899
 20
-81.777421
 30
0.0
 11
-200.582096
 21
-55.578342
 31
0.0
  0
LINE
  5
1B8B
100
AcDbEntity
  8
VO-OBRYS
  6
CONTINUOUS
100
AcDbLine
 10
-183.848404
 20
-114.526271
 30
0.0
 11
-191.2856
 21
-88.327191
 31
0.0
  0
LINE
  5
1B8C
100
AcDbEntity
  8
VO-OBRYS
  6
CONTINUOUS
100
AcDbLine
 10
-193.144899
 20
-88.585981
 30
0.0
 11
-200.582096
 21
-62.386901
 31
0.0
  0
ARC
  5
1B8D
100
AcDbEntity
  8
VO-OBRYS
  6
CONTINUOUS
100
AcDbCircle
 10
-201.511745
 20
-63.588646
 30
0.0
 40
0.92965
100
AcDbArc
 50
180.0
 51
0.0
  0
LINE
  5
1B8E
100
AcDbEntity
  8
VO-OBRYS
  6
CONTINUOUS
100
AcDbLine
 10
-183.848404
 20
-121.33483
 30
0.0
 11
-191.2856
 21
-95.13575
 31
0.0
  0
ARC
  5
1B8F
100
AcDbEntity
  8
VO-OBRYS
  6
CONTINUOUS
100
AcDbCircle
 10
-192.21525
 20
-96.337496
 30
0.0
 40
0.92965
100
AcDbArc
 50
180.0
 51
0.0
  0
LINE
  5
1B90
100
AcDbEntity
  8
V0-OBRYS
100
AcDbLine
 10
-154.636305
 20
-160.37227
 30
0.0
 11
-169.510698
 21
-160.37227
 31
0.0
  0
LINE
  5
1B9A
100
AcDbEntity
  8
VO-OBRYS
  6
CONTINUOUS
100
AcDbLine
 10
-169.884242
 20
154.698264
 30
0.0
 11
-174.929345
 21
271.740185
 31
0.0
  0
LINE
  5
1B9B
100
AcDbEntity
  8
VO-OBRYS
  6
CONTINUOUS
100
AcDbLine
 10
-174.929345
 20
271.740185
 30
0.0
 11
-167.316277
 21
272.748272
 31
0.0
  0
LINE
  5
1BA0
100
AcDbEntity
  8
V0-VYPLNE
  6
DASHED
 62
    52
100
AcDbLine
 10
-167.509373
 20
275.54078
 30
0.0
 11
-150.0948
 21
281.54078
 31
0.0
  0
LINE
  5
1BA1
100
AcDbEntity
  8
V0-VYPLNE
  6
DASHED
 62
    52
100
AcDbLine
 10
-150.0948
 20
281.54078
 30
0.0
 11
-105.328798
 21
278.470454
 31
0.0
  0
LINE
  5
1BA2
100
AcDbEntity
  8
V0-VYPLNE
  6
DASHED
 62
    52
100
AcDbLine
 10
-105.328798
 20
278.470454
 30
0.0
 11
-112.499507
 21
155.490614
 31
0.0
  0
LINE
  5
1BA4
100
AcDbEntity
  8
V0-VYPLNE
  6
DASHED
 62
    52
100
AcDbLine
 10
-105.328798
 20
278.470454
 30
0.0
 11
-161.363056
 21
155.490619
 31
0.0
  0
LINE
  5
1BA6
100
AcDbEntity
  8
V0-VYPLNE
  6
DASHED
 62
    52
100
AcDbLine
 10
-150.0948
 20
-102.793611
 30
0.0
 11
-105.328798
 21
-99.723285
 31
0.0
  0
LINE
  5
1BA8
100
AcDbEntity
  8
V0-VYPLNE
  6
DASHED
 62
    52
100
AcDbLine
 10
-167.509373
 20
-96.793611
 30
0.0
 11
-150.0948
 21
-102.793611
 31
0.0
  0
LINE
  5
1BA9
100
AcDbEntity
  8
VO-OBRYS
  6
CONTINUOUS
100
AcDbLine
 10
-174.929345
 20
-92.993015
 30
0.0
 11
-167.316277
 21
-94.001103
 31
0.0
  0
LINE
  5
1BB3
100
AcDbEntity
  8
V0-VYPLNE
  6
DASHED
 62
    52
100
AcDbLine
 10
-167.376283
 20
-96.916906
 30
0.0
 11
-149.961714
 21
-102.90446
 31
0.0
  0
LINE
  5
1BB4
100
AcDbEntity
  8
VO-OBRYS
  6
CONTINUOUS
100
AcDbLine
 10
-174.798968
 20
-93.125278
 30
0.0
 11
-167.185183
 21
-94.122549
 31
0.0
  0
LINE
  5
1BB5
100
AcDbEntity
  8
V0-VYPLNE
  6
DASHED
 62
    52
100
AcDbLine
 10
-149.961714
 20
-102.90446
 30
0.0
 11
-105.197913
 21
-99.814369
 31
0.0
  0
LINE
  5
1BB7
100
AcDbEntity
  8
V0-VYPLNE
  6
DASHED
 62
    52
100
AcDbLine
 10
-106.348173
 20
146.052548
 30
0.0
 11
-106.348173
 21
89.371681
 31
0.0
  0
ARC
  5
1BB9
100
AcDbEntity
  8
V0-VYPLNE
  6
DASHED
 62
    52
100
AcDbCircle
 10
-115.786239
 20
146.052548
 30
0.0
 40
9.438067
100
AcDbArc
 50
0.0
 51
90.0
  0
ARC
  5
1BBC
100
AcDbEntity
  8
V0-OBRYS
  6
CONTINUOUS
100
AcDbCircle
 10
-221.244307
 20
145.152558
 30
0.0
 40
9.296496
100
AcDbArc
 50
90.0
 51
180.0
  0
LINE
  5
1BBE
100
AcDbEntity
  8
V0-VYPLNE
  6
DASHED
 62
    52
100
AcDbLine
 10
-115.786239
 20
155.490614
 30
0.0
 11
-169.737212
 21
155.490614
 31
0.0
  0
LINE
  5
1BBF
100
AcDbEntity
  8
V0-VYPLNE
  6
DASHED
 62
    52
100
AcDbLine
 10
-105.328798
 20
-99.723285
 30
0.0
 11
-112.499507
 21
23.256555
 31
0.0
  0
LINE
  5
1BC0
100
AcDbEntity
  8
V0-VYPLNE
  6
DASHED
 62
    52
100
AcDbLine
 10
-105.328798
 20
-99.723285
 30
0.0
 11
-161.363056
 21
23.256551
 31
0.0
  0
LINE
  5
1BC1
100
AcDbEntity
  8
V0-VYPLNE
  6
DASHED
 62
    52
100
AcDbLine
 10
-115.786239
 20
23.256555
 30
0.0
 11
-169.737212
 21
23.256555
 31
0.0
  0
LINE
  5
1BC2
100
AcDbEntity
  8
V0-VYPLNE
  6
DASHED
 62
    52
100
AcDbLine
 10
-106.348173
 20
32.694621
 30
0.0
 11
-106.348173
 21
89.375488
 31
0.0
  0
ARC
  5
1BC3
100
AcDbEntity
  8
V0-VYPLNE
  6
DASHED
 62
    52
100
AcDbCircle
 10
-115.786239
 20
32.694621
 30
0.0
 40
9.438067
100
AcDbArc
 50
270.0
 51
0.0
  0
LINE
  5
1BC4
100
AcDbEntity
  8
V0-VYPLNE
  6
DASHED
 62
    52
100
AcDbLine
 10
-167.509373
 20
-96.793611
 30
0.0
 11
-150.0948
 21
-102.793611
 31
0.0
  0
LINE
  5
1BC5
100
AcDbEntity
  8
V0-VYPLNE
  6
DASHED
 62
    52
100
AcDbLine
 10
-150.0948
 20
-102.793611
 30
0.0
 11
-105.328798
 21
-99.723285
 31
0.0
  0
LINE
  5
1BC6
100
AcDbEntity
  8
VO-OBRYS
  6
CONTINUOUS
100
AcDbLine
 10
-169.884242
 20
24.048905
 30
0.0
 11
-174.929345
 21
-92.993015
 31
0.0
  0
LINE
  5
1BC7
100
AcDbEntity
  8
VO-OBRYS
  6
CONTINUOUS
100
AcDbLine
 10
-174.929345
 20
-92.993015
 30
0.0
 11
-167.316277
 21
-94.001103
 31
0.0
  0
ARC
  5
1BC8
100
AcDbEntity
  8
V0-OBRYS
  6
CONTINUOUS
100
AcDbCircle
 10
-221.244307
 20
33.594611
 30
0.0
 40
9.296496
100
AcDbArc
 50
180.0
 51
270.0
  0
ARC
  5
1BC9
100
AcDbEntity
  8
VO-OBRYS
100
AcDbCircle
 10
633.610333
 20
89.373585
 30
0.0
 40
215.482663
100
AcDbArc
 50
145.519504
 51
214.480496
  0
ARC
  5
1BCA
100
AcDbEntity
  8
VO-OBRYS
100
AcDbCircle
 10
633.449025
 20
89.373585
 30
0.0
 40
222.020982
100
AcDbArc
 50
145.176436
 51
214.823564
  0
ARC
  5
1BCB
100
AcDbEntity
  8
VO-OBRYS
100
AcDbCircle
 10
635.077659
 20
89.373585
 30
0.0
 40
174.51902
100
AcDbArc
 50
148.377679
 51
211.622321
  0
ARC
  5
1BCC
100
AcDbEntity
  8
VO-OBRYS
100
AcDbCircle
 10
634.776494
 20
89.373585
 30
0.0
 40
180.917482
100
AcDbArc
 50
147.827062
 51
212.172938
  0
ARC
  5
1BCD
100
AcDbEntity
  8
VO-OBRYS
100
AcDbCircle
 10
606.270914
 20
84.067411
 30
0.0
 40
113.893653
100
AcDbArc
 50
330.932804
 51
119.067196
  0
ARC
  5
1BCE
100
AcDbEntity
  8
VO-OBRYS
100
AcDbCircle
 10
606.270914
 20
84.067411
 30
0.0
 40
120.59328
100
AcDbArc
 50
330.026114
 51
119.973886
  0
ARC
  5
1BCF
100
AcDbEntity
  8
VO-OBRYS
100
AcDbCircle
 10
588.377681
 20
89.373585
 30
0.0
 40
180.917482
100
AcDbArc
 50
327.827062
 51
32.172938
  0
ARC
  5
1BD0
100
AcDbEntity
  8
VO-OBRYS
100
AcDbCircle
 10
588.076516
 20
89.373585
 30
0.0
 40
174.51902
100
AcDbArc
 50
328.377679
 51
31.622321
  0
ARC
  5
1BD1
100
AcDbEntity
  8
VO-OBRYS
100
AcDbCircle
 10
589.543842
 20
89.373585
 30
0.0
 40
215.482663
100
AcDbArc
 50
325.519504
 51
34.480496
  0
ARC
  5
1BD2
100
AcDbEntity
  8
VO-OBRYS
100
AcDbCircle
 10
589.70515
 20
89.373585
 30
0.0
 40
222.020982
100
AcDbArc
 50
325.176436
 51
34.823564
  0
ARC
  5
1BD3
100
AcDbEntity
  8
VO-OBRYS
100
AcDbCircle
 10
611.577088
 20
111.245522
 30
0.0
 40
222.020982
100
AcDbArc
 50
235.176436
 51
304.823564
  0
ARC
  5
1BD4
100
AcDbEntity
  8
VO-OBRYS
100
AcDbCircle
 10
611.577088
 20
111.406831
 30
0.0
 40
215.482663
100
AcDbArc
 50
235.519504
 51
304.480496
  0
ARC
  5
1BD5
100
AcDbEntity
  8
VO-OBRYS
100
AcDbCircle
 10
611.577088
 20
112.572991
 30
0.0
 40
180.917482
100
AcDbArc
 50
237.827062
 51
302.172938
  0
ARC
  5
1BD6
100
AcDbEntity
  8
VO-OBRYS
100
AcDbCircle
 10
611.577088
 20
112.874156
 30
0.0
 40
174.51902
100
AcDbArc
 50
238.377679
 51
301.622321
  0
ARC
  5
1BD7
100
AcDbEntity
  8
VO-OBRYS
100
AcDbCircle
 10
611.577088
 20
115.373556
 30
0.0
 40
141.287078
100
AcDbArc
 50
242.355391
 51
297.644609
  0
ARC
  5
1BD8
100
AcDbEntity
  8
VO-OBRYS
100
AcDbCircle
 10
611.577088
 20
116.129066
 30
0.0
 40
135.342961
100
AcDbArc
 50
243.381695
 51
296.618305
  0
ARC
  5
1BD9
100
AcDbEntity
  8
V0-OBRYS
100
AcDbCircle
 10
611.577088
 20
67.954673
 30
0.0
 40
243.900045
100
AcDbArc
 50
54.17889
 51
125.82111
  0
ARC
  5
1BDA
100
AcDbEntity
  8
V0-OBRYS
100
AcDbCircle
 10
611.577088
 20
68.069942
 30
0.0
 40
250.484402
100
AcDbArc
 50
53.916734
 51
126.083266
  0
ARC
  5
1BDB
100
AcDbEntity
  8
V0-OBRYS
100
AcDbCircle
 10
590.158175
 20
89.373585
 30
0.0
 40
243.900045
100
AcDbArc
 50
324.17889
 51
35.82111
  0
ARC
  5
1BDC
100
AcDbEntity
  8
V0-OBRYS
100
AcDbCircle
 10
590.273445
 20
89.373585
 30
0.0
 40
250.484402
100
AcDbArc
 50
323.916734
 51
36.083266
  0
ARC
  5
1BDD
100
AcDbEntity
  8
V0-OBRYS
100
AcDbCircle
 10
611.577088
 20
110.792497
 30
0.0
 40
243.900045
100
AcDbArc
 50
234.17889
 51
305.82111
  0
ARC
  5
1BDE
100
AcDbEntity
  8
V0-OBRYS
100
AcDbCircle
 10
611.577088
 20
110.677227
 30
0.0
 40
250.484402
100
AcDbArc
 50
233.916734
 51
306.083266
  0
LINE
  5
1BDF
100
AcDbEntity
  8
V0-OBRYS
  6
CONTINUOUS
 62
    90
100
AcDbLine
 10
551.280448
 20
22.377318
 30
0.0
 11
671.873727
 21
22.377318
 31
0.0
  0
LINE
  5
1BE0
100
AcDbEntity
  8
V0-OBRYS
  6
CONTINUOUS
 62
    90
100
AcDbLine
 10
678.573354
 20
29.076945
 30
0.0
 11
678.573354
 21
149.670224
 31
0.0
  0
LINE
  5
1BE1
100
AcDbEntity
  8
V0-OBRYS
  6
CONTINUOUS
 62
    90
100
AcDbLine
 10
671.873727
 20
156.369851
 30
0.0
 11
551.280448
 21
156.369851
 31
0.0
  0
LINE
  5
1BE2
100
AcDbEntity
  8
V0-OBRYS
  6
CONTINUOUS
 62
    90
100
AcDbLine
 10
544.580821
 20
149.670224
 30
0.0
 11
544.580821
 21
29.076945
 31
0.0
  0
ARC
  5
1BE4
100
AcDbEntity
  8
V0-OBRYS
  6
CONTINUOUS
 62
    90
100
AcDbCircle
 10
551.280448
 20
149.670224
 30
0.0
 40
6.699627
100
AcDbArc
 50
90.0
 51
180.0
  0
ARC
  5
1BE5
100
AcDbEntity
  8
V0-OBRYS
  6
CONTINUOUS
 62
    90
100
AcDbCircle
 10
551.280448
 20
29.076945
 30
0.0
 40
6.699627
100
AcDbArc
 50
180.0
 51
270.0
  0
ARC
  5
1BE7
100
AcDbEntity
  8
V0-OBRYS
  6
CONTINUOUS
 62
    90
100
AcDbCircle
 10
671.873727
 20
29.076945
 30
0.0
 40
6.699627
100
AcDbArc
 50
270.0
 51
0.0
  0
ARC
  5
1BE8
100
AcDbEntity
  8
V0-OBRYS
  6
CONTINUOUS
 62
    90
100
AcDbCircle
 10
671.873727
 20
149.670224
 30
0.0
 40
6.699627
100
AcDbArc
 50
0.0
 51
90.0
  0
ARC
  5
1BE9
100
AcDbEntity
  8
V0-OBRYS
  6
CONTINUOUS
100
AcDbCircle
 10
611.577088
 20
89.373585
 30
0.0
 40
78.162311
100
AcDbArc
 50
58.997281
 51
121.002719
  0
ARC
  5
1BEA
100
AcDbEntity
  8
V0-OBRYS
  6
CONTINUOUS
100
AcDbCircle
 10
611.577088
 20
89.373585
 30
0.0
 40
78.162311
100
AcDbArc
 50
328.997281
 51
31.002719
  0
ARC
  5
1BEB
100
AcDbEntity
  8
V0-OBRYS
  6
CONTINUOUS
100
AcDbCircle
 10
611.577088
 20
89.373585
 30
0.0
 40
78.162311
100
AcDbArc
 50
238.997281
 51
301.002719
  0
LINE
  5
1BEC
100
AcDbEntity
  8
V0-OBRYS
  6
CONTINUOUS
 62
    90
100
AcDbLine
 10
559.17264
 20
299.174737
 30
0.0
 11
561.437157
 21
288.616737
 31
0.0
  0
ARC
  5
1BED
100
AcDbEntity
  8
V0-OBRYS
  6
CONTINUOUS
 62
    90
100
AcDbCircle
 10
611.577088
 20
89.373585
 30
0.0
 40
222.826006
100
AcDbArc
 50
77.75092
 51
102.24908
  0
LINE
  5
1BEE
100
AcDbEntity
  8
V0-OBRYS
  6
CONTINUOUS
 62
    90
100
AcDbLine
 10
663.981535
 20
299.174737
 30
0.0
 11
661.717019
 21
288.616737
 31
0.0
  0
ARC
  5
1BEF
100
AcDbEntity
  8
V0-OBRYS
  6
CONTINUOUS
 62
    90
100
AcDbCircle
 10
565.723285
 20
300.579742
 30
0.0
 40
6.699627
100
AcDbArc
 50
102.24908
 51
192.105591
  0
ARC
  5
1BF0
100
AcDbEntity
  8
V0-OBRYS
  6
CONTINUOUS
 62
    90
100
AcDbCircle
 10
657.43089
 20
300.579742
 30
0.0
 40
6.699627
100
AcDbArc
 50
347.894409
 51
77.75092
  0
LINE
  5
1BF1
100
AcDbEntity
  8
V0-OBRYS
  6
CONTINUOUS
 62
    90
100
AcDbLine
 10
642.493726
 20
198.990762
 30
0.0
 11
640.47536
 21
159.534923
 31
0.0
  0
LINE
  5
1BF2
100
AcDbEntity
  8
V0-OBRYS
  6
CONTINUOUS
 62
    90
100
AcDbLine
 10
651.405225
 20
240.53941
 30
0.0
 11
643.901421
 21
205.553947
 31
0.0
  0
LINE
  5
1BF3
100
AcDbEntity
  8
V0-OBRYS
  6
CONTINUOUS
 62
    90
100
AcDbLine
 10
660.31111
 20
282.061882
 30
0.0
 11
652.811678
 21
247.096805
 31
0.0
  0
LINE
  5
1BF4
100
AcDbEntity
  8
V0-OBRYS
  6
CONTINUOUS
 62
    90
100
AcDbLine
 10
562.843065
 20
282.061882
 30
0.0
 11
570.342497
 21
247.096805
 31
0.0
  0
LINE
  5
1BF5
100
AcDbEntity
  8
V0-OBRYS
  6
CONTINUOUS
 62
    90
100
AcDbLine
 10
571.74895
 20
240.53941
 30
0.0
 11
579.252754
 21
205.553947
 31
0.0
  0
LINE
  5
1BF6
100
AcDbEntity
  8
V0-OBRYS
  6
CONTINUOUS
 62
    90
100
AcDbLine
 10
580.660449
 20
198.990762
 30
0.0
 11
582.678816
 21
159.534923
 31
0.0
  0
LINE
  5
1BF7
100
AcDbEntity
  8
V0-OBRYS
  6
CONTINUOUS
 62
    90
100
AcDbLine
 10
501.95991
 20
58.456946
 30
0.0
 11
536.109576
 21
65.781486
 31
0.0
  0
LINE
  5
1BF8
100
AcDbEntity
  8
V0-OBRYS
  6
CONTINUOUS
 62
    90
100
AcDbLine
 10
501.95991
 20
120.290223
 30
0.0
 11
541.41575
 21
118.271857
 31
0.0
  0
ARC
  5
1BF9
100
AcDbEntity
  8
V0-OBRYS
  6
CONTINUOUS
 62
    90
100
AcDbCircle
 10
400.37093
 20
135.227387
 30
0.0
 40
6.699627
100
AcDbArc
 50
77.894409
 51
167.75092
  0
ARC
  5
1BFA
100
AcDbEntity
  8
V0-OBRYS
  6
CONTINUOUS
 62
    90
100
AcDbCircle
 10
611.577088
 20
89.373585
 30
0.0
 40
222.826006
100
AcDbArc
 50
167.75092
 51
192.24908
  0
LINE
  5
1BFB
100
AcDbEntity
  8
V0-OBRYS
  6
CONTINUOUS
 62
    90
100
AcDbLine
 10
418.888791
 20
40.639562
 30
0.0
 11
453.853868
 21
48.138994
 31
0.0
  0
LINE
  5
1BFC
100
AcDbEntity
  8
V0-OBRYS
  6
CONTINUOUS
 62
    90
100
AcDbLine
 10
460.411262
 20
49.545447
 30
0.0
 11
495.396725
 21
57.049251
 31
0.0
  0
LINE
  5
1BFD
100
AcDbEntity
  8
V0-OBRYS
  6
CONTINUOUS
 62
    90
100
AcDbLine
 10
401.775936
 20
36.969137
 30
0.0
 11
412.333936
 21
39.233654
 31
0.0
  0
ARC
  5
1BFE
100
AcDbEntity
  8
V0-OBRYS
  6
CONTINUOUS
 62
    90
100
AcDbCircle
 10
400.37093
 20
43.519782
 30
0.0
 40
6.699627
100
AcDbArc
 50
192.24908
 51
282.105591
  0
LINE
  5
1BFF
100
AcDbEntity
  8
V0-OBRYS
  6
CONTINUOUS
 62
    90
100
AcDbLine
 10
418.888791
 20
138.107607
 30
0.0
 11
453.853868
 21
130.608175
 31
0.0
  0
LINE
  5
1C00
100
AcDbEntity
  8
V0-OBRYS
  6
CONTINUOUS
 62
    90
100
AcDbLine
 10
460.411262
 20
129.201723
 30
0.0
 11
495.396725
 21
121.697918
 31
0.0
  0
LINE
  5
1C01
100
AcDbEntity
  8
V0-OBRYS
  6
CONTINUOUS
 62
    90
100
AcDbLine
 10
401.775936
 20
141.778032
 30
0.0
 11
412.333936
 21
139.513516
 31
0.0
  0
LINE
  5
1C02
100
AcDbEntity
  8
V0-OBRYS
  6
CONTINUOUS
 62
    90
100
AcDbLine
 10
642.493726
 20
-20.243593
 30
0.0
 11
635.169186
 21
13.906073
 31
0.0
  0
LINE
  5
1C03
100
AcDbEntity
  8
V0-OBRYS
  6
CONTINUOUS
 62
    90
100
AcDbLine
 10
580.660449
 20
-20.243593
 30
0.0
 11
587.984989
 21
13.906073
 31
0.0
  0
ARC
  5
1C04
100
AcDbEntity
  8
V0-OBRYS
  6
CONTINUOUS
 62
    90
100
AcDbCircle
 10
565.723285
 20
-121.832573
 30
0.0
 40
6.699627
100
AcDbArc
 50
167.894409
 51
257.75092
  0
ARC
  5
1C05
100
AcDbEntity
  8
V0-OBRYS
  6
CONTINUOUS
 62
    90
100
AcDbCircle
 10
611.577088
 20
89.373585
 30
0.0
 40
222.826006
100
AcDbArc
 50
257.75092
 51
282.24908
  0
LINE
  5
1C06
100
AcDbEntity
  8
V0-OBRYS
  6
CONTINUOUS
 62
    90
100
AcDbLine
 10
660.31111
 20
-103.314712
 30
0.0
 11
652.811678
 21
-68.349635
 31
0.0
  0
LINE
  5
1C07
100
AcDbEntity
  8
V0-OBRYS
  6
CONTINUOUS
 62
    90
100
AcDbLine
 10
651.405225
 20
-61.792241
 30
0.0
 11
643.901421
 21
-26.806778
 31
0.0
  0
LINE
  5
1C08
100
AcDbEntity
  8
V0-OBRYS
  6
CONTINUOUS
 62
    90
100
AcDbLine
 10
663.981535
 20
-120.427567
 30
0.0
 11
661.717019
 21
-109.869567
 31
0.0
  0
ARC
  5
1C09
100
AcDbEntity
  8
V0-OBRYS
  6
CONTINUOUS
 62
    90
100
AcDbCircle
 10
657.43089
 20
-121.832573
 30
0.0
 40
6.699627
100
AcDbArc
 50
282.24908
 51
12.105591
  0
LINE
  5
1C0A
100
AcDbEntity
  8
V0-OBRYS
  6
CONTINUOUS
 62
    90
100
AcDbLine
 10
562.843065
 20
-103.314712
 30
0.0
 11
570.342497
 21
-68.349635
 31
0.0
  0
LINE
  5
1C0B
100
AcDbEntity
  8
V0-OBRYS
  6
CONTINUOUS
 62
    90
100
AcDbLine
 10
571.74895
 20
-61.792241
 30
0.0
 11
579.252754
 21
-26.806778
 31
0.0
  0
LINE
  5
1C0C
100
AcDbEntity
  8
V0-OBRYS
  6
CONTINUOUS
 62
    90
100
AcDbLine
 10
559.17264
 20
-120.427567
 30
0.0
 11
561.437157
 21
-109.869567
 31
0.0
  0
LINE
  5
1C0D
100
AcDbEntity
  8
V0-OBRYS
  6
CONTINUOUS
 62
    90
100
AcDbLine
 10
721.194265
 20
120.290223
 30
0.0
 11
687.044599
 21
112.965683
 31
0.0
  0
LINE
  5
1C0E
100
AcDbEntity
  8
V0-OBRYS
  6
CONTINUOUS
 62
    90
100
AcDbLine
 10
721.194265
 20
58.456946
 30
0.0
 11
687.044599
 21
65.781486
 31
0.0
  0
ARC
  5
1C0F
100
AcDbEntity
  8
V0-OBRYS
  6
CONTINUOUS
 62
    90
100
AcDbCircle
 10
822.783245
 20
43.519782
 30
0.0
 40
6.699627
100
AcDbArc
 50
257.894409
 51
347.75092
  0
ARC
  5
1C10
100
AcDbEntity
  8
V0-OBRYS
  6
CONTINUOUS
 62
    90
100
AcDbCircle
 10
611.577088
 20
89.373585
 30
0.0
 40
222.826006
100
AcDbArc
 50
347.75092
 51
12.24908
  0
LINE
  5
1C11
100
AcDbEntity
  8
V0-OBRYS
  6
CONTINUOUS
 62
    90
100
AcDbLine
 10
804.265385
 20
138.107607
 30
0.0
 11
769.300307
 21
130.608175
 31
0.0
  0
LINE
  5
1C12
100
AcDbEntity
  8
V0-OBRYS
  6
CONTINUOUS
 62
    90
100
AcDbLine
 10
762.742913
 20
129.201723
 30
0.0
 11
727.75745
 21
121.697918
 31
0.0
  0
LINE
  5
1C13
100
AcDbEntity
  8
V0-OBRYS
  6
CONTINUOUS
 62
    90
100
AcDbLine
 10
821.378239
 20
141.778032
 30
0.0
 11
810.820239
 21
139.513516
 31
0.0
  0
ARC
  5
1C14
100
AcDbEntity
  8
V0-OBRYS
  6
CONTINUOUS
 62
    90
100
AcDbCircle
 10
822.783245
 20
135.227387
 30
0.0
 40
6.699627
100
AcDbArc
 50
12.24908
 51
102.105591
  0
LINE
  5
1C15
100
AcDbEntity
  8
V0-OBRYS
  6
CONTINUOUS
 62
    90
100
AcDbLine
 10
804.265385
 20
40.639562
 30
0.0
 11
769.300307
 21
48.138994
 31
0.0
  0
LINE
  5
1C16
100
AcDbEntity
  8
V0-OBRYS
  6
CONTINUOUS
 62
    90
100
AcDbLine
 10
762.742913
 20
49.545447
 30
0.0
 11
727.75745
 21
57.049251
 31
0.0
  0
LINE
  5
1C17
100
AcDbEntity
  8
V0-OBRYS
  6
CONTINUOUS
 62
    90
100
AcDbLine
 10
821.378239
 20
36.969137
 30
0.0
 11
810.820239
 21
39.233654
 31
0.0
  0
ARC
  5
1C92
100
AcDbEntity
  8
V0-VYPLNE
100
AcDbCircle
 10
657.964203
 20
131.074657
 30
0.0
 40
362.361685
100
AcDbArc
 50
220.724308
 51
229.608944
  0
CIRCLE
  5
1C93
100
AcDbEntity
  8
V0-OBRYS
  6
CONTINUOUS
 62
    90
100
AcDbCircle
 10
401.10907
 20
-123.345652
 30
0.0
 40
8.374533
  0
ARC
  5
1C94
100
AcDbEntity
  8
V0-VYPLNE
100
AcDbCircle
 10
528.071536
 20
130.105647
 30
0.0
 40
386.271642
100
AcDbArc
 50
315.841754
 51
324.446889
  0
CIRCLE
  5
1C95
100
AcDbEntity
  8
V0-OBRYS
  6
CONTINUOUS
 62
    90
100
AcDbCircle
 10
821.045105
 20
-122.345652
 30
0.0
 40
8.374533
  0
CIRCLE
  5
1CB2
100
AcDbEntity
  8
V0-OBRYS
  6
CONTINUOUS
 62
    90
100
AcDbCircle
 10
561.329888
 20
139.620784
 30
0.0
 40
4.466418
  0
CIRCLE
  5
1CB3
100
AcDbEntity
  8
V0-OBRYS
  6
CONTINUOUS
 62
    90
100
AcDbCircle
 10
561.329888
 20
39.126385
 30
0.0
 40
4.466418
  0
CIRCLE
  5
1CB4
100
AcDbEntity
  8
V0-OBRYS
  6
CONTINUOUS
 62
    90
100
AcDbCircle
 10
661.824287
 20
39.126385
 30
0.0
 40
4.466418
  0
CIRCLE
  5
1CB5
100
AcDbEntity
  8
V0-OBRYS
  6
CONTINUOUS
 62
    90
100
AcDbCircle
 10
661.824287
 20
139.620784
 30
0.0
 40
4.466418
  0
POINT
  5
1CB6
100
AcDbEntity
  8
V0-VYPLNE
  6
CONTINUOUS
 62
    41
100
AcDbPoint
 10
611.577088
 20
89.373585
 30
0.0
  0
LINE
  5
1D9C
100
AcDbEntity
  8
V0-VYPLNE
100
AcDbLine
 10
-58.140813
 20
89.373585
 30
0.0
 11
-172.967578
 21
89.373585
 31
0.0
  0
ARC
  5
1E4E
100
AcDbEntity
  8
V0-OBRYS
  6
CONTINUOUS
 62
    90
100
AcDbCircle
 10
-96.438879
 20
621.833815
 30
0.0
 40
333.014349
100
AcDbArc
 50
261.024037
 51
269.231919
  0
ARC
  5
1E52
100
AcDbEntity
  8
V0-OBRYS
  6
CONTINUOUS
 62
    90
100
AcDbCircle
 10
-145.894169
 20
301.274876
 30
0.0
 40
8.742823
100
AcDbArc
 50
179.281715
 51
253.373225
  0
ARC
  5
1E53
100
AcDbEntity
  8
V0-OBRYS
  6
CONTINUOUS
 62
    90
100
AcDbCircle
 10
-96.438879
 20
-443.086646
 30
0.0
 40
333.014349
100
AcDbArc
 50
90.768081
 51
98.975963
  0
ARC
  5
1E54
100
AcDbEntity
  8
V0-OBRYS
  6
CONTINUOUS
 62
    90
100
AcDbCircle
 10
-145.894169
 20
-122.527707
 30
0.0
 40
8.742823
100
AcDbArc
 50
106.626775
 51
180.718285
  0
LINE
  5
1E56
100
AcDbEntity
  8
V0-OBRYS
100
AcDbLine
 10
-154.632664
 20
-160.369036
 30
0.0
 11
-154.636305
 21
89.376819
 31
0.0
  0
ARC
  5
1F73
100
AcDbEntity
  8
VO-OBRYS
  6
CONTINUOUS
100
AcDbCircle
 10
-173.622259
 20
324.564139
 30
0.0
 40
0.92965
100
AcDbArc
 50
0.0
 51
180.0
  0
LINE
  5
1F77
100
AcDbEntity
  8
VO-OBRYS
  6
CONTINUOUS
100
AcDbLine
 10
-174.551908
 20
315.678403
 30
0.0
 11
-181.989105
 21
294.076606
 31
0.0
  0
LINE
  5
1F78
100
AcDbEntity
  8
VO-OBRYS
  6
CONTINUOUS
100
AcDbLine
 10
-183.848404
 20
295.484716
 30
0.0
 11
-191.2856
 21
273.88292
 31
0.0
  0
LINE
  5
1F79
100
AcDbEntity
  8
VO-OBRYS
  6
CONTINUOUS
100
AcDbLine
 10
-183.848404
 20
288.676157
 30
0.0
 11
-191.2856
 21
267.07436
 31
0.0
  0
LINE
  5
1F7F
100
AcDbEntity
  8
VO-OBRYS
  6
CONTINUOUS
100
AcDbLine
 10
-172.692609
 20
89.373585
 30
0.0
 11
-172.692609
 21
-145.81697
 31
0.0
  0
LINE
  5
1F80
100
AcDbEntity
  8
VO-OBRYS
  6
CONTINUOUS
100
AcDbLine
 10
-174.551908
 20
89.373585
 30
0.0
 11
-174.551908
 21
-145.81697
 31
0.0
  0
LINE
  5
1F81
100
AcDbEntity
  8
VO-OBRYS
  6
CONTINUOUS
100
AcDbLine
 10
-174.551908
 20
-136.931234
 30
0.0
 11
-181.989105
 21
-115.329437
 31
0.0
  0
LINE
  5
1F82
100
AcDbEntity
  8
VO-OBRYS
  6
CONTINUOUS
100
AcDbLine
 10
-174.551908
 20
-143.739793
 30
0.0
 11
-181.989105
 21
-122.137996
 31
0.0
  0
LINE
  5
1F83
100
AcDbEntity
  8
VO-OBRYS
  6
CONTINUOUS
100
AcDbLine
 10
-169.361572
 20
-149.435417
 30
0.0
 11
-172.096836
 21
-144.062143
 31
0.0
  0
LINE
  5
1F84
100
AcDbEntity
  8
VO-OBRYS
  6
CONTINUOUS
100
AcDbLine
 10
-169.788165
 20
-151.245116
 30
0.0
 11
-172.69273
 21
-145.831934
 31
0.0
  0
LINE
  5
1F85
100
AcDbEntity
  8
VO-OBRYS
  6
CONTINUOUS
100
AcDbLine
 10
-172.096836
 20
-144.062143
 30
0.0
 11
-172.692609
 21
-142.331683
 31
0.0
  0
ARC
  5
1F86
100
AcDbEntity
  8
VO-OBRYS
  6
CONTINUOUS
100
AcDbCircle
 10
-173.622259
 20
-145.81697
 30
0.0
 40
0.92965
100
AcDbArc
 50
180.0
 51
0.0
  0
LINE
  5
1F87
100
AcDbEntity
  8
V0-OBRYS
  6
CONTINUOUS
100
AcDbLine
 10
-169.510698
 20
24.298116
 30
0.0
 11
-191.2856
 21
24.298116
 31
0.0
  0
CIRCLE
  5
2024
100
AcDbEntity
  8
V0-OBRYS
  6
CONTINUOUS
 62
    90
100
AcDbCircle
 10
782.395797
 20
260.192294
 30
0.0
 40
6.00325
  0
ARC
  5
2025
100
AcDbEntity
  8
VO-OBRYS
  6
CONTINUOUS
100
AcDbCircle
 10
782.395797
 20
260.192294
 30
0.0
 40
23.760862
100
AcDbArc
 50
315.0
 51
135.0
  0
LINE
  5
2026
100
AcDbEntity
  8
V0-VYPLNE
100
AcDbLine
 10
476.850176
 20
296.284093
 30
0.0
 11
404.278624
 21
223.712541
 31
0.0
  0
ARC
  5
2027
100
AcDbEntity
  8
VO-OBRYS
  6
CONTINUOUS
100
AcDbCircle
 10
440.758378
 20
260.192294
 30
0.0
 40
23.760862
100
AcDbArc
 50
45.0
 51
225.0
  0
CIRCLE
  5
2028
100
AcDbEntity
  8
V0-OBRYS
  6
CONTINUOUS
 62
    90
100
AcDbCircle
 10
440.758378
 20
260.192294
 30
0.0
 40
6.00325
  0
LINE
  5
2029
100
AcDbEntity
  8
V0-VYPLNE
100
AcDbLine
 10
404.666579
 20
-45.353327
 30
0.0
 11
477.238131
 21
-117.924879
 31
0.0
  0
ARC
  5
202A
100
AcDbEntity
  8
VO-OBRYS
  6
CONTINUOUS
100
AcDbCircle
 10
440.758378
 20
-81.445125
 30
0.0
 40
23.760862
100
AcDbArc
 50
135.0
 51
315.0
  0
CIRCLE
  5
202B
100
AcDbEntity
  8
V0-OBRYS
  6
CONTINUOUS
 62
    90
100
AcDbCircle
 10
440.758378
 20
-81.445125
 30
0.0
 40
6.00325
  0
LINE
  5
202C
100
AcDbEntity
  8
V0-VYPLNE
100
AcDbLine
 10
746.303999
 20
-117.536924
 30
0.0
 11
818.875551
 21
-44.965372
 31
0.0
  0
ARC
  5
202D
100
AcDbEntity
  8
VO-OBRYS
  6
CONTINUOUS
100
AcDbCircle
 10
782.395797
 20
-81.445125
 30
0.0
 40
23.760862
100
AcDbArc
 50
225.0
 51
45.0
  0
CIRCLE
  5
202E
100
AcDbEntity
  8
V0-OBRYS
  6
CONTINUOUS
 62
    90
100
AcDbCircle
 10
782.395797
 20
-81.445125
 30
0.0
 40
6.00325
  0
LEADER
  5
2045
100
AcDbEntity
  8
V0-OBRYS
  6
CONTINUOUS
 62
    41
100
AcDbLeader
  3
ED40
 73
     0
 75
     1
 40
30.445376
 41
255.765131
 76
     3
 10
396.251451
 20
-129.959217
 30
0.0
 10
347.405511
 20
-196.113678
 30
0.0
 10
307.405511
 20
-196.113678
 30
0.0
 77
    90
340
2046
1001
ACAD
1000
DSTYLE
1002
{
1070
   140
1040
40.0
1070
   340
1005
F39
1070
    41
1040
40.0
1002
}
  0
MTEXT
  5
2046
102
{ACAD_REACTORS
330
2045
102
}
100
AcDbEntity
  8
V0-OBRYS
  6
CONTINUOUS
 62
    41
100
AcDbMText
 10
305.405511
 20
-178.89099
 30
0.0
 40
30.445376
 41
0.0
 71
     6
 72
     1
  1
4 OTVORY %%c10
  7
ED20
  0
LINE
  5
2091
100
AcDbEntity
  8
V0-VYPLNE
  6
DASHED
 62
    52
100
AcDbLine
 10
-168.371043
 20
72.374486
 30
0.0
 11
-133.607205
 21
101.325197
 31
0.0
  0
ARC
  5
20ED
100
AcDbEntity
  8
V0-VYPLNE
100
AcDbCircle
 10
663.407837
 20
52.049233
 30
0.0
 40
362.538319
100
AcDbArc
 50
131.835422
 51
140.717893
  0
CIRCLE
  5
20EE
100
AcDbEntity
  8
V0-OBRYS
  6
CONTINUOUS
 62
    90
100
AcDbCircle
 10
401.57157
 20
301.630321
 30
0.0
 40
8.374533
  0
CIRCLE
  5
20EF
100
AcDbEntity
  8
V0-OBRYS
  6
CONTINUOUS
 62
    90
100
AcDbCircle
 10
821.582605
 20
301.630321
 30
0.0
 40
8.374533
  0
ARC
  5
20F0
100
AcDbEntity
  8
V0-VYPLNE
100
AcDbCircle
 10
528.071531
 20
52.712671
 30
0.0
 40
386.271642
100
AcDbArc
 50
35.553111
 51
44.158246
  0
DIMENSION
  5
21F2
100
AcDbEntity
  8
V0-OBRYS
  6
CONTINUOUS
 62
    90
100
AcDbDimension
  2
*D4
 10
-295.929682
 20
-267.164937
 30
0.0
 11
-210.282994
 21
-250.164937
 31
0.0
 12
-15.0
 22
0.0
 32
0.0
 70
    32
  3
ED30
100
AcDbAlignedDimension
 13
-154.636305
 23
-165.250507
 33
0.0
 14
-295.929682
 24
39.172509
 34
0.0
100
AcDbRotatedDimension
1001
ACAD
1000
DSTYLE
1002
{
1070
   140
1040
30.0
1070
   340
1005
F38
1070
    41
1040
30.0
1002
}
  0
DIMENSION
  5
225B
100
AcDbEntity
  8
V0-OBRYS
  6
CONTINUOUS
 62
    90
100
AcDbDimension
  2
*D5
 10
821.045105
 20
-226.706505
 30
0.0
 11
605.779829
 21
-226.706505
 31
0.0
 70
   160
  3
ED30
100
AcDbAlignedDimension
 13
401.10907
 23
-123.345652
 33
0.0
 14
821.045105
 24
-122.345652
 34
0.0
100
AcDbRotatedDimension
1001
ACAD
1000
DSTYLE
1002
{
1070
   140
1040
30.0
1070
   340
1005
F38
1070
    41
1040
30.0
1002
}
  0
DIMENSION
  5
2471
100
AcDbEntity
  8
V0-OBRYS
  6
CONTINUOUS
 62
    90
100
AcDbDimension
  2
*D6
 10
34.856613
 20
-117.763983
 30
0.0
 11
17.856613
 21
89.373585
 31
0.0
 70
    32
  1
%%c<>
  3
ED30
100
AcDbAlignedDimension
 13
-152.871607
 23
296.511153
 33
0.0
 14
-152.871607
 24
-117.763983
 34
0.0
 50
90.0
100
AcDbRotatedDimension
1001
ACAD
1000
DSTYLE
1002
{
1070
   140
1040
30.0
1070
   340
1005
F38
1070
    41
1040
30.0
1002
}
  0
LINE
  5
24E4
100
AcDbEntity
  8
V0-OBRYS
100
AcDbLine
 10
-169.510698
 20
-651.038377
 30
0.0
 11
-169.510698
 21
-900.784232
 31
0.0
  0
LINE
  5
24E5
100
AcDbEntity
  8
V0-OBRYS
100
AcDbLine
 10
-154.632664
 20
-900.780997
 30
0.0
 11
-154.636305
 21
-651.035142
 31
0.0
  0
LINE
  5
24E6
100
AcDbEntity
  8
VO-OBRYS
  6
CONTINUOUS
100
AcDbLine
 10
-172.692609
 20
-651.038377
 30
0.0
 11
-172.692609
 21
-886.228931
 31
0.0
  0
LINE
  5
24E7
100
AcDbEntity
  8
VO-OBRYS
  6
CONTINUOUS
100
AcDbLine
 10
-174.551908
 20
-651.038377
 30
0.0
 11
-174.551908
 21
-886.228931
 31
0.0
  0
LINE
  5
24E8
100
AcDbEntity
  8
VO-OBRYS
  6
CONTINUOUS
100
AcDbLine
 10
-181.989105
 20
-651.038377
 30
0.0
 11
-181.989105
 21
-869.498306
 31
0.0
  0
LINE
  5
24E9
100
AcDbEntity
  8
VO-OBRYS
  6
CONTINUOUS
100
AcDbLine
 10
-183.848404
 20
-651.038377
 30
0.0
 11
-183.848404
 21
-869.498306
 31
0.0
  0
LINE
  5
24EA
100
AcDbEntity
  8
VO-OBRYS
  6
CONTINUOUS
100
AcDbLine
 10
-174.551908
 20
-884.151754
 30
0.0
 11
-181.989105
 21
-862.549958
 31
0.0
  0
LINE
  5
24EB
100
AcDbEntity
  8
VO-OBRYS
  6
CONTINUOUS
100
AcDbLine
 10
-174.551908
 20
-877.343195
 30
0.0
 11
-181.989105
 21
-855.741398
 31
0.0
  0
LINE
  5
24EC
100
AcDbEntity
  8
V0-OBRYS
100
AcDbLine
 10
-154.636305
 20
-900.784232
 30
0.0
 11
-169.510698
 21
-900.784232
 31
0.0
  0
LINE
  5
24ED
100
AcDbEntity
  8
VO-OBRYS
  6
CONTINUOUS
100
AcDbLine
 10
-169.361572
 20
-889.847378
 30
0.0
 11
-172.096836
 21
-884.474104
 31
0.0
  0
LINE
  5
24EE
100
AcDbEntity
  8
VO-OBRYS
  6
CONTINUOUS
100
AcDbLine
 10
-169.788165
 20
-891.657078
 30
0.0
 11
-172.69273
 21
-886.243895
 31
0.0
  0
ARC
  5
24EF
100
AcDbEntity
  8
VO-OBRYS
  6
CONTINUOUS
100
AcDbCircle
 10
-173.622259
 20
-886.228931
 30
0.0
 40
0.92965
100
AcDbArc
 50
180.0
 51
0.0
  0
LINE
  5
24F0
100
AcDbEntity
  8
VO-OBRYS
  6
CONTINUOUS
100
AcDbLine
 10
-172.096836
 20
-884.474104
 30
0.0
 11
-172.692609
 21
-882.743644
 31
0.0
  0
LINE
  5
24F1
100
AcDbEntity
  8
V0-VYPLNE
  6
CONTINUOUS
 62
    41
100
AcDbLine
 10
-345.437373
 20
-651.038377
 30
0.0
 11
-419.542744
 21
-632.547105
 31
0.0
  0
LINE
  5
24F2
100
AcDbEntity
  8
V0-VYPLNE
  6
CONTINUOUS
 62
    41
100
AcDbLine
 10
-345.437373
 20
-651.038377
 30
0.0
 11
-419.542744
 21
-669.529648
 31
0.0
  0
LINE
  5
24F3
100
AcDbEntity
  8
V0-VYPLNE
100
AcDbLine
 10
-212.607458
 20
-651.038377
 30
0.0
 11
-427.131482
 21
-651.038377
 31
0.0
  0
LINE
  5
24F4
100
AcDbEntity
  8
V0-VYPLNE
  6
CONTINUOUS
 62
    41
100
AcDbLine
 10
-345.437373
 20
-651.038377
 30
0.0
 11
-451.212926
 21
-651.038377
 31
0.0
  0
LINE
  5
24F5
100
AcDbEntity
  8
V0-OBRYS
100
AcDbLine
 10
-154.636305
 20
-401.292522
 30
0.0
 11
-154.636305
 21
-651.038377
 31
0.0
  0
LINE
  5
24F6
100
AcDbEntity
  8
V0-OBRYS
100
AcDbLine
 10
-169.510698
 20
-651.038377
 30
0.0
 11
-169.510698
 21
-401.292522
 31
0.0
  0
LINE
  5
24F7
100
AcDbEntity
  8
V0-OBRYS
  6
CONTINUOUS
100
AcDbLine
 10
-220.104737
 20
-571.454754
 30
0.0
 11
-220.104737
 21
-651.038377
 31
0.0
  0
LINE
  5
24F8
100
AcDbEntity
  8
V0-OBRYS
  6
CONTINUOUS
100
AcDbLine
 10
-222.893685
 20
-571.454754
 30
0.0
 11
-222.893685
 21
-651.038377
 31
0.0
  0
LINE
  5
24F9
100
AcDbEntity
  8
VO-OBRYS
  6
CONTINUOUS
100
AcDbLine
 10
-202.441395
 20
-651.038377
 30
0.0
 11
-202.441395
 21
-498.076146
 31
0.0
  0
LINE
  5
24FA
100
AcDbEntity
  8
VO-OBRYS
  6
CONTINUOUS
100
AcDbLine
 10
-200.582096
 20
-651.038377
 30
0.0
 11
-200.582096
 21
-498.076146
 31
0.0
  0
LINE
  5
24FB
100
AcDbEntity
  8
VO-OBRYS
  6
CONTINUOUS
100
AcDbLine
 10
-193.144899
 20
-651.038377
 30
0.0
 11
-193.144899
 21
-465.327296
 31
0.0
  0
LINE
  5
24FC
100
AcDbEntity
  8
VO-OBRYS
  6
CONTINUOUS
100
AcDbLine
 10
-191.2856
 20
-651.038377
 30
0.0
 11
-191.2856
 21
-465.327296
 31
0.0
  0
LINE
  5
24FD
100
AcDbEntity
  8
VO-OBRYS
  6
CONTINUOUS
100
AcDbLine
 10
-183.848404
 20
-651.038377
 30
0.0
 11
-183.848404
 21
-437.17573
 31
0.0
  0
LINE
  5
24FE
100
AcDbEntity
  8
VO-OBRYS
  6
CONTINUOUS
100
AcDbLine
 10
-181.989105
 20
-651.038377
 30
0.0
 11
-181.989105
 21
-437.17573
 31
0.0
  0
LINE
  5
24FF
100
AcDbEntity
  8
VO-OBRYS
  6
CONTINUOUS
100
AcDbLine
 10
-174.551908
 20
-651.038377
 30
0.0
 11
-174.551908
 21
-415.847822
 31
0.0
  0
LINE
  5
2500
100
AcDbEntity
  8
VO-OBRYS
  6
CONTINUOUS
100
AcDbLine
 10
-172.692609
 20
-651.038377
 30
0.0
 11
-172.692609
 21
-415.847822
 31
0.0
  0
LINE
  5
2501
100
AcDbEntity
  8
VO-OBRYS
  6
CONTINUOUS
100
AcDbLine
 10
-211.737891
 20
-651.038377
 30
0.0
 11
-211.737891
 21
-529.853122
 31
0.0
  0
LINE
  5
2502
100
AcDbEntity
  8
VO-OBRYS
  6
CONTINUOUS
100
AcDbLine
 10
-209.878591
 20
-651.038377
 30
0.0
 11
-209.878591
 21
-529.853122
 31
0.0
  0
ARC
  5
2503
100
AcDbEntity
  8
V0-OBRYS
  6
CONTINUOUS
100
AcDbCircle
 10
-221.244307
 20
-595.259403
 30
0.0
 40
9.296496
100
AcDbArc
 50
90.0
 51
180.0
  0
LINE
  5
2504
100
AcDbEntity
  8
V0-OBRYS
100
AcDbLine
 10
-100.902968
 20
-451.558012
 30
0.0
 11
-101.664102
 21
-651.038377
 31
0.0
  0
ARC
  5
2505
100
AcDbEntity
  8
V0-VYPLNE
  6
DASHED
 62
    52
100
AcDbCircle
 10
-115.786239
 20
-594.359413
 30
0.0
 40
9.438067
100
AcDbArc
 50
0.0
 51
90.0
  0
ARC
  5
2506
100
AcDbEntity
  8
VO-OBRYS
  6
CONTINUOUS
100
AcDbCircle
 10
-210.808241
 20
-772.223631
 30
0.0
 40
0.92965
100
AcDbArc
 50
180.0
 51
0.0
  0
LINE
  5
2507
100
AcDbEntity
  8
VO-OBRYS
  6
CONTINUOUS
100
AcDbLine
 10
-211.737891
 20
-756.691684
 30
0.0
 11
-220.104737
 21
-727.21772
 31
0.0
  0
LINE
  5
2508
100
AcDbEntity
  8
VO-OBRYS
  6
CONTINUOUS
100
AcDbLine
 10
-211.737891
 20
-651.038377
 30
0.0
 11
-211.737891
 21
-772.223631
 31
0.0
  0
LINE
  5
2509
100
AcDbEntity
  8
V0-OBRYS
  6
CONTINUOUS
100
AcDbLine
 10
-220.104737
 20
-730.621999
 30
0.0
 11
-220.104737
 21
-651.038377
 31
0.0
  0
LINE
  5
250A
100
AcDbEntity
  8
V0-OBRYS
  6
CONTINUOUS
100
AcDbLine
 10
-222.893685
 20
-730.621999
 30
0.0
 11
-222.893685
 21
-651.038377
 31
0.0
  0
LINE
  5
250B
100
AcDbEntity
  8
VO-OBRYS
  6
CONTINUOUS
100
AcDbLine
 10
-211.737891
 20
-763.500243
 30
0.0
 11
-220.739221
 21
-731.791176
 31
0.0
  0
ARC
  5
250C
100
AcDbEntity
  8
V0-OBRYS
  6
CONTINUOUS
100
AcDbCircle
 10
-221.499211
 20
-730.621999
 30
0.0
 40
1.394474
100
AcDbArc
 50
180.0
 51
0.0
  0
LINE
  5
250D
100
AcDbEntity
  8
V0-VYPLNE
  6
CONTINUOUS
 62
    41
100
AcDbLine
 10
-345.437373
 20
-651.038377
 30
0.0
 11
-345.437373
 21
-651.038377
 31
0.0
  0
LINE
  5
250E
100
AcDbEntity
  8
V0-OBRYS
  6
CONTINUOUS
100
AcDbLine
 10
-230.540803
 20
-706.81735
 30
0.0
 11
-230.540803
 21
-651.038377
 31
0.0
  0
LINE
  5
250F
100
AcDbEntity
  8
VO-OBRYS
  6
CONTINUOUS
100
AcDbLine
 10
-281.891355
 20
-707.599447
 30
0.0
 11
-281.891355
 21
-651.14638
 31
0.0
  0
LINE
  5
2510
100
AcDbEntity
  8
V0-OBRYS
100
AcDbLine
 10
-295.929682
 20
-651.038377
 30
0.0
 11
-295.929682
 21
-701.239453
 31
0.0
  0
LINE
  5
2511
100
AcDbEntity
  8
V0-OBRYS
  6
CONTINUOUS
100
AcDbLine
 10
-230.540803
 20
-706.81735
 30
0.0
 11
-290.351785
 21
-706.81735
 31
0.0
  0
ARC
  5
2512
100
AcDbEntity
  8
V0-OBRYS
  6
CONTINUOUS
100
AcDbCircle
 10
-290.351785
 20
-701.239453
 30
0.0
 40
5.577897
100
AcDbArc
 50
180.0
 51
270.0
  0
ARC
  5
2513
100
AcDbEntity
  8
V0-OBRYS
  6
CONTINUOUS
100
AcDbCircle
 10
-221.244307
 20
-706.81735
 30
0.0
 40
9.296496
100
AcDbArc
 50
180.0
 51
270.0
  0
LINE
  5
2514
100
AcDbEntity
  8
V0-OBRYS
  6
CONTINUOUS
100
AcDbLine
 10
-222.893685
 20
-716.113845
 30
0.0
 11
-221.244307
 21
-716.113845
 31
0.0
  0
LINE
  5
2515
100
AcDbEntity
  8
V0-OBRYS
  6
CONTINUOUS
100
AcDbLine
 10
-211.737891
 20
-716.113845
 30
0.0
 11
-220.104737
 21
-716.113845
 31
0.0
  0
LINE
  5
2516
100
AcDbEntity
  8
V0-OBRYS
  6
CONTINUOUS
100
AcDbLine
 10
-230.540803
 20
-595.259403
 30
0.0
 11
-290.351785
 21
-595.259403
 31
0.0
  0
LINE
  5
2517
100
AcDbEntity
  8
V0-OBRYS
100
AcDbLine
 10
-295.929682
 20
-651.038377
 30
0.0
 11
-295.929682
 21
-600.837301
 31
0.0
  0
LINE
  5
2518
100
AcDbEntity
  8
VO-OBRYS
  6
CONTINUOUS
100
AcDbLine
 10
-281.891355
 20
-594.477306
 30
0.0
 11
-281.891355
 21
-650.930373
 31
0.0
  0
ARC
  5
2519
100
AcDbEntity
  8
V0-OBRYS
  6
CONTINUOUS
100
AcDbCircle
 10
-290.351785
 20
-600.837301
 30
0.0
 40
5.577897
100
AcDbArc
 50
90.0
 51
180.0
  0
LINE
  5
251A
100
AcDbEntity
  8
V0-OBRYS
  6
CONTINUOUS
100
AcDbLine
 10
-230.540803
 20
-595.259403
 30
0.0
 11
-230.540803
 21
-651.038377
 31
0.0
  0
LINE
  5
251B
100
AcDbEntity
  8
V0-VYPLNE
  6
DASHED
 62
    52
100
AcDbLine
 10
-105.328798
 20
-840.135246
 30
0.0
 11
-161.363056
 21
-717.155411
 31
0.0
  0
LINE
  5
251C
100
AcDbEntity
  8
VO-OBRYS
  6
CONTINUOUS
100
AcDbLine
 10
-209.878591
 20
-651.038377
 30
0.0
 11
-209.878591
 21
-772.223631
 31
0.0
  0
LINE
  5
251D
100
AcDbEntity
  8
VO-OBRYS
  6
CONTINUOUS
100
AcDbLine
 10
-200.582096
 20
-651.038377
 30
0.0
 11
-200.582096
 21
-804.000608
 31
0.0
  0
LINE
  5
251E
100
AcDbEntity
  8
VO-OBRYS
  6
CONTINUOUS
100
AcDbLine
 10
-202.441395
 20
-651.038377
 30
0.0
 11
-202.441395
 21
-804.000608
 31
0.0
  0
LINE
  5
251F
100
AcDbEntity
  8
VO-OBRYS
  6
CONTINUOUS
100
AcDbLine
 10
-191.2856
 20
-651.038377
 30
0.0
 11
-191.2856
 21
-836.749457
 31
0.0
  0
LINE
  5
2520
100
AcDbEntity
  8
VO-OBRYS
  6
CONTINUOUS
100
AcDbLine
 10
-193.144899
 20
-651.038377
 30
0.0
 11
-193.144899
 21
-836.749457
 31
0.0
  0
LINE
  5
2521
100
AcDbEntity
  8
VO-OBRYS
  6
CONTINUOUS
100
AcDbLine
 10
-169.884242
 20
-716.363056
 30
0.0
 11
-174.929345
 21
-833.404976
 31
0.0
  0
LINE
  5
2522
100
AcDbEntity
  8
V0-VYPLNE
  6
DASHED
 62
    52
100
AcDbLine
 10
-105.328798
 20
-840.135246
 30
0.0
 11
-112.499507
 21
-717.155406
 31
0.0
  0
LINE
  5
2523
100
AcDbEntity
  8
V0-OBRYS
100
AcDbLine
 10
-102.425236
 20
-851.279875
 30
0.0
 11
-101.664102
 21
-651.038377
 31
0.0
  0
LINE
  5
2524
100
AcDbEntity
  8
V0-VYPLNE
  6
DASHED
 62
    52
100
AcDbLine
 10
-150.0948
 20
-843.205572
 30
0.0
 11
-105.328798
 21
-840.135246
 31
0.0
  0
LINE
  5
2525
100
AcDbEntity
  8
V0-VYPLNE
  6
DASHED
 62
    52
100
AcDbLine
 10
-149.961714
 20
-843.316422
 30
0.0
 11
-105.197913
 21
-840.22633
 31
0.0
  0
LINE
  5
2526
100
AcDbEntity
  8
V0-VYPLNE
  6
DASHED
 62
    52
100
AcDbLine
 10
-150.0948
 20
-843.205572
 30
0.0
 11
-105.328798
 21
-840.135246
 31
0.0
  0
ARC
  5
2527
100
AcDbEntity
  8
V0-OBRYS
  6
CONTINUOUS
 62
    90
100
AcDbCircle
 10
-96.438879
 20
-1183.498607
 30
0.0
 40
333.014349
100
AcDbArc
 50
90.768081
 51
98.975963
  0
LINE
  5
2528
100
AcDbEntity
  8
VO-OBRYS
  6
CONTINUOUS
100
AcDbLine
 10
-193.144899
 20
-822.189383
 30
0.0
 11
-200.582096
 21
-795.990303
 31
0.0
  0
LINE
  5
2529
100
AcDbEntity
  8
V0-VYPLNE
  6
DASHED
 62
    52
100
AcDbLine
 10
-167.509373
 20
-837.205572
 30
0.0
 11
-150.0948
 21
-843.205572
 31
0.0
  0
LINE
  5
252A
100
AcDbEntity
  8
V0-VYPLNE
  6
DASHED
 62
    52
100
AcDbLine
 10
-167.376283
 20
-837.328867
 30
0.0
 11
-149.961714
 21
-843.316422
 31
0.0
  0
LINE
  5
252B
100
AcDbEntity
  8
V0-VYPLNE
  6
DASHED
 62
    52
100
AcDbLine
 10
-167.509373
 20
-837.205572
 30
0.0
 11
-150.0948
 21
-843.205572
 31
0.0
  0
LINE
  5
252C
100
AcDbEntity
  8
VO-OBRYS
  6
CONTINUOUS
100
AcDbLine
 10
-183.848404
 20
-854.938232
 30
0.0
 11
-191.2856
 21
-828.739152
 31
0.0
  0
LINE
  5
252D
100
AcDbEntity
  8
VO-OBRYS
  6
CONTINUOUS
100
AcDbLine
 10
-174.929345
 20
-833.404976
 30
0.0
 11
-167.316277
 21
-834.413064
 31
0.0
  0
LINE
  5
252E
100
AcDbEntity
  8
VO-OBRYS
  6
CONTINUOUS
100
AcDbLine
 10
-174.798968
 20
-833.537239
 30
0.0
 11
-167.185183
 21
-834.53451
 31
0.0
  0
LINE
  5
252F
100
AcDbEntity
  8
VO-OBRYS
  6
CONTINUOUS
100
AcDbLine
 10
-174.929345
 20
-833.404976
 30
0.0
 11
-167.316277
 21
-834.413064
 31
0.0
  0
LINE
  5
2530
100
AcDbEntity
  8
VO-OBRYS
  6
CONTINUOUS
100
AcDbLine
 10
-183.848404
 20
-861.746791
 30
0.0
 11
-191.2856
 21
-835.547712
 31
0.0
  0
ARC
  5
2531
100
AcDbEntity
  8
VO-OBRYS
  6
CONTINUOUS
100
AcDbCircle
 10
-192.21525
 20
-836.749457
 30
0.0
 40
0.92965
100
AcDbArc
 50
180.0
 51
0.0
  0
LINE
  5
2532
100
AcDbEntity
  8
VO-OBRYS
  6
CONTINUOUS
100
AcDbLine
 10
-193.144899
 20
-828.997942
 30
0.0
 11
-200.582096
 21
-802.798862
 31
0.0
  0
ARC
  5
2533
100
AcDbEntity
  8
VO-OBRYS
  6
CONTINUOUS
100
AcDbCircle
 10
-201.511745
 20
-804.000608
 30
0.0
 40
0.92965
100
AcDbArc
 50
180.0
 51
0.0
  0
ARC
  5
2534
100
AcDbEntity
  8
V0-OBRYS
  6
CONTINUOUS
 62
    90
100
AcDbCircle
 10
-145.894169
 20
-862.939668
 30
0.0
 40
8.742823
100
AcDbArc
 50
106.626775
 51
180.718285
  0
LINE
  5
2535
100
AcDbEntity
  8
VO-OBRYS
  6
CONTINUOUS
100
AcDbLine
 10
-202.441395
 20
-789.440533
 30
0.0
 11
-209.878591
 21
-763.241454
 31
0.0
  0
LINE
  5
2536
100
AcDbEntity
  8
VO-OBRYS
  6
CONTINUOUS
100
AcDbLine
 10
-202.441395
 20
-796.249092
 30
0.0
 11
-209.878591
 21
-770.050013
 31
0.0
  0
LINE
  5
2537
100
AcDbEntity
  8
V0-VYPLNE
100
AcDbLine
 10
-58.140813
 20
-651.038377
 30
0.0
 11
-172.967578
 21
-651.038377
 31
0.0
  0
POINT
  5
2538
100
AcDbEntity
  8
V0-VYPLNE
  6
CONTINUOUS
 62
    41
100
AcDbPoint
 10
-101.664102
 20
-651.038377
 30
0.0
  0
ARC
  5
2539
100
AcDbEntity
  8
V0-VYPLNE
  6
DASHED
 62
    52
100
AcDbCircle
 10
-115.786239
 20
-707.71734
 30
0.0
 40
9.438067
100
AcDbArc
 50
270.0
 51
0.0
  0
LINE
  5
253A
100
AcDbEntity
  8
V0-VYPLNE
  6
DASHED
 62
    52
100
AcDbLine
 10
-168.371043
 20
-668.037475
 30
0.0
 11
-133.607205
 21
-639.086764
 31
0.0
  0
LINE
  5
253B
100
AcDbEntity
  8
V0-VYPLNE
  6
DASHED
 62
    52
100
AcDbLine
 10
-115.786239
 20
-717.155406
 30
0.0
 11
-169.737212
 21
-717.155406
 31
0.0
  0
LINE
  5
253C
100
AcDbEntity
  8
V0-OBRYS
  6
CONTINUOUS
100
AcDbLine
 10
-183.848404
 20
-716.113845
 30
0.0
 11
-191.2856
 21
-716.113845
 31
0.0
  0
LINE
  5
253D
100
AcDbEntity
  8
V0-OBRYS
  6
CONTINUOUS
100
AcDbLine
 10
-169.510698
 20
-716.113845
 30
0.0
 11
-191.2856
 21
-716.113845
 31
0.0
  0
LINE
  5
253E
100
AcDbEntity
  8
V0-OBRYS
  6
CONTINUOUS
100
AcDbLine
 10
-193.144899
 20
-716.113845
 30
0.0
 11
-200.582096
 21
-716.113845
 31
0.0
  0
LINE
  5
253F
100
AcDbEntity
  8
V0-OBRYS
  6
CONTINUOUS
100
AcDbLine
 10
-202.441395
 20
-716.113845
 30
0.0
 11
-209.878591
 21
-716.113845
 31
0.0
  0
LINE
  5
2540
100
AcDbEntity
  8
V0-VYPLNE
  6
DASHED
 62
    52
100
AcDbLine
 10
-106.348173
 20
-707.71734
 30
0.0
 11
-106.348173
 21
-651.036473
 31
0.0
  0
LINE
  5
2541
100
AcDbEntity
  8
V0-VYPLNE
  6
DASHED
 62
    52
100
AcDbLine
 10
-106.348173
 20
-594.359413
 30
0.0
 11
-106.348173
 21
-651.04028
 31
0.0
  0
ARC
  5
2542
100
AcDbEntity
  8
VO-OBRYS
  6
CONTINUOUS
100
AcDbCircle
 10
-210.808241
 20
-529.853122
 30
0.0
 40
0.92965
100
AcDbArc
 50
0.0
 51
180.0
  0
LINE
  5
2543
100
AcDbEntity
  8
VO-OBRYS
  6
CONTINUOUS
100
AcDbLine
 10
-211.737891
 20
-538.57651
 30
0.0
 11
-220.739221
 21
-570.285577
 31
0.0
  0
LINE
  5
2544
100
AcDbEntity
  8
VO-OBRYS
  6
CONTINUOUS
100
AcDbLine
 10
-211.737891
 20
-545.385069
 30
0.0
 11
-220.104737
 21
-574.859033
 31
0.0
  0
ARC
  5
2545
100
AcDbEntity
  8
V0-OBRYS
  6
CONTINUOUS
100
AcDbCircle
 10
-221.499211
 20
-571.454754
 30
0.0
 40
1.394474
100
AcDbArc
 50
0.0
 51
180.0
  0
LINE
  5
2546
100
AcDbEntity
  8
V0-OBRYS
  6
CONTINUOUS
100
AcDbLine
 10
-222.893685
 20
-585.962908
 30
0.0
 11
-221.244307
 21
-585.962908
 31
0.0
  0
LINE
  5
2547
100
AcDbEntity
  8
V0-OBRYS
  6
CONTINUOUS
100
AcDbLine
 10
-211.737891
 20
-585.962908
 30
0.0
 11
-220.104737
 21
-585.962908
 31
0.0
  0
ARC
  5
2548
100
AcDbEntity
  8
V0-OBRYS
  6
CONTINUOUS
 62
    90
100
AcDbCircle
 10
-145.894169
 20
-439.137085
 30
0.0
 40
8.742823
100
AcDbArc
 50
179.281715
 51
253.373225
  0
ARC
  5
2549
100
AcDbEntity
  8
V0-OBRYS
  6
CONTINUOUS
 62
    90
100
AcDbCircle
 10
-96.438879
 20
-118.578146
 30
0.0
 40
333.014349
100
AcDbArc
 50
261.024037
 51
269.231919
  0
LINE
  5
254A
100
AcDbEntity
  8
VO-OBRYS
  6
CONTINUOUS
100
AcDbLine
 10
-183.848404
 20
-444.927245
 30
0.0
 11
-191.2856
 21
-466.529042
 31
0.0
  0
LINE
  5
254B
100
AcDbEntity
  8
V0-VYPLNE
  6
DASHED
 62
    52
100
AcDbLine
 10
-150.0948
 20
-458.871181
 30
0.0
 11
-105.328798
 21
-461.941507
 31
0.0
  0
LINE
  5
254C
100
AcDbEntity
  8
V0-VYPLNE
  6
DASHED
 62
    52
100
AcDbLine
 10
-105.328798
 20
-461.941507
 30
0.0
 11
-161.363056
 21
-584.921342
 31
0.0
  0
LINE
  5
254D
100
AcDbEntity
  8
V0-VYPLNE
  6
DASHED
 62
    52
100
AcDbLine
 10
-105.328798
 20
-461.941507
 30
0.0
 11
-112.499507
 21
-584.921347
 31
0.0
  0
LINE
  5
254E
100
AcDbEntity
  8
VO-OBRYS
  6
CONTINUOUS
100
AcDbLine
 10
-169.884242
 20
-585.713697
 30
0.0
 11
-174.929345
 21
-468.671777
 31
0.0
  0
LINE
  5
254F
100
AcDbEntity
  8
VO-OBRYS
  6
CONTINUOUS
100
AcDbLine
 10
-202.441395
 20
-505.827661
 30
0.0
 11
-209.878591
 21
-532.02674
 31
0.0
  0
LINE
  5
2550
100
AcDbEntity
  8
VO-OBRYS
  6
CONTINUOUS
100
AcDbLine
 10
-202.441395
 20
-512.63622
 30
0.0
 11
-209.878591
 21
-538.835299
 31
0.0
  0
LINE
  5
2551
100
AcDbEntity
  8
V0-VYPLNE
  6
DASHED
 62
    52
100
AcDbLine
 10
-115.786239
 20
-584.921347
 30
0.0
 11
-169.737212
 21
-584.921347
 31
0.0
  0
LINE
  5
2552
100
AcDbEntity
  8
V0-OBRYS
  6
CONTINUOUS
100
AcDbLine
 10
-169.510698
 20
-585.962908
 30
0.0
 11
-191.2856
 21
-585.962908
 31
0.0
  0
LINE
  5
2553
100
AcDbEntity
  8
V0-OBRYS
  6
CONTINUOUS
100
AcDbLine
 10
-193.144899
 20
-585.962908
 30
0.0
 11
-200.582096
 21
-585.962908
 31
0.0
  0
LINE
  5
2554
100
AcDbEntity
  8
V0-OBRYS
  6
CONTINUOUS
100
AcDbLine
 10
-202.441395
 20
-585.962908
 30
0.0
 11
-209.878591
 21
-585.962908
 31
0.0
  0
LINE
  5
2555
100
AcDbEntity
  8
V0-VYPLNE
  6
DASHED
 62
    52
100
AcDbLine
 10
-167.509373
 20
-464.871181
 30
0.0
 11
-150.0948
 21
-458.871181
 31
0.0
  0
LINE
  5
2556
100
AcDbEntity
  8
VO-OBRYS
  6
CONTINUOUS
100
AcDbLine
 10
-193.144899
 20
-473.078811
 30
0.0
 11
-200.582096
 21
-499.277891
 31
0.0
  0
LINE
  5
2557
100
AcDbEntity
  8
VO-OBRYS
  6
CONTINUOUS
100
AcDbLine
 10
-193.144899
 20
-479.887371
 30
0.0
 11
-200.582096
 21
-506.08645
 31
0.0
  0
ARC
  5
2558
100
AcDbEntity
  8
VO-OBRYS
  6
CONTINUOUS
100
AcDbCircle
 10
-201.511745
 20
-498.076146
 30
0.0
 40
0.92965
100
AcDbArc
 50
0.0
 51
180.0
  0
LINE
  5
2559
100
AcDbEntity
  8
VO-OBRYS
  6
CONTINUOUS
100
AcDbLine
 10
-183.848404
 20
-451.735804
 30
0.0
 11
-191.2856
 21
-473.337601
 31
0.0
  0
ARC
  5
255A
100
AcDbEntity
  8
VO-OBRYS
  6
CONTINUOUS
100
AcDbCircle
 10
-192.21525
 20
-465.327296
 30
0.0
 40
0.92965
100
AcDbArc
 50
0.0
 51
180.0
  0
LINE
  5
255B
100
AcDbEntity
  8
VO-OBRYS
  6
CONTINUOUS
100
AcDbLine
 10
-174.929345
 20
-468.671777
 30
0.0
 11
-167.316277
 21
-467.663689
 31
0.0
  0
LINE
  5
255C
100
AcDbEntity
  8
V0-OBRYS
100
AcDbLine
 10
-154.636305
 20
-401.292522
 30
0.0
 11
-169.510698
 21
-401.292522
 31
0.0
  0
LINE
  5
255D
100
AcDbEntity
  8
VO-OBRYS
  6
CONTINUOUS
100
AcDbLine
 10
-169.788165
 20
-410.419676
 30
0.0
 11
-172.69273
 21
-415.832858
 31
0.0
  0
LINE
  5
255E
100
AcDbEntity
  8
VO-OBRYS
  6
CONTINUOUS
100
AcDbLine
 10
-169.361572
 20
-412.229375
 30
0.0
 11
-172.096836
 21
-417.602649
 31
0.0
  0
LINE
  5
255F
100
AcDbEntity
  8
VO-OBRYS
  6
CONTINUOUS
100
AcDbLine
 10
-174.551908
 20
-417.924999
 30
0.0
 11
-181.989105
 21
-439.526796
 31
0.0
  0
LINE
  5
2560
100
AcDbEntity
  8
VO-OBRYS
  6
CONTINUOUS
100
AcDbLine
 10
-174.551908
 20
-424.733558
 30
0.0
 11
-181.989105
 21
-446.335355
 31
0.0
  0
ARC
  5
2561
100
AcDbEntity
  8
VO-OBRYS
  6
CONTINUOUS
100
AcDbCircle
 10
-182.918754
 20
-437.17573
 30
0.0
 40
0.92965
100
AcDbArc
 50
0.0
 51
180.0
  0
LINE
  5
2562
100
AcDbEntity
  8
VO-OBRYS
  6
CONTINUOUS
100
AcDbLine
 10
-172.096836
 20
-417.602649
 30
0.0
 11
-172.692609
 21
-419.333109
 31
0.0
  0
ARC
  5
2563
100
AcDbEntity
  8
VO-OBRYS
  6
CONTINUOUS
100
AcDbCircle
 10
-173.622259
 20
-415.847822
 30
0.0
 40
0.92965
100
AcDbArc
 50
0.0
 51
180.0
  0
TEXT
  5
2564
100
AcDbEntity
  8
V0-VYPLNE
 62
     6
100
AcDbText
 10
-208.453159
 20
-373.640488
 30
0.0
 40
38.184
  1
HXM-400
  7
ED30
100
AcDbText
  0
VIEWPORT
  5
22
100
AcDbEntity
 67
     1
  8
0
100
AcDbViewport
 10
261.517699
 20
148.5
 30
0.0
 40
523.035398
 41
297.0
 68
    -1
 69
     1
1001
ACAD
1000
MVIEW
1002
{
1070
    16
1010
0.0
1020
0.0
1030
0.0
1010
0.0
1020
0.0
1030
1.0
1040
0.0
1040
297.0
1040
261.517699
1040
148.5
1040
50.0
1040
0.0
1040
0.0
1070
     0
1070
   100
1070
     1
1070
     1
1070
     0
1070
     0
1070
     0
1070
     0
1040
0.0
1040
0.0
1040
0.0
1040
1.0
1040
1.0
1040
10.0
1040
10.0
1070
     0
1002
{
1002
}
1002
}
  0
ENDSEC
  0
SECTION
  2
OBJECTS
  0
DICTIONARY
  5
C
100
AcDbDictionary
  3
ACAD_GROUP
350
D
  3
ACAD_MLINESTYLE
350
E
  3
ACDBVARIABLEDICTIONARY
350
5D
  0
DICTIONARY
  5
D
102
{ACAD_REACTORS
330
C
102
}
100
AcDbDictionary
  0
DICTIONARY
  5
E
102
{ACAD_REACTORS
330
C
102
}
100
AcDbDictionary
  3
STANDARD
350
13
  0
DICTIONARY
  5
5D
102
{ACAD_REACTORS
330
C
102
}
100
AcDbDictionary
  3
DIMADEC
350
5E
  3
SORTENTS
350
3D8
  0
MLINESTYLE
  5
13
102
{ACAD_REACTORS
330
E
102
}
100
AcDbMlineStyle
  2
STANDARD
 70
     0
  3

 62
     0
 51
90.0
 52
90.0
 71
     2
 49
0.5
 62
   256
  6
BYLAYER
 49
-0.5
 62
   256
  6
BYLAYER
  0
DICTIONARYVAR
  5
5E
102
{ACAD_REACTORS
330
5D
102
}
100
DictionaryVariables
280
     0
  1
0
  0
DICTIONARYVAR
  5
3D8
102
{ACAD_REACTORS
330
5D
102
}
100
DictionaryVariables
280
     0
  1
96
  0
ENDSEC
  0
EOF
