  0
SECTION
  2
HEADER
  9
$ACADVER
  1
AC1014
  9
$ACADMAINTVER
 70
     0
  9
$DWGCODEPAGE
  3
ANSI_1250
  9
$INSBASE
 10
0.0
 20
0.0
 30
0.0
  9
$EXTMIN
 10
-412.87231
 20
-889.158357
 30
0.0
  9
$EXTMAX
 10
797.741168
 20
384.341056
 30
0.0
  9
$LIMMIN
 10
0.0
 20
0.0
  9
$LIMMAX
 10
420.0
 20
297.0
  9
$ORTHOMODE
 70
     1
  9
$REGENMODE
 70
     1
  9
$FILLMODE
 70
     1
  9
$QTEXTMODE
 70
     0
  9
$MIRRTEXT
 70
     1
  9
$DRAGMODE
 70
     2
  9
$LTSCALE
 40
1.0
  9
$OSMODE
 70
     1
  9
$ATTMODE
 70
     1
  9
$TEXTSIZE
 40
40.0
  9
$TRACEWID
 40
1.0
  9
$TEXTSTYLE
  7
ED40
  9
$CLAYER
  8
V0-OBRYS
  9
$CELTYPE
  6
CONTINUOUS
  9
$CECOLOR
 62
    90
  9
$CELTSCALE
 40
1.0
  9
$DELOBJ
 70
     1
  9
$DISPSILH
 70
     0
  9
$DIMSCALE
 40
1.0
  9
$DIMASZ
 40
30.0
  9
$DIMEXO
 40
1.0
  9
$DIMDLI
 40
3.75
  9
$DIMRND
 40
0.0
  9
$DIMDLE
 40
0.0
  9
$DIMEXE
 40
1.25
  9
$DIMTP
 40
0.0
  9
$DIMTM
 40
0.0
  9
$DIMTXT
 40
30.0
  9
$DIMCEN
 40
3.0
  9
$DIMTSZ
 40
0.0
  9
$DIMTOL
 70
     0
  9
$DIMLIM
 70
     0
  9
$DIMTIH
 70
     0
  9
$DIMTOH
 70
     0
  9
$DIMSE1
 70
     0
  9
$DIMSE2
 70
     0
  9
$DIMTAD
 70
     1
  9
$DIMZIN
 70
     8
  9
$DIMBLK
  1

  9
$DIMASO
 70
     1
  9
$DIMSHO
 70
     1
  9
$DIMPOST
  1

  9
$DIMAPOST
  1

  9
$DIMALT
 70
     0
  9
$DIMALTD
 70
     4
  9
$DIMALTF
 40
0.0394
  9
$DIMLFAC
 40
1.0
  9
$DIMTOFL
 70
     1
  9
$DIMTVP
 40
0.0
  9
$DIMTIX
 70
     0
  9
$DIMSOXD
 70
     0
  9
$DIMSAH
 70
     1
  9
$DIMBLK1
  1
_OPEN
  9
$DIMBLK2
  1
_OPEN
  9
$DIMSTYLE
  2
ED30
  9
$DIMCLRD
 70
    41
  9
$DIMCLRE
 70
    41
  9
$DIMCLRT
 70
    41
  9
$DIMTFAC
 40
1.0
  9
$DIMGAP
 40
2.0
  9
$DIMJUST
 70
     0
  9
$DIMSD1
 70
     0
  9
$DIMSD2
 70
     0
  9
$DIMTOLJ
 70
     1
  9
$DIMTZIN
 70
     8
  9
$DIMALTZ
 70
     0
  9
$DIMALTTZ
 70
     0
  9
$DIMFIT
 70
     3
  9
$DIMUPT
 70
     0
  9
$DIMUNIT
 70
     2
  9
$DIMDEC
 70
     0
  9
$DIMTDEC
 70
     1
  9
$DIMALTU
 70
     8
  9
$DIMALTTD
 70
     4
  9
$DIMTXSTY
  7
ED30
  9
$DIMAUNIT
 70
     0
  9
$LUNITS
 70
     2
  9
$LUPREC
 70
     4
  9
$SKETCHINC
 40
1.0
  9
$FILLETRAD
 40
5.0
  9
$AUNITS
 70
     0
  9
$AUPREC
 70
     0
  9
$MENU
  1
.
  9
$ELEVATION
 40
0.0
  9
$PELEVATION
 40
0.0
  9
$THICKNESS
 40
0.0
  9
$LIMCHECK
 70
     0
  9
$BLIPMODE
 70
     0
  9
$CHAMFERA
 40
0.5
  9
$CHAMFERB
 40
0.5
  9
$CHAMFERC
 40
20.0
  9
$CHAMFERD
 40
0.0
  9
$SKPOLY
 70
     1
  9
$TDCREATE
 40
2451196.643769328
  9
$TDUPDATE
 40
2452915.874135995
  9
$TDINDWG
 40
0.8605744213
  9
$TDUSRTIMER
 40
0.8605744213
  9
$USRTIMER
 70
     1
  9
$ANGBASE
 50
0.0
  9
$ANGDIR
 70
     0
  9
$PDMODE
 70
    35
  9
$PDSIZE
 40
20.0
  9
$PLINEWID
 40
0.0
  9
$COORDS
 70
     1
  9
$SPLFRAME
 70
     0
  9
$SPLINETYPE
 70
     6
  9
$SPLINESEGS
 70
     8
  9
$ATTDIA
 70
     0
  9
$ATTREQ
 70
     1
  9
$HANDLING
 70
     1
  9
$HANDSEED
  5
23BC
  9
$SURFTAB1
 70
     6
  9
$SURFTAB2
 70
     6
  9
$SURFTYPE
 70
     6
  9
$SURFU
 70
     6
  9
$SURFV
 70
     6
  9
$UCSNAME
  2

  9
$UCSORG
 10
366.8741676550712
 20
89.37358462115861
 30
0.0
  9
$UCSXDIR
 10
1.0
 20
0.0
 30
0.0
  9
$UCSYDIR
 10
0.0
 20
1.0
 30
0.0
  9
$PUCSNAME
  2

  9
$PUCSORG
 10
0.0
 20
0.0
 30
0.0
  9
$PUCSXDIR
 10
1.0
 20
0.0
 30
0.0
  9
$PUCSYDIR
 10
0.0
 20
1.0
 30
0.0
  9
$USERI1
 70
     0
  9
$USERI2
 70
     0
  9
$USERI3
 70
     0
  9
$USERI4
 70
     0
  9
$USERI5
 70
     0
  9
$USERR1
 40
0.0
  9
$USERR2
 40
0.0
  9
$USERR3
 40
0.0
  9
$USERR4
 40
0.0
  9
$USERR5
 40
0.0
  9
$WORLDVIEW
 70
     1
  9
$SHADEDGE
 70
     3
  9
$SHADEDIF
 70
    70
  9
$TILEMODE
 70
     1
  9
$MAXACTVP
 70
    48
  9
$PINSBASE
 10
0.0
 20
0.0
 30
0.0
  9
$PLIMCHECK
 70
     0
  9
$PEXTMIN
 10
1.000000E+20
 20
1.000000E+20
 30
1.000000E+20
  9
$PEXTMAX
 10
-1.000000E+20
 20
-1.000000E+20
 30
-1.000000E+20
  9
$PLIMMIN
 10
0.0
 20
0.0
  9
$PLIMMAX
 10
420.0
 20
297.0
  9
$UNITMODE
 70
     0
  9
$VISRETAIN
 70
     1
  9
$PLINEGEN
 70
     0
  9
$PSLTSCALE
 70
     0
  9
$TREEDEPTH
 70
  3020
  9
$PICKSTYLE
 70
     0
  9
$CMLSTYLE
  2
STANDARD
  9
$CMLJUST
 70
     1
  9
$CMLSCALE
 40
3.0
  9
$PROXYGRAPHICS
 70
     1
  9
$MEASUREMENT
 70
     1
  0
ENDSEC
  0
SECTION
  2
CLASSES
  0
CLASS
  1
DICTIONARYVAR
  2
AcDbDictionaryVar
  3
"AutoCAD"
 90
        0
280
     0
281
     0
  0
CLASS
  1
LWPOLYLINE
  2
AcDbPolyline
  3
"AutoCAD"
 90
        0
280
     0
281
     1
  0
CLASS
  1
HATCH
  2
AcDbHatch
  3
"ACAD_SEDONA"
 90
        0
280
     0
281
     1
  0
ENDSEC
  0
SECTION
  2
TABLES
  0
TABLE
  2
VPORT
  5
8
100
AcDbSymbolTable
 70
     2
  0
VPORT
  5
23BB
100
AcDbSymbolTableRecord
100
AcDbViewportTableRecord
  2
*ACTIVE
 70
     0
 10
0.0
 20
0.0
 11
1.0
 21
1.0
 12
190.641744
 22
-221.899482
 13
0.0
 23
0.0
 14
10.0
 24
10.0
 15
10.0
 25
10.0
 16
0.0
 26
0.0
 36
1.0
 17
0.0
 27
0.0
 37
0.0
 40
1350.239965
 41
1.730469
 42
50.0
 43
0.0
 44
0.0
 50
0.0
 51
0.0
 71
     0
 72
   100
 73
     1
 74
     1
 75
     0
 76
     0
 77
     0
 78
     0
  0
ENDTAB
  0
TABLE
  2
LTYPE
  5
5
100
AcDbSymbolTable
 70
     4
  0
LTYPE
  5
14
100
AcDbSymbolTableRecord
100
AcDbLinetypeTableRecord
  2
BYBLOCK
 70
     0
  3

 72
    65
 73
     0
 40
0.0
  0
LTYPE
  5
15
100
AcDbSymbolTableRecord
100
AcDbLinetypeTableRecord
  2
BYLAYER
 70
     0
  3

 72
    65
 73
     0
 40
0.0
  0
LTYPE
  5
16
100
AcDbSymbolTableRecord
100
AcDbLinetypeTableRecord
  2
CONTINUOUS
 70
     0
  3
Solid line
 72
    65
 73
     0
 40
0.0
  0
LTYPE
  5
7F
100
AcDbSymbolTableRecord
100
AcDbLinetypeTableRecord
  2
DASHDOT
 70
     0
  3
Dash dot __ . __ . __ . __ . __ . __ . __ . __
 72
    65
 73
     4
 40
25.4
 49
12.7
 74
     0
 49
-6.35
 74
     0
 49
0.0
 74
     0
 49
-6.35
 74
     0
  0
LTYPE
  5
1B9E
100
AcDbSymbolTableRecord
100
AcDbLinetypeTableRecord
  2
ACAD_ISO02W100
 70
     0
  3
ISO dash __ __ __ __ __ __ __ __ __ __ __ __ __
 72
    65
 73
     2
 40
15.0
 49
12.0
 74
     0
 49
-3.0
 74
     0
  0
LTYPE
  5
1B9F
100
AcDbSymbolTableRecord
100
AcDbLinetypeTableRecord
  2
DASHED
 70
     0
  3
Dashed __ __ __ __ __ __ __ __ __ __ __ __ __ _
 72
    65
 73
     2
 40
19.05
 49
12.7
 74
     0
 49
-6.35
 74
     0
  0
ENDTAB
  0
TABLE
  2
LAYER
  5
2
100
AcDbSymbolTable
 70
     5
  0
LAYER
  5
F
100
AcDbSymbolTableRecord
100
AcDbLayerTableRecord
  2
0
 70
     0
 62
     7
  6
CONTINUOUS
  0
LAYER
  5
9E
100
AcDbSymbolTableRecord
100
AcDbLayerTableRecord
  2
DEFPOINTS
 70
     0
 62
     7
  6
CONTINUOUS
  0
LAYER
  5
377
100
AcDbSymbolTableRecord
100
AcDbLayerTableRecord
  2
V0-OBRYS
 70
     0
 62
    90
  6
CONTINUOUS
  0
LAYER
  5
378
100
AcDbSymbolTableRecord
100
AcDbLayerTableRecord
  2
V0-VYPLNE
 70
     0
 62
    63
  6
DASHDOT
  0
LAYER
  5
1540
100
AcDbSymbolTableRecord
100
AcDbLayerTableRecord
  2
VO-OBRYS
 70
     0
 62
    90
  6
CONTINUOUS
  0
ENDTAB
  0
TABLE
  2
STYLE
  5
3
100
AcDbSymbolTable
 70
     6
  0
STYLE
  5
10
100
AcDbSymbolTableRecord
100
AcDbTextStyleTableRecord
  2
STANDARD
 70
     0
 40
0.0
 41
1.0
 50
0.0
 71
     0
 42
2.5
  3
ISOCP
  4

  0
STYLE
  5
331
100
AcDbSymbolTableRecord
100
AcDbTextStyleTableRecord
  2
ED20
 70
     0
 40
20.0
 41
1.0
 50
0.0
 71
     0
 42
2.5
  3
ISOCP.shx
  4

  0
STYLE
  5
648
100
AcDbSymbolTableRecord
100
AcDbTextStyleTableRecord
  2
ED10
 70
     0
 40
10.0
 41
1.0
 50
0.0
 71
     0
 42
10.0
  3
ISOCP.shx
  4

  0
STYLE
  5
F38
100
AcDbSymbolTableRecord
100
AcDbTextStyleTableRecord
  2
ED30
 70
     0
 40
30.0
 41
1.0
 50
0.0
 71
     0
 42
2.5
  3
ISOCP.shx
  4

  0
STYLE
  5
F39
100
AcDbSymbolTableRecord
100
AcDbTextStyleTableRecord
  2
ED40
 70
     0
 40
40.0
 41
1.0
 50
0.0
 71
     0
 42
40.0
  3
ISOCP.shx
  4

  0
STYLE
  5
1B9D
100
AcDbSymbolTableRecord
100
AcDbTextStyleTableRecord
  2

 70
     1
 40
0.0
 41
1.0
 50
0.0
 71
     0
 42
40.0
  3
ltypeshp.shx
  4

  0
ENDTAB
  0
TABLE
  2
VIEW
  5
6
100
AcDbSymbolTable
 70
     0
  0
ENDTAB
  0
TABLE
  2
UCS
  5
7
100
AcDbSymbolTable
 70
     0
  0
ENDTAB
  0
TABLE
  2
APPID
  5
9
100
AcDbSymbolTable
 70
     1
  0
APPID
  5
11
100
AcDbSymbolTableRecord
100
AcDbRegAppTableRecord
  2
ACAD
 70
     0
  0
ENDTAB
  0
TABLE
  2
DIMSTYLE
  5
A
100
AcDbSymbolTable
 70
     4
  0
DIMSTYLE
105
1D
100
AcDbSymbolTableRecord
100
AcDbDimStyleTableRecord
  2
STANDARD
 70
     0
  3

  4

  5

  6
_OPEN
  7
_OPEN
 40
0.0
 41
15.0
 42
0.625
 43
3.75
 44
1.25
 45
0.0
 46
0.0
 47
0.0
 48
0.0
140
15.0
141
2.5
142
0.0
143
0.0394
144
1.0
145
0.0
146
1.0
147
3.0
 71
     0
 72
     0
 73
     0
 74
     0
 75
     0
 76
     0
 77
     1
 78
     8
170
     0
171
     4
172
     1
173
     1
174
     0
175
     0
176
     0
177
     0
178
     0
270
     2
271
     0
272
     1
273
     8
274
     4
340
331
275
     0
280
     0
281
     0
282
     0
283
     1
284
     8
285
     0
286
     0
287
     3
288
     0
  0
DIMSTYLE
105
FE9
102
{ACAD_REACTORS
330
1879
330
1886
330
1893
330
1849
330
21F2
330
225B
102
}
100
AcDbSymbolTableRecord
100
AcDbDimStyleTableRecord
  2
ED20
 70
     0
  3

  4

  5

  6
_OPEN
  7
_OPEN
 40
1.0
 41
20.0
 42
1.0
 43
3.75
 44
1.25
 45
0.0
 46
0.0
 47
0.0
 48
0.0
140
20.0
141
3.0
142
0.0
143
0.0394
144
1.0
145
0.0
146
1.0
147
2.0
 71
     0
 72
     0
 73
     0
 74
     0
 75
     0
 76
     0
 77
     1
 78
     8
170
     0
171
     4
172
     1
173
     1
174
     0
175
     0
176
    41
177
    41
178
    41
270
     2
271
     0
272
     1
273
     8
274
     4
340
331
275
     0
280
     0
281
     0
282
     0
283
     1
284
     8
285
     0
286
     0
287
     3
288
     0
  0
DIMSTYLE
105
2267
100
AcDbSymbolTableRecord
100
AcDbDimStyleTableRecord
  2
ED40
 70
     0
  3

  4

  5

  6
_OPEN
  7
_OPEN
 40
1.0
 41
20.0
 42
1.0
 43
3.75
 44
1.25
 45
0.0
 46
0.0
 47
0.0
 48
0.0
140
20.0
141
3.0
142
0.0
143
0.0394
144
1.0
145
0.0
146
1.0
147
2.0
 71
     0
 72
     0
 73
     0
 74
     0
 75
     0
 76
     0
 77
     1
 78
     8
170
     0
171
     4
172
     1
173
     1
174
     0
175
     0
176
    41
177
    41
178
    41
270
     2
271
     0
272
     1
273
     8
274
     4
340
331
275
     0
280
     0
281
     0
282
     0
283
     1
284
     8
285
     0
286
     0
287
     3
288
     0
  0
DIMSTYLE
105
22B7
100
AcDbSymbolTableRecord
100
AcDbDimStyleTableRecord
  2
ED30
 70
     0
  3

  4

  5

  6
_OPEN
  7
_OPEN
 40
1.0
 41
40.0
 42
1.0
 43
3.75
 44
1.25
 45
0.0
 46
0.0
 47
0.0
 48
0.0
140
40.0
141
3.0
142
0.0
143
0.0394
144
1.0
145
0.0
146
1.0
147
2.0
 71
     0
 72
     0
 73
     0
 74
     0
 75
     0
 76
     0
 77
     1
 78
     8
170
     0
171
     4
172
     1
173
     1
174
     0
175
     0
176
    41
177
    41
178
    41
270
     2
271
     0
272
     1
273
     8
274
     4
340
F39
275
     0
280
     0
281
     0
282
     0
283
     1
284
     8
285
     0
286
     0
287
     3
288
     0
  0
ENDTAB
  0
TABLE
  2
BLOCK_RECORD
  5
1
100
AcDbSymbolTable
 70
     7
  0
BLOCK_RECORD
  5
1A
100
AcDbSymbolTableRecord
100
AcDbBlockTableRecord
  2
*MODEL_SPACE
  0
BLOCK_RECORD
  5
17
100
AcDbSymbolTableRecord
100
AcDbBlockTableRecord
  2
*PAPER_SPACE
  0
BLOCK_RECORD
  5
90
100
AcDbSymbolTableRecord
100
AcDbBlockTableRecord
  2
_OPEN
  0
BLOCK_RECORD
  5
186D
100
AcDbSymbolTableRecord
100
AcDbBlockTableRecord
  2
*D1
  0
BLOCK_RECORD
  5
187A
100
AcDbSymbolTableRecord
100
AcDbBlockTableRecord
  2
*D2
  0
BLOCK_RECORD
  5
1887
100
AcDbSymbolTableRecord
100
AcDbBlockTableRecord
  2
*D3
  0
BLOCK_RECORD
  5
1A7A
100
AcDbSymbolTableRecord
100
AcDbBlockTableRecord
  2
*D4
  0
BLOCK_RECORD
  5
21E6
100
AcDbSymbolTableRecord
100
AcDbBlockTableRecord
  2
*D5
  0
BLOCK_RECORD
  5
224F
100
AcDbSymbolTableRecord
100
AcDbBlockTableRecord
  2
*D6
  0
ENDTAB
  0
ENDSEC
  0
SECTION
  2
BLOCKS
  0
BLOCK
  5
1B
100
AcDbEntity
  8
0
100
AcDbBlockBegin
  2
*MODEL_SPACE
 70
     0
 10
0.0
 20
0.0
 30
0.0
  3
*MODEL_SPACE
  1

  0
ENDBLK
  5
1C
100
AcDbEntity
  8
0
100
AcDbBlockEnd
  0
BLOCK
  5
18
100
AcDbEntity
 67
     1
  8
0
100
AcDbBlockBegin
  2
*PAPER_SPACE
 70
     0
 10
0.0
 20
0.0
 30
0.0
  3
*PAPER_SPACE
  1

  0
ENDBLK
  5
19
100
AcDbEntity
 67
     1
  8
0
100
AcDbBlockEnd
  0
BLOCK
  5
91
100
AcDbEntity
  8
0
100
AcDbBlockBegin
  2
_OPEN
 70
     0
 10
0.0
 20
0.0
 30
0.0
  3
_OPEN
  1

  0
LINE
  5
92
100
AcDbEntity
  8
0
  6
BYBLOCK
 62
     0
100
AcDbLine
 10
-1.0
 20
0.166667
 30
0.0
 11
0.0
 21
0.0
 31
0.0
  0
LINE
  5
93
100
AcDbEntity
  8
0
  6
BYBLOCK
 62
     0
100
AcDbLine
 10
0.0
 20
0.0
 30
0.0
 11
-1.0
 21
-0.166667
 31
0.0
  0
LINE
  5
94
100
AcDbEntity
  8
0
  6
BYBLOCK
 62
     0
100
AcDbLine
 10
0.0
 20
0.0
 30
0.0
 11
-1.0
 21
0.0
 31
0.0
  0
ENDBLK
  5
95
100
AcDbEntity
  8
0
100
AcDbBlockEnd
  0
BLOCK
  5
23A6
100
AcDbEntity
  8
0
100
AcDbBlockBegin
  2
*D1
 70
     1
 10
0.0
 20
0.0
 30
0.0
  3
*D1
  1

  0
LINE
  5
23A7
100
AcDbEntity
  8
0
  6
BYBLOCK
 62
    41
100
AcDbLine
 10
-135.987082
 20
274.811543
 30
0.0
 11
60.581657
 21
274.811543
 31
0.0
  0
LINE
  5
23A8
100
AcDbEntity
  8
0
  6
BYBLOCK
 62
    41
100
AcDbLine
 10
-135.987082
 20
-96.064374
 30
0.0
 11
60.581657
 21
-96.064374
 31
0.0
  0
LINE
  5
23A9
100
AcDbEntity
  8
0
  6
BYBLOCK
 62
    41
100
AcDbLine
 10
59.331657
 20
244.811543
 30
0.0
 11
59.331657
 21
-66.064374
 31
0.0
  0
INSERT
  5
23AA
100
AcDbEntity
  8
0
  6
BYBLOCK
 62
    41
100
AcDbBlockReference
  2
_OPEN
 10
59.331657
 20
274.811543
 30
0.0
 41
30.0
 42
30.0
 43
30.0
 50
90.0
  0
INSERT
  5
23AB
100
AcDbEntity
  8
0
  6
BYBLOCK
 62
    41
100
AcDbBlockReference
  2
_OPEN
 10
59.331657
 20
-96.064374
 30
0.0
 41
30.0
 42
30.0
 43
30.0
 50
270.0
  0
MTEXT
  5
23AC
100
AcDbEntity
  8
0
  6
BYBLOCK
 62
    41
100
AcDbMText
 10
42.331657
 20
89.373585
 30
0.0
 40
30.0
 41
0.0
 71
     5
 72
     1
  1
\A1;\U+2205371
  7
ED30
 11
0.0
 21
1.0
 31
0.0
  0
POINT
  5
23AD
100
AcDbEntity
  8
DEFPOINTS
  6
BYBLOCK
 62
     0
100
AcDbPoint
 10
-136.987082
 20
274.811543
 30
0.0
  0
POINT
  5
23AE
100
AcDbEntity
  8
DEFPOINTS
  6
BYBLOCK
 62
     0
100
AcDbPoint
 10
-136.987082
 20
-96.064374
 30
0.0
  0
POINT
  5
23AF
100
AcDbEntity
  8
DEFPOINTS
  6
BYBLOCK
 62
     0
100
AcDbPoint
 10
59.331657
 20
-96.064374
 30
0.0
  0
ENDBLK
  5
23B0
100
AcDbEntity
  8
0
100
AcDbBlockEnd
  0
BLOCK
  5
237C
100
AcDbEntity
  8
0
100
AcDbBlockBegin
  2
*D2
 70
     1
 10
0.0
 20
0.0
 30
0.0
  3
*D2
  1

  0
LINE
  5
237D
100
AcDbEntity
  8
0
  6
BYBLOCK
 62
    41
100
AcDbLine
 10
-99.95607
 20
269.355319
 30
0.0
 11
-15.117573
 21
269.355319
 31
0.0
  0
LINE
  5
237E
100
AcDbEntity
  8
0
  6
BYBLOCK
 62
    41
100
AcDbLine
 10
-101.372134
 20
-91.316182
 30
0.0
 11
-15.117573
 21
-91.316182
 31
0.0
  0
LINE
  5
237F
100
AcDbEntity
  8
0
  6
BYBLOCK
 62
    41
100
AcDbLine
 10
-16.367573
 20
239.355319
 30
0.0
 11
-16.367573
 21
-61.316182
 31
0.0
  0
INSERT
  5
2380
100
AcDbEntity
  8
0
  6
BYBLOCK
 62
    41
100
AcDbBlockReference
  2
_OPEN
 10
-16.367573
 20
269.355319
 30
0.0
 41
30.0
 42
30.0
 43
30.0
 50
90.0
  0
INSERT
  5
2381
100
AcDbEntity
  8
0
  6
BYBLOCK
 62
    41
100
AcDbBlockReference
  2
_OPEN
 10
-16.367573
 20
-91.316182
 30
0.0
 41
30.0
 42
30.0
 43
30.0
 50
270.0
  0
MTEXT
  5
2382
100
AcDbEntity
  8
0
  6
BYBLOCK
 62
    41
100
AcDbMText
 10
-33.367573
 20
89.373585
 30
0.0
 40
30.0
 41
0.0
 71
     5
 72
     1
  1
\A1;\U+2205361
  7
ED30
 11
0.0
 21
1.0
 31
0.0
  0
POINT
  5
2383
100
AcDbEntity
  8
DEFPOINTS
  6
BYBLOCK
 62
     0
100
AcDbPoint
 10
-100.95607
 20
269.355319
 30
0.0
  0
POINT
  5
2384
100
AcDbEntity
  8
DEFPOINTS
  6
BYBLOCK
 62
     0
100
AcDbPoint
 10
-102.372134
 20
-91.316182
 30
0.0
  0
POINT
  5
2385
100
AcDbEntity
  8
DEFPOINTS
  6
BYBLOCK
 62
     0
100
AcDbPoint
 10
-16.367573
 20
-91.316182
 30
0.0
  0
ENDBLK
  5
2386
100
AcDbEntity
  8
0
100
AcDbBlockEnd
  0
BLOCK
  5
22E6
100
AcDbEntity
  8
0
100
AcDbBlockBegin
  2
*D3
 70
     1
 10
0.0
 20
0.0
 30
0.0
  3
*D3
  1

  0
LINE
  5
22E7
100
AcDbEntity
  8
0
  6
BYBLOCK
 62
    41
100
AcDbLine
 10
794.155798
 20
-126.654442
 30
0.0
 11
794.155798
 21
-261.194907
 31
0.0
  0
LINE
  5
22E8
100
AcDbEntity
  8
0
  6
BYBLOCK
 62
    41
100
AcDbLine
 10
329.47635
 20
-126.654442
 30
0.0
 11
329.47635
 21
-261.194907
 31
0.0
  0
LINE
  5
22E9
100
AcDbEntity
  8
0
  6
BYBLOCK
 62
    41
100
AcDbLine
 10
764.155798
 20
-259.944907
 30
0.0
 11
359.47635
 21
-259.944907
 31
0.0
  0
INSERT
  5
22EA
100
AcDbEntity
  8
0
  6
BYBLOCK
 62
    41
100
AcDbBlockReference
  2
_OPEN
 10
794.155798
 20
-259.944907
 30
0.0
 41
30.0
 42
30.0
 43
30.0
  0
INSERT
  5
22EB
100
AcDbEntity
  8
0
  6
BYBLOCK
 62
    41
100
AcDbBlockReference
  2
_OPEN
 10
329.47635
 20
-259.944907
 30
0.0
 41
30.0
 42
30.0
 43
30.0
 50
180.0
  0
MTEXT
  5
22EC
100
AcDbEntity
  8
0
  6
BYBLOCK
 62
    41
100
AcDbMText
 10
561.541649
 20
-242.944907
 30
0.0
 40
30.0
 41
0.0
 71
     5
 72
     1
  1
\A1;465
  7
ED30
  0
POINT
  5
22ED
100
AcDbEntity
  8
DEFPOINTS
  6
BYBLOCK
 62
     0
100
AcDbPoint
 10
794.155798
 20
-125.654442
 30
0.0
  0
POINT
  5
22EE
100
AcDbEntity
  8
DEFPOINTS
  6
BYBLOCK
 62
     0
100
AcDbPoint
 10
329.47635
 20
-125.654442
 30
0.0
  0
POINT
  5
22EF
100
AcDbEntity
  8
DEFPOINTS
  6
BYBLOCK
 62
     0
100
AcDbPoint
 10
329.47635
 20
-259.944907
 30
0.0
  0
ENDBLK
  5
22F0
100
AcDbEntity
  8
0
100
AcDbBlockEnd
  0
BLOCK
  5
22B8
100
AcDbEntity
  8
0
100
AcDbBlockBegin
  2
*D4
 70
     1
 10
0.0
 20
0.0
 30
0.0
  3
*D4
  1

  0
LINE
  5
22B9
100
AcDbEntity
  8
0
  6
BYBLOCK
 62
    41
100
AcDbLine
 10
-102.372134
 20
-92.316182
 30
0.0
 11
-102.372134
 21
-244.491967
 31
0.0
  0
LINE
  5
22BA
100
AcDbEntity
  8
0
  6
BYBLOCK
 62
    41
100
AcDbLine
 10
-136.987082
 20
-147.486035
 30
0.0
 11
-136.987082
 21
-244.491967
 31
0.0
  0
LINE
  5
22BB
100
AcDbEntity
  8
0
  6
BYBLOCK
 62
    41
100
AcDbLine
 10
-166.987082
 20
-243.241967
 30
0.0
 11
-196.987082
 21
-243.241967
 31
0.0
  0
LINE
  5
22BC
100
AcDbEntity
  8
0
  6
BYBLOCK
 62
    41
100
AcDbLine
 10
-72.372134
 20
-243.241967
 30
0.0
 11
21.577613
 21
-243.241967
 31
0.0
  0
LINE
  5
22BD
100
AcDbEntity
  8
0
  6
BYBLOCK
 62
    41
100
AcDbLine
 10
-136.987082
 20
-243.241967
 30
0.0
 11
-102.372134
 21
-243.241967
 31
0.0
  0
INSERT
  5
22BE
100
AcDbEntity
  8
0
  6
BYBLOCK
 62
    41
100
AcDbBlockReference
  2
_OPEN
 10
-136.987082
 20
-243.241967
 30
0.0
 41
30.0
 42
30.0
 43
30.0
  0
INSERT
  5
22BF
100
AcDbEntity
  8
0
  6
BYBLOCK
 62
    41
100
AcDbBlockReference
  2
_OPEN
 10
-102.372134
 20
-243.241967
 30
0.0
 41
30.0
 42
30.0
 43
30.0
 50
180.0
  0
MTEXT
  5
22C0
100
AcDbEntity
  8
0
  6
BYBLOCK
 62
    41
100
AcDbMText
 10
2.456293
 20
-226.241967
 30
0.0
 40
30.0
 41
0.0
 71
     5
 72
     1
  1
\A1;35
  7
ED30
  0
POINT
  5
22C1
100
AcDbEntity
  8
DEFPOINTS
  6
BYBLOCK
 62
     0
100
AcDbPoint
 10
-102.372134
 20
-91.316182
 30
0.0
  0
POINT
  5
22C2
100
AcDbEntity
  8
DEFPOINTS
  6
BYBLOCK
 62
     0
100
AcDbPoint
 10
-136.987082
 20
-146.486035
 30
0.0
  0
POINT
  5
22C3
100
AcDbEntity
  8
DEFPOINTS
  6
BYBLOCK
 62
     0
100
AcDbPoint
 10
-136.987082
 20
-243.241967
 30
0.0
  0
ENDBLK
  5
22C4
100
AcDbEntity
  8
0
100
AcDbBlockEnd
  0
BLOCK
  5
22C5
100
AcDbEntity
  8
0
100
AcDbBlockBegin
  2
*D5
 70
     1
 10
0.0
 20
0.0
 30
0.0
  3
*D5
  1

  0
LINE
  5
22C6
100
AcDbEntity
  8
0
  6
BYBLOCK
 62
    41
100
AcDbLine
 10
-136.987082
 20
-148.486035
 30
0.0
 11
-136.987082
 21
-243.540157
 31
0.0
  0
LINE
  5
22C7
100
AcDbEntity
  8
0
  6
BYBLOCK
 62
    41
100
AcDbLine
 10
-242.37627
 20
41.674909
 30
0.0
 11
-242.37627
 21
-243.540157
 31
0.0
  0
LINE
  5
22C8
100
AcDbEntity
  8
0
  6
BYBLOCK
 62
    41
100
AcDbLine
 10
-166.987082
 20
-242.290157
 30
0.0
 11
-212.37627
 21
-242.290157
 31
0.0
  0
INSERT
  5
22C9
100
AcDbEntity
  8
0
  6
BYBLOCK
 62
    41
100
AcDbBlockReference
  2
_OPEN
 10
-136.987082
 20
-242.290157
 30
0.0
 41
30.0
 42
30.0
 43
30.0
  0
INSERT
  5
22CA
100
AcDbEntity
  8
0
  6
BYBLOCK
 62
    41
100
AcDbBlockReference
  2
_OPEN
 10
-242.37627
 20
-242.290157
 30
0.0
 41
30.0
 42
30.0
 43
30.0
 50
180.0
  0
MTEXT
  5
22CB
100
AcDbEntity
  8
0
  6
BYBLOCK
 62
    41
100
AcDbMText
 10
-189.681676
 20
-225.290157
 30
0.0
 40
30.0
 41
0.0
 71
     5
 72
     1
  1
\A1;105
  7
ED30
  0
POINT
  5
22CC
100
AcDbEntity
  8
DEFPOINTS
  6
BYBLOCK
 62
     0
100
AcDbPoint
 10
-136.987082
 20
-147.486035
 30
0.0
  0
POINT
  5
22CD
100
AcDbEntity
  8
DEFPOINTS
  6
BYBLOCK
 62
     0
100
AcDbPoint
 10
-242.37627
 20
42.674909
 30
0.0
  0
POINT
  5
22CE
100
AcDbEntity
  8
DEFPOINTS
  6
BYBLOCK
 62
     0
100
AcDbPoint
 10
-242.37627
 20
-242.290157
 30
0.0
  0
ENDBLK
  5
22CF
100
AcDbEntity
  8
0
100
AcDbBlockEnd
  0
BLOCK
  5
22F1
100
AcDbEntity
  8
0
100
AcDbBlockBegin
  2
*D6
 70
     1
 10
0.0
 20
0.0
 30
0.0
  3
*D6
  1

  0
LINE
  5
22F2
100
AcDbEntity
  8
0
  6
BYBLOCK
 62
    41
100
AcDbLine
 10
366.962104
 20
-108.574542
 30
0.0
 11
366.962104
 21
-205.904406
 31
0.0
  0
LINE
  5
22F3
100
AcDbEntity
  8
0
  6
BYBLOCK
 62
    41
100
AcDbLine
 10
756.670044
 20
-108.574542
 30
0.0
 11
756.670044
 21
-205.904406
 31
0.0
  0
LINE
  5
22F4
100
AcDbEntity
  8
0
  6
BYBLOCK
 62
    41
100
AcDbLine
 10
396.962104
 20
-204.654406
 30
0.0
 11
726.670044
 21
-204.654406
 31
0.0
  0
INSERT
  5
22F5
100
AcDbEntity
  8
0
  6
BYBLOCK
 62
    41
100
AcDbBlockReference
  2
_OPEN
 10
366.962104
 20
-204.654406
 30
0.0
 41
30.0
 42
30.0
 43
30.0
 50
180.0
  0
INSERT
  5
22F6
100
AcDbEntity
  8
0
  6
BYBLOCK
 62
    41
100
AcDbBlockReference
  2
_OPEN
 10
756.670044
 20
-204.654406
 30
0.0
 41
30.0
 42
30.0
 43
30.0
  0
MTEXT
  5
22F7
100
AcDbEntity
  8
0
  6
BYBLOCK
 62
    41
100
AcDbMText
 10
556.423275
 20
-187.654406
 30
0.0
 40
30.0
 41
0.0
 71
     5
 72
     1
  1
\A1;390
  7
ED30
  0
POINT
  5
22F8
100
AcDbEntity
  8
DEFPOINTS
  6
BYBLOCK
 62
     0
100
AcDbPoint
 10
366.962104
 20
-107.574542
 30
0.0
  0
POINT
  5
22F9
100
AcDbEntity
  8
DEFPOINTS
  6
BYBLOCK
 62
     0
100
AcDbPoint
 10
756.670044
 20
-107.574542
 30
0.0
  0
POINT
  5
22FA
100
AcDbEntity
  8
DEFPOINTS
  6
BYBLOCK
 62
     0
100
AcDbPoint
 10
756.670044
 20
-204.654406
 30
0.0
  0
ENDBLK
  5
22FB
100
AcDbEntity
  8
0
100
AcDbBlockEnd
  0
ENDSEC
  0
SECTION
  2
ENTITIES
  0
TEXT
  5
1347
100
AcDbEntity
  8
V0-VYPLNE
 62
     6
100
AcDbText
 10
317.308879
 20
-575.68395
 30
0.0
 40
48.0
  1
HXM-350
  7
ED40
100
AcDbText
  0
TEXT
  5
1348
100
AcDbEntity
  8
V0-VYPLNE
 62
     4
100
AcDbText
 10
220.639831
 20
-642.482945
 30
0.0
 40
36.0
  1
AXIALNI VENTILATOR
  7
ED30
100
AcDbText
  0
LINE
  5
1789
100
AcDbEntity
  8
VO-OBRYS
  6
CONTINUOUS
100
AcDbLine
 10
624.566245
 20
57.881957
 30
0.0
 11
736.346471
 21
-53.898269
 31
0.0
  0
ARC
  5
1791
100
AcDbEntity
  8
V0-OBRYS
  6
CONTINUOUS
100
AcDbCircle
 10
561.816074
 20
89.373585
 30
0.0
 40
72.709126
100
AcDbArc
 50
148.997281
 51
211.002719
  0
ARC
  5
1792
100
AcDbEntity
  8
V0-OBRYS
100
AcDbCircle
 10
581.740644
 20
89.373585
 30
0.0
 40
226.883763
100
AcDbArc
 50
144.17889
 51
215.82111
  0
LINE
  5
1793
100
AcDbEntity
  8
V0-VYPLNE
100
AcDbLine
 10
561.816074
 20
89.373585
 30
0.0
 11
561.816074
 21
304.817587
 31
0.0
  0
LINE
  5
1794
100
AcDbEntity
  8
V0-VYPLNE
100
AcDbLine
 10
785.766012
 20
89.373585
 30
0.0
 11
324.179616
 21
89.373585
 31
0.0
  0
LINE
  5
17A6
100
AcDbEntity
  8
V0-VYPLNE
  6
DASHDOT
100
AcDbLine
 10
561.816074
 20
89.373585
 30
0.0
 11
561.816074
 21
-104.323428
 31
0.0
  0
LINE
  5
17C4
100
AcDbEntity
  8
VO-OBRYS
  6
CONTINUOUS
100
AcDbLine
 10
593.307702
 20
26.623414
 30
0.0
 11
705.087928
 21
-85.156812
 31
0.0
  0
LINE
  5
17C9
100
AcDbEntity
  8
V0-VYPLNE
100
AcDbLine
 10
561.816074
 20
89.373585
 30
0.0
 11
767.758666
 21
-116.569007
 31
0.0
  0
LINE
  5
17CA
100
AcDbEntity
  8
VO-OBRYS
  6
CONTINUOUS
100
AcDbLine
 10
530.324446
 20
26.623414
 30
0.0
 11
418.54422
 21
-85.156812
 31
0.0
  0
LINE
  5
17CC
100
AcDbEntity
  8
V0-VYPLNE
100
AcDbLine
 10
561.816074
 20
89.373585
 30
0.0
 11
355.873483
 21
-116.569007
 31
0.0
  0
LINE
  5
17CE
100
AcDbEntity
  8
VO-OBRYS
  6
CONTINUOUS
100
AcDbLine
 10
499.065903
 20
57.881957
 30
0.0
 11
387.285677
 21
-53.898269
 31
0.0
  0
LINE
  5
17D7
100
AcDbEntity
  8
VO-OBRYS
  6
CONTINUOUS
100
AcDbLine
 10
499.065903
 20
120.865213
 30
0.0
 11
387.285677
 21
232.645439
 31
0.0
  0
LINE
  5
17DB
100
AcDbEntity
  8
VO-OBRYS
  6
CONTINUOUS
100
AcDbLine
 10
530.324446
 20
152.123756
 30
0.0
 11
418.54422
 21
263.903982
 31
0.0
  0
LINE
  5
17E4
100
AcDbEntity
  8
VO-OBRYS
  6
CONTINUOUS
100
AcDbLine
 10
593.307702
 20
152.123756
 30
0.0
 11
705.087928
 21
263.903982
 31
0.0
  0
LINE
  5
17E8
100
AcDbEntity
  8
VO-OBRYS
  6
CONTINUOUS
100
AcDbLine
 10
624.566245
 20
120.865213
 30
0.0
 11
736.346471
 21
232.645439
 31
0.0
  0
LINE
  5
17ED
100
AcDbEntity
  8
V0-VYPLNE
100
AcDbLine
 10
754.290966
 20
214.700944
 30
0.0
 11
686.782545
 21
282.209364
 31
0.0
  0
ARC
  5
17F1
100
AcDbEntity
  8
VO-OBRYS
100
AcDbCircle
 10
586.704894
 20
89.373585
 30
0.0
 40
125.900429
100
AcDbArc
 50
153.381695
 51
206.618305
  0
ARC
  5
17F3
100
AcDbEntity
  8
VO-OBRYS
100
AcDbCircle
 10
586.002094
 20
89.373585
 30
0.0
 40
131.42984
100
AcDbArc
 50
152.355391
 51
207.644609
  0
ARC
  5
17F4
100
AcDbEntity
  8
VO-OBRYS
100
AcDbCircle
 10
561.816074
 20
67.512588
 30
0.0
 40
162.343275
100
AcDbArc
 50
58.377679
 51
121.622321
  0
ARC
  5
17F5
100
AcDbEntity
  8
VO-OBRYS
100
AcDbCircle
 10
561.816074
 20
67.792741
 30
0.0
 40
168.295332
100
AcDbArc
 50
57.827062
 51
122.172938
  0
ARC
  5
17F6
100
AcDbEntity
  8
VO-OBRYS
100
AcDbCircle
 10
561.816074
 20
68.877542
 30
0.0
 40
200.448989
100
AcDbArc
 50
55.519504
 51
124.480496
  0
ARC
  5
17F7
100
AcDbEntity
  8
VO-OBRYS
100
AcDbCircle
 10
561.816074
 20
69.027596
 30
0.0
 40
206.531146
100
AcDbArc
 50
55.176436
 51
124.823564
  0
LINE
  5
1807
100
AcDbEntity
  8
V0-OBRYS
100
AcDbLine
 10
-136.987082
 20
321.69531
 30
0.0
 11
-136.987082
 21
89.373585
 31
0.0
  0
LINE
  5
1808
100
AcDbEntity
  8
V0-OBRYS
100
AcDbLine
 10
-150.823726
 20
89.373585
 30
0.0
 11
-150.823726
 21
321.69531
 31
0.0
  0
LINE
  5
1809
100
AcDbEntity
  8
V0-OBRYS
100
AcDbLine
 10
-136.987082
 20
321.69531
 30
0.0
 11
-150.823726
 21
321.69531
 31
0.0
  0
LINE
  5
180C
100
AcDbEntity
  8
V0-OBRYS
100
AcDbLine
 10
-100.95607
 20
269.355319
 30
0.0
 11
-101.664102
 21
89.373585
 31
0.0
  0
LINE
  5
1811
100
AcDbEntity
  8
V0-OBRYS
100
AcDbLine
 10
-102.372134
 20
-91.316182
 30
0.0
 11
-101.664102
 21
89.373585
 31
0.0
  0
ARC
  5
1812
100
AcDbEntity
  8
V0-OBRYS
100
AcDbCircle
 10
581.633416
 20
89.373585
 30
0.0
 40
233.008746
100
AcDbArc
 50
143.916734
 51
216.083266
  0
LINE
  5
1813
100
AcDbEntity
  8
V0-OBRYS
100
AcDbLine
 10
-242.37627
 20
89.373585
 30
0.0
 11
-242.37627
 21
136.07226
 31
0.0
  0
ARC
  5
1825
100
AcDbEntity
  8
V0-OBRYS
  6
CONTINUOUS
100
AcDbCircle
 10
-237.187528
 20
136.07226
 30
0.0
 40
5.188742
100
AcDbArc
 50
90.0
 51
180.0
  0
LINE
  5
1835
100
AcDbEntity
  8
V0-OBRYS
  6
CONTINUOUS
100
AcDbLine
 10
348.882204
 20
321.713308
 30
0.0
 11
776.844101
 21
321.713308
 31
0.0
  0
LINE
  5
1836
100
AcDbEntity
  8
V0-OBRYS
  6
CONTINUOUS
100
AcDbLine
 10
794.155798
 20
304.401612
 30
0.0
 11
794.155798
 21
-125.654442
 31
0.0
  0
LINE
  5
1837
100
AcDbEntity
  8
V0-OBRYS
  6
CONTINUOUS
100
AcDbLine
 10
776.844101
 20
-142.966139
 30
0.0
 11
348.882204
 21
-142.966139
 31
0.0
  0
LINE
  5
1838
100
AcDbEntity
  8
V0-OBRYS
  6
CONTINUOUS
100
AcDbLine
 10
329.47635
 20
-125.654442
 30
0.0
 11
329.47635
 21
304.401612
 31
0.0
  0
ARC
  5
1839
100
AcDbEntity
  8
V0-OBRYS
  6
CONTINUOUS
100
AcDbCircle
 10
776.844101
 20
304.401612
 30
0.0
 40
17.311697
100
AcDbArc
 50
0.0
 51
90.0
  0
ARC
  5
183A
100
AcDbEntity
  8
V0-OBRYS
  6
CONTINUOUS
100
AcDbCircle
 10
776.844101
 20
-125.654442
 30
0.0
 40
17.311697
100
AcDbArc
 50
270.0
 51
0.0
  0
ARC
  5
183B
100
AcDbEntity
  8
V0-OBRYS
  6
CONTINUOUS
100
AcDbCircle
 10
348.590088
 20
-123.761076
 30
0.0
 40
19.207285
100
AcDbArc
 50
185.657144
 51
270.871423
  0
ARC
  5
183C
100
AcDbEntity
  8
V0-OBRYS
  6
CONTINUOUS
100
AcDbCircle
 10
348.590088
 20
302.508245
 30
0.0
 40
19.207285
100
AcDbArc
 50
89.128577
 51
174.342856
  0
DIMENSION
  5
1849
100
AcDbEntity
  8
V0-VYPLNE
  6
CONTINUOUS
 62
    41
100
AcDbDimension
  2
*D4
 10
-136.987082
 20
-243.241967
 30
0.0
 11
2.456293
 21
-243.241967
 31
0.0
 70
   160
  3
ED30
100
AcDbAlignedDimension
 13
-102.372134
 23
-91.316182
 33
0.0
 14
-136.987082
 24
-146.486035
 34
0.0
100
AcDbRotatedDimension
1001
ACAD
1000
DSTYLE
1002
{
1070
   140
1040
30.0
1070
   340
1005
F38
1070
    41
1040
30.0
1002
}
  0
DIMENSION
  5
1879
100
AcDbEntity
  8
V0-VYPLNE
  6
CONTINUOUS
 62
    41
100
AcDbDimension
  2
*D1
 10
59.331657
 20
-96.064374
 30
0.0
 11
59.331657
 21
89.373585
 31
0.0
 70
   160
  1
%%c<>
  3
ED30
100
AcDbAlignedDimension
 13
-136.987082
 23
274.811543
 33
0.0
 14
-136.987082
 24
-96.064374
 34
0.0
 50
270.0
100
AcDbRotatedDimension
1001
ACAD
1000
DSTYLE
1002
{
1070
   140
1040
30.0
1070
   340
1005
F38
1070
    41
1040
30.0
1002
}
  0
DIMENSION
  5
1886
100
AcDbEntity
  8
V0-VYPLNE
  6
CONTINUOUS
 62
    41
100
AcDbDimension
  2
*D2
 10
-16.367573
 20
-91.316182
 30
0.0
 11
-16.367573
 21
89.373585
 31
0.0
 70
   160
  1
%%c<>
  3
ED30
100
AcDbAlignedDimension
 13
-100.95607
 23
269.355319
 33
0.0
 14
-102.372134
 24
-91.316182
 34
0.0
 50
270.0
100
AcDbRotatedDimension
1001
ACAD
1000
DSTYLE
1002
{
1070
   140
1040
30.0
1070
   340
1005
F38
1070
    41
1040
30.0
1002
}
  0
DIMENSION
  5
1893
100
AcDbEntity
  8
V0-VYPLNE
  6
CONTINUOUS
 62
    41
100
AcDbDimension
  2
*D3
 10
329.47635
 20
-259.944907
 30
0.0
 11
561.541649
 21
-259.944907
 31
0.0
 70
   160
  3
ED30
100
AcDbAlignedDimension
 13
794.155798
 23
-125.654442
 33
0.0
 14
329.47635
 24
-125.654442
 34
0.0
100
AcDbRotatedDimension
1001
ACAD
1000
DSTYLE
1002
{
1070
   140
1040
30.0
1070
   340
1005
F38
1070
    41
1040
30.0
1002
}
  0
POINT
  5
18A1
100
AcDbEntity
  8
V0-VYPLNE
  6
CONTINUOUS
 62
    41
100
AcDbPoint
 10
-101.664102
 20
89.373585
 30
0.0
  0
LINE
  5
18D7
100
AcDbEntity
  8
V0-VYPLNE
  6
CONTINUOUS
 62
    41
100
AcDbLine
 10
-314.476447
 20
89.373585
 30
0.0
 11
-412.87231
 21
89.373585
 31
0.0
  0
LINE
  5
18D8
100
AcDbEntity
  8
V0-VYPLNE
  6
CONTINUOUS
 62
    41
100
AcDbLine
 10
-314.476447
 20
89.373585
 30
0.0
 11
-383.411676
 21
106.574767
 31
0.0
  0
LINE
  5
18D9
100
AcDbEntity
  8
V0-VYPLNE
  6
CONTINUOUS
 62
    41
100
AcDbLine
 10
-314.476447
 20
89.373585
 30
0.0
 11
-383.411676
 21
72.172402
 31
0.0
  0
LINE
  5
18DA
100
AcDbEntity
  8
V0-VYPLNE
  6
CONTINUOUS
 62
    41
100
AcDbLine
 10
-314.476447
 20
89.373585
 30
0.0
 11
-314.476447
 21
89.373585
 31
0.0
  0
TEXT
  5
18DD
100
AcDbEntity
  8
V0-VYPLNE
 62
     6
100
AcDbText
 10
-201.00276
 20
347.418133
 30
0.0
 40
35.52
  1
HXM-350
  7
ED30
100
AcDbText
  0
TEXT
  5
18DE
100
AcDbEntity
  8
V0-VYPLNE
 62
     6
100
AcDbText
 10
473.270495
 20
350.583072
 30
0.0
 40
35.52
  1
HXM-350
  7
ED30
100
AcDbText
  0
LINE
  5
1ADA
100
AcDbEntity
  8
V0-OBRYS
  6
CONTINUOUS
100
AcDbLine
 10
-207.595916
 20
141.261002
 30
0.0
 11
-207.595916
 21
89.373585
 31
0.0
  0
LINE
  5
1AE3
100
AcDbEntity
  8
V0-OBRYS
  6
CONTINUOUS
100
AcDbLine
 10
-207.595916
 20
141.261002
 30
0.0
 11
-237.187528
 21
141.261002
 31
0.0
  0
LINE
  5
1AE9
100
AcDbEntity
  8
V0-OBRYS
  6
CONTINUOUS
100
AcDbLine
 10
-150.823726
 20
149.908905
 30
0.0
 11
-171.079449
 21
149.908905
 31
0.0
  0
LINE
  5
1B1D
100
AcDbEntity
  8
VO-OBRYS
  6
CONTINUOUS
100
AcDbLine
 10
-151.081835
 20
313.204934
 30
0.0
 11
-153.783756
 21
308.169416
 31
0.0
  0
LINE
  5
1B24
100
AcDbEntity
  8
V0-OBRYS
  6
CONTINUOUS
100
AcDbLine
 10
-197.887948
 20
163.404862
 30
0.0
 11
-197.887948
 21
89.373585
 31
0.0
  0
LINE
  5
1B25
100
AcDbEntity
  8
V0-OBRYS
  6
CONTINUOUS
100
AcDbLine
 10
-200.482319
 20
163.404862
 30
0.0
 11
-200.482319
 21
89.373585
 31
0.0
  0
LINE
  5
1B2C
100
AcDbEntity
  8
VO-OBRYS
  6
CONTINUOUS
100
AcDbLine
 10
-181.456933
 20
89.373585
 30
0.0
 11
-181.456933
 21
231.664032
 31
0.0
  0
LINE
  5
1B2F
100
AcDbEntity
  8
VO-OBRYS
  6
CONTINUOUS
100
AcDbLine
 10
-179.727352
 20
89.373585
 30
0.0
 11
-179.727352
 21
231.664032
 31
0.0
  0
LINE
  5
1B30
100
AcDbEntity
  8
VO-OBRYS
  6
CONTINUOUS
100
AcDbLine
 10
-172.80903
 20
89.373585
 30
0.0
 11
-172.80903
 21
262.128078
 31
0.0
  0
LINE
  5
1B33
100
AcDbEntity
  8
VO-OBRYS
  6
CONTINUOUS
100
AcDbLine
 10
-171.079449
 20
89.373585
 30
0.0
 11
-171.079449
 21
262.128078
 31
0.0
  0
LINE
  5
1B34
100
AcDbEntity
  8
VO-OBRYS
  6
CONTINUOUS
100
AcDbLine
 10
-164.161127
 20
89.373585
 30
0.0
 11
-164.161127
 21
288.315582
 31
0.0
  0
LINE
  5
1B37
100
AcDbEntity
  8
VO-OBRYS
  6
CONTINUOUS
100
AcDbLine
 10
-162.431546
 20
89.373585
 30
0.0
 11
-162.431546
 21
288.315582
 31
0.0
  0
LINE
  5
1B38
100
AcDbEntity
  8
VO-OBRYS
  6
CONTINUOUS
100
AcDbLine
 10
-155.513224
 20
89.373585
 30
0.0
 11
-155.513224
 21
308.155496
 31
0.0
  0
LINE
  5
1B3B
100
AcDbEntity
  8
VO-OBRYS
  6
CONTINUOUS
100
AcDbLine
 10
-153.783644
 20
89.373585
 30
0.0
 11
-153.783644
 21
308.155496
 31
0.0
  0
ARC
  5
1B3D
100
AcDbEntity
  8
VO-OBRYS
  6
CONTINUOUS
100
AcDbCircle
 10
-163.296337
 20
288.315582
 30
0.0
 40
0.86479
100
AcDbArc
 50
0.0
 51
180.0
  0
ARC
  5
1B3E
100
AcDbEntity
  8
VO-OBRYS
  6
CONTINUOUS
100
AcDbCircle
 10
-171.94424
 20
262.128078
 30
0.0
 40
0.86479
100
AcDbArc
 50
0.0
 51
180.0
  0
ARC
  5
1B3F
100
AcDbEntity
  8
VO-OBRYS
  6
CONTINUOUS
100
AcDbCircle
 10
-180.592142
 20
231.664032
 30
0.0
 40
0.86479
100
AcDbArc
 50
0.0
 51
180.0
  0
LINE
  5
1B44
100
AcDbEntity
  8
VO-OBRYS
  6
CONTINUOUS
100
AcDbLine
 10
-190.104836
 20
89.373585
 30
0.0
 11
-190.104836
 21
202.104054
 31
0.0
  0
LINE
  5
1B45
100
AcDbEntity
  8
V0-VYPLNE
100
AcDbLine
 10
-190.913735
 20
89.373585
 30
0.0
 11
-390.470967
 21
89.373585
 31
0.0
  0
LINE
  5
1B47
100
AcDbEntity
  8
VO-OBRYS
  6
CONTINUOUS
100
AcDbLine
 10
-188.375255
 20
89.373585
 30
0.0
 11
-188.375255
 21
202.104054
 31
0.0
  0
ARC
  5
1B48
100
AcDbEntity
  8
VO-OBRYS
  6
CONTINUOUS
100
AcDbCircle
 10
-189.240045
 20
202.104054
 30
0.0
 40
0.86479
100
AcDbArc
 50
0.0
 51
180.0
  0
LINE
  5
1B51
100
AcDbEntity
  8
VO-OBRYS
  6
CONTINUOUS
100
AcDbLine
 10
-150.685005
 20
311.521493
 30
0.0
 11
-153.229436
 21
306.523099
 31
0.0
  0
LINE
  5
1B56
100
AcDbEntity
  8
VO-OBRYS
  6
CONTINUOUS
100
AcDbLine
 10
-155.513224
 20
306.223238
 30
0.0
 11
-162.431546
 21
286.128544
 31
0.0
  0
LINE
  5
1B57
100
AcDbEntity
  8
VO-OBRYS
  6
CONTINUOUS
100
AcDbLine
 10
-153.229436
 20
306.523099
 30
0.0
 11
-153.783644
 21
304.913368
 31
0.0
  0
LINE
  5
1B58
100
AcDbEntity
  8
VO-OBRYS
  6
CONTINUOUS
100
AcDbLine
 10
-172.80903
 20
254.917366
 30
0.0
 11
-179.727352
 21
230.54613
 31
0.0
  0
LINE
  5
1B59
100
AcDbEntity
  8
VO-OBRYS
  6
CONTINUOUS
100
AcDbLine
 10
-172.80903
 20
248.583823
 30
0.0
 11
-179.727352
 21
224.212586
 31
0.0
  0
LINE
  5
1B5A
100
AcDbEntity
  8
VO-OBRYS
  6
CONTINUOUS
100
AcDbLine
 10
-181.456933
 20
224.45332
 30
0.0
 11
-188.375255
 21
200.082084
 31
0.0
  0
LINE
  5
1B5B
100
AcDbEntity
  8
VO-OBRYS
  6
CONTINUOUS
100
AcDbLine
 10
-181.456933
 20
218.119777
 30
0.0
 11
-188.375255
 21
193.74854
 31
0.0
  0
LINE
  5
1B5C
100
AcDbEntity
  8
VO-OBRYS
  6
CONTINUOUS
100
AcDbLine
 10
-190.104836
 20
193.989275
 30
0.0
 11
-198.478166
 21
164.492468
 31
0.0
  0
LINE
  5
1B5D
100
AcDbEntity
  8
VO-OBRYS
  6
CONTINUOUS
100
AcDbLine
 10
-190.104836
 20
187.655731
 30
0.0
 11
-197.887948
 21
160.23809
 31
0.0
  0
ARC
  5
1B5E
100
AcDbEntity
  8
V0-OBRYS
  6
CONTINUOUS
100
AcDbCircle
 10
-199.185134
 20
163.404862
 30
0.0
 40
1.297185
100
AcDbArc
 50
0.0
 51
180.0
  0
LINE
  5
1B62
100
AcDbEntity
  8
V0-OBRYS
  6
CONTINUOUS
100
AcDbLine
 10
-172.80903
 20
149.908905
 30
0.0
 11
-179.727352
 21
149.908905
 31
0.0
  0
LINE
  5
1B63
100
AcDbEntity
  8
V0-OBRYS
  6
CONTINUOUS
100
AcDbLine
 10
-181.456933
 20
149.908905
 30
0.0
 11
-188.375255
 21
149.908905
 31
0.0
  0
LINE
  5
1B64
100
AcDbEntity
  8
V0-OBRYS
  6
CONTINUOUS
100
AcDbLine
 10
-190.104836
 20
149.908905
 30
0.0
 11
-197.887948
 21
149.908905
 31
0.0
  0
LINE
  5
1B65
100
AcDbEntity
  8
V0-OBRYS
  6
CONTINUOUS
100
AcDbLine
 10
-200.482319
 20
149.908905
 30
0.0
 11
-198.948014
 21
149.908905
 31
0.0
  0
LINE
  5
1B66
100
AcDbEntity
  8
VO-OBRYS
  6
CONTINUOUS
100
AcDbLine
 10
-229.31736
 20
141.988534
 30
0.0
 11
-229.31736
 21
89.474053
 31
0.0
  0
LINE
  5
1B67
100
AcDbEntity
  8
VO-OBRYS
  6
CONTINUOUS
100
AcDbLine
 10
-190.104836
 20
-15.242105
 30
0.0
 11
-198.478166
 21
14.254702
 31
0.0
  0
LINE
  5
1B68
100
AcDbEntity
  8
VO-OBRYS
  6
CONTINUOUS
100
AcDbLine
 10
-190.104836
 20
-8.908562
 30
0.0
 11
-197.887948
 21
18.509079
 31
0.0
  0
LINE
  5
1B69
100
AcDbEntity
  8
VO-OBRYS
  6
CONTINUOUS
100
AcDbLine
 10
-188.375255
 20
89.373585
 30
0.0
 11
-188.375255
 21
-23.356884
 31
0.0
  0
LINE
  5
1B6A
100
AcDbEntity
  8
VO-OBRYS
  6
CONTINUOUS
100
AcDbLine
 10
-190.104836
 20
89.373585
 30
0.0
 11
-190.104836
 21
-23.356884
 31
0.0
  0
LINE
  5
1B6B
100
AcDbEntity
  8
VO-OBRYS
  6
CONTINUOUS
100
AcDbLine
 10
-179.727352
 20
89.373585
 30
0.0
 11
-179.727352
 21
-52.916863
 31
0.0
  0
LINE
  5
1B6C
100
AcDbEntity
  8
VO-OBRYS
  6
CONTINUOUS
100
AcDbLine
 10
-181.456933
 20
89.373585
 30
0.0
 11
-181.456933
 21
-52.916863
 31
0.0
  0
LINE
  5
1B6D
100
AcDbEntity
  8
VO-OBRYS
  6
CONTINUOUS
100
AcDbLine
 10
-171.079449
 20
89.373585
 30
0.0
 11
-171.079449
 21
-83.380909
 31
0.0
  0
LINE
  5
1B6E
100
AcDbEntity
  8
VO-OBRYS
  6
CONTINUOUS
100
AcDbLine
 10
-172.80903
 20
89.373585
 30
0.0
 11
-172.80903
 21
-83.380909
 31
0.0
  0
LINE
  5
1B6F
100
AcDbEntity
  8
VO-OBRYS
  6
CONTINUOUS
100
AcDbLine
 10
-162.431546
 20
89.373585
 30
0.0
 11
-162.431546
 21
-113.844955
 31
0.0
  0
LINE
  5
1B70
100
AcDbEntity
  8
VO-OBRYS
  6
CONTINUOUS
100
AcDbLine
 10
-164.161127
 20
89.373585
 30
0.0
 11
-164.161127
 21
-113.844955
 31
0.0
  0
LINE
  5
1B73
100
AcDbEntity
  8
V0-OBRYS
100
AcDbLine
 10
-150.823726
 20
89.373585
 30
0.0
 11
-150.823726
 21
-142.948141
 31
0.0
  0
LINE
  5
1B74
100
AcDbEntity
  8
V0-OBRYS
  6
CONTINUOUS
100
AcDbLine
 10
-181.456933
 20
28.838265
 30
0.0
 11
-188.375255
 21
28.838265
 31
0.0
  0
LINE
  5
1B75
100
AcDbEntity
  8
V0-OBRYS
  6
CONTINUOUS
100
AcDbLine
 10
-207.595916
 20
37.486168
 30
0.0
 11
-237.187528
 21
37.486168
 31
0.0
  0
LINE
  5
1B76
100
AcDbEntity
  8
VO-OBRYS
  6
CONTINUOUS
100
AcDbLine
 10
-229.31736
 20
36.758635
 30
0.0
 11
-229.31736
 21
89.273116
 31
0.0
  0
LINE
  5
1B77
100
AcDbEntity
  8
V0-OBRYS
100
AcDbLine
 10
-242.37627
 20
89.373585
 30
0.0
 11
-242.37627
 21
42.674909
 31
0.0
  0
ARC
  5
1B78
100
AcDbEntity
  8
V0-OBRYS
  6
CONTINUOUS
100
AcDbCircle
 10
-237.187528
 20
42.674909
 30
0.0
 40
5.188742
100
AcDbArc
 50
180.0
 51
270.0
  0
LINE
  5
1B79
100
AcDbEntity
  8
V0-OBRYS
  6
CONTINUOUS
100
AcDbLine
 10
-207.595916
 20
37.486168
 30
0.0
 11
-207.595916
 21
89.373585
 31
0.0
  0
LINE
  5
1B7B
100
AcDbEntity
  8
V0-OBRYS
  6
CONTINUOUS
100
AcDbLine
 10
-197.887948
 20
15.342308
 30
0.0
 11
-197.887948
 21
89.373585
 31
0.0
  0
LINE
  5
1B7C
100
AcDbEntity
  8
V0-OBRYS
  6
CONTINUOUS
100
AcDbLine
 10
-200.482319
 20
15.342308
 30
0.0
 11
-200.482319
 21
89.373585
 31
0.0
  0
LINE
  5
1B7D
100
AcDbEntity
  8
V0-OBRYS
  6
CONTINUOUS
100
AcDbLine
 10
-200.482319
 20
28.838265
 30
0.0
 11
-198.948014
 21
28.838265
 31
0.0
  0
LINE
  5
1B7F
100
AcDbEntity
  8
V0-OBRYS
  6
CONTINUOUS
100
AcDbLine
 10
-190.104836
 20
28.838265
 30
0.0
 11
-197.887948
 21
28.838265
 31
0.0
  0
ARC
  5
1B80
100
AcDbEntity
  8
V0-OBRYS
  6
CONTINUOUS
100
AcDbCircle
 10
-199.185134
 20
15.342308
 30
0.0
 40
1.297185
100
AcDbArc
 50
180.0
 51
0.0
  0
LINE
  5
1B83
100
AcDbEntity
  8
V0-OBRYS
  6
CONTINUOUS
100
AcDbLine
 10
-172.80903
 20
28.838265
 30
0.0
 11
-179.727352
 21
28.838265
 31
0.0
  0
LINE
  5
1B84
100
AcDbEntity
  8
V0-OBRYS
  6
CONTINUOUS
100
AcDbLine
 10
-164.161127
 20
28.838265
 30
0.0
 11
-171.079449
 21
28.838265
 31
0.0
  0
LINE
  5
1B86
100
AcDbEntity
  8
VO-OBRYS
  6
CONTINUOUS
100
AcDbLine
 10
-181.456933
 20
-39.372608
 30
0.0
 11
-188.375255
 21
-15.001371
 31
0.0
  0
LINE
  5
1B87
100
AcDbEntity
  8
VO-OBRYS
  6
CONTINUOUS
100
AcDbLine
 10
-181.456933
 20
-45.706151
 30
0.0
 11
-188.375255
 21
-21.334914
 31
0.0
  0
ARC
  5
1B88
100
AcDbEntity
  8
VO-OBRYS
  6
CONTINUOUS
100
AcDbCircle
 10
-189.240045
 20
-23.356884
 30
0.0
 40
0.86479
100
AcDbArc
 50
180.0
 51
0.0
  0
LINE
  5
1B8A
100
AcDbEntity
  8
VO-OBRYS
  6
CONTINUOUS
100
AcDbLine
 10
-172.80903
 20
-69.836654
 30
0.0
 11
-179.727352
 21
-45.465417
 31
0.0
  0
LINE
  5
1B8B
100
AcDbEntity
  8
VO-OBRYS
  6
CONTINUOUS
100
AcDbLine
 10
-164.161127
 20
-100.300699
 30
0.0
 11
-171.079449
 21
-75.929463
 31
0.0
  0
LINE
  5
1B8C
100
AcDbEntity
  8
VO-OBRYS
  6
CONTINUOUS
100
AcDbLine
 10
-172.80903
 20
-76.170197
 30
0.0
 11
-179.727352
 21
-51.79896
 31
0.0
  0
ARC
  5
1B8D
100
AcDbEntity
  8
VO-OBRYS
  6
CONTINUOUS
100
AcDbCircle
 10
-180.592142
 20
-52.916863
 30
0.0
 40
0.86479
100
AcDbArc
 50
180.0
 51
0.0
  0
LINE
  5
1B8E
100
AcDbEntity
  8
VO-OBRYS
  6
CONTINUOUS
100
AcDbLine
 10
-164.161127
 20
-106.634243
 30
0.0
 11
-171.079449
 21
-82.263006
 31
0.0
  0
ARC
  5
1B8F
100
AcDbEntity
  8
VO-OBRYS
  6
CONTINUOUS
100
AcDbCircle
 10
-171.94424
 20
-83.380909
 30
0.0
 40
0.86479
100
AcDbArc
 50
180.0
 51
0.0
  0
LINE
  5
1B90
100
AcDbEntity
  8
V0-OBRYS
100
AcDbLine
 10
-136.987082
 20
-142.948141
 30
0.0
 11
-150.823726
 21
-142.948141
 31
0.0
  0
LINE
  5
1B9A
100
AcDbEntity
  8
VO-OBRYS
  6
CONTINUOUS
100
AcDbLine
 10
-151.171209
 20
150.140729
 30
0.0
 11
-155.864328
 21
259.016933
 31
0.0
  0
LINE
  5
1B9B
100
AcDbEntity
  8
VO-OBRYS
  6
CONTINUOUS
100
AcDbLine
 10
-155.864328
 20
259.016933
 30
0.0
 11
-148.782404
 21
259.954689
 31
0.0
  0
LINE
  5
1BA0
100
AcDbEntity
  8
V0-VYPLNE
  6
DASHED
 62
    52
100
AcDbLine
 10
-148.962028
 20
262.552371
 30
0.0
 11
-132.762426
 21
262.552371
 31
0.0
  0
LINE
  5
1BA1
100
AcDbEntity
  8
V0-VYPLNE
  6
DASHED
 62
    52
100
AcDbLine
 10
-132.762426
 20
262.552371
 30
0.0
 11
-105.073121
 21
259.696254
 31
0.0
  0
LINE
  5
1BA2
100
AcDbEntity
  8
V0-VYPLNE
  6
DASHED
 62
    52
100
AcDbLine
 10
-105.073121
 20
259.696254
 30
0.0
 11
-111.743548
 21
150.877798
 31
0.0
  0
LINE
  5
1BA4
100
AcDbEntity
  8
V0-VYPLNE
  6
DASHED
 62
    52
100
AcDbLine
 10
-105.073121
 20
259.696254
 30
0.0
 11
-143.244525
 21
150.877802
 31
0.0
  0
LINE
  5
1BA6
100
AcDbEntity
  8
V0-VYPLNE
  6
DASHED
 62
    52
100
AcDbLine
 10
-132.762426
 20
-83.805202
 30
0.0
 11
-105.073121
 21
-80.949085
 31
0.0
  0
LINE
  5
1BA8
100
AcDbEntity
  8
V0-VYPLNE
  6
DASHED
 62
    52
100
AcDbLine
 10
-148.962028
 20
-83.805202
 30
0.0
 11
-132.762426
 21
-83.805202
 31
0.0
  0
LINE
  5
1BA9
100
AcDbEntity
  8
VO-OBRYS
  6
CONTINUOUS
100
AcDbLine
 10
-155.864328
 20
-80.269764
 30
0.0
 11
-148.782404
 21
-81.20752
 31
0.0
  0
LINE
  5
1BB3
100
AcDbEntity
  8
V0-VYPLNE
  6
DASHED
 62
    52
100
AcDbLine
 10
-148.838223
 20
-83.919895
 30
0.0
 11
-132.638625
 21
-83.908318
 31
0.0
  0
LINE
  5
1BB4
100
AcDbEntity
  8
VO-OBRYS
  6
CONTINUOUS
100
AcDbLine
 10
-155.743047
 20
-80.392799
 30
0.0
 11
-148.660456
 21
-81.320493
 31
0.0
  0
LINE
  5
1BB5
100
AcDbEntity
  8
V0-VYPLNE
  6
DASHED
 62
    52
100
AcDbLine
 10
-132.638625
 20
-83.908318
 30
0.0
 11
-104.951368
 21
-81.033814
 31
0.0
  0
LINE
  5
1BB7
100
AcDbEntity
  8
V0-VYPLNE
  6
DASHED
 62
    52
100
AcDbLine
 10
-106.021377
 20
142.098202
 30
0.0
 11
-106.021377
 21
89.371814
 31
0.0
  0
ARC
  5
1BB9
100
AcDbEntity
  8
V0-VYPLNE
  6
DASHED
 62
    52
100
AcDbCircle
 10
-114.800974
 20
142.098202
 30
0.0
 40
8.779597
100
AcDbArc
 50
0.0
 51
90.0
  0
ARC
  5
1BBC
100
AcDbEntity
  8
V0-OBRYS
  6
CONTINUOUS
100
AcDbCircle
 10
-198.948014
 20
141.261002
 30
0.0
 40
8.647903
100
AcDbArc
 50
90.0
 51
180.0
  0
LINE
  5
1BBE
100
AcDbEntity
  8
V0-VYPLNE
  6
DASHED
 62
    52
100
AcDbLine
 10
-114.800974
 20
150.877798
 30
0.0
 11
-151.034437
 21
150.877798
 31
0.0
  0
LINE
  5
1BBF
100
AcDbEntity
  8
V0-VYPLNE
  6
DASHED
 62
    52
100
AcDbLine
 10
-105.073121
 20
-80.949085
 30
0.0
 11
-111.743548
 21
27.869371
 31
0.0
  0
LINE
  5
1BC0
100
AcDbEntity
  8
V0-VYPLNE
  6
DASHED
 62
    52
100
AcDbLine
 10
-105.073121
 20
-80.949085
 30
0.0
 11
-143.244525
 21
27.869367
 31
0.0
  0
LINE
  5
1BC1
100
AcDbEntity
  8
V0-VYPLNE
  6
DASHED
 62
    52
100
AcDbLine
 10
-114.800974
 20
27.869371
 30
0.0
 11
-151.034437
 21
27.869371
 31
0.0
  0
LINE
  5
1BC2
100
AcDbEntity
  8
V0-VYPLNE
  6
DASHED
 62
    52
100
AcDbLine
 10
-106.021377
 20
36.648968
 30
0.0
 11
-106.021377
 21
89.375355
 31
0.0
  0
ARC
  5
1BC3
100
AcDbEntity
  8
V0-VYPLNE
  6
DASHED
 62
    52
100
AcDbCircle
 10
-114.800974
 20
36.648968
 30
0.0
 40
8.779597
100
AcDbArc
 50
270.0
 51
0.0
  0
LINE
  5
1BC4
100
AcDbEntity
  8
V0-VYPLNE
  6
DASHED
 62
    52
100
AcDbLine
 10
-148.962028
 20
-83.805202
 30
0.0
 11
-132.762426
 21
-83.805202
 31
0.0
  0
LINE
  5
1BC5
100
AcDbEntity
  8
V0-VYPLNE
  6
DASHED
 62
    52
100
AcDbLine
 10
-132.762426
 20
-83.805202
 30
0.0
 11
-105.073121
 21
-80.949085
 31
0.0
  0
LINE
  5
1BC6
100
AcDbEntity
  8
VO-OBRYS
  6
CONTINUOUS
100
AcDbLine
 10
-151.171209
 20
28.606441
 30
0.0
 11
-155.864328
 21
-80.269764
 31
0.0
  0
LINE
  5
1BC7
100
AcDbEntity
  8
VO-OBRYS
  6
CONTINUOUS
100
AcDbLine
 10
-155.864328
 20
-80.269764
 30
0.0
 11
-148.782404
 21
-81.20752
 31
0.0
  0
ARC
  5
1BC8
100
AcDbEntity
  8
V0-OBRYS
  6
CONTINUOUS
100
AcDbCircle
 10
-198.948014
 20
37.486168
 30
0.0
 40
8.647903
100
AcDbArc
 50
180.0
 51
270.0
  0
ARC
  5
1BC9
100
AcDbEntity
  8
VO-OBRYS
100
AcDbCircle
 10
582.312117
 20
89.373585
 30
0.0
 40
200.448989
100
AcDbArc
 50
145.519504
 51
214.480496
  0
ARC
  5
1BCA
100
AcDbEntity
  8
VO-OBRYS
100
AcDbCircle
 10
582.162063
 20
89.373585
 30
0.0
 40
206.531146
100
AcDbArc
 50
145.176436
 51
214.823564
  0
ARC
  5
1BCB
100
AcDbEntity
  8
VO-OBRYS
100
AcDbCircle
 10
583.677071
 20
89.373585
 30
0.0
 40
162.343275
100
AcDbArc
 50
148.377679
 51
211.622321
  0
ARC
  5
1BCC
100
AcDbEntity
  8
VO-OBRYS
100
AcDbCircle
 10
583.396918
 20
89.373585
 30
0.0
 40
168.295332
100
AcDbArc
 50
147.827062
 51
212.172938
  0
ARC
  5
1BCD
100
AcDbEntity
  8
VO-OBRYS
100
AcDbCircle
 10
556.880099
 20
84.43761
 30
0.0
 40
105.947584
100
AcDbArc
 50
330.932804
 51
119.067196
  0
ARC
  5
1BCE
100
AcDbEntity
  8
VO-OBRYS
100
AcDbCircle
 10
556.880099
 20
84.43761
 30
0.0
 40
112.179795
100
AcDbArc
 50
330.026114
 51
119.973886
  0
ARC
  5
1BCF
100
AcDbEntity
  8
VO-OBRYS
100
AcDbCircle
 10
540.235231
 20
89.373585
 30
0.0
 40
168.295332
100
AcDbArc
 50
327.827062
 51
32.172938
  0
ARC
  5
1BD0
100
AcDbEntity
  8
VO-OBRYS
100
AcDbCircle
 10
539.955077
 20
89.373585
 30
0.0
 40
162.343275
100
AcDbArc
 50
328.377679
 51
31.622321
  0
ARC
  5
1BD1
100
AcDbEntity
  8
VO-OBRYS
100
AcDbCircle
 10
541.320032
 20
89.373585
 30
0.0
 40
200.448989
100
AcDbArc
 50
325.519504
 51
34.480496
  0
ARC
  5
1BD2
100
AcDbEntity
  8
VO-OBRYS
100
AcDbCircle
 10
541.470086
 20
89.373585
 30
0.0
 40
206.531146
100
AcDbArc
 50
325.176436
 51
34.823564
  0
ARC
  5
1BD3
100
AcDbEntity
  8
VO-OBRYS
100
AcDbCircle
 10
561.816074
 20
109.719573
 30
0.0
 40
206.531146
100
AcDbArc
 50
235.176436
 51
304.823564
  0
ARC
  5
1BD4
100
AcDbEntity
  8
VO-OBRYS
100
AcDbCircle
 10
561.816074
 20
109.869627
 30
0.0
 40
200.448989
100
AcDbArc
 50
235.519504
 51
304.480496
  0
ARC
  5
1BD5
100
AcDbEntity
  8
VO-OBRYS
100
AcDbCircle
 10
561.816074
 20
110.954428
 30
0.0
 40
168.295332
100
AcDbArc
 50
237.827062
 51
302.172938
  0
ARC
  5
1BD6
100
AcDbEntity
  8
VO-OBRYS
100
AcDbCircle
 10
561.816074
 20
111.234581
 30
0.0
 40
162.343275
100
AcDbArc
 50
238.377679
 51
301.622321
  0
ARC
  5
1BD7
100
AcDbEntity
  8
VO-OBRYS
100
AcDbCircle
 10
561.816074
 20
113.559604
 30
0.0
 40
131.42984
100
AcDbArc
 50
242.355391
 51
297.644609
  0
ARC
  5
1BD8
100
AcDbEntity
  8
VO-OBRYS
100
AcDbCircle
 10
561.816074
 20
114.262404
 30
0.0
 40
125.900429
100
AcDbArc
 50
243.381695
 51
296.618305
  0
ARC
  5
1BD9
100
AcDbEntity
  8
V0-OBRYS
100
AcDbCircle
 10
561.816074
 20
69.449015
 30
0.0
 40
226.883763
100
AcDbArc
 50
54.17889
 51
125.82111
  0
ARC
  5
1BDA
100
AcDbEntity
  8
V0-OBRYS
100
AcDbCircle
 10
561.816074
 20
69.556243
 30
0.0
 40
233.008746
100
AcDbArc
 50
53.916734
 51
126.083266
  0
ARC
  5
1BDB
100
AcDbEntity
  8
V0-OBRYS
100
AcDbCircle
 10
541.891505
 20
89.373585
 30
0.0
 40
226.883763
100
AcDbArc
 50
324.17889
 51
35.82111
  0
ARC
  5
1BDC
100
AcDbEntity
  8
V0-OBRYS
100
AcDbCircle
 10
541.998733
 20
89.373585
 30
0.0
 40
233.008746
100
AcDbArc
 50
323.916734
 51
36.083266
  0
ARC
  5
1BDD
100
AcDbEntity
  8
V0-OBRYS
100
AcDbCircle
 10
561.816074
 20
109.298154
 30
0.0
 40
226.883763
100
AcDbArc
 50
234.17889
 51
305.82111
  0
ARC
  5
1BDE
100
AcDbEntity
  8
V0-OBRYS
100
AcDbCircle
 10
561.816074
 20
109.190926
 30
0.0
 40
233.008746
100
AcDbArc
 50
233.916734
 51
306.083266
  0
LINE
  5
1BDF
100
AcDbEntity
  8
V0-OBRYS
  6
CONTINUOUS
 62
    90
100
AcDbLine
 10
505.726177
 20
27.051476
 30
0.0
 11
617.905972
 21
27.051476
 31
0.0
  0
LINE
  5
1BE0
100
AcDbEntity
  8
V0-OBRYS
  6
CONTINUOUS
 62
    90
100
AcDbLine
 10
624.138183
 20
33.283687
 30
0.0
 11
624.138183
 21
145.463482
 31
0.0
  0
LINE
  5
1BE1
100
AcDbEntity
  8
V0-OBRYS
  6
CONTINUOUS
 62
    90
100
AcDbLine
 10
617.905972
 20
151.695693
 30
0.0
 11
505.726177
 21
151.695693
 31
0.0
  0
LINE
  5
1BE2
100
AcDbEntity
  8
V0-OBRYS
  6
CONTINUOUS
 62
    90
100
AcDbLine
 10
499.493966
 20
145.463482
 30
0.0
 11
499.493966
 21
33.283687
 31
0.0
  0
ARC
  5
1BE4
100
AcDbEntity
  8
V0-OBRYS
  6
CONTINUOUS
 62
    90
100
AcDbCircle
 10
505.726177
 20
145.463482
 30
0.0
 40
6.232211
100
AcDbArc
 50
90.0
 51
180.0
  0
ARC
  5
1BE5
100
AcDbEntity
  8
V0-OBRYS
  6
CONTINUOUS
 62
    90
100
AcDbCircle
 10
505.726177
 20
33.283687
 30
0.0
 40
6.232211
100
AcDbArc
 50
180.0
 51
270.0
  0
ARC
  5
1BE7
100
AcDbEntity
  8
V0-OBRYS
  6
CONTINUOUS
 62
    90
100
AcDbCircle
 10
617.905972
 20
33.283687
 30
0.0
 40
6.232211
100
AcDbArc
 50
270.0
 51
0.0
  0
ARC
  5
1BE8
100
AcDbEntity
  8
V0-OBRYS
  6
CONTINUOUS
 62
    90
100
AcDbCircle
 10
617.905972
 20
145.463482
 30
0.0
 40
6.232211
100
AcDbArc
 50
0.0
 51
90.0
  0
ARC
  5
1BE9
100
AcDbEntity
  8
V0-OBRYS
  6
CONTINUOUS
100
AcDbCircle
 10
561.816074
 20
89.373585
 30
0.0
 40
72.709126
100
AcDbArc
 50
58.997281
 51
121.002719
  0
ARC
  5
1BEA
100
AcDbEntity
  8
V0-OBRYS
  6
CONTINUOUS
100
AcDbCircle
 10
561.816074
 20
89.373585
 30
0.0
 40
72.709126
100
AcDbArc
 50
328.997281
 51
31.002719
  0
ARC
  5
1BEB
100
AcDbEntity
  8
V0-OBRYS
  6
CONTINUOUS
100
AcDbCircle
 10
561.816074
 20
89.373585
 30
0.0
 40
72.709126
100
AcDbArc
 50
238.997281
 51
301.002719
  0
LINE
  5
1BEC
100
AcDbEntity
  8
V0-OBRYS
  6
CONTINUOUS
 62
    90
100
AcDbLine
 10
513.067751
 20
284.537447
 30
0.0
 11
515.174278
 21
274.716052
 31
0.0
  0
ARC
  5
1BED
100
AcDbEntity
  8
V0-OBRYS
  6
CONTINUOUS
 62
    90
100
AcDbCircle
 10
561.816074
 20
89.373585
 30
0.0
 40
207.280006
100
AcDbArc
 50
77.75092
 51
102.24908
  0
LINE
  5
1BEE
100
AcDbEntity
  8
V0-OBRYS
  6
CONTINUOUS
 62
    90
100
AcDbLine
 10
610.564398
 20
284.537447
 30
0.0
 11
608.457871
 21
274.716052
 31
0.0
  0
ARC
  5
1BEF
100
AcDbEntity
  8
V0-OBRYS
  6
CONTINUOUS
 62
    90
100
AcDbCircle
 10
519.161375
 20
285.844429
 30
0.0
 40
6.232211
100
AcDbArc
 50
102.24908
 51
192.105591
  0
ARC
  5
1BF0
100
AcDbEntity
  8
V0-OBRYS
  6
CONTINUOUS
 62
    90
100
AcDbCircle
 10
604.470774
 20
285.844429
 30
0.0
 40
6.232211
100
AcDbArc
 50
347.894409
 51
77.75092
  0
LINE
  5
1BF1
100
AcDbEntity
  8
V0-OBRYS
  6
CONTINUOUS
 62
    90
100
AcDbLine
 10
590.575738
 20
191.343052
 30
0.0
 11
588.698188
 21
154.639946
 31
0.0
  0
LINE
  5
1BF2
100
AcDbEntity
  8
V0-OBRYS
  6
CONTINUOUS
 62
    90
100
AcDbLine
 10
598.865505
 20
229.992957
 30
0.0
 11
591.885222
 21
197.44834
 31
0.0
  0
LINE
  5
1BF3
100
AcDbEntity
  8
V0-OBRYS
  6
CONTINUOUS
 62
    90
100
AcDbLine
 10
607.150049
 20
268.618512
 30
0.0
 11
600.173833
 21
236.092859
 31
0.0
  0
LINE
  5
1BF4
100
AcDbEntity
  8
V0-OBRYS
  6
CONTINUOUS
 62
    90
100
AcDbLine
 10
516.4821
 20
268.618512
 30
0.0
 11
523.458315
 21
236.092859
 31
0.0
  0
LINE
  5
1BF5
100
AcDbEntity
  8
V0-OBRYS
  6
CONTINUOUS
 62
    90
100
AcDbLine
 10
524.766644
 20
229.992957
 30
0.0
 11
531.746927
 21
197.44834
 31
0.0
  0
LINE
  5
1BF6
100
AcDbEntity
  8
V0-OBRYS
  6
CONTINUOUS
 62
    90
100
AcDbLine
 10
533.05641
 20
191.343052
 30
0.0
 11
534.933961
 21
154.639946
 31
0.0
  0
LINE
  5
1BF7
100
AcDbEntity
  8
V0-OBRYS
  6
CONTINUOUS
 62
    90
100
AcDbLine
 10
459.846607
 20
60.613921
 30
0.0
 11
491.613738
 21
67.427446
 31
0.0
  0
LINE
  5
1BF8
100
AcDbEntity
  8
V0-OBRYS
  6
CONTINUOUS
 62
    90
100
AcDbLine
 10
459.846607
 20
118.133248
 30
0.0
 11
496.549713
 21
116.255698
 31
0.0
  0
ARC
  5
1BF9
100
AcDbEntity
  8
V0-OBRYS
  6
CONTINUOUS
 62
    90
100
AcDbCircle
 10
365.34523
 20
132.028284
 30
0.0
 40
6.232211
100
AcDbArc
 50
77.894409
 51
167.75092
  0
ARC
  5
1BFA
100
AcDbEntity
  8
V0-OBRYS
  6
CONTINUOUS
 62
    90
100
AcDbCircle
 10
561.816074
 20
89.373585
 30
0.0
 40
207.280006
100
AcDbArc
 50
167.75092
 51
192.24908
  0
LINE
  5
1BFB
100
AcDbEntity
  8
V0-OBRYS
  6
CONTINUOUS
 62
    90
100
AcDbLine
 10
382.571147
 20
44.03961
 30
0.0
 11
415.0968
 21
51.015826
 31
0.0
  0
LINE
  5
1BFC
100
AcDbEntity
  8
V0-OBRYS
  6
CONTINUOUS
 62
    90
100
AcDbLine
 10
421.196702
 20
52.324154
 30
0.0
 11
453.741319
 21
59.304437
 31
0.0
  0
LINE
  5
1BFD
100
AcDbEntity
  8
V0-OBRYS
  6
CONTINUOUS
 62
    90
100
AcDbLine
 10
366.652212
 20
40.625261
 30
0.0
 11
376.473607
 21
42.731788
 31
0.0
  0
ARC
  5
1BFE
100
AcDbEntity
  8
V0-OBRYS
  6
CONTINUOUS
 62
    90
100
AcDbCircle
 10
365.34523
 20
46.718885
 30
0.0
 40
6.232211
100
AcDbArc
 50
192.24908
 51
282.105591
  0
LINE
  5
1BFF
100
AcDbEntity
  8
V0-OBRYS
  6
CONTINUOUS
 62
    90
100
AcDbLine
 10
382.571147
 20
134.707559
 30
0.0
 11
415.0968
 21
127.731344
 31
0.0
  0
LINE
  5
1C00
100
AcDbEntity
  8
V0-OBRYS
  6
CONTINUOUS
 62
    90
100
AcDbLine
 10
421.196702
 20
126.423015
 30
0.0
 11
453.741319
 21
119.442732
 31
0.0
  0
LINE
  5
1C01
100
AcDbEntity
  8
V0-OBRYS
  6
CONTINUOUS
 62
    90
100
AcDbLine
 10
366.652212
 20
138.121908
 30
0.0
 11
376.473607
 21
136.015381
 31
0.0
  0
LINE
  5
1C02
100
AcDbEntity
  8
V0-OBRYS
  6
CONTINUOUS
 62
    90
100
AcDbLine
 10
590.575738
 20
-12.595883
 30
0.0
 11
583.762213
 21
19.171249
 31
0.0
  0
LINE
  5
1C03
100
AcDbEntity
  8
V0-OBRYS
  6
CONTINUOUS
 62
    90
100
AcDbLine
 10
533.05641
 20
-12.595883
 30
0.0
 11
539.869936
 21
19.171249
 31
0.0
  0
ARC
  5
1C04
100
AcDbEntity
  8
V0-OBRYS
  6
CONTINUOUS
 62
    90
100
AcDbCircle
 10
519.161375
 20
-107.097259
 30
0.0
 40
6.232211
100
AcDbArc
 50
167.894409
 51
257.75092
  0
ARC
  5
1C05
100
AcDbEntity
  8
V0-OBRYS
  6
CONTINUOUS
 62
    90
100
AcDbCircle
 10
561.816074
 20
89.373585
 30
0.0
 40
207.280006
100
AcDbArc
 50
257.75092
 51
282.24908
  0
LINE
  5
1C06
100
AcDbEntity
  8
V0-OBRYS
  6
CONTINUOUS
 62
    90
100
AcDbLine
 10
607.150049
 20
-89.871343
 30
0.0
 11
600.173833
 21
-57.34569
 31
0.0
  0
LINE
  5
1C07
100
AcDbEntity
  8
V0-OBRYS
  6
CONTINUOUS
 62
    90
100
AcDbLine
 10
598.865505
 20
-51.245788
 30
0.0
 11
591.885222
 21
-18.701171
 31
0.0
  0
LINE
  5
1C08
100
AcDbEntity
  8
V0-OBRYS
  6
CONTINUOUS
 62
    90
100
AcDbLine
 10
610.564398
 20
-105.790278
 30
0.0
 11
608.457871
 21
-95.968882
 31
0.0
  0
ARC
  5
1C09
100
AcDbEntity
  8
V0-OBRYS
  6
CONTINUOUS
 62
    90
100
AcDbCircle
 10
604.470774
 20
-107.097259
 30
0.0
 40
6.232211
100
AcDbArc
 50
282.24908
 51
12.105591
  0
LINE
  5
1C0A
100
AcDbEntity
  8
V0-OBRYS
  6
CONTINUOUS
 62
    90
100
AcDbLine
 10
516.4821
 20
-89.871343
 30
0.0
 11
523.458315
 21
-57.34569
 31
0.0
  0
LINE
  5
1C0B
100
AcDbEntity
  8
V0-OBRYS
  6
CONTINUOUS
 62
    90
100
AcDbLine
 10
524.766644
 20
-51.245788
 30
0.0
 11
531.746927
 21
-18.701171
 31
0.0
  0
LINE
  5
1C0C
100
AcDbEntity
  8
V0-OBRYS
  6
CONTINUOUS
 62
    90
100
AcDbLine
 10
513.067751
 20
-105.790278
 30
0.0
 11
515.174278
 21
-95.968882
 31
0.0
  0
LINE
  5
1C0D
100
AcDbEntity
  8
V0-OBRYS
  6
CONTINUOUS
 62
    90
100
AcDbLine
 10
663.785542
 20
118.133248
 30
0.0
 11
632.01841
 21
111.319723
 31
0.0
  0
LINE
  5
1C0E
100
AcDbEntity
  8
V0-OBRYS
  6
CONTINUOUS
 62
    90
100
AcDbLine
 10
663.785542
 20
60.613921
 30
0.0
 11
632.01841
 21
67.427446
 31
0.0
  0
ARC
  5
1C0F
100
AcDbEntity
  8
V0-OBRYS
  6
CONTINUOUS
 62
    90
100
AcDbCircle
 10
758.286918
 20
46.718885
 30
0.0
 40
6.232211
100
AcDbArc
 50
257.894409
 51
347.75092
  0
ARC
  5
1C10
100
AcDbEntity
  8
V0-OBRYS
  6
CONTINUOUS
 62
    90
100
AcDbCircle
 10
561.816074
 20
89.373585
 30
0.0
 40
207.280006
100
AcDbArc
 50
347.75092
 51
12.24908
  0
LINE
  5
1C11
100
AcDbEntity
  8
V0-OBRYS
  6
CONTINUOUS
 62
    90
100
AcDbLine
 10
741.061002
 20
134.707559
 30
0.0
 11
708.535349
 21
127.731344
 31
0.0
  0
LINE
  5
1C12
100
AcDbEntity
  8
V0-OBRYS
  6
CONTINUOUS
 62
    90
100
AcDbLine
 10
702.435447
 20
126.423015
 30
0.0
 11
669.89083
 21
119.442732
 31
0.0
  0
LINE
  5
1C13
100
AcDbEntity
  8
V0-OBRYS
  6
CONTINUOUS
 62
    90
100
AcDbLine
 10
756.979937
 20
138.121908
 30
0.0
 11
747.158541
 21
136.015381
 31
0.0
  0
ARC
  5
1C14
100
AcDbEntity
  8
V0-OBRYS
  6
CONTINUOUS
 62
    90
100
AcDbCircle
 10
758.286918
 20
132.028284
 30
0.0
 40
6.232211
100
AcDbArc
 50
12.24908
 51
102.105591
  0
LINE
  5
1C15
100
AcDbEntity
  8
V0-OBRYS
  6
CONTINUOUS
 62
    90
100
AcDbLine
 10
741.061002
 20
44.03961
 30
0.0
 11
708.535349
 21
51.015826
 31
0.0
  0
LINE
  5
1C16
100
AcDbEntity
  8
V0-OBRYS
  6
CONTINUOUS
 62
    90
100
AcDbLine
 10
702.435447
 20
52.324154
 30
0.0
 11
669.89083
 21
59.304437
 31
0.0
  0
LINE
  5
1C17
100
AcDbEntity
  8
V0-OBRYS
  6
CONTINUOUS
 62
    90
100
AcDbLine
 10
756.979937
 20
40.625261
 30
0.0
 11
747.158541
 21
42.731788
 31
0.0
  0
ARC
  5
1C92
100
AcDbEntity
  8
V0-VYPLNE
100
AcDbCircle
 10
611.478379
 20
122.700358
 30
0.0
 40
337.244948
100
AcDbArc
 50
219.282107
 51
228.164578
  0
CIRCLE
  5
1C93
100
AcDbEntity
  8
V0-OBRYS
  6
CONTINUOUS
 62
    90
100
AcDbCircle
 10
366.962104
 20
-107.574542
 30
0.0
 40
7.790264
  0
ARC
  5
1C94
100
AcDbEntity
  8
V0-VYPLNE
100
AcDbCircle
 10
484.136492
 20
127.263875
 30
0.0
 40
359.322458
100
AcDbArc
 50
315.841754
 51
324.446889
  0
CIRCLE
  5
1C95
100
AcDbEntity
  8
V0-OBRYS
  6
CONTINUOUS
 62
    90
100
AcDbCircle
 10
756.670044
 20
-107.574542
 30
0.0
 40
7.790264
  0
CIRCLE
  5
1CB2
100
AcDbEntity
  8
V0-OBRYS
  6
CONTINUOUS
 62
    90
100
AcDbCircle
 10
515.074493
 20
136.115166
 30
0.0
 40
4.154807
  0
CIRCLE
  5
1CB3
100
AcDbEntity
  8
V0-OBRYS
  6
CONTINUOUS
 62
    90
100
AcDbCircle
 10
515.074493
 20
42.632003
 30
0.0
 40
4.154807
  0
CIRCLE
  5
1CB4
100
AcDbEntity
  8
V0-OBRYS
  6
CONTINUOUS
 62
    90
100
AcDbCircle
 10
608.557656
 20
42.632003
 30
0.0
 40
4.154807
  0
CIRCLE
  5
1CB5
100
AcDbEntity
  8
V0-OBRYS
  6
CONTINUOUS
 62
    90
100
AcDbCircle
 10
608.557656
 20
136.115166
 30
0.0
 40
4.154807
  0
POINT
  5
1CB6
100
AcDbEntity
  8
V0-VYPLNE
  6
CONTINUOUS
 62
    41
100
AcDbPoint
 10
561.816074
 20
89.373585
 30
0.0
  0
TEXT
  5
1D2A
100
AcDbEntity
  8
V0-VYPLNE
 62
     6
100
AcDbText
 10
-198.75837
 20
-381.535414
 30
0.0
 40
36.0
  1
HXM-350
  7
ED30
100
AcDbText
  0
LINE
  5
1D9C
100
AcDbEntity
  8
V0-VYPLNE
100
AcDbLine
 10
-61.177322
 20
89.373585
 30
0.0
 11
-154.039429
 21
89.373585
 31
0.0
  0
ARC
  5
1E4E
100
AcDbEntity
  8
V0-OBRYS
  6
CONTINUOUS
 62
    90
100
AcDbCircle
 10
-95.633016
 20
416.286752
 30
0.0
 40
147.032064
100
AcDbArc
 50
256.008564
 51
267.92524
  0
ARC
  5
1E52
100
AcDbEntity
  8
V0-OBRYS
  6
CONTINUOUS
 62
    90
100
AcDbCircle
 10
-129.906762
 20
280.581391
 30
0.0
 40
7.08032
100
AcDbArc
 50
180.0
 51
259.624089
  0
ARC
  5
1E53
100
AcDbEntity
  8
V0-OBRYS
  6
CONTINUOUS
 62
    90
100
AcDbCircle
 10
-95.633016
 20
-237.539583
 30
0.0
 40
147.032064
100
AcDbArc
 50
92.07476
 51
103.991436
  0
ARC
  5
1E54
100
AcDbEntity
  8
V0-OBRYS
  6
CONTINUOUS
 62
    90
100
AcDbCircle
 10
-130.418322
 20
-101.394181
 30
0.0
 40
6.569034
100
AcDbArc
 50
96.675686
 51
179.477028
  0
LINE
  5
1E56
100
AcDbEntity
  8
V0-OBRYS
100
AcDbLine
 10
-136.983695
 20
-142.945132
 30
0.0
 11
-136.987082
 21
89.376593
 31
0.0
  0
ARC
  5
1F73
100
AcDbEntity
  8
VO-OBRYS
  6
CONTINUOUS
100
AcDbCircle
 10
-154.648434
 20
308.155496
 30
0.0
 40
0.86479
100
AcDbArc
 50
0.0
 51
180.0
  0
LINE
  5
1F77
100
AcDbEntity
  8
VO-OBRYS
  6
CONTINUOUS
100
AcDbLine
 10
-155.513224
 20
299.889695
 30
0.0
 11
-162.431546
 21
279.795
 31
0.0
  0
LINE
  5
1F78
100
AcDbEntity
  8
VO-OBRYS
  6
CONTINUOUS
100
AcDbLine
 10
-164.161127
 20
281.10487
 30
0.0
 11
-171.079449
 21
261.010175
 31
0.0
  0
LINE
  5
1F79
100
AcDbEntity
  8
VO-OBRYS
  6
CONTINUOUS
100
AcDbLine
 10
-164.161127
 20
274.771327
 30
0.0
 11
-171.079449
 21
254.676632
 31
0.0
  0
LINE
  5
1F7F
100
AcDbEntity
  8
VO-OBRYS
  6
CONTINUOUS
100
AcDbLine
 10
-153.783644
 20
89.373585
 30
0.0
 11
-153.783644
 21
-129.408327
 31
0.0
  0
LINE
  5
1F80
100
AcDbEntity
  8
VO-OBRYS
  6
CONTINUOUS
100
AcDbLine
 10
-155.513224
 20
89.373585
 30
0.0
 11
-155.513224
 21
-129.408327
 31
0.0
  0
LINE
  5
1F81
100
AcDbEntity
  8
VO-OBRYS
  6
CONTINUOUS
100
AcDbLine
 10
-155.513224
 20
-121.142526
 30
0.0
 11
-162.431546
 21
-101.047831
 31
0.0
  0
LINE
  5
1F82
100
AcDbEntity
  8
VO-OBRYS
  6
CONTINUOUS
100
AcDbLine
 10
-155.513224
 20
-127.476069
 30
0.0
 11
-162.431546
 21
-107.381374
 31
0.0
  0
LINE
  5
1F83
100
AcDbEntity
  8
VO-OBRYS
  6
CONTINUOUS
100
AcDbLine
 10
-150.685005
 20
-132.774324
 30
0.0
 11
-153.229436
 21
-127.775929
 31
0.0
  0
LINE
  5
1F84
100
AcDbEntity
  8
VO-OBRYS
  6
CONTINUOUS
100
AcDbLine
 10
-151.081835
 20
-134.457765
 30
0.0
 11
-153.783756
 21
-129.422246
 31
0.0
  0
LINE
  5
1F85
100
AcDbEntity
  8
VO-OBRYS
  6
CONTINUOUS
100
AcDbLine
 10
-153.229436
 20
-127.775929
 30
0.0
 11
-153.783644
 21
-126.166199
 31
0.0
  0
ARC
  5
1F86
100
AcDbEntity
  8
VO-OBRYS
  6
CONTINUOUS
100
AcDbCircle
 10
-154.648434
 20
-129.408327
 30
0.0
 40
0.86479
100
AcDbArc
 50
180.0
 51
0.0
  0
LINE
  5
1F87
100
AcDbEntity
  8
V0-OBRYS
  6
CONTINUOUS
100
AcDbLine
 10
-150.823726
 20
28.838265
 30
0.0
 11
-171.079449
 21
28.838265
 31
0.0
  0
CIRCLE
  5
2024
100
AcDbEntity
  8
V0-OBRYS
  6
CONTINUOUS
 62
    90
100
AcDbCircle
 10
720.7172
 20
248.27471
 30
0.0
 40
5.584418
  0
ARC
  5
2025
100
AcDbEntity
  8
VO-OBRYS
  6
CONTINUOUS
100
AcDbCircle
 10
720.7172
 20
248.27471
 30
0.0
 40
22.103128
100
AcDbArc
 50
315.0
 51
135.0
  0
LINE
  5
2026
100
AcDbEntity
  8
V0-VYPLNE
100
AcDbLine
 10
436.488715
 20
281.848476
 30
0.0
 11
368.980295
 21
214.340056
 31
0.0
  0
ARC
  5
2027
100
AcDbEntity
  8
VO-OBRYS
  6
CONTINUOUS
100
AcDbCircle
 10
402.914949
 20
248.27471
 30
0.0
 40
22.103128
100
AcDbArc
 50
45.0
 51
225.0
  0
CIRCLE
  5
2028
100
AcDbEntity
  8
V0-OBRYS
  6
CONTINUOUS
 62
    90
100
AcDbCircle
 10
402.914949
 20
248.27471
 30
0.0
 40
5.584418
  0
LINE
  5
2029
100
AcDbEntity
  8
V0-VYPLNE
100
AcDbLine
 10
369.341183
 20
-35.953775
 30
0.0
 11
436.849603
 21
-103.462195
 31
0.0
  0
ARC
  5
202A
100
AcDbEntity
  8
VO-OBRYS
  6
CONTINUOUS
100
AcDbCircle
 10
402.914949
 20
-69.527541
 30
0.0
 40
22.103128
100
AcDbArc
 50
135.0
 51
315.0
  0
CIRCLE
  5
202B
100
AcDbEntity
  8
V0-OBRYS
  6
CONTINUOUS
 62
    90
100
AcDbCircle
 10
402.914949
 20
-69.527541
 30
0.0
 40
5.584418
  0
LINE
  5
202C
100
AcDbEntity
  8
V0-VYPLNE
100
AcDbLine
 10
687.143434
 20
-103.101307
 30
0.0
 11
754.651854
 21
-35.592887
 31
0.0
  0
ARC
  5
202D
100
AcDbEntity
  8
VO-OBRYS
  6
CONTINUOUS
100
AcDbCircle
 10
720.7172
 20
-69.527541
 30
0.0
 40
22.103128
100
AcDbArc
 50
225.0
 51
45.0
  0
CIRCLE
  5
202E
100
AcDbEntity
  8
V0-OBRYS
  6
CONTINUOUS
 62
    90
100
AcDbCircle
 10
720.7172
 20
-69.527541
 30
0.0
 40
5.584418
  0
MTEXT
  5
2046
100
AcDbEntity
  8
V0-OBRYS
  6
CONTINUOUS
 62
    41
100
AcDbMText
 10
317.3775
 20
-160.174857
 30
0.0
 40
28.32128
 41
0.0
 71
     6
 72
     1
  1
4 OTVORY %%c10,5
  7
ED20
  0
LINE
  5
2091
100
AcDbEntity
  8
V0-VYPLNE
  6
DASHED
 62
    52
100
AcDbLine
 10
-149.763582
 20
73.56047
 30
0.0
 11
-117.425128
 21
100.491363
 31
0.0
  0
ARC
  5
20ED
100
AcDbEntity
  8
V0-VYPLNE
100
AcDbCircle
 10
610.030725
 20
54.653257
 30
0.0
 40
337.244948
100
AcDbArc
 50
131.835422
 51
140.717893
  0
CIRCLE
  5
20EE
100
AcDbEntity
  8
V0-OBRYS
  6
CONTINUOUS
 62
    90
100
AcDbCircle
 10
366.462104
 20
286.821712
 30
0.0
 40
7.790264
  0
CIRCLE
  5
20EF
100
AcDbEntity
  8
V0-OBRYS
  6
CONTINUOUS
 62
    90
100
AcDbCircle
 10
757.170044
 20
286.821712
 30
0.0
 40
7.790264
  0
ARC
  5
20F0
100
AcDbEntity
  8
V0-VYPLNE
100
AcDbCircle
 10
484.136487
 20
55.270409
 30
0.0
 40
359.322458
100
AcDbArc
 50
35.553111
 51
44.158246
  0
DIMENSION
  5
21F2
100
AcDbEntity
  8
V0-OBRYS
  6
CONTINUOUS
 62
    90
100
AcDbDimension
  2
*D5
 10
-242.37627
 20
-242.290157
 30
0.0
 11
-189.681676
 21
-225.290157
 31
0.0
 70
    32
  3
ED30
100
AcDbAlignedDimension
 13
-136.987082
 23
-147.486035
 33
0.0
 14
-242.37627
 24
42.674909
 34
0.0
100
AcDbRotatedDimension
1001
ACAD
1000
DSTYLE
1002
{
1070
   140
1040
30.0
1070
   340
1005
F38
1070
    41
1040
30.0
1002
}
  0
DIMENSION
  5
225B
100
AcDbEntity
  8
V0-OBRYS
  6
CONTINUOUS
 62
    90
100
AcDbDimension
  2
*D6
 10
756.670044
 20
-204.654406
 30
0.0
 11
556.423275
 21
-204.654406
 31
0.0
 70
   160
  3
ED30
100
AcDbAlignedDimension
 13
366.962104
 23
-107.574542
 33
0.0
 14
756.670044
 24
-107.574542
 34
0.0
100
AcDbRotatedDimension
1001
ACAD
1000
DSTYLE
1002
{
1070
   140
1040
30.0
1070
   340
1005
F38
1070
    41
1040
30.0
1002
}
  0
LINE
  5
22FC
100
AcDbEntity
  8
VO-OBRYS
  6
CONTINUOUS
100
AcDbLine
 10
-153.783644
 20
-656.836632
 30
0.0
 11
-153.783644
 21
-875.618543
 31
0.0
  0
LINE
  5
22FD
100
AcDbEntity
  8
VO-OBRYS
  6
CONTINUOUS
100
AcDbLine
 10
-155.513224
 20
-656.836632
 30
0.0
 11
-155.513224
 21
-875.618543
 31
0.0
  0
LINE
  5
22FE
100
AcDbEntity
  8
V0-OBRYS
100
AcDbLine
 10
-150.823726
 20
-656.836632
 30
0.0
 11
-150.823726
 21
-889.158357
 31
0.0
  0
LINE
  5
22FF
100
AcDbEntity
  8
V0-OBRYS
100
AcDbLine
 10
-136.983695
 20
-889.155348
 30
0.0
 11
-136.987082
 21
-656.833623
 31
0.0
  0
LINE
  5
2300
100
AcDbEntity
  8
VO-OBRYS
  6
CONTINUOUS
100
AcDbLine
 10
-150.685005
 20
-878.98454
 30
0.0
 11
-153.229436
 21
-873.986146
 31
0.0
  0
LINE
  5
2301
100
AcDbEntity
  8
V0-OBRYS
100
AcDbLine
 10
-136.987082
 20
-889.158357
 30
0.0
 11
-150.823726
 21
-889.158357
 31
0.0
  0
ARC
  5
2302
100
AcDbEntity
  8
VO-OBRYS
  6
CONTINUOUS
100
AcDbCircle
 10
-154.648434
 20
-875.618543
 30
0.0
 40
0.86479
100
AcDbArc
 50
180.0
 51
0.0
  0
LINE
  5
2303
100
AcDbEntity
  8
VO-OBRYS
  6
CONTINUOUS
100
AcDbLine
 10
-151.081835
 20
-880.667982
 30
0.0
 11
-153.783756
 21
-875.632463
 31
0.0
  0
LINE
  5
2304
100
AcDbEntity
  8
V0-VYPLNE
  6
DASHED
 62
    52
100
AcDbLine
 10
-105.073121
 20
-486.513963
 30
0.0
 11
-143.244525
 21
-595.332414
 31
0.0
  0
LINE
  5
2305
100
AcDbEntity
  8
V0-OBRYS
  6
CONTINUOUS
100
AcDbLine
 10
-197.887948
 20
-582.805355
 30
0.0
 11
-197.887948
 21
-656.836632
 31
0.0
  0
LINE
  5
2306
100
AcDbEntity
  8
V0-OBRYS
  6
CONTINUOUS
100
AcDbLine
 10
-200.482319
 20
-582.805355
 30
0.0
 11
-200.482319
 21
-656.836632
 31
0.0
  0
LINE
  5
2307
100
AcDbEntity
  8
VO-OBRYS
  6
CONTINUOUS
100
AcDbLine
 10
-181.456933
 20
-656.836632
 30
0.0
 11
-181.456933
 21
-514.546184
 31
0.0
  0
LINE
  5
2308
100
AcDbEntity
  8
VO-OBRYS
  6
CONTINUOUS
100
AcDbLine
 10
-179.727352
 20
-656.836632
 30
0.0
 11
-179.727352
 21
-514.546184
 31
0.0
  0
LINE
  5
2309
100
AcDbEntity
  8
VO-OBRYS
  6
CONTINUOUS
100
AcDbLine
 10
-172.80903
 20
-656.836632
 30
0.0
 11
-172.80903
 21
-484.082138
 31
0.0
  0
LINE
  5
230A
100
AcDbEntity
  8
VO-OBRYS
  6
CONTINUOUS
100
AcDbLine
 10
-171.079449
 20
-656.836632
 30
0.0
 11
-171.079449
 21
-484.082138
 31
0.0
  0
LINE
  5
230B
100
AcDbEntity
  8
VO-OBRYS
  6
CONTINUOUS
100
AcDbLine
 10
-164.161127
 20
-656.836632
 30
0.0
 11
-164.161127
 21
-457.894635
 31
0.0
  0
LINE
  5
230C
100
AcDbEntity
  8
VO-OBRYS
  6
CONTINUOUS
100
AcDbLine
 10
-162.431546
 20
-656.836632
 30
0.0
 11
-162.431546
 21
-457.894635
 31
0.0
  0
LINE
  5
230D
100
AcDbEntity
  8
VO-OBRYS
  6
CONTINUOUS
100
AcDbLine
 10
-155.513224
 20
-656.836632
 30
0.0
 11
-155.513224
 21
-438.054721
 31
0.0
  0
LINE
  5
230E
100
AcDbEntity
  8
VO-OBRYS
  6
CONTINUOUS
100
AcDbLine
 10
-153.783644
 20
-656.836632
 30
0.0
 11
-153.783644
 21
-438.054721
 31
0.0
  0
LINE
  5
230F
100
AcDbEntity
  8
VO-OBRYS
  6
CONTINUOUS
100
AcDbLine
 10
-190.104836
 20
-656.836632
 30
0.0
 11
-190.104836
 21
-544.106163
 31
0.0
  0
LINE
  5
2310
100
AcDbEntity
  8
VO-OBRYS
  6
CONTINUOUS
100
AcDbLine
 10
-188.375255
 20
-656.836632
 30
0.0
 11
-188.375255
 21
-544.106163
 31
0.0
  0
LINE
  5
2311
100
AcDbEntity
  8
VO-OBRYS
  6
CONTINUOUS
100
AcDbLine
 10
-151.171209
 20
-596.069488
 30
0.0
 11
-155.864328
 21
-487.193283
 31
0.0
  0
LINE
  5
2312
100
AcDbEntity
  8
V0-OBRYS
100
AcDbLine
 10
-136.987082
 20
-424.514906
 30
0.0
 11
-136.987082
 21
-656.836632
 31
0.0
  0
LINE
  5
2313
100
AcDbEntity
  8
V0-OBRYS
100
AcDbLine
 10
-150.823726
 20
-656.836632
 30
0.0
 11
-150.823726
 21
-424.514906
 31
0.0
  0
ARC
  5
2314
100
AcDbEntity
  8
V0-VYPLNE
  6
DASHED
 62
    52
100
AcDbCircle
 10
-114.800974
 20
-604.112015
 30
0.0
 40
8.779597
100
AcDbArc
 50
0.0
 51
90.0
  0
LINE
  5
2315
100
AcDbEntity
  8
V0-VYPLNE
  6
DASHED
 62
    52
100
AcDbLine
 10
-105.073121
 20
-486.513963
 30
0.0
 11
-111.743548
 21
-595.332418
 31
0.0
  0
LINE
  5
2316
100
AcDbEntity
  8
V0-OBRYS
100
AcDbLine
 10
-100.95607
 20
-476.854897
 30
0.0
 11
-101.664102
 21
-656.836632
 31
0.0
  0
LINE
  5
2317
100
AcDbEntity
  8
V0-OBRYS
  6
CONTINUOUS
100
AcDbLine
 10
-207.595916
 20
-708.724049
 30
0.0
 11
-237.187528
 21
-708.724049
 31
0.0
  0
LINE
  5
2318
100
AcDbEntity
  8
V0-OBRYS
  6
CONTINUOUS
100
AcDbLine
 10
-207.595916
 20
-604.949215
 30
0.0
 11
-237.187528
 21
-604.949215
 31
0.0
  0
LINE
  5
2319
100
AcDbEntity
  8
V0-VYPLNE
100
AcDbLine
 10
-190.913735
 20
-656.836632
 30
0.0
 11
-390.470967
 21
-656.836632
 31
0.0
  0
LINE
  5
231A
100
AcDbEntity
  8
V0-VYPLNE
  6
CONTINUOUS
 62
    41
100
AcDbLine
 10
-314.476447
 20
-656.836632
 30
0.0
 11
-412.87231
 21
-656.836632
 31
0.0
  0
LINE
  5
231B
100
AcDbEntity
  8
V0-VYPLNE
  6
CONTINUOUS
 62
    41
100
AcDbLine
 10
-314.476447
 20
-656.836632
 30
0.0
 11
-383.411676
 21
-639.635449
 31
0.0
  0
LINE
  5
231C
100
AcDbEntity
  8
V0-VYPLNE
  6
CONTINUOUS
 62
    41
100
AcDbLine
 10
-314.476447
 20
-656.836632
 30
0.0
 11
-383.411676
 21
-674.037814
 31
0.0
  0
LINE
  5
231D
100
AcDbEntity
  8
V0-OBRYS
100
AcDbLine
 10
-242.37627
 20
-656.836632
 30
0.0
 11
-242.37627
 21
-703.535307
 31
0.0
  0
LINE
  5
231E
100
AcDbEntity
  8
VO-OBRYS
  6
CONTINUOUS
100
AcDbLine
 10
-229.31736
 20
-709.451581
 30
0.0
 11
-229.31736
 21
-656.9371
 31
0.0
  0
ARC
  5
231F
100
AcDbEntity
  8
V0-OBRYS
  6
CONTINUOUS
100
AcDbCircle
 10
-237.187528
 20
-703.535307
 30
0.0
 40
5.188742
100
AcDbArc
 50
180.0
 51
270.0
  0
LINE
  5
2320
100
AcDbEntity
  8
V0-VYPLNE
  6
CONTINUOUS
 62
    41
100
AcDbLine
 10
-314.476447
 20
-656.836632
 30
0.0
 11
-314.476447
 21
-656.836632
 31
0.0
  0
LINE
  5
2321
100
AcDbEntity
  8
VO-OBRYS
  6
CONTINUOUS
100
AcDbLine
 10
-229.31736
 20
-604.221683
 30
0.0
 11
-229.31736
 21
-656.736163
 31
0.0
  0
LINE
  5
2322
100
AcDbEntity
  8
V0-OBRYS
100
AcDbLine
 10
-242.37627
 20
-656.836632
 30
0.0
 11
-242.37627
 21
-610.137956
 31
0.0
  0
ARC
  5
2323
100
AcDbEntity
  8
V0-OBRYS
  6
CONTINUOUS
100
AcDbCircle
 10
-237.187528
 20
-610.137956
 30
0.0
 40
5.188742
100
AcDbArc
 50
90.0
 51
180.0
  0
LINE
  5
2324
100
AcDbEntity
  8
V0-VYPLNE
  6
DASHED
 62
    52
100
AcDbLine
 10
-105.073121
 20
-827.159301
 30
0.0
 11
-143.244525
 21
-718.34085
 31
0.0
  0
LINE
  5
2325
100
AcDbEntity
  8
VO-OBRYS
  6
CONTINUOUS
100
AcDbLine
 10
-190.104836
 20
-761.452322
 30
0.0
 11
-198.478166
 21
-731.955515
 31
0.0
  0
LINE
  5
2326
100
AcDbEntity
  8
VO-OBRYS
  6
CONTINUOUS
100
AcDbLine
 10
-190.104836
 20
-755.118778
 30
0.0
 11
-197.887948
 21
-727.701137
 31
0.0
  0
LINE
  5
2327
100
AcDbEntity
  8
VO-OBRYS
  6
CONTINUOUS
100
AcDbLine
 10
-188.375255
 20
-656.836632
 30
0.0
 11
-188.375255
 21
-769.567101
 31
0.0
  0
LINE
  5
2328
100
AcDbEntity
  8
VO-OBRYS
  6
CONTINUOUS
100
AcDbLine
 10
-190.104836
 20
-656.836632
 30
0.0
 11
-190.104836
 21
-769.567101
 31
0.0
  0
LINE
  5
2329
100
AcDbEntity
  8
VO-OBRYS
  6
CONTINUOUS
100
AcDbLine
 10
-179.727352
 20
-656.836632
 30
0.0
 11
-179.727352
 21
-799.127079
 31
0.0
  0
LINE
  5
232A
100
AcDbEntity
  8
VO-OBRYS
  6
CONTINUOUS
100
AcDbLine
 10
-181.456933
 20
-656.836632
 30
0.0
 11
-181.456933
 21
-799.127079
 31
0.0
  0
LINE
  5
232B
100
AcDbEntity
  8
VO-OBRYS
  6
CONTINUOUS
100
AcDbLine
 10
-171.079449
 20
-656.836632
 30
0.0
 11
-171.079449
 21
-829.591125
 31
0.0
  0
LINE
  5
232C
100
AcDbEntity
  8
VO-OBRYS
  6
CONTINUOUS
100
AcDbLine
 10
-172.80903
 20
-656.836632
 30
0.0
 11
-172.80903
 21
-829.591125
 31
0.0
  0
LINE
  5
232D
100
AcDbEntity
  8
VO-OBRYS
  6
CONTINUOUS
100
AcDbLine
 10
-162.431546
 20
-656.836632
 30
0.0
 11
-162.431546
 21
-860.055171
 31
0.0
  0
LINE
  5
232E
100
AcDbEntity
  8
VO-OBRYS
  6
CONTINUOUS
100
AcDbLine
 10
-164.161127
 20
-656.836632
 30
0.0
 11
-164.161127
 21
-860.055171
 31
0.0
  0
LINE
  5
232F
100
AcDbEntity
  8
VO-OBRYS
  6
CONTINUOUS
100
AcDbLine
 10
-151.171209
 20
-717.603776
 30
0.0
 11
-155.864328
 21
-826.479981
 31
0.0
  0
LINE
  5
2330
100
AcDbEntity
  8
V0-VYPLNE
  6
DASHED
 62
    52
100
AcDbLine
 10
-105.073121
 20
-827.159301
 30
0.0
 11
-111.743548
 21
-718.340846
 31
0.0
  0
LINE
  5
2331
100
AcDbEntity
  8
V0-OBRYS
100
AcDbLine
 10
-102.372134
 20
-837.526398
 30
0.0
 11
-101.664102
 21
-656.836632
 31
0.0
  0
ARC
  5
2332
100
AcDbEntity
  8
V0-OBRYS
  6
CONTINUOUS
 62
    90
100
AcDbCircle
 10
-98.067488
 20
-983.185736
 30
0.0
 40
146.400112
100
AcDbArc
 50
91.130568
 51
103.07296
  0
LINE
  5
2333
100
AcDbEntity
  8
V0-VYPLNE
  6
DASHED
 62
    52
100
AcDbLine
 10
-132.762426
 20
-830.015418
 30
0.0
 11
-105.073121
 21
-827.159301
 31
0.0
  0
LINE
  5
2334
100
AcDbEntity
  8
V0-VYPLNE
  6
DASHED
 62
    52
100
AcDbLine
 10
-132.638625
 20
-830.118534
 30
0.0
 11
-104.951368
 21
-827.24403
 31
0.0
  0
LINE
  5
2335
100
AcDbEntity
  8
V0-VYPLNE
  6
DASHED
 62
    52
100
AcDbLine
 10
-132.762426
 20
-830.015418
 30
0.0
 11
-105.073121
 21
-827.159301
 31
0.0
  0
LINE
  5
2336
100
AcDbEntity
  8
VO-OBRYS
  6
CONTINUOUS
100
AcDbLine
 10
-172.80903
 20
-816.04687
 30
0.0
 11
-179.727352
 21
-791.675633
 31
0.0
  0
LINE
  5
2337
100
AcDbEntity
  8
VO-OBRYS
  6
CONTINUOUS
100
AcDbLine
 10
-172.80903
 20
-822.380413
 30
0.0
 11
-179.727352
 21
-798.009177
 31
0.0
  0
LINE
  5
2338
100
AcDbEntity
  8
VO-OBRYS
  6
CONTINUOUS
100
AcDbLine
 10
-155.513224
 20
-873.686285
 30
0.0
 11
-162.431546
 21
-853.591591
 31
0.0
  0
LINE
  5
2339
100
AcDbEntity
  8
VO-OBRYS
  6
CONTINUOUS
100
AcDbLine
 10
-155.513224
 20
-867.352742
 30
0.0
 11
-162.431546
 21
-847.258047
 31
0.0
  0
LINE
  5
233A
100
AcDbEntity
  8
VO-OBRYS
  6
CONTINUOUS
100
AcDbLine
 10
-164.161127
 20
-846.510916
 30
0.0
 11
-171.079449
 21
-822.139679
 31
0.0
  0
LINE
  5
233B
100
AcDbEntity
  8
VO-OBRYS
  6
CONTINUOUS
100
AcDbLine
 10
-164.161127
 20
-852.844459
 30
0.0
 11
-171.079449
 21
-828.473223
 31
0.0
  0
ARC
  5
233C
100
AcDbEntity
  8
VO-OBRYS
  6
CONTINUOUS
100
AcDbCircle
 10
-171.94424
 20
-829.591125
 30
0.0
 40
0.86479
100
AcDbArc
 50
180.0
 51
0.0
  0
ARC
  5
233D
100
AcDbEntity
  8
V0-OBRYS
  6
CONTINUOUS
 62
    90
100
AcDbCircle
 10
-129.906762
 20
-847.544439
 30
0.0
 40
7.08032
100
AcDbArc
 50
100.375911
 51
180.0
  0
LINE
  5
233E
100
AcDbEntity
  8
VO-OBRYS
  6
CONTINUOUS
100
AcDbLine
 10
-153.229436
 20
-873.986146
 30
0.0
 11
-153.783644
 21
-872.376416
 31
0.0
  0
LINE
  5
233F
100
AcDbEntity
  8
V0-VYPLNE
  6
DASHED
 62
    52
100
AcDbLine
 10
-148.962028
 20
-830.015418
 30
0.0
 11
-132.762426
 21
-830.015418
 31
0.0
  0
LINE
  5
2340
100
AcDbEntity
  8
V0-VYPLNE
  6
DASHED
 62
    52
100
AcDbLine
 10
-148.838223
 20
-830.130111
 30
0.0
 11
-132.638625
 21
-830.118534
 31
0.0
  0
LINE
  5
2341
100
AcDbEntity
  8
V0-VYPLNE
  6
DASHED
 62
    52
100
AcDbLine
 10
-148.962028
 20
-830.015418
 30
0.0
 11
-132.762426
 21
-830.015418
 31
0.0
  0
LINE
  5
2342
100
AcDbEntity
  8
VO-OBRYS
  6
CONTINUOUS
100
AcDbLine
 10
-155.864328
 20
-826.479981
 30
0.0
 11
-148.782404
 21
-827.417736
 31
0.0
  0
LINE
  5
2343
100
AcDbEntity
  8
VO-OBRYS
  6
CONTINUOUS
100
AcDbLine
 10
-155.743047
 20
-826.603015
 30
0.0
 11
-148.660456
 21
-827.530709
 31
0.0
  0
LINE
  5
2344
100
AcDbEntity
  8
VO-OBRYS
  6
CONTINUOUS
100
AcDbLine
 10
-155.864328
 20
-826.479981
 30
0.0
 11
-148.782404
 21
-827.417736
 31
0.0
  0
LINE
  5
2345
100
AcDbEntity
  8
VO-OBRYS
  6
CONTINUOUS
100
AcDbLine
 10
-181.456933
 20
-785.582824
 30
0.0
 11
-188.375255
 21
-761.211587
 31
0.0
  0
LINE
  5
2346
100
AcDbEntity
  8
VO-OBRYS
  6
CONTINUOUS
100
AcDbLine
 10
-181.456933
 20
-791.916367
 30
0.0
 11
-188.375255
 21
-767.545131
 31
0.0
  0
ARC
  5
2347
100
AcDbEntity
  8
VO-OBRYS
  6
CONTINUOUS
100
AcDbCircle
 10
-189.240045
 20
-769.567101
 30
0.0
 40
0.86479
100
AcDbArc
 50
180.0
 51
0.0
  0
ARC
  5
2348
100
AcDbEntity
  8
VO-OBRYS
  6
CONTINUOUS
100
AcDbCircle
 10
-180.592142
 20
-799.127079
 30
0.0
 40
0.86479
100
AcDbArc
 50
180.0
 51
0.0
  0
LINE
  5
2349
100
AcDbEntity
  8
V0-VYPLNE
100
AcDbLine
 10
-61.177322
 20
-656.836632
 30
0.0
 11
-154.039429
 21
-656.836632
 31
0.0
  0
ARC
  5
234A
100
AcDbEntity
  8
V0-VYPLNE
  6
DASHED
 62
    52
100
AcDbCircle
 10
-114.800974
 20
-709.561249
 30
0.0
 40
8.779597
100
AcDbArc
 50
270.0
 51
0.0
  0
POINT
  5
234B
100
AcDbEntity
  8
V0-VYPLNE
  6
CONTINUOUS
 62
    41
100
AcDbPoint
 10
-101.664102
 20
-656.836632
 30
0.0
  0
LINE
  5
234C
100
AcDbEntity
  8
V0-VYPLNE
  6
DASHED
 62
    52
100
AcDbLine
 10
-149.763582
 20
-672.649747
 30
0.0
 11
-117.425128
 21
-645.718853
 31
0.0
  0
LINE
  5
234D
100
AcDbEntity
  8
V0-OBRYS
  6
CONTINUOUS
100
AcDbLine
 10
-197.887948
 20
-730.867909
 30
0.0
 11
-197.887948
 21
-656.836632
 31
0.0
  0
LINE
  5
234E
100
AcDbEntity
  8
V0-OBRYS
  6
CONTINUOUS
100
AcDbLine
 10
-200.482319
 20
-730.867909
 30
0.0
 11
-200.482319
 21
-656.836632
 31
0.0
  0
LINE
  5
234F
100
AcDbEntity
  8
V0-OBRYS
  6
CONTINUOUS
100
AcDbLine
 10
-207.595916
 20
-708.724049
 30
0.0
 11
-207.595916
 21
-656.836632
 31
0.0
  0
LINE
  5
2350
100
AcDbEntity
  8
V0-OBRYS
  6
CONTINUOUS
100
AcDbLine
 10
-150.823726
 20
-717.371952
 30
0.0
 11
-171.079449
 21
-717.371952
 31
0.0
  0
LINE
  5
2351
100
AcDbEntity
  8
V0-OBRYS
  6
CONTINUOUS
100
AcDbLine
 10
-181.456933
 20
-717.371952
 30
0.0
 11
-188.375255
 21
-717.371952
 31
0.0
  0
ARC
  5
2352
100
AcDbEntity
  8
V0-OBRYS
  6
CONTINUOUS
100
AcDbCircle
 10
-198.948014
 20
-708.724049
 30
0.0
 40
8.647903
100
AcDbArc
 50
180.0
 51
270.0
  0
LINE
  5
2353
100
AcDbEntity
  8
V0-OBRYS
  6
CONTINUOUS
100
AcDbLine
 10
-190.104836
 20
-717.371952
 30
0.0
 11
-197.887948
 21
-717.371952
 31
0.0
  0
LINE
  5
2354
100
AcDbEntity
  8
V0-OBRYS
  6
CONTINUOUS
100
AcDbLine
 10
-200.482319
 20
-717.371952
 30
0.0
 11
-198.948014
 21
-717.371952
 31
0.0
  0
ARC
  5
2355
100
AcDbEntity
  8
V0-OBRYS
  6
CONTINUOUS
100
AcDbCircle
 10
-199.185134
 20
-730.867909
 30
0.0
 40
1.297185
100
AcDbArc
 50
180.0
 51
0.0
  0
LINE
  5
2356
100
AcDbEntity
  8
V0-OBRYS
  6
CONTINUOUS
100
AcDbLine
 10
-172.80903
 20
-717.371952
 30
0.0
 11
-179.727352
 21
-717.371952
 31
0.0
  0
LINE
  5
2357
100
AcDbEntity
  8
V0-OBRYS
  6
CONTINUOUS
100
AcDbLine
 10
-164.161127
 20
-717.371952
 30
0.0
 11
-171.079449
 21
-717.371952
 31
0.0
  0
LINE
  5
2358
100
AcDbEntity
  8
V0-VYPLNE
  6
DASHED
 62
    52
100
AcDbLine
 10
-114.800974
 20
-718.340846
 30
0.0
 11
-151.034437
 21
-718.340846
 31
0.0
  0
LINE
  5
2359
100
AcDbEntity
  8
V0-OBRYS
  6
CONTINUOUS
100
AcDbLine
 10
-150.823726
 20
-596.301312
 30
0.0
 11
-171.079449
 21
-596.301312
 31
0.0
  0
LINE
  5
235A
100
AcDbEntity
  8
V0-OBRYS
  6
CONTINUOUS
100
AcDbLine
 10
-207.595916
 20
-604.949215
 30
0.0
 11
-207.595916
 21
-656.836632
 31
0.0
  0
LINE
  5
235B
100
AcDbEntity
  8
V0-OBRYS
  6
CONTINUOUS
100
AcDbLine
 10
-181.456933
 20
-596.301312
 30
0.0
 11
-188.375255
 21
-596.301312
 31
0.0
  0
LINE
  5
235C
100
AcDbEntity
  8
V0-OBRYS
  6
CONTINUOUS
100
AcDbLine
 10
-190.104836
 20
-596.301312
 30
0.0
 11
-197.887948
 21
-596.301312
 31
0.0
  0
LINE
  5
235D
100
AcDbEntity
  8
V0-OBRYS
  6
CONTINUOUS
100
AcDbLine
 10
-200.482319
 20
-596.301312
 30
0.0
 11
-198.948014
 21
-596.301312
 31
0.0
  0
ARC
  5
235E
100
AcDbEntity
  8
V0-OBRYS
  6
CONTINUOUS
100
AcDbCircle
 10
-198.948014
 20
-604.949215
 30
0.0
 40
8.647903
100
AcDbArc
 50
90.0
 51
180.0
  0
LINE
  5
235F
100
AcDbEntity
  8
V0-OBRYS
  6
CONTINUOUS
100
AcDbLine
 10
-172.80903
 20
-596.301312
 30
0.0
 11
-179.727352
 21
-596.301312
 31
0.0
  0
LINE
  5
2360
100
AcDbEntity
  8
V0-VYPLNE
  6
DASHED
 62
    52
100
AcDbLine
 10
-114.800974
 20
-595.332418
 30
0.0
 11
-151.034437
 21
-595.332418
 31
0.0
  0
LINE
  5
2361
100
AcDbEntity
  8
V0-VYPLNE
  6
DASHED
 62
    52
100
AcDbLine
 10
-106.021377
 20
-709.561249
 30
0.0
 11
-106.021377
 21
-656.834861
 31
0.0
  0
LINE
  5
2362
100
AcDbEntity
  8
V0-VYPLNE
  6
DASHED
 62
    52
100
AcDbLine
 10
-106.021377
 20
-604.112015
 30
0.0
 11
-106.021377
 21
-656.838403
 31
0.0
  0
LINE
  5
2363
100
AcDbEntity
  8
VO-OBRYS
  6
CONTINUOUS
100
AcDbLine
 10
-155.513224
 20
-439.986978
 30
0.0
 11
-162.431546
 21
-460.081673
 31
0.0
  0
LINE
  5
2364
100
AcDbEntity
  8
VO-OBRYS
  6
CONTINUOUS
100
AcDbLine
 10
-155.513224
 20
-446.320522
 30
0.0
 11
-162.431546
 21
-466.415216
 31
0.0
  0
ARC
  5
2365
100
AcDbEntity
  8
V0-OBRYS
  6
CONTINUOUS
 62
    90
100
AcDbCircle
 10
-98.067488
 20
-330.487528
 30
0.0
 40
146.400112
100
AcDbArc
 50
256.92704
 51
268.869432
  0
LINE
  5
2366
100
AcDbEntity
  8
V0-VYPLNE
  6
DASHED
 62
    52
100
AcDbLine
 10
-132.762426
 20
-483.657845
 30
0.0
 11
-105.073121
 21
-486.513963
 31
0.0
  0
LINE
  5
2367
100
AcDbEntity
  8
VO-OBRYS
  6
CONTINUOUS
100
AcDbLine
 10
-181.456933
 20
-521.756896
 30
0.0
 11
-188.375255
 21
-546.128133
 31
0.0
  0
LINE
  5
2368
100
AcDbEntity
  8
VO-OBRYS
  6
CONTINUOUS
100
AcDbLine
 10
-190.104836
 20
-552.220942
 30
0.0
 11
-198.478166
 21
-581.717749
 31
0.0
  0
LINE
  5
2369
100
AcDbEntity
  8
VO-OBRYS
  6
CONTINUOUS
100
AcDbLine
 10
-190.104836
 20
-558.554485
 30
0.0
 11
-197.887948
 21
-585.972127
 31
0.0
  0
ARC
  5
236A
100
AcDbEntity
  8
V0-OBRYS
  6
CONTINUOUS
100
AcDbCircle
 10
-199.185134
 20
-582.805355
 30
0.0
 40
1.297185
100
AcDbArc
 50
0.0
 51
180.0
  0
LINE
  5
236B
100
AcDbEntity
  8
VO-OBRYS
  6
CONTINUOUS
100
AcDbLine
 10
-181.456933
 20
-528.090439
 30
0.0
 11
-188.375255
 21
-552.461676
 31
0.0
  0
ARC
  5
236C
100
AcDbEntity
  8
VO-OBRYS
  6
CONTINUOUS
100
AcDbCircle
 10
-189.240045
 20
-544.106163
 30
0.0
 40
0.86479
100
AcDbArc
 50
0.0
 51
180.0
  0
LINE
  5
236D
100
AcDbEntity
  8
VO-OBRYS
  6
CONTINUOUS
100
AcDbLine
 10
-164.161127
 20
-471.43889
 30
0.0
 11
-171.079449
 21
-491.533584
 31
0.0
  0
LINE
  5
236E
100
AcDbEntity
  8
VO-OBRYS
  6
CONTINUOUS
100
AcDbLine
 10
-172.80903
 20
-491.29285
 30
0.0
 11
-179.727352
 21
-515.664087
 31
0.0
  0
LINE
  5
236F
100
AcDbEntity
  8
VO-OBRYS
  6
CONTINUOUS
100
AcDbLine
 10
-172.80903
 20
-497.626394
 30
0.0
 11
-179.727352
 21
-521.99763
 31
0.0
  0
ARC
  5
2370
100
AcDbEntity
  8
VO-OBRYS
  6
CONTINUOUS
100
AcDbCircle
 10
-180.592142
 20
-514.546184
 30
0.0
 40
0.86479
100
AcDbArc
 50
0.0
 51
180.0
  0
LINE
  5
2371
100
AcDbEntity
  8
VO-OBRYS
  6
CONTINUOUS
100
AcDbLine
 10
-164.161127
 20
-465.105346
 30
0.0
 11
-171.079449
 21
-485.200041
 31
0.0
  0
ARC
  5
2372
100
AcDbEntity
  8
VO-OBRYS
  6
CONTINUOUS
100
AcDbCircle
 10
-171.94424
 20
-484.082138
 30
0.0
 40
0.86479
100
AcDbArc
 50
0.0
 51
180.0
  0
ARC
  5
2373
100
AcDbEntity
  8
VO-OBRYS
  6
CONTINUOUS
100
AcDbCircle
 10
-163.296337
 20
-457.894635
 30
0.0
 40
0.86479
100
AcDbArc
 50
0.0
 51
180.0
  0
LINE
  5
2374
100
AcDbEntity
  8
V0-VYPLNE
  6
DASHED
 62
    52
100
AcDbLine
 10
-148.962028
 20
-483.657845
 30
0.0
 11
-132.762426
 21
-483.657845
 31
0.0
  0
ARC
  5
2375
100
AcDbEntity
  8
V0-OBRYS
  6
CONTINUOUS
 62
    90
100
AcDbCircle
 10
-129.906762
 20
-466.128825
 30
0.0
 40
7.08032
100
AcDbArc
 50
180.0
 51
259.624089
  0
LINE
  5
2376
100
AcDbEntity
  8
VO-OBRYS
  6
CONTINUOUS
100
AcDbLine
 10
-155.864328
 20
-487.193283
 30
0.0
 11
-148.782404
 21
-486.255527
 31
0.0
  0
LINE
  5
2377
100
AcDbEntity
  8
VO-OBRYS
  6
CONTINUOUS
100
AcDbLine
 10
-151.081835
 20
-433.005282
 30
0.0
 11
-153.783756
 21
-438.040801
 31
0.0
  0
LINE
  5
2378
100
AcDbEntity
  8
VO-OBRYS
  6
CONTINUOUS
100
AcDbLine
 10
-150.685005
 20
-434.688723
 30
0.0
 11
-153.229436
 21
-439.687118
 31
0.0
  0
LINE
  5
2379
100
AcDbEntity
  8
VO-OBRYS
  6
CONTINUOUS
100
AcDbLine
 10
-153.229436
 20
-439.687118
 30
0.0
 11
-153.783644
 21
-441.296848
 31
0.0
  0
ARC
  5
237A
100
AcDbEntity
  8
VO-OBRYS
  6
CONTINUOUS
100
AcDbCircle
 10
-154.648434
 20
-438.054721
 30
0.0
 40
0.86479
100
AcDbArc
 50
0.0
 51
180.0
  0
LINE
  5
237B
100
AcDbEntity
  8
V0-OBRYS
100
AcDbLine
 10
-136.987082
 20
-424.514906
 30
0.0
 11
-150.823726
 21
-424.514906
 31
0.0
  0
LINE
  5
2399
100
AcDbEntity
  8
V0-OBRYS
  6
CONTINUOUS
 62
    41
100
AcDbLine
 10
362.443389
 20
-113.726696
 30
0.0
 11
319.005305
 21
-176.335497
 31
0.0
1001
ACAD
1000
DSTYLE
1002
{
1070
   140
1040
40.0
1070
   340
1005
F39
1070
    41
1040
40.0
1002
}
  0
LINE
  5
239A
100
AcDbEntity
  8
V0-OBRYS
  6
CONTINUOUS
 62
    41
100
AcDbLine
 10
319.005305
 20
-176.335497
 30
0.0
 11
51.239574
 21
-176.335497
 31
0.0
1001
ACAD
1000
DSTYLE
1002
{
1070
   140
1040
40.0
1070
   340
1005
F39
1070
    41
1040
40.0
1002
}
  0
VIEWPORT
  5
22
100
AcDbEntity
 67
     1
  8
0
100
AcDbViewport
 10
261.517699
 20
148.5
 30
0.0
 40
523.035398
 41
297.0
 68
    -1
 69
     1
1001
ACAD
1000
MVIEW
1002
{
1070
    16
1010
0.0
1020
0.0
1030
0.0
1010
0.0
1020
0.0
1030
1.0
1040
0.0
1040
297.0
1040
261.517699
1040
148.5
1040
50.0
1040
0.0
1040
0.0
1070
     0
1070
   100
1070
     1
1070
     1
1070
     0
1070
     0
1070
     0
1070
     0
1040
0.0
1040
0.0
1040
0.0
1040
1.0
1040
1.0
1040
10.0
1040
10.0
1070
     0
1002
{
1002
}
1002
}
  0
ENDSEC
  0
SECTION
  2
OBJECTS
  0
DICTIONARY
  5
C
100
AcDbDictionary
  3
ACAD_GROUP
350
D
  3
ACAD_MLINESTYLE
350
E
  3
ACDBVARIABLEDICTIONARY
350
5D
  0
DICTIONARY
  5
D
102
{ACAD_REACTORS
330
C
102
}
100
AcDbDictionary
  0
DICTIONARY
  5
E
102
{ACAD_REACTORS
330
C
102
}
100
AcDbDictionary
  3
STANDARD
350
13
  0
DICTIONARY
  5
5D
102
{ACAD_REACTORS
330
C
102
}
100
AcDbDictionary
  3
DIMADEC
350
5E
  3
SORTENTS
350
3D8
  0
MLINESTYLE
  5
13
102
{ACAD_REACTORS
330
E
102
}
100
AcDbMlineStyle
  2
STANDARD
 70
     0
  3

 62
     0
 51
90.0
 52
90.0
 71
     2
 49
0.5
 62
   256
  6
BYLAYER
 49
-0.5
 62
   256
  6
BYLAYER
  0
DICTIONARYVAR
  5
5E
102
{ACAD_REACTORS
330
5D
102
}
100
DictionaryVariables
280
     0
  1
0
  0
DICTIONARYVAR
  5
3D8
102
{ACAD_REACTORS
330
5D
102
}
100
DictionaryVariables
280
     0
  1
96
  0
ENDSEC
  0
EOF
