  0
SECTION
  2
HEADER
  9
$ACADVER
  1
AC1014
  9
$ACADMAINTVER
 70
     0
  9
$DWGCODEPAGE
  3
ANSI_1250
  9
$INSBASE
 10
0.0
 20
0.0
 30
0.0
  9
$EXTMIN
 10
-364.508872
 20
-695.53365
 30
0.0
  9
$EXTMAX
 10
669.916526
 20
338.501516
 30
0.0
  9
$LIMMIN
 10
0.0
 20
0.0
  9
$LIMMAX
 10
420.0
 20
297.0
  9
$ORTHOMODE
 70
     0
  9
$REGENMODE
 70
     1
  9
$FILLMODE
 70
     1
  9
$QTEXTMODE
 70
     0
  9
$MIRRTEXT
 70
     1
  9
$DRAGMODE
 70
     2
  9
$LTSCALE
 40
1.0
  9
$OSMODE
 70
     1
  9
$ATTMODE
 70
     1
  9
$TEXTSIZE
 40
40.0
  9
$TRACEWID
 40
1.0
  9
$TEXTSTYLE
  7
ED40
  9
$CLAYER
  8
V0-OBRYS
  9
$CELTYPE
  6
CONTINUOUS
  9
$CECOLOR
 62
    90
  9
$CELTSCALE
 40
1.0
  9
$DELOBJ
 70
     1
  9
$DISPSILH
 70
     0
  9
$DIMSCALE
 40
1.0
  9
$DIMASZ
 40
20.0
  9
$DIMEXO
 40
1.0
  9
$DIMDLI
 40
3.75
  9
$DIMRND
 40
0.0
  9
$DIMDLE
 40
0.0
  9
$DIMEXE
 40
1.25
  9
$DIMTP
 40
0.0
  9
$DIMTM
 40
0.0
  9
$DIMTXT
 40
20.0
  9
$DIMCEN
 40
3.0
  9
$DIMTSZ
 40
0.0
  9
$DIMTOL
 70
     0
  9
$DIMLIM
 70
     0
  9
$DIMTIH
 70
     0
  9
$DIMTOH
 70
     0
  9
$DIMSE1
 70
     0
  9
$DIMSE2
 70
     0
  9
$DIMTAD
 70
     1
  9
$DIMZIN
 70
     8
  9
$DIMBLK
  1

  9
$DIMASO
 70
     1
  9
$DIMSHO
 70
     1
  9
$DIMPOST
  1

  9
$DIMAPOST
  1

  9
$DIMALT
 70
     0
  9
$DIMALTD
 70
     4
  9
$DIMALTF
 40
0.0394
  9
$DIMLFAC
 40
1.0
  9
$DIMTOFL
 70
     1
  9
$DIMTVP
 40
0.0
  9
$DIMTIX
 70
     0
  9
$DIMSOXD
 70
     0
  9
$DIMSAH
 70
     1
  9
$DIMBLK1
  1
_OPEN
  9
$DIMBLK2
  1
_OPEN
  9
$DIMSTYLE
  2
ED20
  9
$DIMCLRD
 70
    41
  9
$DIMCLRE
 70
    41
  9
$DIMCLRT
 70
    41
  9
$DIMTFAC
 40
1.0
  9
$DIMGAP
 40
2.0
  9
$DIMJUST
 70
     0
  9
$DIMSD1
 70
     0
  9
$DIMSD2
 70
     0
  9
$DIMTOLJ
 70
     1
  9
$DIMTZIN
 70
     8
  9
$DIMALTZ
 70
     0
  9
$DIMALTTZ
 70
     0
  9
$DIMFIT
 70
     3
  9
$DIMUPT
 70
     0
  9
$DIMUNIT
 70
     2
  9
$DIMDEC
 70
     0
  9
$DIMTDEC
 70
     1
  9
$DIMALTU
 70
     8
  9
$DIMALTTD
 70
     4
  9
$DIMTXSTY
  7
ED20
  9
$DIMAUNIT
 70
     0
  9
$LUNITS
 70
     2
  9
$LUPREC
 70
     4
  9
$SKETCHINC
 40
1.0
  9
$FILLETRAD
 40
5.0
  9
$AUNITS
 70
     0
  9
$AUPREC
 70
     0
  9
$MENU
  1
.
  9
$ELEVATION
 40
0.0
  9
$PELEVATION
 40
0.0
  9
$THICKNESS
 40
0.0
  9
$LIMCHECK
 70
     0
  9
$BLIPMODE
 70
     0
  9
$CHAMFERA
 40
0.5
  9
$CHAMFERB
 40
0.5
  9
$CHAMFERC
 40
20.0
  9
$CHAMFERD
 40
0.0
  9
$SKPOLY
 70
     1
  9
$TDCREATE
 40
2451196.643769328
  9
$TDUPDATE
 40
2452915.873770486
  9
$TDINDWG
 40
0.8470375000
  9
$TDUSRTIMER
 40
0.8470375000
  9
$USRTIMER
 70
     1
  9
$ANGBASE
 50
0.0
  9
$ANGDIR
 70
     0
  9
$PDMODE
 70
    35
  9
$PDSIZE
 40
20.0
  9
$PLINEWID
 40
0.0
  9
$COORDS
 70
     1
  9
$SPLFRAME
 70
     0
  9
$SPLINETYPE
 70
     6
  9
$SPLINESEGS
 70
     8
  9
$ATTDIA
 70
     0
  9
$ATTREQ
 70
     1
  9
$HANDLING
 70
     1
  9
$HANDSEED
  5
218F
  9
$SURFTAB1
 70
     6
  9
$SURFTAB2
 70
     6
  9
$SURFTYPE
 70
     6
  9
$SURFU
 70
     6
  9
$SURFV
 70
     6
  9
$UCSNAME
  2

  9
$UCSORG
 10
366.8741676550712
 20
89.37358462115861
 30
0.0
  9
$UCSXDIR
 10
1.0
 20
0.0
 30
0.0
  9
$UCSYDIR
 10
0.0
 20
1.0
 30
0.0
  9
$PUCSNAME
  2

  9
$PUCSORG
 10
0.0
 20
0.0
 30
0.0
  9
$PUCSXDIR
 10
1.0
 20
0.0
 30
0.0
  9
$PUCSYDIR
 10
0.0
 20
1.0
 30
0.0
  9
$USERI1
 70
     0
  9
$USERI2
 70
     0
  9
$USERI3
 70
     0
  9
$USERI4
 70
     0
  9
$USERI5
 70
     0
  9
$USERR1
 40
0.0
  9
$USERR2
 40
0.0
  9
$USERR3
 40
0.0
  9
$USERR4
 40
0.0
  9
$USERR5
 40
0.0
  9
$WORLDVIEW
 70
     1
  9
$SHADEDGE
 70
     3
  9
$SHADEDIF
 70
    70
  9
$TILEMODE
 70
     1
  9
$MAXACTVP
 70
    48
  9
$PINSBASE
 10
0.0
 20
0.0
 30
0.0
  9
$PLIMCHECK
 70
     0
  9
$PEXTMIN
 10
1.000000E+20
 20
1.000000E+20
 30
1.000000E+20
  9
$PEXTMAX
 10
-1.000000E+20
 20
-1.000000E+20
 30
-1.000000E+20
  9
$PLIMMIN
 10
0.0
 20
0.0
  9
$PLIMMAX
 10
420.0
 20
297.0
  9
$UNITMODE
 70
     0
  9
$VISRETAIN
 70
     1
  9
$PLINEGEN
 70
     0
  9
$PSLTSCALE
 70
     0
  9
$TREEDEPTH
 70
  3020
  9
$PICKSTYLE
 70
     0
  9
$CMLSTYLE
  2
STANDARD
  9
$CMLJUST
 70
     1
  9
$CMLSCALE
 40
3.0
  9
$PROXYGRAPHICS
 70
     1
  9
$MEASUREMENT
 70
     1
  0
ENDSEC
  0
SECTION
  2
CLASSES
  0
CLASS
  1
DICTIONARYVAR
  2
AcDbDictionaryVar
  3
"AutoCAD"
 90
        0
280
     0
281
     0
  0
CLASS
  1
LWPOLYLINE
  2
AcDbPolyline
  3
"AutoCAD"
 90
        0
280
     0
281
     1
  0
CLASS
  1
HATCH
  2
AcDbHatch
  3
"ACAD_SEDONA"
 90
        0
280
     0
281
     1
  0
ENDSEC
  0
SECTION
  2
TABLES
  0
TABLE
  2
VPORT
  5
8
100
AcDbSymbolTable
 70
     2
  0
VPORT
  5
218E
100
AcDbSymbolTableRecord
100
AcDbViewportTableRecord
  2
*ACTIVE
 70
     0
 10
0.0
 20
0.0
 11
1.0
 21
1.0
 12
90.873006
 22
-113.527422
 13
0.0
 23
0.0
 14
10.0
 24
10.0
 15
10.0
 25
10.0
 16
0.0
 26
0.0
 36
1.0
 17
0.0
 27
0.0
 37
0.0
 40
964.800418
 41
1.730469
 42
50.0
 43
0.0
 44
0.0
 50
0.0
 51
0.0
 71
     0
 72
   100
 73
     1
 74
     1
 75
     0
 76
     0
 77
     0
 78
     0
  0
ENDTAB
  0
TABLE
  2
LTYPE
  5
5
100
AcDbSymbolTable
 70
     4
  0
LTYPE
  5
14
100
AcDbSymbolTableRecord
100
AcDbLinetypeTableRecord
  2
BYBLOCK
 70
     0
  3

 72
    65
 73
     0
 40
0.0
  0
LTYPE
  5
15
100
AcDbSymbolTableRecord
100
AcDbLinetypeTableRecord
  2
BYLAYER
 70
     0
  3

 72
    65
 73
     0
 40
0.0
  0
LTYPE
  5
16
100
AcDbSymbolTableRecord
100
AcDbLinetypeTableRecord
  2
CONTINUOUS
 70
     0
  3
Solid line
 72
    65
 73
     0
 40
0.0
  0
LTYPE
  5
7F
100
AcDbSymbolTableRecord
100
AcDbLinetypeTableRecord
  2
DASHDOT
 70
     0
  3
Dash dot __ . __ . __ . __ . __ . __ . __ . __
 72
    65
 73
     4
 40
25.4
 49
12.7
 74
     0
 49
-6.35
 74
     0
 49
0.0
 74
     0
 49
-6.35
 74
     0
  0
LTYPE
  5
1B9E
100
AcDbSymbolTableRecord
100
AcDbLinetypeTableRecord
  2
ACAD_ISO02W100
 70
     0
  3
ISO dash __ __ __ __ __ __ __ __ __ __ __ __ __
 72
    65
 73
     2
 40
15.0
 49
12.0
 74
     0
 49
-3.0
 74
     0
  0
LTYPE
  5
1B9F
100
AcDbSymbolTableRecord
100
AcDbLinetypeTableRecord
  2
DASHED
 70
     0
  3
Dashed __ __ __ __ __ __ __ __ __ __ __ __ __ _
 72
    65
 73
     2
 40
19.05
 49
12.7
 74
     0
 49
-6.35
 74
     0
  0
ENDTAB
  0
TABLE
  2
LAYER
  5
2
100
AcDbSymbolTable
 70
     5
  0
LAYER
  5
F
100
AcDbSymbolTableRecord
100
AcDbLayerTableRecord
  2
0
 70
     0
 62
     7
  6
CONTINUOUS
  0
LAYER
  5
9E
100
AcDbSymbolTableRecord
100
AcDbLayerTableRecord
  2
DEFPOINTS
 70
     0
 62
     7
  6
CONTINUOUS
  0
LAYER
  5
377
100
AcDbSymbolTableRecord
100
AcDbLayerTableRecord
  2
V0-OBRYS
 70
     0
 62
    90
  6
CONTINUOUS
  0
LAYER
  5
378
100
AcDbSymbolTableRecord
100
AcDbLayerTableRecord
  2
V0-VYPLNE
 70
     0
 62
    63
  6
DASHDOT
  0
LAYER
  5
1540
100
AcDbSymbolTableRecord
100
AcDbLayerTableRecord
  2
VO-OBRYS
 70
     0
 62
    90
  6
CONTINUOUS
  0
ENDTAB
  0
TABLE
  2
STYLE
  5
3
100
AcDbSymbolTable
 70
     6
  0
STYLE
  5
10
100
AcDbSymbolTableRecord
100
AcDbTextStyleTableRecord
  2
STANDARD
 70
     0
 40
0.0
 41
1.0
 50
0.0
 71
     0
 42
2.5
  3
ISOCP
  4

  0
STYLE
  5
331
100
AcDbSymbolTableRecord
100
AcDbTextStyleTableRecord
  2
ED20
 70
     0
 40
20.0
 41
1.0
 50
0.0
 71
     0
 42
2.5
  3
ISOCP.shx
  4

  0
STYLE
  5
648
100
AcDbSymbolTableRecord
100
AcDbTextStyleTableRecord
  2
ED10
 70
     0
 40
10.0
 41
1.0
 50
0.0
 71
     0
 42
10.0
  3
ISOCP.shx
  4

  0
STYLE
  5
F38
100
AcDbSymbolTableRecord
100
AcDbTextStyleTableRecord
  2
ED30
 70
     0
 40
30.0
 41
1.0
 50
0.0
 71
     0
 42
2.5
  3
ISOCP.shx
  4

  0
STYLE
  5
F39
100
AcDbSymbolTableRecord
100
AcDbTextStyleTableRecord
  2
ED40
 70
     0
 40
40.0
 41
1.0
 50
0.0
 71
     0
 42
40.0
  3
ISOCP.shx
  4

  0
STYLE
  5
1B9D
100
AcDbSymbolTableRecord
100
AcDbTextStyleTableRecord
  2

 70
     1
 40
0.0
 41
1.0
 50
0.0
 71
     0
 42
40.0
  3
ltypeshp.shx
  4

  0
ENDTAB
  0
TABLE
  2
VIEW
  5
6
100
AcDbSymbolTable
 70
     0
  0
ENDTAB
  0
TABLE
  2
UCS
  5
7
100
AcDbSymbolTable
 70
     0
  0
ENDTAB
  0
TABLE
  2
APPID
  5
9
100
AcDbSymbolTable
 70
     1
  0
APPID
  5
11
100
AcDbSymbolTableRecord
100
AcDbRegAppTableRecord
  2
ACAD
 70
     0
  0
ENDTAB
  0
TABLE
  2
DIMSTYLE
  5
A
100
AcDbSymbolTable
 70
     2
  0
DIMSTYLE
105
1D
100
AcDbSymbolTableRecord
100
AcDbDimStyleTableRecord
  2
STANDARD
 70
     0
  3

  4

  5

  6
_OPEN
  7
_OPEN
 40
0.0
 41
15.0
 42
0.625
 43
3.75
 44
1.25
 45
0.0
 46
0.0
 47
0.0
 48
0.0
140
15.0
141
2.5
142
0.0
143
0.0394
144
1.0
145
0.0
146
1.0
147
3.0
 71
     0
 72
     0
 73
     0
 74
     0
 75
     0
 76
     0
 77
     1
 78
     8
170
     0
171
     4
172
     1
173
     1
174
     0
175
     0
176
     0
177
     0
178
     0
270
     2
271
     0
272
     1
273
     8
274
     4
340
331
275
     0
280
     0
281
     0
282
     0
283
     1
284
     8
285
     0
286
     0
287
     3
288
     0
  0
DIMSTYLE
105
FE9
102
{ACAD_REACTORS
330
1879
330
1886
330
1893
330
1849
330
1856
330
1CA4
102
}
100
AcDbSymbolTableRecord
100
AcDbDimStyleTableRecord
  2
ED20
 70
     0
  3

  4

  5

  6
_OPEN
  7
_OPEN
 40
1.0
 41
20.0
 42
1.0
 43
3.75
 44
1.25
 45
0.0
 46
0.0
 47
0.0
 48
0.0
140
20.0
141
3.0
142
0.0
143
0.0394
144
1.0
145
0.0
146
1.0
147
2.0
 71
     0
 72
     0
 73
     0
 74
     0
 75
     0
 76
     0
 77
     1
 78
     8
170
     0
171
     4
172
     1
173
     1
174
     0
175
     0
176
    41
177
    41
178
    41
270
     2
271
     0
272
     1
273
     8
274
     4
340
331
275
     0
280
     0
281
     0
282
     0
283
     1
284
     8
285
     0
286
     0
287
     3
288
     0
  0
ENDTAB
  0
TABLE
  2
BLOCK_RECORD
  5
1
100
AcDbSymbolTable
 70
     7
  0
BLOCK_RECORD
  5
1A
100
AcDbSymbolTableRecord
100
AcDbBlockTableRecord
  2
*MODEL_SPACE
  0
BLOCK_RECORD
  5
17
100
AcDbSymbolTableRecord
100
AcDbBlockTableRecord
  2
*PAPER_SPACE
  0
BLOCK_RECORD
  5
90
100
AcDbSymbolTableRecord
100
AcDbBlockTableRecord
  2
_OPEN
  0
BLOCK_RECORD
  5
186D
100
AcDbSymbolTableRecord
100
AcDbBlockTableRecord
  2
*D1
  0
BLOCK_RECORD
  5
187A
100
AcDbSymbolTableRecord
100
AcDbBlockTableRecord
  2
*D2
  0
BLOCK_RECORD
  5
1887
100
AcDbSymbolTableRecord
100
AcDbBlockTableRecord
  2
*D3
  0
BLOCK_RECORD
  5
1A7A
100
AcDbSymbolTableRecord
100
AcDbBlockTableRecord
  2
*D4
  0
BLOCK_RECORD
  5
1A86
100
AcDbSymbolTableRecord
100
AcDbBlockTableRecord
  2
*D5
  0
BLOCK_RECORD
  5
1C98
100
AcDbSymbolTableRecord
100
AcDbBlockTableRecord
  2
*D6
  0
ENDTAB
  0
ENDSEC
  0
SECTION
  2
BLOCKS
  0
BLOCK
  5
1B
100
AcDbEntity
  8
0
100
AcDbBlockBegin
  2
*MODEL_SPACE
 70
     0
 10
0.0
 20
0.0
 30
0.0
  3
*MODEL_SPACE
  1

  0
ENDBLK
  5
1C
100
AcDbEntity
  8
0
100
AcDbBlockEnd
  0
BLOCK
  5
18
100
AcDbEntity
 67
     1
  8
0
100
AcDbBlockBegin
  2
*PAPER_SPACE
 70
     0
 10
0.0
 20
0.0
 30
0.0
  3
*PAPER_SPACE
  1

  0
ENDBLK
  5
19
100
AcDbEntity
 67
     1
  8
0
100
AcDbBlockEnd
  0
BLOCK
  5
91
100
AcDbEntity
  8
0
100
AcDbBlockBegin
  2
_OPEN
 70
     0
 10
0.0
 20
0.0
 30
0.0
  3
_OPEN
  1

  0
LINE
  5
92
100
AcDbEntity
  8
0
  6
BYBLOCK
 62
     0
100
AcDbLine
 10
-1.0
 20
0.166667
 30
0.0
 11
0.0
 21
0.0
 31
0.0
  0
LINE
  5
93
100
AcDbEntity
  8
0
  6
BYBLOCK
 62
     0
100
AcDbLine
 10
0.0
 20
0.0
 30
0.0
 11
-1.0
 21
-0.166667
 31
0.0
  0
LINE
  5
94
100
AcDbEntity
  8
0
  6
BYBLOCK
 62
     0
100
AcDbLine
 10
0.0
 20
0.0
 30
0.0
 11
-1.0
 21
0.0
 31
0.0
  0
ENDBLK
  5
95
100
AcDbEntity
  8
0
100
AcDbBlockEnd
  0
BLOCK
  5
217E
100
AcDbEntity
  8
0
100
AcDbBlockBegin
  2
*D1
 70
     1
 10
0.0
 20
0.0
 30
0.0
  3
*D1
  1

  0
LINE
  5
217F
100
AcDbEntity
  8
0
  6
BYBLOCK
 62
    41
100
AcDbLine
 10
-136.409862
 20
244.071185
 30
0.0
 11
53.46906
 21
244.071185
 31
0.0
  0
LINE
  5
2180
100
AcDbEntity
  8
0
  6
BYBLOCK
 62
    41
100
AcDbLine
 10
-136.409862
 20
-66.824015
 30
0.0
 11
53.46906
 21
-66.824015
 31
0.0
  0
LINE
  5
2181
100
AcDbEntity
  8
0
  6
BYBLOCK
 62
    41
100
AcDbLine
 10
52.21906
 20
224.071185
 30
0.0
 11
52.21906
 21
-46.824015
 31
0.0
  0
INSERT
  5
2182
100
AcDbEntity
  8
0
  6
BYBLOCK
 62
    41
100
AcDbBlockReference
  2
_OPEN
 10
52.21906
 20
244.071185
 30
0.0
 41
20.0
 42
20.0
 43
20.0
 50
90.0
  0
INSERT
  5
2183
100
AcDbEntity
  8
0
  6
BYBLOCK
 62
    41
100
AcDbBlockReference
  2
_OPEN
 10
52.21906
 20
-66.824015
 30
0.0
 41
20.0
 42
20.0
 43
20.0
 50
270.0
  0
MTEXT
  5
2184
100
AcDbEntity
  8
0
  6
BYBLOCK
 62
    41
100
AcDbMText
 10
40.21906
 20
89.373585
 30
0.0
 40
20.0
 41
0.0
 71
     5
 72
     1
  1
\A1;\U+2205311
  7
ED20
 11
0.0
 21
1.0
 31
0.0
  0
POINT
  5
2185
100
AcDbEntity
  8
DEFPOINTS
  6
BYBLOCK
 62
     0
100
AcDbPoint
 10
-137.409862
 20
244.071185
 30
0.0
  0
POINT
  5
2186
100
AcDbEntity
  8
DEFPOINTS
  6
BYBLOCK
 62
     0
100
AcDbPoint
 10
-137.409862
 20
-66.824015
 30
0.0
  0
POINT
  5
2187
100
AcDbEntity
  8
DEFPOINTS
  6
BYBLOCK
 62
     0
100
AcDbPoint
 10
52.21906
 20
-66.824015
 30
0.0
  0
ENDBLK
  5
2188
100
AcDbEntity
  8
0
100
AcDbBlockEnd
  0
BLOCK
  5
2070
100
AcDbEntity
  8
0
100
AcDbBlockBegin
  2
*D2
 70
     1
 10
0.0
 20
0.0
 30
0.0
  3
*D2
  1

  0
LINE
  5
2071
100
AcDbEntity
  8
0
  6
BYBLOCK
 62
    41
100
AcDbLine
 10
-100.066102
 20
241.385185
 30
0.0
 11
-3.382854
 21
241.385185
 31
0.0
  0
LINE
  5
2072
100
AcDbEntity
  8
0
  6
BYBLOCK
 62
    41
100
AcDbLine
 10
-101.262102
 20
-63.236015
 30
0.0
 11
-3.382854
 21
-63.236015
 31
0.0
  0
LINE
  5
2073
100
AcDbEntity
  8
0
  6
BYBLOCK
 62
    41
100
AcDbLine
 10
-4.632854
 20
221.385185
 30
0.0
 11
-4.632854
 21
-43.236015
 31
0.0
  0
INSERT
  5
2074
100
AcDbEntity
  8
0
  6
BYBLOCK
 62
    41
100
AcDbBlockReference
  2
_OPEN
 10
-4.632854
 20
241.385185
 30
0.0
 41
20.0
 42
20.0
 43
20.0
 50
90.0
  0
INSERT
  5
2075
100
AcDbEntity
  8
0
  6
BYBLOCK
 62
    41
100
AcDbBlockReference
  2
_OPEN
 10
-4.632854
 20
-63.236015
 30
0.0
 41
20.0
 42
20.0
 43
20.0
 50
270.0
  0
MTEXT
  5
2076
100
AcDbEntity
  8
0
  6
BYBLOCK
 62
    41
100
AcDbMText
 10
-16.632854
 20
89.373585
 30
0.0
 40
20.0
 41
0.0
 71
     5
 72
     1
  1
\A1;\U+2205305
  7
ED20
 11
0.0
 21
1.0
 31
0.0
  0
POINT
  5
2077
100
AcDbEntity
  8
DEFPOINTS
  6
BYBLOCK
 62
     0
100
AcDbPoint
 10
-101.066102
 20
241.385185
 30
0.0
  0
POINT
  5
2078
100
AcDbEntity
  8
DEFPOINTS
  6
BYBLOCK
 62
     0
100
AcDbPoint
 10
-102.262102
 20
-63.236015
 30
0.0
  0
POINT
  5
2079
100
AcDbEntity
  8
DEFPOINTS
  6
BYBLOCK
 62
     0
100
AcDbPoint
 10
-4.632854
 20
-63.236015
 30
0.0
  0
ENDBLK
  5
207A
100
AcDbEntity
  8
0
100
AcDbBlockEnd
  0
BLOCK
  5
20CC
100
AcDbEntity
  8
0
100
AcDbBlockBegin
  2
*D3
 70
     1
 10
0.0
 20
0.0
 30
0.0
  3
*D3
  1

  0
LINE
  5
20CD
100
AcDbEntity
  8
0
  6
BYBLOCK
 62
    41
100
AcDbLine
 10
658.74118
 20
-96.755375
 30
0.0
 11
658.74118
 21
-212.623113
 31
0.0
  0
LINE
  5
20CE
100
AcDbEntity
  8
0
  6
BYBLOCK
 62
    41
100
AcDbLine
 10
258.674157
 20
-96.755375
 30
0.0
 11
258.674157
 21
-212.623113
 31
0.0
  0
LINE
  5
20CF
100
AcDbEntity
  8
0
  6
BYBLOCK
 62
    41
100
AcDbLine
 10
638.74118
 20
-211.373113
 30
0.0
 11
278.674157
 21
-211.373113
 31
0.0
  0
INSERT
  5
20D0
100
AcDbEntity
  8
0
  6
BYBLOCK
 62
    41
100
AcDbBlockReference
  2
_OPEN
 10
658.74118
 20
-211.373113
 30
0.0
 41
20.0
 42
20.0
 43
20.0
  0
INSERT
  5
20D1
100
AcDbEntity
  8
0
  6
BYBLOCK
 62
    41
100
AcDbBlockReference
  2
_OPEN
 10
258.674157
 20
-211.373113
 30
0.0
 41
20.0
 42
20.0
 43
20.0
 50
180.0
  0
MTEXT
  5
20D2
100
AcDbEntity
  8
0
  6
BYBLOCK
 62
    41
100
AcDbMText
 10
458.471402
 20
-199.373113
 30
0.0
 40
20.0
 41
0.0
 71
     5
 72
     1
  1
\A1;400
  7
ED20
  0
POINT
  5
20D3
100
AcDbEntity
  8
DEFPOINTS
  6
BYBLOCK
 62
     0
100
AcDbPoint
 10
658.74118
 20
-95.755375
 30
0.0
  0
POINT
  5
20D4
100
AcDbEntity
  8
DEFPOINTS
  6
BYBLOCK
 62
     0
100
AcDbPoint
 10
258.674157
 20
-95.755375
 30
0.0
  0
POINT
  5
20D5
100
AcDbEntity
  8
DEFPOINTS
  6
BYBLOCK
 62
     0
100
AcDbPoint
 10
258.674157
 20
-211.373113
 30
0.0
  0
ENDBLK
  5
20D6
100
AcDbEntity
  8
0
100
AcDbBlockEnd
  0
BLOCK
  5
20B4
100
AcDbEntity
  8
0
100
AcDbBlockBegin
  2
*D4
 70
     1
 10
0.0
 20
0.0
 30
0.0
  3
*D4
  1

  0
LINE
  5
20B5
100
AcDbEntity
  8
0
  6
BYBLOCK
 62
    41
100
AcDbLine
 10
-102.262102
 20
-64.236015
 30
0.0
 11
-102.262102
 21
-192.801712
 31
0.0
  0
LINE
  5
20B6
100
AcDbEntity
  8
0
  6
BYBLOCK
 62
    41
100
AcDbLine
 10
-137.409862
 20
-110.832175
 30
0.0
 11
-137.409862
 21
-192.801712
 31
0.0
  0
LINE
  5
20B7
100
AcDbEntity
  8
0
  6
BYBLOCK
 62
    41
100
AcDbLine
 10
-157.409862
 20
-191.551712
 30
0.0
 11
-177.409862
 21
-191.551712
 31
0.0
  0
LINE
  5
20B8
100
AcDbEntity
  8
0
  6
BYBLOCK
 62
    41
100
AcDbLine
 10
-82.262102
 20
-191.551712
 30
0.0
 11
-11.553089
 21
-191.551712
 31
0.0
  0
LINE
  5
20B9
100
AcDbEntity
  8
0
  6
BYBLOCK
 62
    41
100
AcDbLine
 10
-137.409862
 20
-191.551712
 30
0.0
 11
-102.262102
 21
-191.551712
 31
0.0
  0
INSERT
  5
20BA
100
AcDbEntity
  8
0
  6
BYBLOCK
 62
    41
100
AcDbBlockReference
  2
_OPEN
 10
-137.409862
 20
-191.551712
 30
0.0
 41
20.0
 42
20.0
 43
20.0
  0
INSERT
  5
20BB
100
AcDbEntity
  8
0
  6
BYBLOCK
 62
    41
100
AcDbBlockReference
  2
_OPEN
 10
-102.262102
 20
-191.551712
 30
0.0
 41
20.0
 42
20.0
 43
20.0
 50
180.0
  0
MTEXT
  5
20BC
100
AcDbEntity
  8
0
  6
BYBLOCK
 62
    41
100
AcDbMText
 10
-24.967302
 20
-179.551712
 30
0.0
 40
20.0
 41
0.0
 71
     5
 72
     1
  1
\A1;35
  7
ED20
  0
POINT
  5
20BD
100
AcDbEntity
  8
DEFPOINTS
  6
BYBLOCK
 62
     0
100
AcDbPoint
 10
-102.262102
 20
-63.236015
 30
0.0
  0
POINT
  5
20BE
100
AcDbEntity
  8
DEFPOINTS
  6
BYBLOCK
 62
     0
100
AcDbPoint
 10
-137.409862
 20
-109.832175
 30
0.0
  0
POINT
  5
20BF
100
AcDbEntity
  8
DEFPOINTS
  6
BYBLOCK
 62
     0
100
AcDbPoint
 10
-137.409862
 20
-191.551712
 30
0.0
  0
ENDBLK
  5
20C0
100
AcDbEntity
  8
0
100
AcDbBlockEnd
  0
BLOCK
  5
209E
100
AcDbEntity
  8
0
100
AcDbBlockBegin
  2
*D5
 70
     1
 10
0.0
 20
0.0
 30
0.0
  3
*D5
  1

  0
LINE
  5
209F
100
AcDbEntity
  8
0
  6
BYBLOCK
 62
    41
100
AcDbLine
 10
-234.063782
 20
88.373585
 30
0.0
 11
-234.063782
 21
-192.801712
 31
0.0
  0
LINE
  5
20A0
100
AcDbEntity
  8
0
  6
BYBLOCK
 62
    41
100
AcDbLine
 10
-139.409862
 20
-110.832175
 30
0.0
 11
-139.409862
 21
-192.801712
 31
0.0
  0
LINE
  5
20A1
100
AcDbEntity
  8
0
  6
BYBLOCK
 62
    41
100
AcDbLine
 10
-214.063782
 20
-191.551712
 30
0.0
 11
-159.409862
 21
-191.551712
 31
0.0
  0
INSERT
  5
20A2
100
AcDbEntity
  8
0
  6
BYBLOCK
 62
    41
100
AcDbBlockReference
  2
_OPEN
 10
-234.063782
 20
-191.551712
 30
0.0
 41
20.0
 42
20.0
 43
20.0
 50
180.0
  0
INSERT
  5
20A3
100
AcDbEntity
  8
0
  6
BYBLOCK
 62
    41
100
AcDbBlockReference
  2
_OPEN
 10
-139.409862
 20
-191.551712
 30
0.0
 41
20.0
 42
20.0
 43
20.0
  0
MTEXT
  5
20A4
100
AcDbEntity
  8
0
  6
BYBLOCK
 62
    41
100
AcDbMText
 10
-182.731462
 20
-179.551712
 30
0.0
 40
20.0
 41
0.0
 71
     5
 72
     1
  1
\A1;95
  7
ED20
  0
POINT
  5
20A5
100
AcDbEntity
  8
DEFPOINTS
  6
BYBLOCK
 62
     0
100
AcDbPoint
 10
-234.063782
 20
89.373585
 30
0.0
  0
POINT
  5
20A6
100
AcDbEntity
  8
DEFPOINTS
  6
BYBLOCK
 62
     0
100
AcDbPoint
 10
-139.409862
 20
-109.832175
 30
0.0
  0
POINT
  5
20A7
100
AcDbEntity
  8
DEFPOINTS
  6
BYBLOCK
 62
     0
100
AcDbPoint
 10
-139.409862
 20
-191.551712
 30
0.0
  0
ENDBLK
  5
20A8
100
AcDbEntity
  8
0
100
AcDbBlockEnd
  0
BLOCK
  5
20E2
100
AcDbEntity
  8
0
100
AcDbBlockBegin
  2
*D6
 70
     1
 10
0.0
 20
0.0
 30
0.0
  3
*D6
  1

  0
LINE
  5
20E3
100
AcDbEntity
  8
0
  6
BYBLOCK
 62
    41
100
AcDbLine
 10
290.517141
 20
-81.619913
 30
0.0
 11
290.517141
 21
-164.490996
 31
0.0
  0
LINE
  5
20E4
100
AcDbEntity
  8
0
  6
BYBLOCK
 62
    41
100
AcDbLine
 10
626.898196
 20
-81.619913
 30
0.0
 11
626.898196
 21
-164.490996
 31
0.0
  0
LINE
  5
20E5
100
AcDbEntity
  8
0
  6
BYBLOCK
 62
    41
100
AcDbLine
 10
310.517141
 20
-163.240996
 30
0.0
 11
606.898196
 21
-163.240996
 31
0.0
  0
INSERT
  5
20E6
100
AcDbEntity
  8
0
  6
BYBLOCK
 62
    41
100
AcDbBlockReference
  2
_OPEN
 10
290.517141
 20
-163.240996
 30
0.0
 41
20.0
 42
20.0
 43
20.0
 50
180.0
  0
INSERT
  5
20E7
100
AcDbEntity
  8
0
  6
BYBLOCK
 62
    41
100
AcDbBlockReference
  2
_OPEN
 10
626.898196
 20
-163.240996
 30
0.0
 41
20.0
 42
20.0
 43
20.0
  0
MTEXT
  5
20E8
100
AcDbEntity
  8
0
  6
BYBLOCK
 62
    41
100
AcDbMText
 10
458.707669
 20
-151.240996
 30
0.0
 40
20.0
 41
0.0
 71
     5
 72
     1
  1
\A1;336
  7
ED20
  0
POINT
  5
20E9
100
AcDbEntity
  8
DEFPOINTS
  6
BYBLOCK
 62
     0
100
AcDbPoint
 10
290.517141
 20
-80.619913
 30
0.0
  0
POINT
  5
20EA
100
AcDbEntity
  8
DEFPOINTS
  6
BYBLOCK
 62
     0
100
AcDbPoint
 10
626.898196
 20
-80.619913
 30
0.0
  0
POINT
  5
20EB
100
AcDbEntity
  8
DEFPOINTS
  6
BYBLOCK
 62
     0
100
AcDbPoint
 10
626.898196
 20
-163.240996
 30
0.0
  0
ENDBLK
  5
20EC
100
AcDbEntity
  8
0
100
AcDbBlockEnd
  0
ENDSEC
  0
SECTION
  2
ENTITIES
  0
TEXT
  5
1347
100
AcDbEntity
  8
V0-VYPLNE
 62
     6
100
AcDbText
 10
314.785574
 20
-469.802772
 30
0.0
 40
48.0
  1
HXM-300
  7
ED40
100
AcDbText
  0
TEXT
  5
1348
100
AcDbEntity
  8
V0-VYPLNE
 62
     4
100
AcDbText
 10
218.116526
 20
-536.601768
 30
0.0
 40
36.0
  1
AXIALNI VENTILATOR
  7
ED30
100
AcDbText
  0
LINE
  5
1789
100
AcDbEntity
  8
VO-OBRYS
  6
CONTINUOUS
100
AcDbLine
 10
512.732597
 20
62.260783
 30
0.0
 11
608.970084
 21
-33.976704
 31
0.0
  0
ARC
  5
1791
100
AcDbEntity
  8
V0-OBRYS
  6
CONTINUOUS
100
AcDbCircle
 10
458.707669
 20
89.373585
 30
0.0
 40
62.599118
100
AcDbArc
 50
148.997281
 51
211.002719
  0
ARC
  5
1792
100
AcDbEntity
  8
V0-OBRYS
100
AcDbCircle
 10
475.86178
 20
89.373585
 30
0.0
 40
195.336187
100
AcDbArc
 50
144.17889
 51
215.82111
  0
LINE
  5
1793
100
AcDbEntity
  8
V0-VYPLNE
100
AcDbLine
 10
458.707669
 20
89.373585
 30
0.0
 11
458.707669
 21
274.860679
 31
0.0
  0
LINE
  5
1794
100
AcDbEntity
  8
V0-VYPLNE
100
AcDbLine
 10
651.517971
 20
89.373585
 30
0.0
 11
254.113919
 21
89.373585
 31
0.0
  0
LINE
  5
17A6
100
AcDbEntity
  8
V0-VYPLNE
  6
DASHDOT
100
AcDbLine
 10
458.707669
 20
89.373585
 30
0.0
 11
458.707669
 21
-77.390381
 31
0.0
  0
LINE
  5
17C4
100
AcDbEntity
  8
VO-OBRYS
  6
CONTINUOUS
100
AcDbLine
 10
485.820471
 20
35.348656
 30
0.0
 11
582.057957
 21
-60.888831
 31
0.0
  0
LINE
  5
17C9
100
AcDbEntity
  8
V0-VYPLNE
100
AcDbLine
 10
458.707669
 20
89.373585
 30
0.0
 11
636.444974
 21
-88.363721
 31
0.0
  0
LINE
  5
17CA
100
AcDbEntity
  8
VO-OBRYS
  6
CONTINUOUS
100
AcDbLine
 10
431.594866
 20
35.348656
 30
0.0
 11
335.35738
 21
-60.888831
 31
0.0
  0
LINE
  5
17CC
100
AcDbEntity
  8
V0-VYPLNE
100
AcDbLine
 10
458.707669
 20
89.373585
 30
0.0
 11
280.970363
 21
-88.363721
 31
0.0
  0
LINE
  5
17CE
100
AcDbEntity
  8
VO-OBRYS
  6
CONTINUOUS
100
AcDbLine
 10
404.68274
 20
62.260783
 30
0.0
 11
308.445253
 21
-33.976704
 31
0.0
  0
LINE
  5
17D7
100
AcDbEntity
  8
VO-OBRYS
  6
CONTINUOUS
100
AcDbLine
 10
404.68274
 20
116.486387
 30
0.0
 11
308.445253
 21
212.723874
 31
0.0
  0
LINE
  5
17DB
100
AcDbEntity
  8
VO-OBRYS
  6
CONTINUOUS
100
AcDbLine
 10
431.594866
 20
143.398513
 30
0.0
 11
335.35738
 21
239.636
 31
0.0
  0
LINE
  5
17E4
100
AcDbEntity
  8
VO-OBRYS
  6
CONTINUOUS
100
AcDbLine
 10
485.820471
 20
143.398513
 30
0.0
 11
582.057957
 21
239.636
 31
0.0
  0
LINE
  5
17E8
100
AcDbEntity
  8
VO-OBRYS
  6
CONTINUOUS
100
AcDbLine
 10
512.732597
 20
116.486387
 30
0.0
 11
608.970084
 21
212.723874
 31
0.0
  0
LINE
  5
17ED
100
AcDbEntity
  8
V0-VYPLNE
100
AcDbLine
 10
624.419445
 20
197.274513
 30
0.0
 11
566.297889
 21
255.396069
 31
0.0
  0
ARC
  5
17F1
100
AcDbEntity
  8
VO-OBRYS
100
AcDbCircle
 10
480.135765
 20
89.373585
 30
0.0
 40
108.394313
100
AcDbArc
 50
153.381695
 51
206.618305
  0
ARC
  5
17F3
100
AcDbEntity
  8
VO-OBRYS
100
AcDbCircle
 10
479.530687
 20
89.373585
 30
0.0
 40
113.154875
100
AcDbArc
 50
152.355391
 51
207.644609
  0
ARC
  5
17F4
100
AcDbEntity
  8
VO-OBRYS
100
AcDbCircle
 10
458.707669
 20
70.5523
 30
0.0
 40
139.76988
100
AcDbArc
 50
58.377679
 51
121.622321
  0
ARC
  5
17F5
100
AcDbEntity
  8
VO-OBRYS
100
AcDbCircle
 10
458.707669
 20
70.793499
 30
0.0
 40
144.89432
100
AcDbArc
 50
57.827062
 51
122.172938
  0
ARC
  5
17F6
100
AcDbEntity
  8
VO-OBRYS
100
AcDbCircle
 10
458.707669
 20
71.727461
 30
0.0
 40
172.577098
100
AcDbArc
 50
55.519504
 51
124.480496
  0
ARC
  5
17F7
100
AcDbEntity
  8
VO-OBRYS
100
AcDbCircle
 10
458.707669
 20
71.856651
 30
0.0
 40
177.813547
100
AcDbArc
 50
55.176436
 51
124.823564
  0
LINE
  5
1807
100
AcDbEntity
  8
V0-OBRYS
100
AcDbLine
 10
-137.409862
 20
288.579345
 30
0.0
 11
-137.409862
 21
89.373585
 31
0.0
  0
LINE
  5
1808
100
AcDbEntity
  8
V0-OBRYS
100
AcDbLine
 10
-149.274182
 20
89.373585
 30
0.0
 11
-149.274182
 21
288.579345
 31
0.0
  0
LINE
  5
1809
100
AcDbEntity
  8
V0-OBRYS
100
AcDbLine
 10
-137.409862
 20
288.579345
 30
0.0
 11
-149.274182
 21
288.579345
 31
0.0
  0
LINE
  5
180C
100
AcDbEntity
  8
V0-OBRYS
100
AcDbLine
 10
-101.066102
 20
241.385185
 30
0.0
 11
-101.664102
 21
89.373585
 31
0.0
  0
LINE
  5
1811
100
AcDbEntity
  8
V0-OBRYS
100
AcDbLine
 10
-102.262102
 20
-63.236015
 30
0.0
 11
-101.664102
 21
89.373585
 31
0.0
  0
ARC
  5
1812
100
AcDbEntity
  8
V0-OBRYS
100
AcDbCircle
 10
475.769462
 20
89.373585
 30
0.0
 40
200.609508
100
AcDbArc
 50
143.916734
 51
216.083266
  0
LINE
  5
1813
100
AcDbEntity
  8
V0-OBRYS
100
AcDbLine
 10
-232.063782
 20
89.373585
 30
0.0
 11
-232.063782
 21
129.415665
 31
0.0
  0
ARC
  5
1825
100
AcDbEntity
  8
V0-OBRYS
  6
CONTINUOUS
100
AcDbCircle
 10
-227.614662
 20
129.415665
 30
0.0
 40
4.44912
100
AcDbArc
 50
90.0
 51
180.0
  0
LINE
  5
1835
100
AcDbEntity
  8
V0-OBRYS
  6
CONTINUOUS
100
AcDbLine
 10
275.381679
 20
289.407096
 30
0.0
 11
643.836628
 21
289.407096
 31
0.0
  0
LINE
  5
1836
100
AcDbEntity
  8
V0-OBRYS
  6
CONTINUOUS
100
AcDbLine
 10
658.74118
 20
274.502544
 30
0.0
 11
658.74118
 21
-95.755375
 31
0.0
  0
LINE
  5
1837
100
AcDbEntity
  8
V0-OBRYS
  6
CONTINUOUS
100
AcDbLine
 10
643.836628
 20
-110.659927
 30
0.0
 11
275.381679
 21
-110.659927
 31
0.0
  0
LINE
  5
1838
100
AcDbEntity
  8
V0-OBRYS
  6
CONTINUOUS
100
AcDbLine
 10
258.674157
 20
-95.755375
 30
0.0
 11
258.674157
 21
274.502544
 31
0.0
  0
ARC
  5
1839
100
AcDbEntity
  8
V0-OBRYS
  6
CONTINUOUS
100
AcDbCircle
 10
643.836628
 20
274.502544
 30
0.0
 40
14.904552
100
AcDbArc
 50
0.0
 51
90.0
  0
ARC
  5
183A
100
AcDbEntity
  8
V0-OBRYS
  6
CONTINUOUS
100
AcDbCircle
 10
643.836628
 20
-95.755375
 30
0.0
 40
14.904552
100
AcDbArc
 50
270.0
 51
0.0
  0
ARC
  5
183B
100
AcDbEntity
  8
V0-OBRYS
  6
CONTINUOUS
100
AcDbCircle
 10
275.130181
 20
-94.125276
 30
0.0
 40
16.536564
100
AcDbArc
 50
185.657144
 51
270.871423
  0
ARC
  5
183C
100
AcDbEntity
  8
V0-OBRYS
  6
CONTINUOUS
100
AcDbCircle
 10
275.130181
 20
272.872445
 30
0.0
 40
16.536564
100
AcDbArc
 50
89.128577
 51
174.342856
  0
DIMENSION
  5
1849
100
AcDbEntity
  8
V0-VYPLNE
  6
CONTINUOUS
 62
    41
100
AcDbDimension
  2
*D4
 10
-137.409862
 20
-191.551712
 30
0.0
 11
-24.967302
 21
-191.551712
 31
0.0
 70
   160
  3
ED20
100
AcDbAlignedDimension
 13
-102.262102
 23
-63.236015
 33
0.0
 14
-137.409862
 24
-109.832175
 34
0.0
100
AcDbRotatedDimension
  0
DIMENSION
  5
1856
100
AcDbEntity
  8
V0-VYPLNE
  6
CONTINUOUS
 62
    41
100
AcDbDimension
  2
*D5
 10
-137.409862
 20
-191.551712
 30
0.0
 11
-180.731462
 21
-191.551712
 31
0.0
 12
2.0
 22
0.0
 32
0.0
 70
   160
  3
ED20
100
AcDbAlignedDimension
 13
-232.063782
 23
89.373585
 33
0.0
 14
-137.409862
 24
-109.832175
 34
0.0
100
AcDbRotatedDimension
  0
DIMENSION
  5
1879
100
AcDbEntity
  8
V0-VYPLNE
  6
CONTINUOUS
 62
    41
100
AcDbDimension
  2
*D1
 10
52.21906
 20
-66.824015
 30
0.0
 11
52.21906
 21
89.373585
 31
0.0
 70
   160
  1
%%c<>
  3
ED20
100
AcDbAlignedDimension
 13
-137.409862
 23
244.071185
 33
0.0
 14
-137.409862
 24
-66.824015
 34
0.0
 50
270.0
100
AcDbRotatedDimension
  0
DIMENSION
  5
1886
100
AcDbEntity
  8
V0-VYPLNE
  6
CONTINUOUS
 62
    41
100
AcDbDimension
  2
*D2
 10
-4.632854
 20
-63.236015
 30
0.0
 11
-4.632854
 21
89.373585
 31
0.0
 70
   160
  1
%%c<>
  3
ED20
100
AcDbAlignedDimension
 13
-101.066102
 23
241.385185
 33
0.0
 14
-102.262102
 24
-63.236015
 34
0.0
 50
270.0
100
AcDbRotatedDimension
  0
DIMENSION
  5
1893
100
AcDbEntity
  8
V0-VYPLNE
  6
CONTINUOUS
 62
    41
100
AcDbDimension
  2
*D3
 10
258.674157
 20
-211.373113
 30
0.0
 11
458.471402
 21
-211.373113
 31
0.0
 70
   160
  3
ED20
100
AcDbAlignedDimension
 13
658.74118
 23
-95.755375
 33
0.0
 14
258.674157
 24
-95.755375
 34
0.0
100
AcDbRotatedDimension
  0
POINT
  5
18A1
100
AcDbEntity
  8
V0-VYPLNE
  6
CONTINUOUS
 62
    41
100
AcDbPoint
 10
-101.664102
 20
89.373585
 30
0.0
  0
LINE
  5
18D7
100
AcDbEntity
  8
V0-VYPLNE
  6
CONTINUOUS
 62
    41
100
AcDbLine
 10
-287.31642
 20
89.373585
 30
0.0
 11
-364.508872
 21
89.373585
 31
0.0
  0
LINE
  5
18D8
100
AcDbEntity
  8
V0-VYPLNE
  6
CONTINUOUS
 62
    41
100
AcDbLine
 10
-287.31642
 20
89.373585
 30
0.0
 11
-339.62658
 21
103.901611
 31
0.0
  0
LINE
  5
18D9
100
AcDbEntity
  8
V0-VYPLNE
  6
CONTINUOUS
 62
    41
100
AcDbLine
 10
-287.31642
 20
89.373585
 30
0.0
 11
-339.62658
 21
74.845559
 31
0.0
  0
LINE
  5
18DA
100
AcDbEntity
  8
V0-VYPLNE
  6
CONTINUOUS
 62
    41
100
AcDbLine
 10
-287.31642
 20
89.373585
 30
0.0
 11
-287.31642
 21
89.373585
 31
0.0
  0
TEXT
  5
18DD
100
AcDbEntity
  8
V0-VYPLNE
 62
     6
100
AcDbText
 10
-185.564995
 20
307.316615
 30
0.0
 40
30.0
  1
HXM-300
  7
ED30
100
AcDbText
  0
TEXT
  5
18DE
100
AcDbEntity
  8
V0-VYPLNE
 62
     6
100
AcDbText
 10
383.922551
 20
309.989705
 30
0.0
 40
30.0
  1
HXM-300
  7
ED30
100
AcDbText
  0
LINE
  5
1ADA
100
AcDbEntity
  8
V0-OBRYS
  6
CONTINUOUS
100
AcDbLine
 10
-197.953862
 20
133.864785
 30
0.0
 11
-197.953862
 21
89.373585
 31
0.0
  0
LINE
  5
1AE3
100
AcDbEntity
  8
V0-OBRYS
  6
CONTINUOUS
100
AcDbLine
 10
-197.953862
 20
133.864785
 30
0.0
 11
-227.614662
 21
133.864785
 31
0.0
  0
LINE
  5
1AE9
100
AcDbEntity
  8
V0-OBRYS
  6
CONTINUOUS
100
AcDbLine
 10
-149.274182
 20
141.279985
 30
0.0
 11
-166.642582
 21
141.279985
 31
0.0
  0
LINE
  5
1B1D
100
AcDbEntity
  8
VO-OBRYS
  6
CONTINUOUS
100
AcDbLine
 10
-149.495499
 20
281.299217
 30
0.0
 11
-151.812278
 21
276.981479
 31
0.0
  0
LINE
  5
1B24
100
AcDbEntity
  8
V0-OBRYS
  6
CONTINUOUS
100
AcDbLine
 10
-189.629702
 20
152.85218
 30
0.0
 11
-189.629702
 21
89.373585
 31
0.0
  0
LINE
  5
1B25
100
AcDbEntity
  8
V0-OBRYS
  6
CONTINUOUS
100
AcDbLine
 10
-191.854262
 20
152.85218
 30
0.0
 11
-191.854262
 21
89.373585
 31
0.0
  0
LINE
  5
1B2C
100
AcDbEntity
  8
VO-OBRYS
  6
CONTINUOUS
100
AcDbLine
 10
-175.540822
 20
89.373585
 30
0.0
 11
-175.540822
 21
211.381445
 31
0.0
  0
LINE
  5
1B2F
100
AcDbEntity
  8
VO-OBRYS
  6
CONTINUOUS
100
AcDbLine
 10
-174.057782
 20
89.373585
 30
0.0
 11
-174.057782
 21
211.381445
 31
0.0
  0
LINE
  5
1B30
100
AcDbEntity
  8
VO-OBRYS
  6
CONTINUOUS
100
AcDbLine
 10
-168.125622
 20
89.373585
 30
0.0
 11
-168.125622
 21
237.503038
 31
0.0
  0
LINE
  5
1B33
100
AcDbEntity
  8
VO-OBRYS
  6
CONTINUOUS
100
AcDbLine
 10
-166.642582
 20
89.373585
 30
0.0
 11
-166.642582
 21
237.503038
 31
0.0
  0
LINE
  5
1B34
100
AcDbEntity
  8
VO-OBRYS
  6
CONTINUOUS
100
AcDbLine
 10
-160.710422
 20
89.373585
 30
0.0
 11
-160.710422
 21
259.957681
 31
0.0
  0
LINE
  5
1B37
100
AcDbEntity
  8
VO-OBRYS
  6
CONTINUOUS
100
AcDbLine
 10
-159.227382
 20
89.373585
 30
0.0
 11
-159.227382
 21
259.957681
 31
0.0
  0
LINE
  5
1B38
100
AcDbEntity
  8
VO-OBRYS
  6
CONTINUOUS
100
AcDbLine
 10
-153.295222
 20
89.373585
 30
0.0
 11
-153.295222
 21
276.969544
 31
0.0
  0
LINE
  5
1B3B
100
AcDbEntity
  8
VO-OBRYS
  6
CONTINUOUS
100
AcDbLine
 10
-151.812182
 20
89.373585
 30
0.0
 11
-151.812182
 21
276.969544
 31
0.0
  0
ARC
  5
1B3D
100
AcDbEntity
  8
VO-OBRYS
  6
CONTINUOUS
100
AcDbCircle
 10
-159.968902
 20
259.957681
 30
0.0
 40
0.74152
100
AcDbArc
 50
0.0
 51
180.0
  0
ARC
  5
1B3E
100
AcDbEntity
  8
VO-OBRYS
  6
CONTINUOUS
100
AcDbCircle
 10
-167.384102
 20
237.503038
 30
0.0
 40
0.74152
100
AcDbArc
 50
0.0
 51
180.0
  0
ARC
  5
1B3F
100
AcDbEntity
  8
VO-OBRYS
  6
CONTINUOUS
100
AcDbCircle
 10
-174.799302
 20
211.381445
 30
0.0
 40
0.74152
100
AcDbArc
 50
0.0
 51
180.0
  0
LINE
  5
1B44
100
AcDbEntity
  8
VO-OBRYS
  6
CONTINUOUS
100
AcDbLine
 10
-182.956022
 20
89.373585
 30
0.0
 11
-182.956022
 21
186.035051
 31
0.0
  0
LINE
  5
1B45
100
AcDbEntity
  8
V0-VYPLNE
100
AcDbLine
 10
-182.956022
 20
89.373585
 30
0.0
 11
-345.588819
 21
89.373585
 31
0.0
  0
LINE
  5
1B47
100
AcDbEntity
  8
VO-OBRYS
  6
CONTINUOUS
100
AcDbLine
 10
-181.472982
 20
89.373585
 30
0.0
 11
-181.472982
 21
186.035051
 31
0.0
  0
ARC
  5
1B48
100
AcDbEntity
  8
VO-OBRYS
  6
CONTINUOUS
100
AcDbCircle
 10
-182.214502
 20
186.035051
 30
0.0
 40
0.74152
100
AcDbArc
 50
0.0
 51
180.0
  0
LINE
  5
1B51
100
AcDbEntity
  8
VO-OBRYS
  6
CONTINUOUS
100
AcDbLine
 10
-149.155234
 20
279.85574
 30
0.0
 11
-151.336973
 21
275.569834
 31
0.0
  0
LINE
  5
1B56
100
AcDbEntity
  8
VO-OBRYS
  6
CONTINUOUS
100
AcDbLine
 10
-153.295222
 20
275.312717
 30
0.0
 11
-159.227382
 21
258.082392
 31
0.0
  0
LINE
  5
1B57
100
AcDbEntity
  8
VO-OBRYS
  6
CONTINUOUS
100
AcDbLine
 10
-151.336973
 20
275.569834
 30
0.0
 11
-151.812182
 21
274.189561
 31
0.0
  0
LINE
  5
1B58
100
AcDbEntity
  8
VO-OBRYS
  6
CONTINUOUS
100
AcDbLine
 10
-168.125622
 20
231.320166
 30
0.0
 11
-174.057782
 21
210.422893
 31
0.0
  0
LINE
  5
1B59
100
AcDbEntity
  8
VO-OBRYS
  6
CONTINUOUS
100
AcDbLine
 10
-168.125622
 20
225.889429
 30
0.0
 11
-174.057782
 21
204.992155
 31
0.0
  0
LINE
  5
1B5A
100
AcDbEntity
  8
VO-OBRYS
  6
CONTINUOUS
100
AcDbLine
 10
-175.540822
 20
205.198574
 30
0.0
 11
-181.472982
 21
184.3013
 31
0.0
  0
LINE
  5
1B5B
100
AcDbEntity
  8
VO-OBRYS
  6
CONTINUOUS
100
AcDbLine
 10
-175.540822
 20
199.767836
 30
0.0
 11
-181.472982
 21
178.870563
 31
0.0
  0
LINE
  5
1B5C
100
AcDbEntity
  8
VO-OBRYS
  6
CONTINUOUS
100
AcDbLine
 10
-182.956022
 20
179.076982
 30
0.0
 11
-190.135788
 21
153.784755
 31
0.0
  0
LINE
  5
1B5D
100
AcDbEntity
  8
VO-OBRYS
  6
CONTINUOUS
100
AcDbLine
 10
-182.956022
 20
173.646244
 30
0.0
 11
-189.629702
 21
150.136811
 31
0.0
  0
ARC
  5
1B5E
100
AcDbEntity
  8
V0-OBRYS
  6
CONTINUOUS
100
AcDbCircle
 10
-190.741982
 20
152.85218
 30
0.0
 40
1.11228
100
AcDbArc
 50
0.0
 51
180.0
  0
LINE
  5
1B62
100
AcDbEntity
  8
V0-OBRYS
  6
CONTINUOUS
100
AcDbLine
 10
-168.125622
 20
141.279985
 30
0.0
 11
-174.057782
 21
141.279985
 31
0.0
  0
LINE
  5
1B63
100
AcDbEntity
  8
V0-OBRYS
  6
CONTINUOUS
100
AcDbLine
 10
-175.540822
 20
141.279985
 30
0.0
 11
-181.472982
 21
141.279985
 31
0.0
  0
LINE
  5
1B64
100
AcDbEntity
  8
V0-OBRYS
  6
CONTINUOUS
100
AcDbLine
 10
-182.956022
 20
141.279985
 30
0.0
 11
-189.629702
 21
141.279985
 31
0.0
  0
LINE
  5
1B65
100
AcDbEntity
  8
V0-OBRYS
  6
CONTINUOUS
100
AcDbLine
 10
-191.854262
 20
141.279985
 30
0.0
 11
-190.538662
 21
141.279985
 31
0.0
  0
LINE
  5
1B66
100
AcDbEntity
  8
VO-OBRYS
  6
CONTINUOUS
100
AcDbLine
 10
-220.866336
 20
134.488612
 30
0.0
 11
-220.866336
 21
89.459732
 31
0.0
  0
LINE
  5
1B67
100
AcDbEntity
  8
VO-OBRYS
  6
CONTINUOUS
100
AcDbLine
 10
-182.956022
 20
-0.329813
 30
0.0
 11
-190.135788
 21
24.962415
 31
0.0
  0
LINE
  5
1B68
100
AcDbEntity
  8
VO-OBRYS
  6
CONTINUOUS
100
AcDbLine
 10
-182.956022
 20
5.100925
 30
0.0
 11
-189.629702
 21
28.610358
 31
0.0
  0
LINE
  5
1B69
100
AcDbEntity
  8
VO-OBRYS
  6
CONTINUOUS
100
AcDbLine
 10
-181.472982
 20
89.373585
 30
0.0
 11
-181.472982
 21
-7.287882
 31
0.0
  0
LINE
  5
1B6A
100
AcDbEntity
  8
VO-OBRYS
  6
CONTINUOUS
100
AcDbLine
 10
-182.956022
 20
89.373585
 30
0.0
 11
-182.956022
 21
-7.287882
 31
0.0
  0
LINE
  5
1B6B
100
AcDbEntity
  8
VO-OBRYS
  6
CONTINUOUS
100
AcDbLine
 10
-174.057782
 20
89.373585
 30
0.0
 11
-174.057782
 21
-32.634276
 31
0.0
  0
LINE
  5
1B6C
100
AcDbEntity
  8
VO-OBRYS
  6
CONTINUOUS
100
AcDbLine
 10
-175.540822
 20
89.373585
 30
0.0
 11
-175.540822
 21
-32.634276
 31
0.0
  0
LINE
  5
1B6D
100
AcDbEntity
  8
VO-OBRYS
  6
CONTINUOUS
100
AcDbLine
 10
-166.642582
 20
89.373585
 30
0.0
 11
-166.642582
 21
-58.755868
 31
0.0
  0
LINE
  5
1B6E
100
AcDbEntity
  8
VO-OBRYS
  6
CONTINUOUS
100
AcDbLine
 10
-168.125622
 20
89.373585
 30
0.0
 11
-168.125622
 21
-58.755868
 31
0.0
  0
LINE
  5
1B6F
100
AcDbEntity
  8
VO-OBRYS
  6
CONTINUOUS
100
AcDbLine
 10
-159.227382
 20
89.373585
 30
0.0
 11
-159.227382
 21
-84.877461
 31
0.0
  0
LINE
  5
1B70
100
AcDbEntity
  8
VO-OBRYS
  6
CONTINUOUS
100
AcDbLine
 10
-160.710422
 20
89.373585
 30
0.0
 11
-160.710422
 21
-84.877461
 31
0.0
  0
LINE
  5
1B73
100
AcDbEntity
  8
V0-OBRYS
100
AcDbLine
 10
-149.274182
 20
89.373585
 30
0.0
 11
-149.274182
 21
-109.832175
 31
0.0
  0
LINE
  5
1B74
100
AcDbEntity
  8
V0-OBRYS
  6
CONTINUOUS
100
AcDbLine
 10
-175.540822
 20
37.467185
 30
0.0
 11
-181.472982
 21
37.467185
 31
0.0
  0
LINE
  5
1B75
100
AcDbEntity
  8
V0-OBRYS
  6
CONTINUOUS
100
AcDbLine
 10
-197.953862
 20
44.882385
 30
0.0
 11
-227.614662
 21
44.882385
 31
0.0
  0
LINE
  5
1B76
100
AcDbEntity
  8
VO-OBRYS
  6
CONTINUOUS
100
AcDbLine
 10
-220.866336
 20
44.258558
 30
0.0
 11
-220.866336
 21
89.287437
 31
0.0
  0
LINE
  5
1B77
100
AcDbEntity
  8
V0-OBRYS
100
AcDbLine
 10
-232.063782
 20
89.373585
 30
0.0
 11
-232.063782
 21
49.331505
 31
0.0
  0
ARC
  5
1B78
100
AcDbEntity
  8
V0-OBRYS
  6
CONTINUOUS
100
AcDbCircle
 10
-227.614662
 20
49.331505
 30
0.0
 40
4.44912
100
AcDbArc
 50
180.0
 51
270.0
  0
LINE
  5
1B79
100
AcDbEntity
  8
V0-OBRYS
  6
CONTINUOUS
100
AcDbLine
 10
-197.953862
 20
44.882385
 30
0.0
 11
-197.953862
 21
89.373585
 31
0.0
  0
LINE
  5
1B7B
100
AcDbEntity
  8
V0-OBRYS
  6
CONTINUOUS
100
AcDbLine
 10
-189.629702
 20
25.894989
 30
0.0
 11
-189.629702
 21
89.373585
 31
0.0
  0
LINE
  5
1B7C
100
AcDbEntity
  8
V0-OBRYS
  6
CONTINUOUS
100
AcDbLine
 10
-191.854262
 20
25.894989
 30
0.0
 11
-191.854262
 21
89.373585
 31
0.0
  0
LINE
  5
1B7D
100
AcDbEntity
  8
V0-OBRYS
  6
CONTINUOUS
100
AcDbLine
 10
-191.854262
 20
37.467185
 30
0.0
 11
-190.538662
 21
37.467185
 31
0.0
  0
LINE
  5
1B7F
100
AcDbEntity
  8
V0-OBRYS
  6
CONTINUOUS
100
AcDbLine
 10
-182.956022
 20
37.467185
 30
0.0
 11
-189.629702
 21
37.467185
 31
0.0
  0
ARC
  5
1B80
100
AcDbEntity
  8
V0-OBRYS
  6
CONTINUOUS
100
AcDbCircle
 10
-190.741982
 20
25.894989
 30
0.0
 40
1.11228
100
AcDbArc
 50
180.0
 51
0.0
  0
LINE
  5
1B83
100
AcDbEntity
  8
V0-OBRYS
  6
CONTINUOUS
100
AcDbLine
 10
-168.125622
 20
37.467185
 30
0.0
 11
-174.057782
 21
37.467185
 31
0.0
  0
LINE
  5
1B84
100
AcDbEntity
  8
V0-OBRYS
  6
CONTINUOUS
100
AcDbLine
 10
-160.710422
 20
37.467185
 30
0.0
 11
-166.642582
 21
37.467185
 31
0.0
  0
LINE
  5
1B86
100
AcDbEntity
  8
VO-OBRYS
  6
CONTINUOUS
100
AcDbLine
 10
-175.540822
 20
-21.020667
 30
0.0
 11
-181.472982
 21
-0.123393
 31
0.0
  0
LINE
  5
1B87
100
AcDbEntity
  8
VO-OBRYS
  6
CONTINUOUS
100
AcDbLine
 10
-175.540822
 20
-26.451405
 30
0.0
 11
-181.472982
 21
-5.554131
 31
0.0
  0
ARC
  5
1B88
100
AcDbEntity
  8
VO-OBRYS
  6
CONTINUOUS
100
AcDbCircle
 10
-182.214502
 20
-7.287882
 30
0.0
 40
0.74152
100
AcDbArc
 50
180.0
 51
0.0
  0
LINE
  5
1B8A
100
AcDbEntity
  8
VO-OBRYS
  6
CONTINUOUS
100
AcDbLine
 10
-168.125622
 20
-47.14226
 30
0.0
 11
-174.057782
 21
-26.244986
 31
0.0
  0
LINE
  5
1B8B
100
AcDbEntity
  8
VO-OBRYS
  6
CONTINUOUS
100
AcDbLine
 10
-160.710422
 20
-73.263852
 30
0.0
 11
-166.642582
 21
-52.366578
 31
0.0
  0
LINE
  5
1B8C
100
AcDbEntity
  8
VO-OBRYS
  6
CONTINUOUS
100
AcDbLine
 10
-168.125622
 20
-52.572997
 30
0.0
 11
-174.057782
 21
-31.675723
 31
0.0
  0
ARC
  5
1B8D
100
AcDbEntity
  8
VO-OBRYS
  6
CONTINUOUS
100
AcDbCircle
 10
-174.799302
 20
-32.634276
 30
0.0
 40
0.74152
100
AcDbArc
 50
180.0
 51
0.0
  0
LINE
  5
1B8E
100
AcDbEntity
  8
VO-OBRYS
  6
CONTINUOUS
100
AcDbLine
 10
-160.710422
 20
-78.69459
 30
0.0
 11
-166.642582
 21
-57.797316
 31
0.0
  0
ARC
  5
1B8F
100
AcDbEntity
  8
VO-OBRYS
  6
CONTINUOUS
100
AcDbCircle
 10
-167.384102
 20
-58.755868
 30
0.0
 40
0.74152
100
AcDbArc
 50
180.0
 51
0.0
  0
LINE
  5
1B90
100
AcDbEntity
  8
V0-OBRYS
100
AcDbLine
 10
-137.409862
 20
-109.832175
 30
0.0
 11
-149.274182
 21
-109.832175
 31
0.0
  0
LINE
  5
1B9A
100
AcDbEntity
  8
VO-OBRYS
  6
CONTINUOUS
100
AcDbLine
 10
-149.572133
 20
141.478764
 30
0.0
 11
-153.596278
 21
234.835367
 31
0.0
  0
LINE
  5
1B9B
100
AcDbEntity
  8
VO-OBRYS
  6
CONTINUOUS
100
AcDbLine
 10
-153.596278
 20
234.835367
 30
0.0
 11
-147.523837
 21
235.639452
 31
0.0
  0
LINE
  5
1BA0
100
AcDbEntity
  8
V0-VYPLNE
  6
DASHED
 62
    52
100
AcDbLine
 10
-147.523837
 20
235.639452
 30
0.0
 11
-133.84174
 21
235.639452
 31
0.0
  0
LINE
  5
1BA1
100
AcDbEntity
  8
V0-VYPLNE
  6
DASHED
 62
    52
100
AcDbLine
 10
-133.84174
 20
235.639452
 30
0.0
 11
-104.543341
 21
233.22719
 31
0.0
  0
LINE
  5
1BA2
100
AcDbEntity
  8
V0-VYPLNE
  6
DASHED
 62
    52
100
AcDbLine
 10
-104.543341
 20
233.22719
 30
0.0
 11
-110.177148
 21
141.319711
 31
0.0
  0
LINE
  5
1BA4
100
AcDbEntity
  8
V0-VYPLNE
  6
DASHED
 62
    52
100
AcDbLine
 10
-104.543341
 20
233.22719
 30
0.0
 11
-142.694864
 21
141.319715
 31
0.0
  0
LINE
  5
1BA6
100
AcDbEntity
  8
V0-VYPLNE
  6
DASHED
 62
    52
100
AcDbLine
 10
-133.84174
 20
-56.892282
 30
0.0
 11
-104.543341
 21
-54.480021
 31
0.0
  0
LINE
  5
1BA8
100
AcDbEntity
  8
V0-VYPLNE
  6
DASHED
 62
    52
100
AcDbLine
 10
-147.523837
 20
-56.892282
 30
0.0
 11
-133.84174
 21
-56.892282
 31
0.0
  0
LINE
  5
1BA9
100
AcDbEntity
  8
VO-OBRYS
  6
CONTINUOUS
100
AcDbLine
 10
-153.596278
 20
-56.088197
 30
0.0
 11
-147.523837
 21
-56.892282
 31
0.0
  0
LINE
  5
1BB3
100
AcDbEntity
  8
V0-VYPLNE
  6
DASHED
 62
    52
100
AcDbLine
 10
-147.419272
 20
-56.989151
 30
0.0
 11
-133.737179
 21
-56.979373
 31
0.0
  0
LINE
  5
1BB4
100
AcDbEntity
  8
VO-OBRYS
  6
CONTINUOUS
100
AcDbLine
 10
-153.492285
 20
-56.193695
 30
0.0
 11
-147.419272
 21
-56.989151
 31
0.0
  0
LINE
  5
1BB5
100
AcDbEntity
  8
V0-VYPLNE
  6
DASHED
 62
    52
100
AcDbLine
 10
-133.737179
 20
-56.979373
 30
0.0
 11
-104.440509
 21
-54.551583
 31
0.0
  0
LINE
  5
1BB7
100
AcDbEntity
  8
V0-VYPLNE
  6
DASHED
 62
    52
100
AcDbLine
 10
-105.344233
 20
133.904511
 30
0.0
 11
-105.344233
 21
89.372089
 31
0.0
  0
ARC
  5
1BB9
100
AcDbEntity
  8
V0-VYPLNE
  6
DASHED
 62
    52
100
AcDbCircle
 10
-112.759433
 20
133.904511
 30
0.0
 40
7.4152
100
AcDbArc
 50
0.0
 51
90.0
  0
ARC
  5
1BBC
100
AcDbEntity
  8
V0-OBRYS
  6
CONTINUOUS
100
AcDbCircle
 10
-190.538662
 20
133.864785
 30
0.0
 40
7.4152
100
AcDbArc
 50
90.0
 51
180.0
  0
LINE
  5
1BBE
100
AcDbEntity
  8
V0-VYPLNE
  6
DASHED
 62
    52
100
AcDbLine
 10
-112.759433
 20
141.319711
 30
0.0
 11
-149.274182
 21
141.319711
 31
0.0
  0
LINE
  5
1BBF
100
AcDbEntity
  8
V0-VYPLNE
  6
DASHED
 62
    52
100
AcDbLine
 10
-104.543341
 20
-54.480021
 30
0.0
 11
-110.177148
 21
37.427458
 31
0.0
  0
LINE
  5
1BC0
100
AcDbEntity
  8
V0-VYPLNE
  6
DASHED
 62
    52
100
AcDbLine
 10
-104.543341
 20
-54.480021
 30
0.0
 11
-142.694864
 21
37.427455
 31
0.0
  0
LINE
  5
1BC1
100
AcDbEntity
  8
V0-VYPLNE
  6
DASHED
 62
    52
100
AcDbLine
 10
-112.759433
 20
37.427458
 30
0.0
 11
-149.274182
 21
37.427458
 31
0.0
  0
LINE
  5
1BC2
100
AcDbEntity
  8
V0-VYPLNE
  6
DASHED
 62
    52
100
AcDbLine
 10
-105.344233
 20
44.842658
 30
0.0
 11
-105.344233
 21
89.37508
 31
0.0
  0
ARC
  5
1BC3
100
AcDbEntity
  8
V0-VYPLNE
  6
DASHED
 62
    52
100
AcDbCircle
 10
-112.759433
 20
44.842658
 30
0.0
 40
7.4152
100
AcDbArc
 50
270.0
 51
0.0
  0
LINE
  5
1BC4
100
AcDbEntity
  8
V0-VYPLNE
  6
DASHED
 62
    52
100
AcDbLine
 10
-147.523837
 20
-56.892282
 30
0.0
 11
-133.84174
 21
-56.892282
 31
0.0
  0
LINE
  5
1BC5
100
AcDbEntity
  8
V0-VYPLNE
  6
DASHED
 62
    52
100
AcDbLine
 10
-133.84174
 20
-56.892282
 30
0.0
 11
-104.543341
 21
-54.480021
 31
0.0
  0
LINE
  5
1BC6
100
AcDbEntity
  8
VO-OBRYS
  6
CONTINUOUS
100
AcDbLine
 10
-149.572133
 20
37.268406
 30
0.0
 11
-153.596278
 21
-56.088197
 31
0.0
  0
LINE
  5
1BC7
100
AcDbEntity
  8
VO-OBRYS
  6
CONTINUOUS
100
AcDbLine
 10
-153.596278
 20
-56.088197
 30
0.0
 11
-147.523837
 21
-56.892282
 31
0.0
  0
ARC
  5
1BC8
100
AcDbEntity
  8
V0-OBRYS
  6
CONTINUOUS
100
AcDbCircle
 10
-190.538662
 20
44.882385
 30
0.0
 40
7.4152
100
AcDbArc
 50
180.0
 51
270.0
  0
ARC
  5
1BC9
100
AcDbEntity
  8
VO-OBRYS
100
AcDbCircle
 10
476.353792
 20
89.373585
 30
0.0
 40
172.577098
100
AcDbArc
 50
145.519504
 51
214.480496
  0
ARC
  5
1BCA
100
AcDbEntity
  8
VO-OBRYS
100
AcDbCircle
 10
476.224602
 20
89.373585
 30
0.0
 40
177.813547
100
AcDbArc
 50
145.176436
 51
214.823564
  0
ARC
  5
1BCB
100
AcDbEntity
  8
VO-OBRYS
100
AcDbCircle
 10
477.528953
 20
89.373585
 30
0.0
 40
139.76988
100
AcDbArc
 50
148.377679
 51
211.622321
  0
ARC
  5
1BCC
100
AcDbEntity
  8
VO-OBRYS
100
AcDbCircle
 10
477.287754
 20
89.373585
 30
0.0
 40
144.89432
100
AcDbArc
 50
147.827062
 51
212.172938
  0
ARC
  5
1BCD
100
AcDbEntity
  8
VO-OBRYS
100
AcDbCircle
 10
454.458027
 20
85.123944
 30
0.0
 40
91.215858
100
AcDbArc
 50
330.932804
 51
119.067196
  0
ARC
  5
1BCE
100
AcDbEntity
  8
VO-OBRYS
100
AcDbCircle
 10
454.458027
 20
85.123944
 30
0.0
 40
96.581497
100
AcDbArc
 50
330.026114
 51
119.973886
  0
ARC
  5
1BCF
100
AcDbEntity
  8
VO-OBRYS
100
AcDbCircle
 10
440.127583
 20
89.373585
 30
0.0
 40
144.89432
100
AcDbArc
 50
327.827062
 51
32.172938
  0
ARC
  5
1BD0
100
AcDbEntity
  8
VO-OBRYS
100
AcDbCircle
 10
439.886384
 20
89.373585
 30
0.0
 40
139.76988
100
AcDbArc
 50
328.377679
 51
31.622321
  0
ARC
  5
1BD1
100
AcDbEntity
  8
VO-OBRYS
100
AcDbCircle
 10
441.061545
 20
89.373585
 30
0.0
 40
172.577098
100
AcDbArc
 50
325.519504
 51
34.480496
  0
ARC
  5
1BD2
100
AcDbEntity
  8
VO-OBRYS
100
AcDbCircle
 10
441.190735
 20
89.373585
 30
0.0
 40
177.813547
100
AcDbArc
 50
325.176436
 51
34.823564
  0
ARC
  5
1BD3
100
AcDbEntity
  8
VO-OBRYS
100
AcDbCircle
 10
458.707669
 20
106.890518
 30
0.0
 40
177.813547
100
AcDbArc
 50
235.176436
 51
304.823564
  0
ARC
  5
1BD4
100
AcDbEntity
  8
VO-OBRYS
100
AcDbCircle
 10
458.707669
 20
107.019708
 30
0.0
 40
172.577098
100
AcDbArc
 50
235.519504
 51
304.480496
  0
ARC
  5
1BD5
100
AcDbEntity
  8
VO-OBRYS
100
AcDbCircle
 10
458.707669
 20
107.95367
 30
0.0
 40
144.89432
100
AcDbArc
 50
237.827062
 51
302.172938
  0
ARC
  5
1BD6
100
AcDbEntity
  8
VO-OBRYS
100
AcDbCircle
 10
458.707669
 20
108.194869
 30
0.0
 40
139.76988
100
AcDbArc
 50
238.377679
 51
301.622321
  0
ARC
  5
1BD7
100
AcDbEntity
  8
VO-OBRYS
100
AcDbCircle
 10
458.707669
 20
110.196603
 30
0.0
 40
113.154875
100
AcDbArc
 50
242.355391
 51
297.644609
  0
ARC
  5
1BD8
100
AcDbEntity
  8
VO-OBRYS
100
AcDbCircle
 10
458.707669
 20
110.801681
 30
0.0
 40
108.394313
100
AcDbArc
 50
243.381695
 51
296.618305
  0
ARC
  5
1BD9
100
AcDbEntity
  8
V0-OBRYS
100
AcDbCircle
 10
458.707669
 20
72.219473
 30
0.0
 40
195.336187
100
AcDbArc
 50
54.17889
 51
125.82111
  0
ARC
  5
1BDA
100
AcDbEntity
  8
V0-OBRYS
100
AcDbCircle
 10
458.707669
 20
72.311791
 30
0.0
 40
200.609508
100
AcDbArc
 50
53.916734
 51
126.083266
  0
ARC
  5
1BDB
100
AcDbEntity
  8
V0-OBRYS
100
AcDbCircle
 10
441.553557
 20
89.373585
 30
0.0
 40
195.336187
100
AcDbArc
 50
324.17889
 51
35.82111
  0
ARC
  5
1BDC
100
AcDbEntity
  8
V0-OBRYS
100
AcDbCircle
 10
441.645875
 20
89.373585
 30
0.0
 40
200.609508
100
AcDbArc
 50
323.916734
 51
36.083266
  0
ARC
  5
1BDD
100
AcDbEntity
  8
V0-OBRYS
100
AcDbCircle
 10
458.707669
 20
106.527696
 30
0.0
 40
195.336187
100
AcDbArc
 50
234.17889
 51
305.82111
  0
ARC
  5
1BDE
100
AcDbEntity
  8
V0-OBRYS
100
AcDbCircle
 10
458.707669
 20
106.435378
 30
0.0
 40
200.609508
100
AcDbArc
 50
233.916734
 51
306.083266
  0
LINE
  5
1BDF
100
AcDbEntity
  8
V0-OBRYS
  6
CONTINUOUS
 62
    90
100
AcDbLine
 10
410.41692
 20
35.717197
 30
0.0
 11
506.998417
 21
35.717197
 31
0.0
  0
LINE
  5
1BE0
100
AcDbEntity
  8
V0-OBRYS
  6
CONTINUOUS
 62
    90
100
AcDbLine
 10
512.364056
 20
41.082836
 30
0.0
 11
512.364056
 21
137.664333
 31
0.0
  0
LINE
  5
1BE1
100
AcDbEntity
  8
V0-OBRYS
  6
CONTINUOUS
 62
    90
100
AcDbLine
 10
506.998417
 20
143.029972
 30
0.0
 11
410.41692
 21
143.029972
 31
0.0
  0
LINE
  5
1BE2
100
AcDbEntity
  8
V0-OBRYS
  6
CONTINUOUS
 62
    90
100
AcDbLine
 10
405.051281
 20
137.664333
 30
0.0
 11
405.051281
 21
41.082836
 31
0.0
  0
ARC
  5
1BE4
100
AcDbEntity
  8
V0-OBRYS
  6
CONTINUOUS
 62
    90
100
AcDbCircle
 10
410.41692
 20
137.664333
 30
0.0
 40
5.365639
100
AcDbArc
 50
90.0
 51
180.0
  0
ARC
  5
1BE5
100
AcDbEntity
  8
V0-OBRYS
  6
CONTINUOUS
 62
    90
100
AcDbCircle
 10
410.41692
 20
41.082836
 30
0.0
 40
5.365639
100
AcDbArc
 50
180.0
 51
270.0
  0
ARC
  5
1BE7
100
AcDbEntity
  8
V0-OBRYS
  6
CONTINUOUS
 62
    90
100
AcDbCircle
 10
506.998417
 20
41.082836
 30
0.0
 40
5.365639
100
AcDbArc
 50
270.0
 51
0.0
  0
ARC
  5
1BE8
100
AcDbEntity
  8
V0-OBRYS
  6
CONTINUOUS
 62
    90
100
AcDbCircle
 10
506.998417
 20
137.664333
 30
0.0
 40
5.365639
100
AcDbArc
 50
0.0
 51
90.0
  0
ARC
  5
1BE9
100
AcDbEntity
  8
V0-OBRYS
  6
CONTINUOUS
100
AcDbCircle
 10
458.707669
 20
89.373585
 30
0.0
 40
62.599118
100
AcDbArc
 50
58.997281
 51
121.002719
  0
ARC
  5
1BEA
100
AcDbEntity
  8
V0-OBRYS
  6
CONTINUOUS
100
AcDbCircle
 10
458.707669
 20
89.373585
 30
0.0
 40
62.599118
100
AcDbArc
 50
328.997281
 51
31.002719
  0
ARC
  5
1BEB
100
AcDbEntity
  8
V0-OBRYS
  6
CONTINUOUS
100
AcDbCircle
 10
458.707669
 20
89.373585
 30
0.0
 40
62.599118
100
AcDbArc
 50
238.997281
 51
301.002719
  0
LINE
  5
1BEC
100
AcDbEntity
  8
V0-OBRYS
  6
CONTINUOUS
 62
    90
100
AcDbLine
 10
416.737668
 20
257.400438
 30
0.0
 11
418.551288
 21
248.944681
 31
0.0
  0
ARC
  5
1BED
100
AcDbEntity
  8
V0-OBRYS
  6
CONTINUOUS
 62
    90
100
AcDbCircle
 10
458.707669
 20
89.373585
 30
0.0
 40
178.45828
100
AcDbArc
 50
77.75092
 51
102.24908
  0
LINE
  5
1BEE
100
AcDbEntity
  8
V0-OBRYS
  6
CONTINUOUS
 62
    90
100
AcDbLine
 10
500.677669
 20
257.400438
 30
0.0
 11
498.864049
 21
248.944681
 31
0.0
  0
ARC
  5
1BEF
100
AcDbEntity
  8
V0-OBRYS
  6
CONTINUOUS
 62
    90
100
AcDbCircle
 10
421.98399
 20
258.525687
 30
0.0
 40
5.365639
100
AcDbArc
 50
102.24908
 51
192.105591
  0
ARC
  5
1BF0
100
AcDbEntity
  8
V0-OBRYS
  6
CONTINUOUS
 62
    90
100
AcDbCircle
 10
495.431347
 20
258.525687
 30
0.0
 40
5.365639
100
AcDbArc
 50
347.894409
 51
77.75092
  0
LINE
  5
1BF1
100
AcDbEntity
  8
V0-OBRYS
  6
CONTINUOUS
 62
    90
100
AcDbLine
 10
483.468379
 20
177.164473
 30
0.0
 11
481.851897
 21
145.564834
 31
0.0
  0
LINE
  5
1BF2
100
AcDbEntity
  8
V0-OBRYS
  6
CONTINUOUS
 62
    90
100
AcDbLine
 10
490.605476
 20
210.440213
 30
0.0
 11
484.595782
 21
182.420837
 31
0.0
  0
LINE
  5
1BF3
100
AcDbEntity
  8
V0-OBRYS
  6
CONTINUOUS
 62
    90
100
AcDbLine
 10
497.738076
 20
243.694988
 30
0.0
 11
491.731884
 21
215.691939
 31
0.0
  0
LINE
  5
1BF4
100
AcDbEntity
  8
V0-OBRYS
  6
CONTINUOUS
 62
    90
100
AcDbLine
 10
419.677261
 20
243.694988
 30
0.0
 11
425.683453
 21
215.691939
 31
0.0
  0
LINE
  5
1BF5
100
AcDbEntity
  8
V0-OBRYS
  6
CONTINUOUS
 62
    90
100
AcDbLine
 10
426.809861
 20
210.440213
 30
0.0
 11
432.819555
 21
182.420837
 31
0.0
  0
LINE
  5
1BF6
100
AcDbEntity
  8
V0-OBRYS
  6
CONTINUOUS
 62
    90
100
AcDbLine
 10
433.946958
 20
177.164473
 30
0.0
 11
435.56344
 21
145.564834
 31
0.0
  0
LINE
  5
1BF7
100
AcDbEntity
  8
V0-OBRYS
  6
CONTINUOUS
 62
    90
100
AcDbLine
 10
370.91678
 20
64.612874
 30
0.0
 11
398.266778
 21
70.478998
 31
0.0
  0
LINE
  5
1BF8
100
AcDbEntity
  8
V0-OBRYS
  6
CONTINUOUS
 62
    90
100
AcDbLine
 10
370.91678
 20
114.134295
 30
0.0
 11
402.516419
 21
112.517813
 31
0.0
  0
ARC
  5
1BF9
100
AcDbEntity
  8
V0-OBRYS
  6
CONTINUOUS
 62
    90
100
AcDbCircle
 10
289.555566
 20
126.097263
 30
0.0
 40
5.365639
100
AcDbArc
 50
77.894409
 51
167.75092
  0
ARC
  5
1BFA
100
AcDbEntity
  8
V0-OBRYS
  6
CONTINUOUS
 62
    90
100
AcDbCircle
 10
458.707669
 20
89.373585
 30
0.0
 40
178.45828
100
AcDbArc
 50
167.75092
 51
192.24908
  0
LINE
  5
1BFB
100
AcDbEntity
  8
V0-OBRYS
  6
CONTINUOUS
 62
    90
100
AcDbLine
 10
304.386265
 20
50.343177
 30
0.0
 11
332.389314
 21
56.349369
 31
0.0
  0
LINE
  5
1BFC
100
AcDbEntity
  8
V0-OBRYS
  6
CONTINUOUS
 62
    90
100
AcDbLine
 10
337.641041
 20
57.475777
 30
0.0
 11
365.660416
 21
63.485471
 31
0.0
  0
LINE
  5
1BFD
100
AcDbEntity
  8
V0-OBRYS
  6
CONTINUOUS
 62
    90
100
AcDbLine
 10
290.680815
 20
47.403584
 30
0.0
 11
299.136572
 21
49.217204
 31
0.0
  0
ARC
  5
1BFE
100
AcDbEntity
  8
V0-OBRYS
  6
CONTINUOUS
 62
    90
100
AcDbCircle
 10
289.555566
 20
52.649906
 30
0.0
 40
5.365639
100
AcDbArc
 50
192.24908
 51
282.105591
  0
LINE
  5
1BFF
100
AcDbEntity
  8
V0-OBRYS
  6
CONTINUOUS
 62
    90
100
AcDbLine
 10
304.386265
 20
128.403992
 30
0.0
 11
332.389314
 21
122.397801
 31
0.0
  0
LINE
  5
1C00
100
AcDbEntity
  8
V0-OBRYS
  6
CONTINUOUS
 62
    90
100
AcDbLine
 10
337.641041
 20
121.271392
 30
0.0
 11
365.660416
 21
115.261698
 31
0.0
  0
LINE
  5
1C01
100
AcDbEntity
  8
V0-OBRYS
  6
CONTINUOUS
 62
    90
100
AcDbLine
 10
290.680815
 20
131.343585
 30
0.0
 11
299.136572
 21
129.529965
 31
0.0
  0
LINE
  5
1C02
100
AcDbEntity
  8
V0-OBRYS
  6
CONTINUOUS
 62
    90
100
AcDbLine
 10
483.468379
 20
1.582697
 30
0.0
 11
477.602256
 21
28.932694
 31
0.0
  0
LINE
  5
1C03
100
AcDbEntity
  8
V0-OBRYS
  6
CONTINUOUS
 62
    90
100
AcDbLine
 10
433.946958
 20
1.582697
 30
0.0
 11
439.813082
 21
28.932694
 31
0.0
  0
ARC
  5
1C04
100
AcDbEntity
  8
V0-OBRYS
  6
CONTINUOUS
 62
    90
100
AcDbCircle
 10
421.98399
 20
-79.778518
 30
0.0
 40
5.365639
100
AcDbArc
 50
167.894409
 51
257.75092
  0
ARC
  5
1C05
100
AcDbEntity
  8
V0-OBRYS
  6
CONTINUOUS
 62
    90
100
AcDbCircle
 10
458.707669
 20
89.373585
 30
0.0
 40
178.45828
100
AcDbArc
 50
257.75092
 51
282.24908
  0
LINE
  5
1C06
100
AcDbEntity
  8
V0-OBRYS
  6
CONTINUOUS
 62
    90
100
AcDbLine
 10
497.738076
 20
-64.947819
 30
0.0
 11
491.731884
 21
-36.94477
 31
0.0
  0
LINE
  5
1C07
100
AcDbEntity
  8
V0-OBRYS
  6
CONTINUOUS
 62
    90
100
AcDbLine
 10
490.605476
 20
-31.693043
 30
0.0
 11
484.595782
 21
-3.673668
 31
0.0
  0
LINE
  5
1C08
100
AcDbEntity
  8
V0-OBRYS
  6
CONTINUOUS
 62
    90
100
AcDbLine
 10
500.677669
 20
-78.653269
 30
0.0
 11
498.864049
 21
-70.197512
 31
0.0
  0
ARC
  5
1C09
100
AcDbEntity
  8
V0-OBRYS
  6
CONTINUOUS
 62
    90
100
AcDbCircle
 10
495.431347
 20
-79.778518
 30
0.0
 40
5.365639
100
AcDbArc
 50
282.24908
 51
12.105591
  0
LINE
  5
1C0A
100
AcDbEntity
  8
V0-OBRYS
  6
CONTINUOUS
 62
    90
100
AcDbLine
 10
419.677261
 20
-64.947819
 30
0.0
 11
425.683453
 21
-36.94477
 31
0.0
  0
LINE
  5
1C0B
100
AcDbEntity
  8
V0-OBRYS
  6
CONTINUOUS
 62
    90
100
AcDbLine
 10
426.809861
 20
-31.693043
 30
0.0
 11
432.819555
 21
-3.673668
 31
0.0
  0
LINE
  5
1C0C
100
AcDbEntity
  8
V0-OBRYS
  6
CONTINUOUS
 62
    90
100
AcDbLine
 10
416.737668
 20
-78.653269
 30
0.0
 11
418.551288
 21
-70.197512
 31
0.0
  0
LINE
  5
1C0D
100
AcDbEntity
  8
V0-OBRYS
  6
CONTINUOUS
 62
    90
100
AcDbLine
 10
546.498557
 20
114.134295
 30
0.0
 11
519.148559
 21
108.268172
 31
0.0
  0
LINE
  5
1C0E
100
AcDbEntity
  8
V0-OBRYS
  6
CONTINUOUS
 62
    90
100
AcDbLine
 10
546.498557
 20
64.612874
 30
0.0
 11
519.148559
 21
70.478998
 31
0.0
  0
ARC
  5
1C0F
100
AcDbEntity
  8
V0-OBRYS
  6
CONTINUOUS
 62
    90
100
AcDbCircle
 10
627.859771
 20
52.649906
 30
0.0
 40
5.365639
100
AcDbArc
 50
257.894409
 51
347.75092
  0
ARC
  5
1C10
100
AcDbEntity
  8
V0-OBRYS
  6
CONTINUOUS
 62
    90
100
AcDbCircle
 10
458.707669
 20
89.373585
 30
0.0
 40
178.45828
100
AcDbArc
 50
347.75092
 51
12.24908
  0
LINE
  5
1C11
100
AcDbEntity
  8
V0-OBRYS
  6
CONTINUOUS
 62
    90
100
AcDbLine
 10
613.029072
 20
128.403992
 30
0.0
 11
585.026023
 21
122.397801
 31
0.0
  0
LINE
  5
1C12
100
AcDbEntity
  8
V0-OBRYS
  6
CONTINUOUS
 62
    90
100
AcDbLine
 10
579.774296
 20
121.271392
 30
0.0
 11
551.754921
 21
115.261698
 31
0.0
  0
LINE
  5
1C13
100
AcDbEntity
  8
V0-OBRYS
  6
CONTINUOUS
 62
    90
100
AcDbLine
 10
626.734522
 20
131.343585
 30
0.0
 11
618.278765
 21
129.529965
 31
0.0
  0
ARC
  5
1C14
100
AcDbEntity
  8
V0-OBRYS
  6
CONTINUOUS
 62
    90
100
AcDbCircle
 10
627.859771
 20
126.097263
 30
0.0
 40
5.365639
100
AcDbArc
 50
12.24908
 51
102.105591
  0
LINE
  5
1C15
100
AcDbEntity
  8
V0-OBRYS
  6
CONTINUOUS
 62
    90
100
AcDbLine
 10
613.029072
 20
50.343177
 30
0.0
 11
585.026023
 21
56.349369
 31
0.0
  0
LINE
  5
1C16
100
AcDbEntity
  8
V0-OBRYS
  6
CONTINUOUS
 62
    90
100
AcDbLine
 10
579.774296
 20
57.475777
 30
0.0
 11
551.754921
 21
63.485471
 31
0.0
  0
LINE
  5
1C17
100
AcDbEntity
  8
V0-OBRYS
  6
CONTINUOUS
 62
    90
100
AcDbLine
 10
626.734522
 20
47.403584
 30
0.0
 11
618.278765
 21
49.217204
 31
0.0
  0
ARC
  5
1C92
100
AcDbEntity
  8
V0-VYPLNE
100
AcDbCircle
 10
501.034087
 20
117.635884
 30
0.0
 40
290.351947
100
AcDbArc
 50
219.282107
 51
228.164578
  0
CIRCLE
  5
1C93
100
AcDbEntity
  8
V0-OBRYS
  6
CONTINUOUS
 62
    90
100
AcDbCircle
 10
290.517141
 20
-80.619913
 30
0.0
 40
6.707048
  0
ARC
  5
1C94
100
AcDbEntity
  8
V0-VYPLNE
100
AcDbCircle
 10
391.829222
 20
121.995333
 30
0.0
 40
309.359639
100
AcDbArc
 50
315.841754
 51
324.446889
  0
CIRCLE
  5
1C95
100
AcDbEntity
  8
V0-OBRYS
  6
CONTINUOUS
 62
    90
100
AcDbCircle
 10
626.898196
 20
-80.619913
 30
0.0
 40
6.707048
  0
DIMENSION
  5
1CA4
100
AcDbEntity
  8
V0-VYPLNE
  6
CONTINUOUS
 62
    41
100
AcDbDimension
  2
*D6
 10
626.898196
 20
-163.240996
 30
0.0
 11
458.707669
 21
-151.240996
 31
0.0
 70
    32
  3
ED20
100
AcDbAlignedDimension
 13
290.517141
 23
-80.619913
 33
0.0
 14
626.898196
 24
-80.619913
 34
0.0
100
AcDbRotatedDimension
  0
CIRCLE
  5
1CB2
100
AcDbEntity
  8
V0-OBRYS
  6
CONTINUOUS
 62
    90
100
AcDbCircle
 10
418.465378
 20
129.615875
 30
0.0
 40
3.577092
  0
CIRCLE
  5
1CB3
100
AcDbEntity
  8
V0-OBRYS
  6
CONTINUOUS
 62
    90
100
AcDbCircle
 10
418.465378
 20
49.131294
 30
0.0
 40
3.577092
  0
CIRCLE
  5
1CB4
100
AcDbEntity
  8
V0-OBRYS
  6
CONTINUOUS
 62
    90
100
AcDbCircle
 10
498.949959
 20
49.131294
 30
0.0
 40
3.577092
  0
CIRCLE
  5
1CB5
100
AcDbEntity
  8
V0-OBRYS
  6
CONTINUOUS
 62
    90
100
AcDbCircle
 10
498.949959
 20
129.615875
 30
0.0
 40
3.577092
  0
POINT
  5
1CB6
100
AcDbEntity
  8
V0-VYPLNE
  6
CONTINUOUS
 62
    41
100
AcDbPoint
 10
458.707669
 20
89.373585
 30
0.0
  0
TEXT
  5
1D2A
100
AcDbEntity
  8
V0-VYPLNE
 62
     6
100
AcDbText
 10
-187.051117
 20
-272.038965
 30
0.0
 40
30.0
  1
HXM-300
  7
ED30
100
AcDbText
  0
LINE
  5
1D9C
100
AcDbEntity
  8
V0-VYPLNE
100
AcDbLine
 10
-67.469186
 20
89.373585
 30
0.0
 11
-151.812182
 21
89.373585
 31
0.0
  0
ARC
  5
1E4E
100
AcDbEntity
  8
V0-OBRYS
  6
CONTINUOUS
 62
    90
100
AcDbCircle
 10
-106.945438
 20
426.33413
 30
0.0
 40
185.045951
100
AcDbArc
 50
262.060017
 51
271.820721
  0
ARC
  5
1E52
100
AcDbEntity
  8
V0-OBRYS
  6
CONTINUOUS
 62
    90
100
AcDbCircle
 10
-131.429862
 20
248.944367
 30
0.0
 40
5.98
100
AcDbArc
 50
180.0
 51
259.624089
  0
ARC
  5
1E53
100
AcDbEntity
  8
V0-OBRYS
  6
CONTINUOUS
 62
    90
100
AcDbCircle
 10
-98.093055
 20
-249.015276
 30
0.0
 40
186.404555
100
AcDbArc
 50
90.913878
 51
100.638925
  0
ARC
  5
1E54
100
AcDbEntity
  8
V0-OBRYS
  6
CONTINUOUS
 62
    90
100
AcDbCircle
 10
-131.429862
 20
-71.697198
 30
0.0
 40
5.98
100
AcDbArc
 50
100.375911
 51
180.0
  0
LINE
  5
1E56
100
AcDbEntity
  8
V0-OBRYS
100
AcDbLine
 10
-137.406958
 20
-109.829595
 30
0.0
 11
-137.409862
 21
89.376165
 31
0.0
  0
ARC
  5
1F73
100
AcDbEntity
  8
VO-OBRYS
  6
CONTINUOUS
100
AcDbCircle
 10
-152.553702
 20
276.969544
 30
0.0
 40
0.74152
100
AcDbArc
 50
0.0
 51
180.0
  0
LINE
  5
1F77
100
AcDbEntity
  8
VO-OBRYS
  6
CONTINUOUS
100
AcDbLine
 10
-153.295222
 20
269.881979
 30
0.0
 11
-159.227382
 21
252.651654
 31
0.0
  0
LINE
  5
1F78
100
AcDbEntity
  8
VO-OBRYS
  6
CONTINUOUS
100
AcDbLine
 10
-160.710422
 20
253.77481
 30
0.0
 11
-166.642582
 21
236.544485
 31
0.0
  0
LINE
  5
1F79
100
AcDbEntity
  8
VO-OBRYS
  6
CONTINUOUS
100
AcDbLine
 10
-160.710422
 20
248.344073
 30
0.0
 11
-166.642582
 21
231.113747
 31
0.0
  0
LINE
  5
1F7F
100
AcDbEntity
  8
VO-OBRYS
  6
CONTINUOUS
100
AcDbLine
 10
-151.812182
 20
89.373585
 30
0.0
 11
-151.812182
 21
-98.222374
 31
0.0
  0
LINE
  5
1F80
100
AcDbEntity
  8
VO-OBRYS
  6
CONTINUOUS
100
AcDbLine
 10
-153.295222
 20
89.373585
 30
0.0
 11
-153.295222
 21
-98.222374
 31
0.0
  0
LINE
  5
1F81
100
AcDbEntity
  8
VO-OBRYS
  6
CONTINUOUS
100
AcDbLine
 10
-153.295222
 20
-91.13481
 30
0.0
 11
-159.227382
 21
-73.904485
 31
0.0
  0
LINE
  5
1F82
100
AcDbEntity
  8
VO-OBRYS
  6
CONTINUOUS
100
AcDbLine
 10
-153.295222
 20
-96.565548
 30
0.0
 11
-159.227382
 21
-79.335222
 31
0.0
  0
LINE
  5
1F83
100
AcDbEntity
  8
VO-OBRYS
  6
CONTINUOUS
100
AcDbLine
 10
-149.155234
 20
-101.10857
 30
0.0
 11
-151.336973
 21
-96.822665
 31
0.0
  0
LINE
  5
1F84
100
AcDbEntity
  8
VO-OBRYS
  6
CONTINUOUS
100
AcDbLine
 10
-149.495499
 20
-102.552048
 30
0.0
 11
-151.812278
 21
-98.23431
 31
0.0
  0
LINE
  5
1F85
100
AcDbEntity
  8
VO-OBRYS
  6
CONTINUOUS
100
AcDbLine
 10
-151.336973
 20
-96.822665
 30
0.0
 11
-151.812182
 21
-95.442391
 31
0.0
  0
ARC
  5
1F86
100
AcDbEntity
  8
VO-OBRYS
  6
CONTINUOUS
100
AcDbCircle
 10
-152.553702
 20
-98.222374
 30
0.0
 40
0.74152
100
AcDbArc
 50
180.0
 51
0.0
  0
LINE
  5
1F87
100
AcDbEntity
  8
V0-OBRYS
  6
CONTINUOUS
100
AcDbLine
 10
-149.274182
 20
37.467185
 30
0.0
 11
-166.642582
 21
37.467185
 31
0.0
  0
CIRCLE
  5
2024
100
AcDbEntity
  8
V0-OBRYS
  6
CONTINUOUS
 62
    90
100
AcDbCircle
 10
595.514021
 20
226.179937
 30
0.0
 40
4.80792
  0
ARC
  5
2025
100
AcDbEntity
  8
VO-OBRYS
  6
CONTINUOUS
100
AcDbCircle
 10
595.514021
 20
226.179937
 30
0.0
 40
19.029747
100
AcDbArc
 50
315.0
 51
135.0
  0
LINE
  5
2026
100
AcDbEntity
  8
V0-VYPLNE
100
AcDbLine
 10
350.806741
 20
255.085361
 30
0.0
 11
292.685184
 21
196.963805
 31
0.0
  0
ARC
  5
2027
100
AcDbEntity
  8
VO-OBRYS
  6
CONTINUOUS
100
AcDbCircle
 10
321.901316
 20
226.179937
 30
0.0
 40
19.029747
100
AcDbArc
 50
45.0
 51
225.0
  0
CIRCLE
  5
2028
100
AcDbEntity
  8
V0-OBRYS
  6
CONTINUOUS
 62
    90
100
AcDbCircle
 10
321.901316
 20
226.179937
 30
0.0
 40
4.80792
  0
LINE
  5
2029
100
AcDbEntity
  8
V0-VYPLNE
100
AcDbLine
 10
292.995892
 20
-18.527343
 30
0.0
 11
351.117448
 21
-76.6489
 31
0.0
  0
ARC
  5
202A
100
AcDbEntity
  8
VO-OBRYS
  6
CONTINUOUS
100
AcDbCircle
 10
321.901316
 20
-47.432768
 30
0.0
 40
19.029747
100
AcDbArc
 50
135.0
 51
315.0
  0
CIRCLE
  5
202B
100
AcDbEntity
  8
V0-OBRYS
  6
CONTINUOUS
 62
    90
100
AcDbCircle
 10
321.901316
 20
-47.432768
 30
0.0
 40
4.80792
  0
LINE
  5
202C
100
AcDbEntity
  8
V0-VYPLNE
100
AcDbLine
 10
566.608597
 20
-76.338192
 30
0.0
 11
624.730153
 21
-18.216636
 31
0.0
  0
ARC
  5
202D
100
AcDbEntity
  8
VO-OBRYS
  6
CONTINUOUS
100
AcDbCircle
 10
595.514021
 20
-47.432768
 30
0.0
 40
19.029747
100
AcDbArc
 50
225.0
 51
45.0
  0
CIRCLE
  5
202E
100
AcDbEntity
  8
V0-OBRYS
  6
CONTINUOUS
 62
    90
100
AcDbCircle
 10
595.514021
 20
-47.432768
 30
0.0
 40
4.80792
  0
MTEXT
  5
2046
100
AcDbEntity
  8
V0-OBRYS
  6
CONTINUOUS
 62
    41
100
AcDbMText
 10
240.924717
 20
-121.39368
 30
0.0
 40
23.92
 41
0.0
 71
     6
 72
     1
  1
4 OTVORY %%c10,5
  7
ED20
  0
LINE
  5
2091
100
AcDbEntity
  8
V0-VYPLNE
  6
DASHED
 62
    52
100
AcDbLine
 10
-148.200825
 20
76.017913
 30
0.0
 11
-114.97578
 21
98.7636
 31
0.0
  0
ARC
  5
20ED
100
AcDbEntity
  8
V0-VYPLNE
100
AcDbCircle
 10
500.218202
 20
59.481025
 30
0.0
 40
290.351947
100
AcDbArc
 50
131.835422
 51
140.717893
  0
CIRCLE
  5
20EE
100
AcDbEntity
  8
V0-OBRYS
  6
CONTINUOUS
 62
    90
100
AcDbCircle
 10
290.517141
 20
259.367082
 30
0.0
 40
6.707048
  0
CIRCLE
  5
20EF
100
AcDbEntity
  8
V0-OBRYS
  6
CONTINUOUS
 62
    90
100
AcDbCircle
 10
626.898196
 20
259.367082
 30
0.0
 40
6.707048
  0
ARC
  5
20F0
100
AcDbEntity
  8
V0-VYPLNE
100
AcDbCircle
 10
391.829219
 20
60.012364
 30
0.0
 40
309.359639
100
AcDbArc
 50
35.553111
 51
44.158246
  0
LINE
  5
20F1
100
AcDbEntity
  8
V0-VYPLNE
  6
DASHED
 62
    52
100
AcDbLine
 10
-104.543341
 20
-352.474284
 30
0.0
 11
-142.694864
 21
-444.38176
 31
0.0
  0
LINE
  5
20F2
100
AcDbEntity
  8
V0-OBRYS
100
AcDbLine
 10
-149.274182
 20
-496.32789
 30
0.0
 11
-149.274182
 21
-297.12213
 31
0.0
  0
LINE
  5
20F3
100
AcDbEntity
  8
V0-OBRYS
100
AcDbLine
 10
-137.409862
 20
-297.12213
 30
0.0
 11
-137.409862
 21
-496.32789
 31
0.0
  0
LINE
  5
20F4
100
AcDbEntity
  8
VO-OBRYS
  6
CONTINUOUS
100
AcDbLine
 10
-149.572133
 20
-444.222711
 30
0.0
 11
-153.596278
 21
-350.866108
 31
0.0
  0
LINE
  5
20F5
100
AcDbEntity
  8
VO-OBRYS
  6
CONTINUOUS
100
AcDbLine
 10
-182.956022
 20
-412.055231
 30
0.0
 11
-189.629702
 21
-435.564664
 31
0.0
  0
LINE
  5
20F6
100
AcDbEntity
  8
VO-OBRYS
  6
CONTINUOUS
100
AcDbLine
 10
-181.472982
 20
-496.32789
 30
0.0
 11
-181.472982
 21
-399.666423
 31
0.0
  0
LINE
  5
20F7
100
AcDbEntity
  8
VO-OBRYS
  6
CONTINUOUS
100
AcDbLine
 10
-182.956022
 20
-496.32789
 30
0.0
 11
-182.956022
 21
-399.666423
 31
0.0
  0
LINE
  5
20F8
100
AcDbEntity
  8
VO-OBRYS
  6
CONTINUOUS
100
AcDbLine
 10
-151.812182
 20
-496.32789
 30
0.0
 11
-151.812182
 21
-308.731931
 31
0.0
  0
LINE
  5
20F9
100
AcDbEntity
  8
VO-OBRYS
  6
CONTINUOUS
100
AcDbLine
 10
-153.295222
 20
-496.32789
 30
0.0
 11
-153.295222
 21
-308.731931
 31
0.0
  0
LINE
  5
20FA
100
AcDbEntity
  8
VO-OBRYS
  6
CONTINUOUS
100
AcDbLine
 10
-159.227382
 20
-496.32789
 30
0.0
 11
-159.227382
 21
-325.743793
 31
0.0
  0
LINE
  5
20FB
100
AcDbEntity
  8
VO-OBRYS
  6
CONTINUOUS
100
AcDbLine
 10
-160.710422
 20
-496.32789
 30
0.0
 11
-160.710422
 21
-325.743793
 31
0.0
  0
LINE
  5
20FC
100
AcDbEntity
  8
VO-OBRYS
  6
CONTINUOUS
100
AcDbLine
 10
-166.642582
 20
-496.32789
 30
0.0
 11
-166.642582
 21
-348.198437
 31
0.0
  0
LINE
  5
20FD
100
AcDbEntity
  8
VO-OBRYS
  6
CONTINUOUS
100
AcDbLine
 10
-168.125622
 20
-496.32789
 30
0.0
 11
-168.125622
 21
-348.198437
 31
0.0
  0
LINE
  5
20FE
100
AcDbEntity
  8
VO-OBRYS
  6
CONTINUOUS
100
AcDbLine
 10
-174.057782
 20
-496.32789
 30
0.0
 11
-174.057782
 21
-374.320029
 31
0.0
  0
LINE
  5
20FF
100
AcDbEntity
  8
VO-OBRYS
  6
CONTINUOUS
100
AcDbLine
 10
-175.540822
 20
-496.32789
 30
0.0
 11
-175.540822
 21
-374.320029
 31
0.0
  0
LINE
  5
2100
100
AcDbEntity
  8
V0-OBRYS
  6
CONTINUOUS
100
AcDbLine
 10
-191.854262
 20
-432.849295
 30
0.0
 11
-191.854262
 21
-496.32789
 31
0.0
  0
LINE
  5
2101
100
AcDbEntity
  8
V0-OBRYS
  6
CONTINUOUS
100
AcDbLine
 10
-189.629702
 20
-432.849295
 30
0.0
 11
-189.629702
 21
-496.32789
 31
0.0
  0
LINE
  5
2102
100
AcDbEntity
  8
V0-OBRYS
100
AcDbLine
 10
-101.066102
 20
-344.31629
 30
0.0
 11
-101.664102
 21
-496.32789
 31
0.0
  0
LINE
  5
2103
100
AcDbEntity
  8
V0-VYPLNE
  6
DASHED
 62
    52
100
AcDbLine
 10
-104.543341
 20
-352.474284
 30
0.0
 11
-110.177148
 21
-444.381764
 31
0.0
  0
LINE
  5
2104
100
AcDbEntity
  8
V0-OBRYS
  6
CONTINUOUS
100
AcDbLine
 10
-197.953862
 20
-451.83669
 30
0.0
 11
-227.614662
 21
-451.83669
 31
0.0
  0
LINE
  5
2105
100
AcDbEntity
  8
V0-OBRYS
  6
CONTINUOUS
100
AcDbLine
 10
-197.953862
 20
-540.81909
 30
0.0
 11
-227.614662
 21
-540.81909
 31
0.0
  0
LINE
  5
2106
100
AcDbEntity
  8
V0-OBRYS
100
AcDbLine
 10
-232.063782
 20
-496.32789
 30
0.0
 11
-232.063782
 21
-536.36997
 31
0.0
  0
LINE
  5
2107
100
AcDbEntity
  8
VO-OBRYS
  6
CONTINUOUS
100
AcDbLine
 10
-220.866336
 20
-541.442917
 30
0.0
 11
-220.866336
 21
-496.414038
 31
0.0
  0
ARC
  5
2108
100
AcDbEntity
  8
V0-OBRYS
  6
CONTINUOUS
100
AcDbCircle
 10
-227.614662
 20
-536.36997
 30
0.0
 40
4.44912
100
AcDbArc
 50
180.0
 51
270.0
  0
LINE
  5
2109
100
AcDbEntity
  8
VO-OBRYS
  6
CONTINUOUS
100
AcDbLine
 10
-220.866336
 20
-451.212863
 30
0.0
 11
-220.866336
 21
-496.241743
 31
0.0
  0
LINE
  5
210A
100
AcDbEntity
  8
V0-OBRYS
100
AcDbLine
 10
-232.063782
 20
-496.32789
 30
0.0
 11
-232.063782
 21
-456.28581
 31
0.0
  0
ARC
  5
210B
100
AcDbEntity
  8
V0-OBRYS
  6
CONTINUOUS
100
AcDbCircle
 10
-227.614662
 20
-456.28581
 30
0.0
 40
4.44912
100
AcDbArc
 50
90.0
 51
180.0
  0
LINE
  5
210C
100
AcDbEntity
  8
V0-OBRYS
100
AcDbLine
 10
-137.406958
 20
-695.53107
 30
0.0
 11
-137.409862
 21
-496.32531
 31
0.0
  0
LINE
  5
210D
100
AcDbEntity
  8
V0-VYPLNE
  6
DASHED
 62
    52
100
AcDbLine
 10
-104.543341
 20
-640.181496
 30
0.0
 11
-142.694864
 21
-548.27402
 31
0.0
  0
LINE
  5
210E
100
AcDbEntity
  8
V0-OBRYS
100
AcDbLine
 10
-149.274182
 20
-496.32789
 30
0.0
 11
-149.274182
 21
-695.53365
 31
0.0
  0
LINE
  5
210F
100
AcDbEntity
  8
VO-OBRYS
  6
CONTINUOUS
100
AcDbLine
 10
-149.572133
 20
-548.433069
 30
0.0
 11
-153.596278
 21
-641.789672
 31
0.0
  0
LINE
  5
2110
100
AcDbEntity
  8
VO-OBRYS
  6
CONTINUOUS
100
AcDbLine
 10
-153.295222
 20
-496.32789
 30
0.0
 11
-153.295222
 21
-683.923849
 31
0.0
  0
LINE
  5
2111
100
AcDbEntity
  8
VO-OBRYS
  6
CONTINUOUS
100
AcDbLine
 10
-151.812182
 20
-496.32789
 30
0.0
 11
-151.812182
 21
-683.923849
 31
0.0
  0
LINE
  5
2112
100
AcDbEntity
  8
VO-OBRYS
  6
CONTINUOUS
100
AcDbLine
 10
-160.710422
 20
-496.32789
 30
0.0
 11
-160.710422
 21
-670.578935
 31
0.0
  0
LINE
  5
2113
100
AcDbEntity
  8
VO-OBRYS
  6
CONTINUOUS
100
AcDbLine
 10
-159.227382
 20
-496.32789
 30
0.0
 11
-159.227382
 21
-670.578935
 31
0.0
  0
LINE
  5
2114
100
AcDbEntity
  8
VO-OBRYS
  6
CONTINUOUS
100
AcDbLine
 10
-168.125622
 20
-496.32789
 30
0.0
 11
-168.125622
 21
-644.457343
 31
0.0
  0
LINE
  5
2115
100
AcDbEntity
  8
VO-OBRYS
  6
CONTINUOUS
100
AcDbLine
 10
-166.642582
 20
-496.32789
 30
0.0
 11
-166.642582
 21
-644.457343
 31
0.0
  0
LINE
  5
2116
100
AcDbEntity
  8
VO-OBRYS
  6
CONTINUOUS
100
AcDbLine
 10
-175.540822
 20
-496.32789
 30
0.0
 11
-175.540822
 21
-618.335751
 31
0.0
  0
LINE
  5
2117
100
AcDbEntity
  8
VO-OBRYS
  6
CONTINUOUS
100
AcDbLine
 10
-174.057782
 20
-496.32789
 30
0.0
 11
-174.057782
 21
-618.335751
 31
0.0
  0
LINE
  5
2118
100
AcDbEntity
  8
VO-OBRYS
  6
CONTINUOUS
100
AcDbLine
 10
-182.956022
 20
-496.32789
 30
0.0
 11
-182.956022
 21
-592.989357
 31
0.0
  0
LINE
  5
2119
100
AcDbEntity
  8
VO-OBRYS
  6
CONTINUOUS
100
AcDbLine
 10
-181.472982
 20
-496.32789
 30
0.0
 11
-181.472982
 21
-592.989357
 31
0.0
  0
LINE
  5
211A
100
AcDbEntity
  8
VO-OBRYS
  6
CONTINUOUS
100
AcDbLine
 10
-182.956022
 20
-580.60055
 30
0.0
 11
-189.629702
 21
-557.091116
 31
0.0
  0
LINE
  5
211B
100
AcDbEntity
  8
VO-OBRYS
  6
CONTINUOUS
100
AcDbLine
 10
-182.956022
 20
-586.031287
 30
0.0
 11
-190.135788
 21
-560.73906
 31
0.0
  0
LINE
  5
211C
100
AcDbEntity
  8
V0-OBRYS
100
AcDbLine
 10
-102.262102
 20
-648.93749
 30
0.0
 11
-101.664102
 21
-496.32789
 31
0.0
  0
LINE
  5
211D
100
AcDbEntity
  8
V0-VYPLNE
  6
DASHED
 62
    52
100
AcDbLine
 10
-104.543341
 20
-640.181496
 30
0.0
 11
-110.177148
 21
-548.274017
 31
0.0
  0
ARC
  5
211E
100
AcDbEntity
  8
V0-OBRYS
  6
CONTINUOUS
 62
    90
100
AcDbCircle
 10
-98.093055
 20
-834.716751
 30
0.0
 40
186.404555
100
AcDbArc
 50
90.913878
 51
100.638925
  0
LINE
  5
211F
100
AcDbEntity
  8
V0-VYPLNE
  6
DASHED
 62
    52
100
AcDbLine
 10
-133.84174
 20
-642.593757
 30
0.0
 11
-104.543341
 21
-640.181496
 31
0.0
  0
LINE
  5
2120
100
AcDbEntity
  8
V0-VYPLNE
  6
DASHED
 62
    52
100
AcDbLine
 10
-133.737179
 20
-642.680848
 30
0.0
 11
-104.440509
 21
-640.253058
 31
0.0
  0
LINE
  5
2121
100
AcDbEntity
  8
V0-VYPLNE
  6
DASHED
 62
    52
100
AcDbLine
 10
-133.84174
 20
-642.593757
 30
0.0
 11
-104.543341
 21
-640.181496
 31
0.0
  0
LINE
  5
2122
100
AcDbEntity
  8
VO-OBRYS
  6
CONTINUOUS
100
AcDbLine
 10
-160.710422
 20
-664.396064
 30
0.0
 11
-166.642582
 21
-643.49879
 31
0.0
  0
LINE
  5
2123
100
AcDbEntity
  8
VO-OBRYS
  6
CONTINUOUS
100
AcDbLine
 10
-160.710422
 20
-658.965327
 30
0.0
 11
-166.642582
 21
-638.068053
 31
0.0
  0
LINE
  5
2124
100
AcDbEntity
  8
VO-OBRYS
  6
CONTINUOUS
100
AcDbLine
 10
-153.295222
 20
-682.267022
 30
0.0
 11
-159.227382
 21
-665.036697
 31
0.0
  0
LINE
  5
2125
100
AcDbEntity
  8
VO-OBRYS
  6
CONTINUOUS
100
AcDbLine
 10
-153.295222
 20
-676.836285
 30
0.0
 11
-159.227382
 21
-659.605959
 31
0.0
  0
ARC
  5
2126
100
AcDbEntity
  8
VO-OBRYS
  6
CONTINUOUS
100
AcDbCircle
 10
-167.384102
 20
-644.457343
 30
0.0
 40
0.74152
100
AcDbArc
 50
180.0
 51
0.0
  0
LINE
  5
2127
100
AcDbEntity
  8
V0-OBRYS
100
AcDbLine
 10
-137.409862
 20
-695.53365
 30
0.0
 11
-149.274182
 21
-695.53365
 31
0.0
  0
LINE
  5
2128
100
AcDbEntity
  8
VO-OBRYS
  6
CONTINUOUS
100
AcDbLine
 10
-149.495499
 20
-688.253523
 30
0.0
 11
-151.812278
 21
-683.935785
 31
0.0
  0
LINE
  5
2129
100
AcDbEntity
  8
VO-OBRYS
  6
CONTINUOUS
100
AcDbLine
 10
-149.155234
 20
-686.810045
 30
0.0
 11
-151.336973
 21
-682.52414
 31
0.0
  0
ARC
  5
212A
100
AcDbEntity
  8
VO-OBRYS
  6
CONTINUOUS
100
AcDbCircle
 10
-152.553702
 20
-683.923849
 30
0.0
 40
0.74152
100
AcDbArc
 50
180.0
 51
0.0
  0
LINE
  5
212B
100
AcDbEntity
  8
VO-OBRYS
  6
CONTINUOUS
100
AcDbLine
 10
-151.336973
 20
-682.52414
 30
0.0
 11
-151.812182
 21
-681.143866
 31
0.0
  0
ARC
  5
212C
100
AcDbEntity
  8
V0-OBRYS
  6
CONTINUOUS
 62
    90
100
AcDbCircle
 10
-131.429862
 20
-657.398673
 30
0.0
 40
5.98
100
AcDbArc
 50
100.375911
 51
180.0
  0
LINE
  5
212D
100
AcDbEntity
  8
VO-OBRYS
  6
CONTINUOUS
100
AcDbLine
 10
-175.540822
 20
-612.15288
 30
0.0
 11
-181.472982
 21
-591.255606
 31
0.0
  0
LINE
  5
212E
100
AcDbEntity
  8
VO-OBRYS
  6
CONTINUOUS
100
AcDbLine
 10
-168.125622
 20
-638.274472
 30
0.0
 11
-174.057782
 21
-617.377198
 31
0.0
  0
LINE
  5
212F
100
AcDbEntity
  8
VO-OBRYS
  6
CONTINUOUS
100
AcDbLine
 10
-168.125622
 20
-632.843734
 30
0.0
 11
-174.057782
 21
-611.94646
 31
0.0
  0
ARC
  5
2130
100
AcDbEntity
  8
VO-OBRYS
  6
CONTINUOUS
100
AcDbCircle
 10
-174.799302
 20
-618.335751
 30
0.0
 40
0.74152
100
AcDbArc
 50
180.0
 51
0.0
  0
LINE
  5
2131
100
AcDbEntity
  8
VO-OBRYS
  6
CONTINUOUS
100
AcDbLine
 10
-175.540822
 20
-606.722142
 30
0.0
 11
-181.472982
 21
-585.824868
 31
0.0
  0
ARC
  5
2132
100
AcDbEntity
  8
VO-OBRYS
  6
CONTINUOUS
100
AcDbCircle
 10
-182.214502
 20
-592.989357
 30
0.0
 40
0.74152
100
AcDbArc
 50
180.0
 51
0.0
  0
LINE
  5
2133
100
AcDbEntity
  8
V0-VYPLNE
  6
DASHED
 62
    52
100
AcDbLine
 10
-147.523837
 20
-642.593757
 30
0.0
 11
-133.84174
 21
-642.593757
 31
0.0
  0
LINE
  5
2134
100
AcDbEntity
  8
V0-VYPLNE
  6
DASHED
 62
    52
100
AcDbLine
 10
-147.419272
 20
-642.690626
 30
0.0
 11
-133.737179
 21
-642.680848
 31
0.0
  0
LINE
  5
2135
100
AcDbEntity
  8
V0-VYPLNE
  6
DASHED
 62
    52
100
AcDbLine
 10
-147.523837
 20
-642.593757
 30
0.0
 11
-133.84174
 21
-642.593757
 31
0.0
  0
LINE
  5
2136
100
AcDbEntity
  8
VO-OBRYS
  6
CONTINUOUS
100
AcDbLine
 10
-153.596278
 20
-641.789672
 30
0.0
 11
-147.523837
 21
-642.593757
 31
0.0
  0
LINE
  5
2137
100
AcDbEntity
  8
VO-OBRYS
  6
CONTINUOUS
100
AcDbLine
 10
-153.492285
 20
-641.895169
 30
0.0
 11
-147.419272
 21
-642.690626
 31
0.0
  0
LINE
  5
2138
100
AcDbEntity
  8
VO-OBRYS
  6
CONTINUOUS
100
AcDbLine
 10
-153.596278
 20
-641.789672
 30
0.0
 11
-147.523837
 21
-642.593757
 31
0.0
  0
POINT
  5
2139
100
AcDbEntity
  8
V0-VYPLNE
  6
CONTINUOUS
 62
    41
100
AcDbPoint
 10
-101.664102
 20
-496.32789
 30
0.0
  0
ARC
  5
213A
100
AcDbEntity
  8
V0-VYPLNE
  6
DASHED
 62
    52
100
AcDbCircle
 10
-112.759433
 20
-451.796964
 30
0.0
 40
7.4152
100
AcDbArc
 50
0.0
 51
90.0
  0
ARC
  5
213B
100
AcDbEntity
  8
V0-VYPLNE
  6
DASHED
 62
    52
100
AcDbCircle
 10
-112.759433
 20
-540.858817
 30
0.0
 40
7.4152
100
AcDbArc
 50
270.0
 51
0.0
  0
LINE
  5
213C
100
AcDbEntity
  8
V0-OBRYS
  6
CONTINUOUS
100
AcDbLine
 10
-191.854262
 20
-559.806485
 30
0.0
 11
-191.854262
 21
-496.32789
 31
0.0
  0
LINE
  5
213D
100
AcDbEntity
  8
V0-OBRYS
  6
CONTINUOUS
100
AcDbLine
 10
-189.629702
 20
-559.806485
 30
0.0
 11
-189.629702
 21
-496.32789
 31
0.0
  0
LINE
  5
213E
100
AcDbEntity
  8
V0-VYPLNE
  6
DASHED
 62
    52
100
AcDbLine
 10
-148.200825
 20
-509.683561
 30
0.0
 11
-114.97578
 21
-486.937874
 31
0.0
  0
LINE
  5
213F
100
AcDbEntity
  8
V0-OBRYS
  6
CONTINUOUS
100
AcDbLine
 10
-197.953862
 20
-540.81909
 30
0.0
 11
-197.953862
 21
-496.32789
 31
0.0
  0
LINE
  5
2140
100
AcDbEntity
  8
V0-OBRYS
  6
CONTINUOUS
100
AcDbLine
 10
-149.274182
 20
-548.23429
 30
0.0
 11
-166.642582
 21
-548.23429
 31
0.0
  0
LINE
  5
2141
100
AcDbEntity
  8
V0-OBRYS
  6
CONTINUOUS
100
AcDbLine
 10
-182.956022
 20
-548.23429
 30
0.0
 11
-189.629702
 21
-548.23429
 31
0.0
  0
ARC
  5
2142
100
AcDbEntity
  8
V0-OBRYS
  6
CONTINUOUS
100
AcDbCircle
 10
-190.741982
 20
-559.806485
 30
0.0
 40
1.11228
100
AcDbArc
 50
180.0
 51
0.0
  0
ARC
  5
2143
100
AcDbEntity
  8
V0-OBRYS
  6
CONTINUOUS
100
AcDbCircle
 10
-190.538662
 20
-540.81909
 30
0.0
 40
7.4152
100
AcDbArc
 50
180.0
 51
270.0
  0
LINE
  5
2144
100
AcDbEntity
  8
V0-OBRYS
  6
CONTINUOUS
100
AcDbLine
 10
-191.854262
 20
-548.23429
 30
0.0
 11
-190.538662
 21
-548.23429
 31
0.0
  0
LINE
  5
2145
100
AcDbEntity
  8
V0-OBRYS
  6
CONTINUOUS
100
AcDbLine
 10
-168.125622
 20
-548.23429
 30
0.0
 11
-174.057782
 21
-548.23429
 31
0.0
  0
LINE
  5
2146
100
AcDbEntity
  8
V0-OBRYS
  6
CONTINUOUS
100
AcDbLine
 10
-175.540822
 20
-548.23429
 30
0.0
 11
-181.472982
 21
-548.23429
 31
0.0
  0
LINE
  5
2147
100
AcDbEntity
  8
V0-OBRYS
  6
CONTINUOUS
100
AcDbLine
 10
-160.710422
 20
-548.23429
 30
0.0
 11
-166.642582
 21
-548.23429
 31
0.0
  0
LINE
  5
2148
100
AcDbEntity
  8
V0-VYPLNE
  6
DASHED
 62
    52
100
AcDbLine
 10
-112.759433
 20
-548.274017
 30
0.0
 11
-149.274182
 21
-548.274017
 31
0.0
  0
LINE
  5
2149
100
AcDbEntity
  8
V0-OBRYS
  6
CONTINUOUS
100
AcDbLine
 10
-149.274182
 20
-444.42149
 30
0.0
 11
-166.642582
 21
-444.42149
 31
0.0
  0
LINE
  5
214A
100
AcDbEntity
  8
V0-OBRYS
  6
CONTINUOUS
100
AcDbLine
 10
-197.953862
 20
-451.83669
 30
0.0
 11
-197.953862
 21
-496.32789
 31
0.0
  0
LINE
  5
214B
100
AcDbEntity
  8
V0-OBRYS
  6
CONTINUOUS
100
AcDbLine
 10
-182.956022
 20
-444.42149
 30
0.0
 11
-189.629702
 21
-444.42149
 31
0.0
  0
ARC
  5
214C
100
AcDbEntity
  8
V0-OBRYS
  6
CONTINUOUS
100
AcDbCircle
 10
-190.538662
 20
-451.83669
 30
0.0
 40
7.4152
100
AcDbArc
 50
90.0
 51
180.0
  0
LINE
  5
214D
100
AcDbEntity
  8
V0-OBRYS
  6
CONTINUOUS
100
AcDbLine
 10
-191.854262
 20
-444.42149
 30
0.0
 11
-190.538662
 21
-444.42149
 31
0.0
  0
LINE
  5
214E
100
AcDbEntity
  8
V0-OBRYS
  6
CONTINUOUS
100
AcDbLine
 10
-168.125622
 20
-444.42149
 30
0.0
 11
-174.057782
 21
-444.42149
 31
0.0
  0
LINE
  5
214F
100
AcDbEntity
  8
V0-OBRYS
  6
CONTINUOUS
100
AcDbLine
 10
-175.540822
 20
-444.42149
 30
0.0
 11
-181.472982
 21
-444.42149
 31
0.0
  0
LINE
  5
2150
100
AcDbEntity
  8
V0-VYPLNE
  6
DASHED
 62
    52
100
AcDbLine
 10
-112.759433
 20
-444.381764
 30
0.0
 11
-149.274182
 21
-444.381764
 31
0.0
  0
LINE
  5
2151
100
AcDbEntity
  8
V0-VYPLNE
  6
DASHED
 62
    52
100
AcDbLine
 10
-105.344233
 20
-540.858817
 30
0.0
 11
-105.344233
 21
-496.326394
 31
0.0
  0
LINE
  5
2152
100
AcDbEntity
  8
V0-VYPLNE
  6
DASHED
 62
    52
100
AcDbLine
 10
-105.344233
 20
-451.796964
 30
0.0
 11
-105.344233
 21
-496.329386
 31
0.0
  0
ARC
  5
2153
100
AcDbEntity
  8
V0-OBRYS
  6
CONTINUOUS
 62
    90
100
AcDbCircle
 10
-98.093055
 20
-157.939029
 30
0.0
 40
186.404555
100
AcDbArc
 50
259.361075
 51
269.086122
  0
LINE
  5
2154
100
AcDbEntity
  8
V0-VYPLNE
  6
DASHED
 62
    52
100
AcDbLine
 10
-133.84174
 20
-350.062023
 30
0.0
 11
-104.543341
 21
-352.474284
 31
0.0
  0
LINE
  5
2155
100
AcDbEntity
  8
VO-OBRYS
  6
CONTINUOUS
100
AcDbLine
 10
-168.125622
 20
-359.812046
 30
0.0
 11
-174.057782
 21
-380.70932
 31
0.0
  0
LINE
  5
2156
100
AcDbEntity
  8
VO-OBRYS
  6
CONTINUOUS
100
AcDbLine
 10
-168.125622
 20
-354.381308
 30
0.0
 11
-174.057782
 21
-375.278582
 31
0.0
  0
LINE
  5
2157
100
AcDbEntity
  8
VO-OBRYS
  6
CONTINUOUS
100
AcDbLine
 10
-175.540822
 20
-385.933638
 30
0.0
 11
-181.472982
 21
-406.830912
 31
0.0
  0
LINE
  5
2158
100
AcDbEntity
  8
VO-OBRYS
  6
CONTINUOUS
100
AcDbLine
 10
-175.540822
 20
-380.502901
 30
0.0
 11
-181.472982
 21
-401.400174
 31
0.0
  0
LINE
  5
2159
100
AcDbEntity
  8
VO-OBRYS
  6
CONTINUOUS
100
AcDbLine
 10
-182.956022
 20
-406.624493
 30
0.0
 11
-190.135788
 21
-431.91672
 31
0.0
  0
ARC
  5
215A
100
AcDbEntity
  8
V0-OBRYS
  6
CONTINUOUS
100
AcDbCircle
 10
-190.741982
 20
-432.849295
 30
0.0
 40
1.11228
100
AcDbArc
 50
0.0
 51
180.0
  0
ARC
  5
215B
100
AcDbEntity
  8
VO-OBRYS
  6
CONTINUOUS
100
AcDbCircle
 10
-182.214502
 20
-399.666423
 30
0.0
 40
0.74152
100
AcDbArc
 50
0.0
 51
180.0
  0
ARC
  5
215C
100
AcDbEntity
  8
VO-OBRYS
  6
CONTINUOUS
100
AcDbCircle
 10
-174.799302
 20
-374.320029
 30
0.0
 40
0.74152
100
AcDbArc
 50
0.0
 51
180.0
  0
LINE
  5
215D
100
AcDbEntity
  8
VO-OBRYS
  6
CONTINUOUS
100
AcDbLine
 10
-153.295222
 20
-315.819495
 30
0.0
 11
-159.227382
 21
-333.049821
 31
0.0
  0
LINE
  5
215E
100
AcDbEntity
  8
VO-OBRYS
  6
CONTINUOUS
100
AcDbLine
 10
-153.295222
 20
-310.388758
 30
0.0
 11
-159.227382
 21
-327.619083
 31
0.0
  0
LINE
  5
215F
100
AcDbEntity
  8
VO-OBRYS
  6
CONTINUOUS
100
AcDbLine
 10
-160.710422
 20
-337.357402
 30
0.0
 11
-166.642582
 21
-354.587727
 31
0.0
  0
LINE
  5
2160
100
AcDbEntity
  8
VO-OBRYS
  6
CONTINUOUS
100
AcDbLine
 10
-160.710422
 20
-331.926664
 30
0.0
 11
-166.642582
 21
-349.15699
 31
0.0
  0
ARC
  5
2161
100
AcDbEntity
  8
VO-OBRYS
  6
CONTINUOUS
100
AcDbCircle
 10
-167.384102
 20
-348.198437
 30
0.0
 40
0.74152
100
AcDbArc
 50
0.0
 51
180.0
  0
ARC
  5
2162
100
AcDbEntity
  8
VO-OBRYS
  6
CONTINUOUS
100
AcDbCircle
 10
-159.968902
 20
-325.743793
 30
0.0
 40
0.74152
100
AcDbArc
 50
0.0
 51
180.0
  0
ARC
  5
2163
100
AcDbEntity
  8
V0-OBRYS
  6
CONTINUOUS
 62
    90
100
AcDbCircle
 10
-131.429862
 20
-335.257107
 30
0.0
 40
5.98
100
AcDbArc
 50
180.0
 51
259.624089
  0
LINE
  5
2164
100
AcDbEntity
  8
V0-VYPLNE
  6
DASHED
 62
    52
100
AcDbLine
 10
-147.523837
 20
-350.062023
 30
0.0
 11
-133.84174
 21
-350.062023
 31
0.0
  0
LINE
  5
2165
100
AcDbEntity
  8
VO-OBRYS
  6
CONTINUOUS
100
AcDbLine
 10
-153.596278
 20
-350.866108
 30
0.0
 11
-147.523837
 21
-350.062023
 31
0.0
  0
LINE
  5
2166
100
AcDbEntity
  8
VO-OBRYS
  6
CONTINUOUS
100
AcDbLine
 10
-151.336973
 20
-310.131641
 30
0.0
 11
-151.812182
 21
-311.511914
 31
0.0
  0
LINE
  5
2167
100
AcDbEntity
  8
V0-OBRYS
100
AcDbLine
 10
-137.409862
 20
-297.12213
 30
0.0
 11
-149.274182
 21
-297.12213
 31
0.0
  0
LINE
  5
2168
100
AcDbEntity
  8
VO-OBRYS
  6
CONTINUOUS
100
AcDbLine
 10
-149.155234
 20
-305.845735
 30
0.0
 11
-151.336973
 21
-310.131641
 31
0.0
  0
LINE
  5
2169
100
AcDbEntity
  8
VO-OBRYS
  6
CONTINUOUS
100
AcDbLine
 10
-149.495499
 20
-304.402257
 30
0.0
 11
-151.812278
 21
-308.719995
 31
0.0
  0
ARC
  5
216A
100
AcDbEntity
  8
VO-OBRYS
  6
CONTINUOUS
100
AcDbCircle
 10
-152.553702
 20
-308.731931
 30
0.0
 40
0.74152
100
AcDbArc
 50
0.0
 51
180.0
  0
LINE
  5
216B
100
AcDbEntity
  8
V0-VYPLNE
100
AcDbLine
 10
-182.956022
 20
-496.32789
 30
0.0
 11
-345.588819
 21
-496.32789
 31
0.0
  0
INSERT
  5
2171
100
AcDbEntity
  8
V0-OBRYS
  6
CONTINUOUS
 62
    41
100
AcDbBlockReference
  2
_OPEN
 10
286.626741
 20
-85.916626
 30
0.0
 41
20.0
 42
20.0
 43
20.0
 50
46.772776
  0
LWPOLYLINE
  5
2172
100
AcDbEntity
  8
V0-OBRYS
  6
CONTINUOUS
 62
    41
100
AcDbPolyline
 90
        3
 70
     0
 43
0.0
 10
272.928873
 20
-100.489491
 10
240.158033
 20
-135.35368
 10
27.477517
 20
-135.35368
  0
VIEWPORT
  5
22
100
AcDbEntity
 67
     1
  8
0
100
AcDbViewport
 10
261.517699
 20
148.5
 30
0.0
 40
523.035398
 41
297.0
 68
    -1
 69
     1
1001
ACAD
1000
MVIEW
1002
{
1070
    16
1010
0.0
1020
0.0
1030
0.0
1010
0.0
1020
0.0
1030
1.0
1040
0.0
1040
297.0
1040
261.517699
1040
148.5
1040
50.0
1040
0.0
1040
0.0
1070
     0
1070
   100
1070
     1
1070
     1
1070
     0
1070
     0
1070
     0
1070
     0
1040
0.0
1040
0.0
1040
0.0
1040
1.0
1040
1.0
1040
10.0
1040
10.0
1070
     0
1002
{
1002
}
1002
}
  0
ENDSEC
  0
SECTION
  2
OBJECTS
  0
DICTIONARY
  5
C
100
AcDbDictionary
  3
ACAD_GROUP
350
D
  3
ACAD_MLINESTYLE
350
E
  3
ACDBVARIABLEDICTIONARY
350
5D
  0
DICTIONARY
  5
D
102
{ACAD_REACTORS
330
C
102
}
100
AcDbDictionary
  0
DICTIONARY
  5
E
102
{ACAD_REACTORS
330
C
102
}
100
AcDbDictionary
  3
STANDARD
350
13
  0
DICTIONARY
  5
5D
102
{ACAD_REACTORS
330
C
102
}
100
AcDbDictionary
  3
DIMADEC
350
5E
  3
SORTENTS
350
3D8
  0
MLINESTYLE
  5
13
102
{ACAD_REACTORS
330
E
102
}
100
AcDbMlineStyle
  2
STANDARD
 70
     0
  3

 62
     0
 51
90.0
 52
90.0
 71
     2
 49
0.5
 62
   256
  6
BYLAYER
 49
-0.5
 62
   256
  6
BYLAYER
  0
DICTIONARYVAR
  5
5E
102
{ACAD_REACTORS
330
5D
102
}
100
DictionaryVariables
280
     0
  1
0
  0
DICTIONARYVAR
  5
3D8
102
{ACAD_REACTORS
330
5D
102
}
100
DictionaryVariables
280
     0
  1
96
  0
ENDSEC
  0
EOF
