  0
SECTION
  2
HEADER
  9
$ACADVER
  1
AC1014
  9
$ACADMAINTVER
 70
     0
  9
$DWGCODEPAGE
  3
ANSI_1250
  9
$INSBASE
 10
0.0
 20
0.0
 30
0.0
  9
$EXTMIN
 10
-321.433977
 20
-577.038101
 30
0.0
  9
$EXTMAX
 10
535.862292
 20
320.263255
 30
0.0
  9
$LIMMIN
 10
0.0
 20
0.0
  9
$LIMMAX
 10
420.0
 20
297.0
  9
$ORTHOMODE
 70
     0
  9
$REGENMODE
 70
     1
  9
$FILLMODE
 70
     1
  9
$QTEXTMODE
 70
     0
  9
$MIRRTEXT
 70
     1
  9
$DRAGMODE
 70
     2
  9
$LTSCALE
 40
1.0
  9
$OSMODE
 70
     1
  9
$ATTMODE
 70
     1
  9
$TEXTSIZE
 40
40.0
  9
$TRACEWID
 40
1.0
  9
$TEXTSTYLE
  7
ED40
  9
$CLAYER
  8
V0-OBRYS
  9
$CELTYPE
  6
CONTINUOUS
  9
$CECOLOR
 62
    90
  9
$CELTSCALE
 40
1.0
  9
$DELOBJ
 70
     1
  9
$DISPSILH
 70
     0
  9
$DIMSCALE
 40
1.0
  9
$DIMASZ
 40
20.0
  9
$DIMEXO
 40
1.0
  9
$DIMDLI
 40
3.75
  9
$DIMRND
 40
0.0
  9
$DIMDLE
 40
0.0
  9
$DIMEXE
 40
1.25
  9
$DIMTP
 40
0.0
  9
$DIMTM
 40
0.0
  9
$DIMTXT
 40
20.0
  9
$DIMCEN
 40
3.0
  9
$DIMTSZ
 40
0.0
  9
$DIMTOL
 70
     0
  9
$DIMLIM
 70
     0
  9
$DIMTIH
 70
     0
  9
$DIMTOH
 70
     0
  9
$DIMSE1
 70
     0
  9
$DIMSE2
 70
     0
  9
$DIMTAD
 70
     1
  9
$DIMZIN
 70
     8
  9
$DIMBLK
  1

  9
$DIMASO
 70
     1
  9
$DIMSHO
 70
     1
  9
$DIMPOST
  1

  9
$DIMAPOST
  1

  9
$DIMALT
 70
     0
  9
$DIMALTD
 70
     4
  9
$DIMALTF
 40
0.0394
  9
$DIMLFAC
 40
1.0
  9
$DIMTOFL
 70
     1
  9
$DIMTVP
 40
0.0
  9
$DIMTIX
 70
     0
  9
$DIMSOXD
 70
     0
  9
$DIMSAH
 70
     1
  9
$DIMBLK1
  1
_OPEN
  9
$DIMBLK2
  1
_OPEN
  9
$DIMSTYLE
  2
ED20
  9
$DIMCLRD
 70
    41
  9
$DIMCLRE
 70
    41
  9
$DIMCLRT
 70
    41
  9
$DIMTFAC
 40
1.0
  9
$DIMGAP
 40
2.0
  9
$DIMJUST
 70
     0
  9
$DIMSD1
 70
     0
  9
$DIMSD2
 70
     0
  9
$DIMTOLJ
 70
     1
  9
$DIMTZIN
 70
     8
  9
$DIMALTZ
 70
     0
  9
$DIMALTTZ
 70
     0
  9
$DIMFIT
 70
     3
  9
$DIMUPT
 70
     0
  9
$DIMUNIT
 70
     2
  9
$DIMDEC
 70
     0
  9
$DIMTDEC
 70
     1
  9
$DIMALTU
 70
     8
  9
$DIMALTTD
 70
     4
  9
$DIMTXSTY
  7
ED20
  9
$DIMAUNIT
 70
     0
  9
$LUNITS
 70
     2
  9
$LUPREC
 70
     4
  9
$SKETCHINC
 40
1.0
  9
$FILLETRAD
 40
5.0
  9
$AUNITS
 70
     0
  9
$AUPREC
 70
     0
  9
$MENU
  1
.
  9
$ELEVATION
 40
0.0
  9
$PELEVATION
 40
0.0
  9
$THICKNESS
 40
0.0
  9
$LIMCHECK
 70
     0
  9
$BLIPMODE
 70
     0
  9
$CHAMFERA
 40
0.5
  9
$CHAMFERB
 40
0.5
  9
$CHAMFERC
 40
20.0
  9
$CHAMFERD
 40
0.0
  9
$SKPOLY
 70
     1
  9
$TDCREATE
 40
2451196.643769328
  9
$TDUPDATE
 40
2452915.871970717
  9
$TDINDWG
 40
0.8343562500
  9
$TDUSRTIMER
 40
0.8343562500
  9
$USRTIMER
 70
     1
  9
$ANGBASE
 50
0.0
  9
$ANGDIR
 70
     0
  9
$PDMODE
 70
    35
  9
$PDSIZE
 40
20.0
  9
$PLINEWID
 40
0.0
  9
$COORDS
 70
     1
  9
$SPLFRAME
 70
     0
  9
$SPLINETYPE
 70
     6
  9
$SPLINESEGS
 70
     8
  9
$ATTDIA
 70
     0
  9
$ATTREQ
 70
     1
  9
$HANDLING
 70
     1
  9
$HANDSEED
  5
2052
  9
$SURFTAB1
 70
     6
  9
$SURFTAB2
 70
     6
  9
$SURFTYPE
 70
     6
  9
$SURFU
 70
     6
  9
$SURFV
 70
     6
  9
$UCSNAME
  2

  9
$UCSORG
 10
366.8741676550712
 20
89.37358462115861
 30
0.0
  9
$UCSXDIR
 10
1.0
 20
0.0
 30
0.0
  9
$UCSYDIR
 10
0.0
 20
1.0
 30
0.0
  9
$PUCSNAME
  2

  9
$PUCSORG
 10
0.0
 20
0.0
 30
0.0
  9
$PUCSXDIR
 10
1.0
 20
0.0
 30
0.0
  9
$PUCSYDIR
 10
0.0
 20
1.0
 30
0.0
  9
$USERI1
 70
     0
  9
$USERI2
 70
     0
  9
$USERI3
 70
     0
  9
$USERI4
 70
     0
  9
$USERI5
 70
     0
  9
$USERR1
 40
0.0
  9
$USERR2
 40
0.0
  9
$USERR3
 40
0.0
  9
$USERR4
 40
0.0
  9
$USERR5
 40
0.0
  9
$WORLDVIEW
 70
     1
  9
$SHADEDGE
 70
     3
  9
$SHADEDIF
 70
    70
  9
$TILEMODE
 70
     1
  9
$MAXACTVP
 70
    48
  9
$PINSBASE
 10
0.0
 20
0.0
 30
0.0
  9
$PLIMCHECK
 70
     0
  9
$PEXTMIN
 10
1.000000E+20
 20
1.000000E+20
 30
1.000000E+20
  9
$PEXTMAX
 10
-1.000000E+20
 20
-1.000000E+20
 30
-1.000000E+20
  9
$PLIMMIN
 10
0.0
 20
0.0
  9
$PLIMMAX
 10
420.0
 20
297.0
  9
$UNITMODE
 70
     0
  9
$VISRETAIN
 70
     1
  9
$PLINEGEN
 70
     0
  9
$PSLTSCALE
 70
     0
  9
$TREEDEPTH
 70
  3020
  9
$PICKSTYLE
 70
     0
  9
$CMLSTYLE
  2
STANDARD
  9
$CMLJUST
 70
     1
  9
$CMLSCALE
 40
3.0
  9
$PROXYGRAPHICS
 70
     1
  9
$MEASUREMENT
 70
     1
  0
ENDSEC
  0
SECTION
  2
CLASSES
  0
CLASS
  1
DICTIONARYVAR
  2
AcDbDictionaryVar
  3
"AutoCAD"
 90
        0
280
     0
281
     0
  0
CLASS
  1
LWPOLYLINE
  2
AcDbPolyline
  3
"AutoCAD"
 90
        0
280
     0
281
     1
  0
CLASS
  1
HATCH
  2
AcDbHatch
  3
"ACAD_SEDONA"
 90
        0
280
     0
281
     1
  0
ENDSEC
  0
SECTION
  2
TABLES
  0
TABLE
  2
VPORT
  5
8
100
AcDbSymbolTable
 70
     2
  0
VPORT
  5
2051
100
AcDbSymbolTableRecord
100
AcDbViewportTableRecord
  2
*ACTIVE
 70
     0
 10
0.0
 20
0.0
 11
1.0
 21
1.0
 12
90.873006
 22
-113.527422
 13
0.0
 23
0.0
 14
10.0
 24
10.0
 15
10.0
 25
10.0
 16
0.0
 26
0.0
 36
1.0
 17
0.0
 27
0.0
 37
0.0
 40
964.800418
 41
1.730469
 42
50.0
 43
0.0
 44
0.0
 50
0.0
 51
0.0
 71
     0
 72
   100
 73
     1
 74
     1
 75
     0
 76
     0
 77
     0
 78
     0
  0
ENDTAB
  0
TABLE
  2
LTYPE
  5
5
100
AcDbSymbolTable
 70
     4
  0
LTYPE
  5
14
100
AcDbSymbolTableRecord
100
AcDbLinetypeTableRecord
  2
BYBLOCK
 70
     0
  3

 72
    65
 73
     0
 40
0.0
  0
LTYPE
  5
15
100
AcDbSymbolTableRecord
100
AcDbLinetypeTableRecord
  2
BYLAYER
 70
     0
  3

 72
    65
 73
     0
 40
0.0
  0
LTYPE
  5
16
100
AcDbSymbolTableRecord
100
AcDbLinetypeTableRecord
  2
CONTINUOUS
 70
     0
  3
Solid line
 72
    65
 73
     0
 40
0.0
  0
LTYPE
  5
7F
100
AcDbSymbolTableRecord
100
AcDbLinetypeTableRecord
  2
DASHDOT
 70
     0
  3
Dash dot __ . __ . __ . __ . __ . __ . __ . __
 72
    65
 73
     4
 40
25.4
 49
12.7
 74
     0
 49
-6.35
 74
     0
 49
0.0
 74
     0
 49
-6.35
 74
     0
  0
LTYPE
  5
1B9E
100
AcDbSymbolTableRecord
100
AcDbLinetypeTableRecord
  2
ACAD_ISO02W100
 70
     0
  3
ISO dash __ __ __ __ __ __ __ __ __ __ __ __ __
 72
    65
 73
     2
 40
15.0
 49
12.0
 74
     0
 49
-3.0
 74
     0
  0
LTYPE
  5
1B9F
100
AcDbSymbolTableRecord
100
AcDbLinetypeTableRecord
  2
DASHED
 70
     0
  3
Dashed __ __ __ __ __ __ __ __ __ __ __ __ __ _
 72
    65
 73
     2
 40
19.05
 49
12.7
 74
     0
 49
-6.35
 74
     0
  0
ENDTAB
  0
TABLE
  2
LAYER
  5
2
100
AcDbSymbolTable
 70
     5
  0
LAYER
  5
F
100
AcDbSymbolTableRecord
100
AcDbLayerTableRecord
  2
0
 70
     0
 62
     7
  6
CONTINUOUS
  0
LAYER
  5
9E
100
AcDbSymbolTableRecord
100
AcDbLayerTableRecord
  2
DEFPOINTS
 70
     0
 62
     7
  6
CONTINUOUS
  0
LAYER
  5
377
100
AcDbSymbolTableRecord
100
AcDbLayerTableRecord
  2
V0-OBRYS
 70
     0
 62
    90
  6
CONTINUOUS
  0
LAYER
  5
378
100
AcDbSymbolTableRecord
100
AcDbLayerTableRecord
  2
V0-VYPLNE
 70
     0
 62
    63
  6
DASHDOT
  0
LAYER
  5
1540
100
AcDbSymbolTableRecord
100
AcDbLayerTableRecord
  2
VO-OBRYS
 70
     0
 62
    90
  6
CONTINUOUS
  0
ENDTAB
  0
TABLE
  2
STYLE
  5
3
100
AcDbSymbolTable
 70
     6
  0
STYLE
  5
10
100
AcDbSymbolTableRecord
100
AcDbTextStyleTableRecord
  2
STANDARD
 70
     0
 40
0.0
 41
1.0
 50
0.0
 71
     0
 42
2.5
  3
ISOCP
  4

  0
STYLE
  5
331
100
AcDbSymbolTableRecord
100
AcDbTextStyleTableRecord
  2
ED20
 70
     0
 40
20.0
 41
1.0
 50
0.0
 71
     0
 42
2.5
  3
ISOCP.shx
  4

  0
STYLE
  5
648
100
AcDbSymbolTableRecord
100
AcDbTextStyleTableRecord
  2
ED10
 70
     0
 40
10.0
 41
1.0
 50
0.0
 71
     0
 42
10.0
  3
ISOCP.shx
  4

  0
STYLE
  5
F38
100
AcDbSymbolTableRecord
100
AcDbTextStyleTableRecord
  2
ED30
 70
     0
 40
30.0
 41
1.0
 50
0.0
 71
     0
 42
2.5
  3
ISOCP.shx
  4

  0
STYLE
  5
F39
100
AcDbSymbolTableRecord
100
AcDbTextStyleTableRecord
  2
ED40
 70
     0
 40
40.0
 41
1.0
 50
0.0
 71
     0
 42
40.0
  3
ISOCP.shx
  4

  0
STYLE
  5
1B9D
100
AcDbSymbolTableRecord
100
AcDbTextStyleTableRecord
  2

 70
     1
 40
0.0
 41
1.0
 50
0.0
 71
     0
 42
40.0
  3
ltypeshp.shx
  4

  0
ENDTAB
  0
TABLE
  2
VIEW
  5
6
100
AcDbSymbolTable
 70
     0
  0
ENDTAB
  0
TABLE
  2
UCS
  5
7
100
AcDbSymbolTable
 70
     0
  0
ENDTAB
  0
TABLE
  2
APPID
  5
9
100
AcDbSymbolTable
 70
     1
  0
APPID
  5
11
100
AcDbSymbolTableRecord
100
AcDbRegAppTableRecord
  2
ACAD
 70
     0
  0
ENDTAB
  0
TABLE
  2
DIMSTYLE
  5
A
100
AcDbSymbolTable
 70
     2
  0
DIMSTYLE
105
1D
100
AcDbSymbolTableRecord
100
AcDbDimStyleTableRecord
  2
STANDARD
 70
     0
  3

  4

  5

  6
_OPEN
  7
_OPEN
 40
0.0
 41
15.0
 42
0.625
 43
3.75
 44
1.25
 45
0.0
 46
0.0
 47
0.0
 48
0.0
140
15.0
141
2.5
142
0.0
143
0.0394
144
1.0
145
0.0
146
1.0
147
3.0
 71
     0
 72
     0
 73
     0
 74
     0
 75
     0
 76
     0
 77
     1
 78
     8
170
     0
171
     4
172
     1
173
     1
174
     0
175
     0
176
     0
177
     0
178
     0
270
     2
271
     0
272
     1
273
     8
274
     4
340
331
275
     0
280
     0
281
     0
282
     0
283
     1
284
     8
285
     0
286
     0
287
     3
288
     0
  0
DIMSTYLE
105
FE9
102
{ACAD_REACTORS
330
1879
330
1886
330
1893
330
1849
330
1856
330
1CA4
102
}
100
AcDbSymbolTableRecord
100
AcDbDimStyleTableRecord
  2
ED20
 70
     0
  3

  4

  5

  6
_OPEN
  7
_OPEN
 40
1.0
 41
20.0
 42
1.0
 43
3.75
 44
1.25
 45
0.0
 46
0.0
 47
0.0
 48
0.0
140
20.0
141
3.0
142
0.0
143
0.0394
144
1.0
145
0.0
146
1.0
147
2.0
 71
     0
 72
     0
 73
     0
 74
     0
 75
     0
 76
     0
 77
     1
 78
     8
170
     0
171
     4
172
     1
173
     1
174
     0
175
     0
176
    41
177
    41
178
    41
270
     2
271
     0
272
     1
273
     8
274
     4
340
331
275
     0
280
     0
281
     0
282
     0
283
     1
284
     8
285
     0
286
     0
287
     3
288
     0
  0
ENDTAB
  0
TABLE
  2
BLOCK_RECORD
  5
1
100
AcDbSymbolTable
 70
     7
  0
BLOCK_RECORD
  5
1A
100
AcDbSymbolTableRecord
100
AcDbBlockTableRecord
  2
*MODEL_SPACE
  0
BLOCK_RECORD
  5
17
100
AcDbSymbolTableRecord
100
AcDbBlockTableRecord
  2
*PAPER_SPACE
  0
BLOCK_RECORD
  5
90
100
AcDbSymbolTableRecord
100
AcDbBlockTableRecord
  2
_OPEN
  0
BLOCK_RECORD
  5
186D
100
AcDbSymbolTableRecord
100
AcDbBlockTableRecord
  2
*D1
  0
BLOCK_RECORD
  5
187A
100
AcDbSymbolTableRecord
100
AcDbBlockTableRecord
  2
*D2
  0
BLOCK_RECORD
  5
1887
100
AcDbSymbolTableRecord
100
AcDbBlockTableRecord
  2
*D3
  0
BLOCK_RECORD
  5
1A7A
100
AcDbSymbolTableRecord
100
AcDbBlockTableRecord
  2
*D4
  0
BLOCK_RECORD
  5
1A86
100
AcDbSymbolTableRecord
100
AcDbBlockTableRecord
  2
*D5
  0
BLOCK_RECORD
  5
1C98
100
AcDbSymbolTableRecord
100
AcDbBlockTableRecord
  2
*D6
  0
ENDTAB
  0
ENDSEC
  0
SECTION
  2
BLOCKS
  0
BLOCK
  5
1B
100
AcDbEntity
  8
0
100
AcDbBlockBegin
  2
*MODEL_SPACE
 70
     0
 10
0.0
 20
0.0
 30
0.0
  3
*MODEL_SPACE
  1

  0
ENDBLK
  5
1C
100
AcDbEntity
  8
0
100
AcDbBlockEnd
  0
BLOCK
  5
18
100
AcDbEntity
 67
     1
  8
0
100
AcDbBlockBegin
  2
*PAPER_SPACE
 70
     0
 10
0.0
 20
0.0
 30
0.0
  3
*PAPER_SPACE
  1

  0
ENDBLK
  5
19
100
AcDbEntity
 67
     1
  8
0
100
AcDbBlockEnd
  0
BLOCK
  5
91
100
AcDbEntity
  8
0
100
AcDbBlockBegin
  2
_OPEN
 70
     0
 10
0.0
 20
0.0
 30
0.0
  3
_OPEN
  1

  0
LINE
  5
92
100
AcDbEntity
  8
0
  6
BYBLOCK
 62
     0
100
AcDbLine
 10
-1.0
 20
0.166667
 30
0.0
 11
0.0
 21
0.0
 31
0.0
  0
LINE
  5
93
100
AcDbEntity
  8
0
  6
BYBLOCK
 62
     0
100
AcDbLine
 10
0.0
 20
0.0
 30
0.0
 11
-1.0
 21
-0.166667
 31
0.0
  0
LINE
  5
94
100
AcDbEntity
  8
0
  6
BYBLOCK
 62
     0
100
AcDbLine
 10
0.0
 20
0.0
 30
0.0
 11
-1.0
 21
0.0
 31
0.0
  0
ENDBLK
  5
95
100
AcDbEntity
  8
0
100
AcDbBlockEnd
  0
BLOCK
  5
1E57
100
AcDbEntity
  8
0
100
AcDbBlockBegin
  2
*D1
 70
     1
 10
0.0
 20
0.0
 30
0.0
  3
*D1
  1

  0
LINE
  5
1E58
100
AcDbEntity
  8
0
  6
BYBLOCK
 62
    41
100
AcDbLine
 10
-132.224102
 20
219.973585
 30
0.0
 11
28.250749
 21
219.973585
 31
0.0
  0
LINE
  5
1E59
100
AcDbEntity
  8
0
  6
BYBLOCK
 62
    41
100
AcDbLine
 10
-132.224102
 20
-41.226415
 30
0.0
 11
28.250749
 21
-41.226415
 31
0.0
  0
LINE
  5
1E5A
100
AcDbEntity
  8
0
  6
BYBLOCK
 62
    41
100
AcDbLine
 10
27.000749
 20
199.973585
 30
0.0
 11
27.000749
 21
-21.226415
 31
0.0
  0
INSERT
  5
1E5B
100
AcDbEntity
  8
0
  6
BYBLOCK
 62
    41
100
AcDbBlockReference
  2
_OPEN
 10
27.000749
 20
219.973585
 30
0.0
 41
20.0
 42
20.0
 43
20.0
 50
90.0
  0
INSERT
  5
1E5C
100
AcDbEntity
  8
0
  6
BYBLOCK
 62
    41
100
AcDbBlockReference
  2
_OPEN
 10
27.000749
 20
-41.226415
 30
0.0
 41
20.0
 42
20.0
 43
20.0
 50
270.0
  0
MTEXT
  5
1E5D
100
AcDbEntity
  8
0
  6
BYBLOCK
 62
    41
100
AcDbMText
 10
14.998781
 20
89.373585
 30
0.0
 40
20.0
 41
0.0
 71
     5
 72
     1
  1
\A1;\U+2205261
  7
ED20
 11
0.0
 21
1.0
 31
0.0
  0
POINT
  5
1E5E
100
AcDbEntity
  8
DEFPOINTS
  6
BYBLOCK
 62
     0
100
AcDbPoint
 10
-133.224102
 20
219.973585
 30
0.0
  0
POINT
  5
1E5F
100
AcDbEntity
  8
DEFPOINTS
  6
BYBLOCK
 62
     0
100
AcDbPoint
 10
-133.224102
 20
-41.226415
 30
0.0
  0
POINT
  5
1E60
100
AcDbEntity
  8
DEFPOINTS
  6
BYBLOCK
 62
     0
100
AcDbPoint
 10
27.000749
 20
-41.226415
 30
0.0
  0
ENDBLK
  5
1E61
100
AcDbEntity
  8
0
100
AcDbBlockEnd
  0
BLOCK
  5
1E20
100
AcDbEntity
  8
0
100
AcDbBlockBegin
  2
*D2
 70
     1
 10
0.0
 20
0.0
 30
0.0
  3
*D2
  1

  0
LINE
  5
1E21
100
AcDbEntity
  8
0
  6
BYBLOCK
 62
    41
100
AcDbLine
 10
-100.164102
 20
216.473585
 30
0.0
 11
-19.284296
 21
216.473585
 31
0.0
  0
LINE
  5
1E22
100
AcDbEntity
  8
0
  6
BYBLOCK
 62
    41
100
AcDbLine
 10
-101.164102
 20
-38.226415
 30
0.0
 11
-19.284296
 21
-38.226415
 31
0.0
  0
LINE
  5
1E23
100
AcDbEntity
  8
0
  6
BYBLOCK
 62
    41
100
AcDbLine
 10
-20.534296
 20
196.473585
 30
0.0
 11
-20.534296
 21
-18.226415
 31
0.0
  0
INSERT
  5
1E24
100
AcDbEntity
  8
0
  6
BYBLOCK
 62
    41
100
AcDbBlockReference
  2
_OPEN
 10
-20.534296
 20
216.473585
 30
0.0
 41
20.0
 42
20.0
 43
20.0
 50
90.0
  0
INSERT
  5
1E25
100
AcDbEntity
  8
0
  6
BYBLOCK
 62
    41
100
AcDbBlockReference
  2
_OPEN
 10
-20.534296
 20
-38.226415
 30
0.0
 41
20.0
 42
20.0
 43
20.0
 50
270.0
  0
MTEXT
  5
1E26
100
AcDbEntity
  8
0
  6
BYBLOCK
 62
    41
100
AcDbMText
 10
-32.536264
 20
89.373585
 30
0.0
 40
20.0
 41
0.0
 71
     5
 72
     1
  1
\A1;\U+2205255
  7
ED20
 11
0.0
 21
1.0
 31
0.0
  0
POINT
  5
1E27
100
AcDbEntity
  8
DEFPOINTS
  6
BYBLOCK
 62
     0
100
AcDbPoint
 10
-101.164102
 20
216.473585
 30
0.0
  0
POINT
  5
1E28
100
AcDbEntity
  8
DEFPOINTS
  6
BYBLOCK
 62
     0
100
AcDbPoint
 10
-102.164102
 20
-38.226415
 30
0.0
  0
POINT
  5
1E29
100
AcDbEntity
  8
DEFPOINTS
  6
BYBLOCK
 62
     0
100
AcDbPoint
 10
-20.534296
 20
-38.226415
 30
0.0
  0
ENDBLK
  5
1E2A
100
AcDbEntity
  8
0
100
AcDbBlockEnd
  0
BLOCK
  5
203A
100
AcDbEntity
  8
0
100
AcDbBlockBegin
  2
*D3
 70
     1
 10
0.0
 20
0.0
 30
0.0
  3
*D3
  1

  0
LINE
  5
203B
100
AcDbEntity
  8
0
  6
BYBLOCK
 62
    41
100
AcDbLine
 10
533.294168
 20
-65.646415
 30
0.0
 11
533.294168
 21
-162.085818
 31
0.0
  0
LINE
  5
203C
100
AcDbEntity
  8
0
  6
BYBLOCK
 62
    41
100
AcDbLine
 10
200.454168
 20
-65.646415
 30
0.0
 11
200.454168
 21
-162.085818
 31
0.0
  0
LINE
  5
203D
100
AcDbEntity
  8
0
  6
BYBLOCK
 62
    41
100
AcDbLine
 10
513.294168
 20
-160.835818
 30
0.0
 11
220.454168
 21
-160.835818
 31
0.0
  0
INSERT
  5
203E
100
AcDbEntity
  8
0
  6
BYBLOCK
 62
    41
100
AcDbBlockReference
  2
_OPEN
 10
533.294168
 20
-160.835818
 30
0.0
 41
20.0
 42
20.0
 43
20.0
  0
INSERT
  5
203F
100
AcDbEntity
  8
0
  6
BYBLOCK
 62
    41
100
AcDbBlockReference
  2
_OPEN
 10
200.454168
 20
-160.835818
 30
0.0
 41
20.0
 42
20.0
 43
20.0
 50
180.0
  0
MTEXT
  5
2040
100
AcDbEntity
  8
0
  6
BYBLOCK
 62
    41
100
AcDbMText
 10
366.677603
 20
-148.835818
 30
0.0
 40
20.0
 41
0.0
 71
     5
 72
     1
  1
\A1;333
  7
ED20
  0
POINT
  5
2041
100
AcDbEntity
  8
DEFPOINTS
  6
BYBLOCK
 62
     0
100
AcDbPoint
 10
533.294168
 20
-64.646415
 30
0.0
  0
POINT
  5
2042
100
AcDbEntity
  8
DEFPOINTS
  6
BYBLOCK
 62
     0
100
AcDbPoint
 10
200.454168
 20
-64.646415
 30
0.0
  0
POINT
  5
2043
100
AcDbEntity
  8
DEFPOINTS
  6
BYBLOCK
 62
     0
100
AcDbPoint
 10
200.454168
 20
-160.835818
 30
0.0
  0
ENDBLK
  5
2044
100
AcDbEntity
  8
0
100
AcDbBlockEnd
  0
BLOCK
  5
1F66
100
AcDbEntity
  8
0
100
AcDbBlockBegin
  2
*D4
 70
     1
 10
0.0
 20
0.0
 30
0.0
  3
*D4
  1

  0
LINE
  5
1F67
100
AcDbEntity
  8
0
  6
BYBLOCK
 62
    41
100
AcDbLine
 10
-102.164102
 20
-39.226415
 30
0.0
 11
-102.164102
 21
-146.763787
 31
0.0
  0
LINE
  5
1F68
100
AcDbEntity
  8
0
  6
BYBLOCK
 62
    41
100
AcDbLine
 10
-133.224102
 20
-78.186415
 30
0.0
 11
-133.224102
 21
-146.763787
 31
0.0
  0
LINE
  5
1F69
100
AcDbEntity
  8
0
  6
BYBLOCK
 62
    41
100
AcDbLine
 10
-153.224102
 20
-145.513787
 30
0.0
 11
-173.224102
 21
-145.513787
 31
0.0
  0
LINE
  5
1F6A
100
AcDbEntity
  8
0
  6
BYBLOCK
 62
    41
100
AcDbLine
 10
-82.164102
 20
-145.513787
 30
0.0
 11
-26.536343
 21
-145.513787
 31
0.0
  0
LINE
  5
1F6B
100
AcDbEntity
  8
0
  6
BYBLOCK
 62
    41
100
AcDbLine
 10
-133.224102
 20
-145.513787
 30
0.0
 11
-102.164102
 21
-145.513787
 31
0.0
  0
INSERT
  5
1F6C
100
AcDbEntity
  8
0
  6
BYBLOCK
 62
    41
100
AcDbBlockReference
  2
_OPEN
 10
-133.224102
 20
-145.513787
 30
0.0
 41
20.0
 42
20.0
 43
20.0
  0
INSERT
  5
1F6D
100
AcDbEntity
  8
0
  6
BYBLOCK
 62
    41
100
AcDbBlockReference
  2
_OPEN
 10
-102.164102
 20
-145.513787
 30
0.0
 41
20.0
 42
20.0
 43
20.0
 50
180.0
  0
MTEXT
  5
1F6E
100
AcDbEntity
  8
0
  6
BYBLOCK
 62
    41
100
AcDbMText
 10
-37.536343
 20
-133.513787
 30
0.0
 40
20.0
 41
0.0
 71
     5
 72
     1
  1
\A1;31
  7
ED20
  0
POINT
  5
1F6F
100
AcDbEntity
  8
DEFPOINTS
  6
BYBLOCK
 62
     0
100
AcDbPoint
 10
-102.164102
 20
-38.226415
 30
0.0
  0
POINT
  5
1F70
100
AcDbEntity
  8
DEFPOINTS
  6
BYBLOCK
 62
     0
100
AcDbPoint
 10
-133.224102
 20
-77.186415
 30
0.0
  0
POINT
  5
1F71
100
AcDbEntity
  8
DEFPOINTS
  6
BYBLOCK
 62
     0
100
AcDbPoint
 10
-133.224102
 20
-145.513787
 30
0.0
  0
ENDBLK
  5
1F72
100
AcDbEntity
  8
0
100
AcDbBlockEnd
  0
BLOCK
  5
1F5B
100
AcDbEntity
  8
0
100
AcDbBlockBegin
  2
*D5
 70
     1
 10
0.0
 20
0.0
 30
0.0
  3
*D5
  1

  0
LINE
  5
1F5C
100
AcDbEntity
  8
0
  6
BYBLOCK
 62
    41
100
AcDbLine
 10
-225.744102
 20
88.373585
 30
0.0
 11
-225.744102
 21
-146.763787
 31
0.0
  0
LINE
  5
1F5D
100
AcDbEntity
  8
0
  6
BYBLOCK
 62
    41
100
AcDbLine
 10
-133.224102
 20
-78.186415
 30
0.0
 11
-133.224102
 21
-146.763787
 31
0.0
  0
LINE
  5
1F5E
100
AcDbEntity
  8
0
  6
BYBLOCK
 62
    41
100
AcDbLine
 10
-205.744102
 20
-145.513787
 30
0.0
 11
-153.224102
 21
-145.513787
 31
0.0
  0
INSERT
  5
1F5F
100
AcDbEntity
  8
0
  6
BYBLOCK
 62
    41
100
AcDbBlockReference
  2
_OPEN
 10
-225.744102
 20
-145.513787
 30
0.0
 41
20.0
 42
20.0
 43
20.0
 50
180.0
  0
INSERT
  5
1F60
100
AcDbEntity
  8
0
  6
BYBLOCK
 62
    41
100
AcDbBlockReference
  2
_OPEN
 10
-133.224102
 20
-145.513787
 30
0.0
 41
20.0
 42
20.0
 43
20.0
  0
MTEXT
  5
1F61
100
AcDbEntity
  8
0
  6
BYBLOCK
 62
    41
100
AcDbMText
 10
-182.824102
 20
-133.513787
 30
0.0
 40
20.0
 41
0.0
 71
     5
 72
     1
  1
\A1;93
  7
ED20
  0
POINT
  5
1F62
100
AcDbEntity
  8
DEFPOINTS
  6
BYBLOCK
 62
     0
100
AcDbPoint
 10
-225.744102
 20
89.373585
 30
0.0
  0
POINT
  5
1F63
100
AcDbEntity
  8
DEFPOINTS
  6
BYBLOCK
 62
     0
100
AcDbPoint
 10
-133.224102
 20
-77.186415
 30
0.0
  0
POINT
  5
1F64
100
AcDbEntity
  8
DEFPOINTS
  6
BYBLOCK
 62
     0
100
AcDbPoint
 10
-133.224102
 20
-145.513787
 30
0.0
  0
ENDBLK
  5
1F65
100
AcDbEntity
  8
0
100
AcDbBlockEnd
  0
BLOCK
  5
202F
100
AcDbEntity
  8
0
100
AcDbBlockBegin
  2
*D6
 70
     1
 10
0.0
 20
0.0
 30
0.0
  3
*D6
  1

  0
LINE
  5
2030
100
AcDbEntity
  8
0
  6
BYBLOCK
 62
    41
100
AcDbLine
 10
229.234168
 20
-50.766415
 30
0.0
 11
229.234168
 21
-122.041793
 31
0.0
  0
LINE
  5
2031
100
AcDbEntity
  8
0
  6
BYBLOCK
 62
    41
100
AcDbLine
 10
504.514168
 20
-50.766415
 30
0.0
 11
504.514168
 21
-122.041793
 31
0.0
  0
LINE
  5
2032
100
AcDbEntity
  8
0
  6
BYBLOCK
 62
    41
100
AcDbLine
 10
249.234168
 20
-120.791793
 30
0.0
 11
484.514168
 21
-120.791793
 31
0.0
  0
INSERT
  5
2033
100
AcDbEntity
  8
0
  6
BYBLOCK
 62
    41
100
AcDbBlockReference
  2
_OPEN
 10
229.234168
 20
-120.791793
 30
0.0
 41
20.0
 42
20.0
 43
20.0
 50
180.0
  0
INSERT
  5
2034
100
AcDbEntity
  8
0
  6
BYBLOCK
 62
    41
100
AcDbBlockReference
  2
_OPEN
 10
504.514168
 20
-120.791793
 30
0.0
 41
20.0
 42
20.0
 43
20.0
  0
MTEXT
  5
2035
100
AcDbEntity
  8
0
  6
BYBLOCK
 62
    41
100
AcDbMText
 10
366.874168
 20
-108.789825
 30
0.0
 40
20.0
 41
0.0
 71
     5
 72
     1
  1
\A1;275
  7
ED20
  0
POINT
  5
2036
100
AcDbEntity
  8
DEFPOINTS
  6
BYBLOCK
 62
     0
100
AcDbPoint
 10
229.234168
 20
-49.766415
 30
0.0
  0
POINT
  5
2037
100
AcDbEntity
  8
DEFPOINTS
  6
BYBLOCK
 62
     0
100
AcDbPoint
 10
504.514168
 20
-49.766415
 30
0.0
  0
POINT
  5
2038
100
AcDbEntity
  8
DEFPOINTS
  6
BYBLOCK
 62
     0
100
AcDbPoint
 10
504.514168
 20
-120.791793
 30
0.0
  0
ENDBLK
  5
2039
100
AcDbEntity
  8
0
100
AcDbBlockEnd
  0
ENDSEC
  0
SECTION
  2
ENTITIES
  0
TEXT
  5
1347
100
AcDbEntity
  8
V0-VYPLNE
 62
     6
100
AcDbText
 10
215.016531
 20
-318.809314
 30
0.0
 40
40.0
  1
HXM-250
  7
ED40
100
AcDbText
  0
TEXT
  5
1348
100
AcDbEntity
  8
V0-VYPLNE
 62
     4
100
AcDbText
 10
134.458991
 20
-374.475144
 30
0.0
 40
30.0
  1
AXIALNI VENTILATOR
  7
ED30
100
AcDbText
  0
LINE
  5
1789
100
AcDbEntity
  8
VO-OBRYS
  6
CONTINUOUS
100
AcDbLine
 10
411.82078
 20
66.816802
 30
0.0
 11
491.886577
 21
-13.248996
 31
0.0
  0
ARC
  5
1791
100
AcDbEntity
  8
V0-OBRYS
  6
CONTINUOUS
100
AcDbCircle
 10
366.874168
 20
89.373585
 30
0.0
 40
52.08
100
AcDbArc
 50
148.997281
 51
211.002719
  0
ARC
  5
1792
100
AcDbEntity
  8
V0-OBRYS
100
AcDbCircle
 10
381.145713
 20
89.373585
 30
0.0
 40
162.512011
100
AcDbArc
 50
144.17889
 51
215.82111
  0
LINE
  5
1793
100
AcDbEntity
  8
V0-VYPLNE
100
AcDbLine
 10
366.874168
 20
89.373585
 30
0.0
 11
366.874168
 21
243.691539
 31
0.0
  0
LINE
  5
1794
100
AcDbEntity
  8
V0-VYPLNE
100
AcDbLine
 10
527.284742
 20
89.373585
 30
0.0
 11
196.660229
 21
89.373585
 31
0.0
  0
LINE
  5
17A6
100
AcDbEntity
  8
V0-VYPLNE
  6
DASHDOT
100
AcDbLine
 10
366.874168
 20
89.373585
 30
0.0
 11
366.874168
 21
-49.367464
 31
0.0
  0
LINE
  5
17C4
100
AcDbEntity
  8
VO-OBRYS
  6
CONTINUOUS
100
AcDbLine
 10
389.430951
 20
44.426973
 30
0.0
 11
469.496748
 21
-35.638825
 31
0.0
  0
LINE
  5
17C9
100
AcDbEntity
  8
V0-VYPLNE
100
AcDbLine
 10
366.874168
 20
89.373585
 30
0.0
 11
512.456711
 21
-56.208959
 31
0.0
  0
LINE
  5
17CA
100
AcDbEntity
  8
VO-OBRYS
  6
CONTINUOUS
100
AcDbLine
 10
344.317385
 20
44.426973
 30
0.0
 11
264.251587
 21
-35.638825
 31
0.0
  0
LINE
  5
17CC
100
AcDbEntity
  8
V0-VYPLNE
100
AcDbLine
 10
366.874168
 20
89.373585
 30
0.0
 11
221.291624
 21
-56.208959
 31
0.0
  0
LINE
  5
17CE
100
AcDbEntity
  8
VO-OBRYS
  6
CONTINUOUS
100
AcDbLine
 10
321.927556
 20
66.816802
 30
0.0
 11
241.861758
 21
-13.248996
 31
0.0
  0
LINE
  5
17D7
100
AcDbEntity
  8
VO-OBRYS
  6
CONTINUOUS
100
AcDbLine
 10
321.927556
 20
111.930368
 30
0.0
 11
241.861758
 21
191.996165
 31
0.0
  0
LINE
  5
17D9
100
AcDbEntity
  8
V0-VYPLNE
100
AcDbLine
 10
366.874168
 20
89.373585
 30
0.0
 11
216.823644
 21
239.424108
 31
0.0
  0
LINE
  5
17DB
100
AcDbEntity
  8
VO-OBRYS
  6
CONTINUOUS
100
AcDbLine
 10
344.317385
 20
134.320197
 30
0.0
 11
264.251587
 21
214.385994
 31
0.0
  0
LINE
  5
17E4
100
AcDbEntity
  8
VO-OBRYS
  6
CONTINUOUS
100
AcDbLine
 10
389.430951
 20
134.320197
 30
0.0
 11
469.496748
 21
214.385994
 31
0.0
  0
LINE
  5
17E6
100
AcDbEntity
  8
V0-VYPLNE
100
AcDbLine
 10
366.874168
 20
89.373585
 30
0.0
 11
512.456711
 21
234.956128
 31
0.0
  0
LINE
  5
17E8
100
AcDbEntity
  8
VO-OBRYS
  6
CONTINUOUS
100
AcDbLine
 10
411.82078
 20
111.930368
 30
0.0
 11
491.886577
 21
191.996165
 31
0.0
  0
LINE
  5
17ED
100
AcDbEntity
  8
V0-VYPLNE
100
AcDbLine
 10
504.739836
 20
179.142905
 30
0.0
 11
456.384992
 21
227.49775
 31
0.0
  0
ARC
  5
17F1
100
AcDbEntity
  8
VO-OBRYS
100
AcDbCircle
 10
384.701499
 20
89.373585
 30
0.0
 40
90.179798
100
AcDbArc
 50
153.381695
 51
206.618305
  0
ARC
  5
17F3
100
AcDbEntity
  8
VO-OBRYS
100
AcDbCircle
 10
384.198099
 20
89.373585
 30
0.0
 40
94.140397
100
AcDbArc
 50
152.355391
 51
207.644609
  0
ARC
  5
17F4
100
AcDbEntity
  8
VO-OBRYS
100
AcDbCircle
 10
366.874168
 20
73.715018
 30
0.0
 40
116.283033
100
AcDbArc
 50
58.377679
 51
121.622321
  0
ARC
  5
17F5
100
AcDbEntity
  8
VO-OBRYS
100
AcDbCircle
 10
366.874168
 20
73.915686
 30
0.0
 40
120.546365
100
AcDbArc
 50
57.827062
 51
122.172938
  0
ARC
  5
17F6
100
AcDbEntity
  8
VO-OBRYS
100
AcDbCircle
 10
366.874168
 20
74.692705
 30
0.0
 40
143.577345
100
AcDbArc
 50
55.519504
 51
124.480496
  0
ARC
  5
17F7
100
AcDbEntity
  8
VO-OBRYS
100
AcDbCircle
 10
366.874168
 20
74.800186
 30
0.0
 40
147.933865
100
AcDbArc
 50
55.176436
 51
124.823564
  0
ARC
  5
17F9
100
AcDbEntity
  8
V0-VYPLNE
100
AcDbCircle
 10
359.839258
 20
101.771629
 30
0.0
 40
181.579742
100
AcDbArc
 50
132.153029
 51
142.398921
  0
LINE
  5
1807
100
AcDbEntity
  8
V0-OBRYS
100
AcDbLine
 10
-133.224102
 20
255.933585
 30
0.0
 11
-133.224102
 21
89.373585
 31
0.0
  0
LINE
  5
1808
100
AcDbEntity
  8
V0-OBRYS
100
AcDbLine
 10
-143.144102
 20
89.373585
 30
0.0
 11
-143.144102
 21
255.933585
 31
0.0
  0
LINE
  5
1809
100
AcDbEntity
  8
V0-OBRYS
100
AcDbLine
 10
-133.224102
 20
255.933585
 30
0.0
 11
-143.144102
 21
255.933585
 31
0.0
  0
LINE
  5
180C
100
AcDbEntity
  8
V0-OBRYS
100
AcDbLine
 10
-101.164102
 20
216.473585
 30
0.0
 11
-101.664102
 21
89.373585
 31
0.0
  0
LINE
  5
1811
100
AcDbEntity
  8
V0-OBRYS
100
AcDbLine
 10
-102.164102
 20
-38.226415
 30
0.0
 11
-101.664102
 21
89.373585
 31
0.0
  0
ARC
  5
1812
100
AcDbEntity
  8
V0-OBRYS
100
AcDbCircle
 10
381.068908
 20
89.373585
 30
0.0
 40
166.899206
100
AcDbArc
 50
143.916734
 51
216.083266
  0
LINE
  5
1813
100
AcDbEntity
  8
V0-OBRYS
100
AcDbLine
 10
-225.744102
 20
89.373585
 30
0.0
 11
-225.744102
 21
122.853585
 31
0.0
  0
ARC
  5
1825
100
AcDbEntity
  8
V0-OBRYS
  6
CONTINUOUS
100
AcDbCircle
 10
-222.024102
 20
122.853585
 30
0.0
 40
3.72
100
AcDbArc
 50
90.0
 51
180.0
  0
LINE
  5
1835
100
AcDbEntity
  8
V0-OBRYS
  6
CONTINUOUS
100
AcDbLine
 10
214.354168
 20
255.793585
 30
0.0
 11
520.894168
 21
255.793585
 31
0.0
  0
LINE
  5
1836
100
AcDbEntity
  8
V0-OBRYS
  6
CONTINUOUS
100
AcDbLine
 10
533.294168
 20
243.393585
 30
0.0
 11
533.294168
 21
-64.646415
 31
0.0
  0
LINE
  5
1837
100
AcDbEntity
  8
V0-OBRYS
  6
CONTINUOUS
100
AcDbLine
 10
520.894168
 20
-77.046415
 30
0.0
 11
214.354168
 21
-77.046415
 31
0.0
  0
LINE
  5
1838
100
AcDbEntity
  8
V0-OBRYS
  6
CONTINUOUS
100
AcDbLine
 10
200.454168
 20
-64.646415
 30
0.0
 11
200.454168
 21
243.393585
 31
0.0
  0
ARC
  5
1839
100
AcDbEntity
  8
V0-OBRYS
  6
CONTINUOUS
100
AcDbCircle
 10
520.894168
 20
243.393585
 30
0.0
 40
12.4
100
AcDbArc
 50
0.0
 51
90.0
  0
ARC
  5
183A
100
AcDbEntity
  8
V0-OBRYS
  6
CONTINUOUS
100
AcDbCircle
 10
520.894168
 20
-64.646415
 30
0.0
 40
12.4
100
AcDbArc
 50
270.0
 51
0.0
  0
ARC
  5
183B
100
AcDbEntity
  8
V0-OBRYS
  6
CONTINUOUS
100
AcDbCircle
 10
214.144931
 20
-63.290237
 30
0.0
 40
13.757769
100
AcDbArc
 50
185.657144
 51
270.871423
  0
ARC
  5
183C
100
AcDbEntity
  8
V0-OBRYS
  6
CONTINUOUS
100
AcDbCircle
 10
214.144931
 20
242.037406
 30
0.0
 40
13.757769
100
AcDbArc
 50
89.128577
 51
174.342856
  0
DIMENSION
  5
1849
100
AcDbEntity
  8
V0-VYPLNE
  6
CONTINUOUS
 62
    41
100
AcDbDimension
  2
*D4
 10
-133.224102
 20
-145.513787
 30
0.0
 11
-37.536343
 21
-145.513787
 31
0.0
 70
   160
  3
ED20
100
AcDbAlignedDimension
 13
-102.164102
 23
-38.226415
 33
0.0
 14
-133.224102
 24
-77.186415
 34
0.0
100
AcDbRotatedDimension
  0
DIMENSION
  5
1856
100
AcDbEntity
  8
V0-VYPLNE
  6
CONTINUOUS
 62
    41
100
AcDbDimension
  2
*D5
 10
-133.224102
 20
-145.513787
 30
0.0
 11
-182.824102
 21
-145.513787
 31
0.0
 70
   160
  3
ED20
100
AcDbAlignedDimension
 13
-225.744102
 23
89.373585
 33
0.0
 14
-133.224102
 24
-77.186415
 34
0.0
100
AcDbRotatedDimension
  0
DIMENSION
  5
1879
100
AcDbEntity
  8
V0-VYPLNE
  6
CONTINUOUS
 62
    41
100
AcDbDimension
  2
*D1
 10
27.000749
 20
-41.226415
 30
0.0
 11
27.000749
 21
89.373585
 31
0.0
 70
   160
  1
%%c<>
  3
ED20
100
AcDbAlignedDimension
 13
-133.224102
 23
219.973585
 33
0.0
 14
-133.224102
 24
-41.226415
 34
0.0
 50
270.0
100
AcDbRotatedDimension
  0
DIMENSION
  5
1886
100
AcDbEntity
  8
V0-VYPLNE
  6
CONTINUOUS
 62
    41
100
AcDbDimension
  2
*D2
 10
-20.534296
 20
-38.226415
 30
0.0
 11
-20.534296
 21
89.373585
 31
0.0
 70
   160
  1
%%c<>
  3
ED20
100
AcDbAlignedDimension
 13
-101.164102
 23
216.473585
 33
0.0
 14
-102.164102
 24
-38.226415
 34
0.0
 50
270.0
100
AcDbRotatedDimension
  0
DIMENSION
  5
1893
100
AcDbEntity
  8
V0-VYPLNE
  6
CONTINUOUS
 62
    41
100
AcDbDimension
  2
*D3
 10
200.454168
 20
-160.835818
 30
0.0
 11
366.677603
 21
-160.835818
 31
0.0
 70
   160
  3
ED20
100
AcDbAlignedDimension
 13
533.294168
 23
-64.646415
 33
0.0
 14
200.454168
 24
-64.646415
 34
0.0
100
AcDbRotatedDimension
  0
POINT
  5
18A1
100
AcDbEntity
  8
V0-VYPLNE
  6
CONTINUOUS
 62
    41
100
AcDbPoint
 10
-101.664102
 20
89.373585
 30
0.0
  0
LINE
  5
18D7
100
AcDbEntity
  8
V0-VYPLNE
  6
CONTINUOUS
 62
    41
100
AcDbLine
 10
-258.564034
 20
89.373585
 30
0.0
 11
-321.433977
 21
89.373585
 31
0.0
  0
LINE
  5
18D8
100
AcDbEntity
  8
V0-VYPLNE
  6
CONTINUOUS
 62
    41
100
AcDbLine
 10
-258.564034
 20
89.373585
 30
0.0
 11
-300.629384
 21
101.520763
 31
0.0
  0
LINE
  5
18D9
100
AcDbEntity
  8
V0-VYPLNE
  6
CONTINUOUS
 62
    41
100
AcDbLine
 10
-258.564034
 20
89.373585
 30
0.0
 11
-300.629384
 21
77.226406
 31
0.0
  0
LINE
  5
18DA
100
AcDbEntity
  8
V0-VYPLNE
  6
CONTINUOUS
 62
    41
100
AcDbLine
 10
-258.564034
 20
89.373585
 30
0.0
 11
-258.564034
 21
89.373585
 31
0.0
  0
TEXT
  5
18DD
100
AcDbEntity
  8
V0-VYPLNE
 62
     6
100
AcDbText
 10
-189.359443
 20
290.257349
 30
0.0
 40
30.0
  1
HXM-250
  7
ED30
100
AcDbText
  0
TEXT
  5
18DE
100
AcDbEntity
  8
V0-VYPLNE
 62
     6
100
AcDbText
 10
308.0336
 20
272.080224
 30
0.0
 40
30.0
  1
HXM-250
  7
ED30
100
AcDbText
  0
LINE
  5
1ADA
100
AcDbEntity
  8
V0-OBRYS
  6
CONTINUOUS
100
AcDbLine
 10
-197.224102
 20
126.573585
 30
0.0
 11
-197.224102
 21
89.373585
 31
0.0
  0
LINE
  5
1AE3
100
AcDbEntity
  8
V0-OBRYS
  6
CONTINUOUS
100
AcDbLine
 10
-197.224102
 20
126.573585
 30
0.0
 11
-222.024102
 21
126.573585
 31
0.0
  0
LINE
  5
1AE9
100
AcDbEntity
  8
V0-OBRYS
  6
CONTINUOUS
100
AcDbLine
 10
-143.144102
 20
132.773585
 30
0.0
 11
-171.044102
 21
132.773585
 31
0.0
  0
LINE
  5
1B1D
100
AcDbEntity
  8
VO-OBRYS
  6
CONTINUOUS
100
AcDbLine
 10
-143.32915
 20
249.846522
 30
0.0
 11
-158.644182
 21
246.236373
 31
0.0
  0
LINE
  5
1B24
100
AcDbEntity
  8
V0-OBRYS
  6
CONTINUOUS
100
AcDbLine
 10
-190.264102
 20
142.449333
 30
0.0
 11
-190.264102
 21
89.373585
 31
0.0
  0
LINE
  5
1B25
100
AcDbEntity
  8
V0-OBRYS
  6
CONTINUOUS
100
AcDbLine
 10
-192.124102
 20
142.449333
 30
0.0
 11
-192.124102
 21
89.373585
 31
0.0
  0
LINE
  5
1B2C
100
AcDbEntity
  8
VO-OBRYS
  6
CONTINUOUS
100
AcDbLine
 10
-178.484102
 20
89.373585
 30
0.0
 11
-178.484102
 21
191.386846
 31
0.0
  0
LINE
  5
1B2F
100
AcDbEntity
  8
VO-OBRYS
  6
CONTINUOUS
100
AcDbLine
 10
-177.244102
 20
89.373585
 30
0.0
 11
-177.244102
 21
191.386846
 31
0.0
  0
LINE
  5
1B30
100
AcDbEntity
  8
VO-OBRYS
  6
CONTINUOUS
100
AcDbLine
 10
-172.284102
 20
89.373585
 30
0.0
 11
-172.284102
 21
213.227642
 31
0.0
  0
LINE
  5
1B33
100
AcDbEntity
  8
VO-OBRYS
  6
CONTINUOUS
100
AcDbLine
 10
-171.044102
 20
89.373585
 30
0.0
 11
-171.044102
 21
213.227642
 31
0.0
  0
LINE
  5
1B34
100
AcDbEntity
  8
VO-OBRYS
  6
CONTINUOUS
100
AcDbLine
 10
-166.084102
 20
89.373585
 30
0.0
 11
-166.084102
 21
232.002428
 31
0.0
  0
LINE
  5
1B37
100
AcDbEntity
  8
VO-OBRYS
  6
CONTINUOUS
100
AcDbLine
 10
-164.844102
 20
89.373585
 30
0.0
 11
-164.844102
 21
232.002428
 31
0.0
  0
LINE
  5
1B38
100
AcDbEntity
  8
VO-OBRYS
  6
CONTINUOUS
100
AcDbLine
 10
-159.884102
 20
89.373585
 30
0.0
 11
-159.884102
 21
246.226393
 31
0.0
  0
LINE
  5
1B3B
100
AcDbEntity
  8
VO-OBRYS
  6
CONTINUOUS
100
AcDbLine
 10
-158.644102
 20
89.373585
 30
0.0
 11
-158.644102
 21
246.226393
 31
0.0
  0
ARC
  5
1B3D
100
AcDbEntity
  8
VO-OBRYS
  6
CONTINUOUS
100
AcDbCircle
 10
-165.464102
 20
232.002428
 30
0.0
 40
0.62
100
AcDbArc
 50
0.0
 51
180.0
  0
ARC
  5
1B3E
100
AcDbEntity
  8
VO-OBRYS
  6
CONTINUOUS
100
AcDbCircle
 10
-171.664102
 20
213.227642
 30
0.0
 40
0.62
100
AcDbArc
 50
0.0
 51
180.0
  0
ARC
  5
1B3F
100
AcDbEntity
  8
VO-OBRYS
  6
CONTINUOUS
100
AcDbCircle
 10
-177.864102
 20
191.386846
 30
0.0
 40
0.62
100
AcDbArc
 50
0.0
 51
180.0
  0
LINE
  5
1B44
100
AcDbEntity
  8
VO-OBRYS
  6
CONTINUOUS
100
AcDbLine
 10
-184.684102
 20
89.373585
 30
0.0
 11
-184.684102
 21
170.194209
 31
0.0
  0
LINE
  5
1B45
100
AcDbEntity
  8
V0-VYPLNE
100
AcDbLine
 10
-184.684102
 20
89.373585
 30
0.0
 11
-305.614534
 21
89.373585
 31
0.0
  0
LINE
  5
1B47
100
AcDbEntity
  8
VO-OBRYS
  6
CONTINUOUS
100
AcDbLine
 10
-183.444102
 20
89.373585
 30
0.0
 11
-183.444102
 21
170.194209
 31
0.0
  0
ARC
  5
1B48
100
AcDbEntity
  8
VO-OBRYS
  6
CONTINUOUS
100
AcDbCircle
 10
-184.064102
 20
170.194209
 30
0.0
 40
0.62
100
AcDbArc
 50
0.0
 51
180.0
  0
LINE
  5
1B51
100
AcDbEntity
  8
VO-OBRYS
  6
CONTINUOUS
100
AcDbLine
 10
-143.044647
 20
248.639601
 30
0.0
 11
-158.24677
 21
245.056068
 31
0.0
  0
LINE
  5
1B56
100
AcDbEntity
  8
VO-OBRYS
  6
CONTINUOUS
100
AcDbLine
 10
-159.884102
 20
244.841087
 30
0.0
 11
-164.844102
 21
230.43446
 31
0.0
  0
LINE
  5
1B57
100
AcDbEntity
  8
VO-OBRYS
  6
CONTINUOUS
100
AcDbLine
 10
-158.24677
 20
245.056068
 30
0.0
 11
-158.644102
 21
243.901993
 31
0.0
  0
LINE
  5
1B58
100
AcDbEntity
  8
VO-OBRYS
  6
CONTINUOUS
100
AcDbLine
 10
-172.284102
 20
208.058018
 30
0.0
 11
-177.244102
 21
190.585381
 31
0.0
  0
LINE
  5
1B59
100
AcDbEntity
  8
VO-OBRYS
  6
CONTINUOUS
100
AcDbLine
 10
-172.284102
 20
203.517267
 30
0.0
 11
-177.244102
 21
186.04463
 31
0.0
  0
LINE
  5
1B5A
100
AcDbEntity
  8
VO-OBRYS
  6
CONTINUOUS
100
AcDbLine
 10
-178.484102
 20
186.217221
 30
0.0
 11
-183.444102
 21
168.744584
 31
0.0
  0
LINE
  5
1B5B
100
AcDbEntity
  8
VO-OBRYS
  6
CONTINUOUS
100
AcDbLine
 10
-178.484102
 20
181.676471
 30
0.0
 11
-183.444102
 21
164.203834
 31
0.0
  0
LINE
  5
1B5C
100
AcDbEntity
  8
VO-OBRYS
  6
CONTINUOUS
100
AcDbLine
 10
-184.684102
 20
164.376425
 30
0.0
 11
-190.687251
 21
143.229078
 31
0.0
  0
LINE
  5
1B5D
100
AcDbEntity
  8
VO-OBRYS
  6
CONTINUOUS
100
AcDbLine
 10
-184.684102
 20
159.835675
 30
0.0
 11
-190.264102
 21
140.178958
 31
0.0
  0
ARC
  5
1B5E
100
AcDbEntity
  8
V0-OBRYS
  6
CONTINUOUS
100
AcDbCircle
 10
-191.194102
 20
142.449333
 30
0.0
 40
0.93
100
AcDbArc
 50
0.0
 51
180.0
  0
LINE
  5
1B62
100
AcDbEntity
  8
V0-OBRYS
  6
CONTINUOUS
100
AcDbLine
 10
-172.284102
 20
132.773585
 30
0.0
 11
-177.244102
 21
132.773585
 31
0.0
  0
LINE
  5
1B63
100
AcDbEntity
  8
V0-OBRYS
  6
CONTINUOUS
100
AcDbLine
 10
-178.484102
 20
132.773585
 30
0.0
 11
-183.444102
 21
132.773585
 31
0.0
  0
LINE
  5
1B64
100
AcDbEntity
  8
V0-OBRYS
  6
CONTINUOUS
100
AcDbLine
 10
-184.684102
 20
132.773585
 30
0.0
 11
-190.264102
 21
132.773585
 31
0.0
  0
LINE
  5
1B65
100
AcDbEntity
  8
V0-OBRYS
  6
CONTINUOUS
100
AcDbLine
 10
-192.124102
 20
132.773585
 30
0.0
 11
-191.024102
 21
132.773585
 31
0.0
  0
LINE
  5
1B66
100
AcDbEntity
  8
VO-OBRYS
  6
CONTINUOUS
100
AcDbLine
 10
-216.381689
 20
127.095179
 30
0.0
 11
-216.381689
 21
89.445614
 31
0.0
  0
LINE
  5
1B67
100
AcDbEntity
  8
VO-OBRYS
  6
CONTINUOUS
100
AcDbLine
 10
-184.684102
 20
14.370744
 30
0.0
 11
-190.687251
 21
35.518091
 31
0.0
  0
LINE
  5
1B68
100
AcDbEntity
  8
VO-OBRYS
  6
CONTINUOUS
100
AcDbLine
 10
-184.684102
 20
18.911495
 30
0.0
 11
-190.264102
 21
38.568211
 31
0.0
  0
LINE
  5
1B69
100
AcDbEntity
  8
VO-OBRYS
  6
CONTINUOUS
100
AcDbLine
 10
-183.444102
 20
89.373585
 30
0.0
 11
-183.444102
 21
8.55296
 31
0.0
  0
LINE
  5
1B6A
100
AcDbEntity
  8
VO-OBRYS
  6
CONTINUOUS
100
AcDbLine
 10
-184.684102
 20
89.373585
 30
0.0
 11
-184.684102
 21
8.55296
 31
0.0
  0
LINE
  5
1B6B
100
AcDbEntity
  8
VO-OBRYS
  6
CONTINUOUS
100
AcDbLine
 10
-177.244102
 20
89.373585
 30
0.0
 11
-177.244102
 21
-12.639677
 31
0.0
  0
LINE
  5
1B6C
100
AcDbEntity
  8
VO-OBRYS
  6
CONTINUOUS
100
AcDbLine
 10
-178.484102
 20
89.373585
 30
0.0
 11
-178.484102
 21
-12.639677
 31
0.0
  0
LINE
  5
1B6D
100
AcDbEntity
  8
VO-OBRYS
  6
CONTINUOUS
100
AcDbLine
 10
-171.044102
 20
89.373585
 30
0.0
 11
-171.044102
 21
-34.480473
 31
0.0
  0
LINE
  5
1B6E
100
AcDbEntity
  8
VO-OBRYS
  6
CONTINUOUS
100
AcDbLine
 10
-172.284102
 20
89.373585
 30
0.0
 11
-172.284102
 21
-34.480473
 31
0.0
  0
LINE
  5
1B6F
100
AcDbEntity
  8
VO-OBRYS
  6
CONTINUOUS
100
AcDbLine
 10
-164.844102
 20
89.373585
 30
0.0
 11
-164.844102
 21
-56.321269
 31
0.0
  0
LINE
  5
1B70
100
AcDbEntity
  8
VO-OBRYS
  6
CONTINUOUS
100
AcDbLine
 10
-166.084102
 20
89.373585
 30
0.0
 11
-166.084102
 21
-56.321269
 31
0.0
  0
LINE
  5
1B73
100
AcDbEntity
  8
V0-OBRYS
100
AcDbLine
 10
-143.144102
 20
89.373585
 30
0.0
 11
-143.144102
 21
-77.186415
 31
0.0
  0
LINE
  5
1B74
100
AcDbEntity
  8
V0-OBRYS
  6
CONTINUOUS
100
AcDbLine
 10
-178.484102
 20
45.973585
 30
0.0
 11
-183.444102
 21
45.973585
 31
0.0
  0
LINE
  5
1B75
100
AcDbEntity
  8
V0-OBRYS
  6
CONTINUOUS
100
AcDbLine
 10
-197.224102
 20
52.173585
 30
0.0
 11
-222.024102
 21
52.173585
 31
0.0
  0
LINE
  5
1B76
100
AcDbEntity
  8
VO-OBRYS
  6
CONTINUOUS
100
AcDbLine
 10
-216.381689
 20
51.65199
 30
0.0
 11
-216.381689
 21
89.301555
 31
0.0
  0
LINE
  5
1B77
100
AcDbEntity
  8
V0-OBRYS
100
AcDbLine
 10
-225.744102
 20
89.373585
 30
0.0
 11
-225.744102
 21
55.893585
 31
0.0
  0
ARC
  5
1B78
100
AcDbEntity
  8
V0-OBRYS
  6
CONTINUOUS
100
AcDbCircle
 10
-222.024102
 20
55.893585
 30
0.0
 40
3.72
100
AcDbArc
 50
180.0
 51
270.0
  0
LINE
  5
1B79
100
AcDbEntity
  8
V0-OBRYS
  6
CONTINUOUS
100
AcDbLine
 10
-197.224102
 20
52.173585
 30
0.0
 11
-197.224102
 21
89.373585
 31
0.0
  0
LINE
  5
1B7B
100
AcDbEntity
  8
V0-OBRYS
  6
CONTINUOUS
100
AcDbLine
 10
-190.264102
 20
36.297836
 30
0.0
 11
-190.264102
 21
89.373585
 31
0.0
  0
LINE
  5
1B7C
100
AcDbEntity
  8
V0-OBRYS
  6
CONTINUOUS
100
AcDbLine
 10
-192.124102
 20
36.297836
 30
0.0
 11
-192.124102
 21
89.373585
 31
0.0
  0
LINE
  5
1B7D
100
AcDbEntity
  8
V0-OBRYS
  6
CONTINUOUS
100
AcDbLine
 10
-192.124102
 20
45.973585
 30
0.0
 11
-191.024102
 21
45.973585
 31
0.0
  0
LINE
  5
1B7F
100
AcDbEntity
  8
V0-OBRYS
  6
CONTINUOUS
100
AcDbLine
 10
-184.684102
 20
45.973585
 30
0.0
 11
-190.264102
 21
45.973585
 31
0.0
  0
ARC
  5
1B80
100
AcDbEntity
  8
V0-OBRYS
  6
CONTINUOUS
100
AcDbCircle
 10
-191.194102
 20
36.297836
 30
0.0
 40
0.93
100
AcDbArc
 50
180.0
 51
0.0
  0
LINE
  5
1B83
100
AcDbEntity
  8
V0-OBRYS
  6
CONTINUOUS
100
AcDbLine
 10
-172.284102
 20
45.973585
 30
0.0
 11
-177.244102
 21
45.973585
 31
0.0
  0
LINE
  5
1B84
100
AcDbEntity
  8
V0-OBRYS
  6
CONTINUOUS
100
AcDbLine
 10
-166.084102
 20
45.973585
 30
0.0
 11
-171.044102
 21
45.973585
 31
0.0
  0
LINE
  5
1B86
100
AcDbEntity
  8
VO-OBRYS
  6
CONTINUOUS
100
AcDbLine
 10
-178.484102
 20
-2.929302
 30
0.0
 11
-183.444102
 21
14.543335
 31
0.0
  0
LINE
  5
1B87
100
AcDbEntity
  8
VO-OBRYS
  6
CONTINUOUS
100
AcDbLine
 10
-178.484102
 20
-7.470052
 30
0.0
 11
-183.444102
 21
10.002585
 31
0.0
  0
ARC
  5
1B88
100
AcDbEntity
  8
VO-OBRYS
  6
CONTINUOUS
100
AcDbCircle
 10
-184.064102
 20
8.55296
 30
0.0
 40
0.62
100
AcDbArc
 50
180.0
 51
0.0
  0
LINE
  5
1B8A
100
AcDbEntity
  8
VO-OBRYS
  6
CONTINUOUS
100
AcDbLine
 10
-172.284102
 20
-24.770098
 30
0.0
 11
-177.244102
 21
-7.297461
 31
0.0
  0
LINE
  5
1B8B
100
AcDbEntity
  8
VO-OBRYS
  6
CONTINUOUS
100
AcDbLine
 10
-166.084102
 20
-46.610894
 30
0.0
 11
-171.044102
 21
-29.138257
 31
0.0
  0
LINE
  5
1B8C
100
AcDbEntity
  8
VO-OBRYS
  6
CONTINUOUS
100
AcDbLine
 10
-172.284102
 20
-29.310848
 30
0.0
 11
-177.244102
 21
-11.838211
 31
0.0
  0
ARC
  5
1B8D
100
AcDbEntity
  8
VO-OBRYS
  6
CONTINUOUS
100
AcDbCircle
 10
-177.864102
 20
-12.639677
 30
0.0
 40
0.62
100
AcDbArc
 50
180.0
 51
0.0
  0
LINE
  5
1B8E
100
AcDbEntity
  8
VO-OBRYS
  6
CONTINUOUS
100
AcDbLine
 10
-166.084102
 20
-51.151645
 30
0.0
 11
-171.044102
 21
-33.679008
 31
0.0
  0
ARC
  5
1B8F
100
AcDbEntity
  8
VO-OBRYS
  6
CONTINUOUS
100
AcDbCircle
 10
-171.664102
 20
-34.480473
 30
0.0
 40
0.62
100
AcDbArc
 50
180.0
 51
0.0
  0
LINE
  5
1B90
100
AcDbEntity
  8
V0-OBRYS
100
AcDbLine
 10
-133.224102
 20
-77.186415
 30
0.0
 11
-143.144102
 21
-77.186415
 31
0.0
  0
LINE
  5
1B9A
100
AcDbEntity
  8
VO-OBRYS
  6
CONTINUOUS
100
AcDbLine
 10
-148.409948
 20
132.939788
 30
0.0
 11
-151.774617
 21
210.997148
 31
0.0
  0
LINE
  5
1B9B
100
AcDbEntity
  8
VO-OBRYS
  6
CONTINUOUS
100
AcDbLine
 10
-151.774617
 20
210.997148
 30
0.0
 11
-141.680603
 21
211.66946
 31
0.0
  0
LINE
  5
1BA0
100
AcDbEntity
  8
V0-VYPLNE
  6
DASHED
 62
    52
100
AcDbLine
 10
-141.680603
 20
211.66946
 30
0.0
 11
-130.240723
 21
211.66946
 31
0.0
  0
LINE
  5
1BA1
100
AcDbEntity
  8
V0-VYPLNE
  6
DASHED
 62
    52
100
AcDbLine
 10
-130.240723
 20
211.66946
 30
0.0
 11
-104.071493
 21
209.652519
 31
0.0
  0
LINE
  5
1BA2
100
AcDbEntity
  8
V0-VYPLNE
  6
DASHED
 62
    52
100
AcDbLine
 10
-104.071493
 20
209.652519
 30
0.0
 11
-108.782033
 21
132.806801
 31
0.0
  0
LINE
  5
1BA4
100
AcDbEntity
  8
V0-VYPLNE
  6
DASHED
 62
    52
100
AcDbLine
 10
-104.071493
 20
209.652519
 30
0.0
 11
-137.643
 21
132.806804
 31
0.0
  0
LINE
  5
1BA6
100
AcDbEntity
  8
V0-VYPLNE
  6
DASHED
 62
    52
100
AcDbLine
 10
-130.240723
 20
-32.922291
 30
0.0
 11
-104.071493
 21
-30.90535
 31
0.0
  0
LINE
  5
1BA8
100
AcDbEntity
  8
V0-VYPLNE
  6
DASHED
 62
    52
100
AcDbLine
 10
-141.680603
 20
-32.922291
 30
0.0
 11
-130.240723
 21
-32.922291
 31
0.0
  0
LINE
  5
1BA9
100
AcDbEntity
  8
VO-OBRYS
  6
CONTINUOUS
100
AcDbLine
 10
-151.774617
 20
-32.249979
 30
0.0
 11
-141.680603
 21
-32.922291
 31
0.0
  0
LINE
  5
1BB3
100
AcDbEntity
  8
V0-VYPLNE
  6
DASHED
 62
    52
100
AcDbLine
 10
-141.593174
 20
-33.003285
 30
0.0
 11
-130.153297
 21
-32.995109
 31
0.0
  0
LINE
  5
1BB4
100
AcDbEntity
  8
VO-OBRYS
  6
CONTINUOUS
100
AcDbLine
 10
-151.687666
 20
-32.338187
 30
0.0
 11
-141.593174
 21
-33.003285
 31
0.0
  0
LINE
  5
1BB5
100
AcDbEntity
  8
V0-VYPLNE
  6
DASHED
 62
    52
100
AcDbLine
 10
-130.153297
 20
-32.995109
 30
0.0
 11
-103.985513
 21
-30.965184
 31
0.0
  0
LINE
  5
1BB7
100
AcDbEntity
  8
V0-VYPLNE
  6
DASHED
 62
    52
100
AcDbLine
 10
-104.741135
 20
126.606801
 30
0.0
 11
-104.741135
 21
89.372334
 31
0.0
  0
ARC
  5
1BB9
100
AcDbEntity
  8
V0-VYPLNE
  6
DASHED
 62
    52
100
AcDbCircle
 10
-110.941135
 20
126.606801
 30
0.0
 40
6.2
100
AcDbArc
 50
0.0
 51
90.0
  0
ARC
  5
1BBC
100
AcDbEntity
  8
V0-OBRYS
  6
CONTINUOUS
100
AcDbCircle
 10
-191.024102
 20
126.573585
 30
0.0
 40
6.2
100
AcDbArc
 50
90.0
 51
180.0
  0
LINE
  5
1BBE
100
AcDbEntity
  8
V0-VYPLNE
  6
DASHED
 62
    52
100
AcDbLine
 10
-110.941135
 20
132.806801
 30
0.0
 11
-143.144102
 21
132.806801
 31
0.0
  0
LINE
  5
1BBF
100
AcDbEntity
  8
V0-VYPLNE
  6
DASHED
 62
    52
100
AcDbLine
 10
-104.071493
 20
-30.90535
 30
0.0
 11
-108.782033
 21
45.940368
 31
0.0
  0
LINE
  5
1BC0
100
AcDbEntity
  8
V0-VYPLNE
  6
DASHED
 62
    52
100
AcDbLine
 10
-104.071493
 20
-30.90535
 30
0.0
 11
-137.643
 21
45.940366
 31
0.0
  0
LINE
  5
1BC1
100
AcDbEntity
  8
V0-VYPLNE
  6
DASHED
 62
    52
100
AcDbLine
 10
-110.941135
 20
45.940368
 30
0.0
 11
-143.144102
 21
45.940368
 31
0.0
  0
LINE
  5
1BC2
100
AcDbEntity
  8
V0-VYPLNE
  6
DASHED
 62
    52
100
AcDbLine
 10
-104.741135
 20
52.140368
 30
0.0
 11
-104.741135
 21
89.374835
 31
0.0
  0
ARC
  5
1BC3
100
AcDbEntity
  8
V0-VYPLNE
  6
DASHED
 62
    52
100
AcDbCircle
 10
-110.941135
 20
52.140368
 30
0.0
 40
6.2
100
AcDbArc
 50
270.0
 51
0.0
  0
LINE
  5
1BC4
100
AcDbEntity
  8
V0-VYPLNE
  6
DASHED
 62
    52
100
AcDbLine
 10
-141.680603
 20
-32.922291
 30
0.0
 11
-130.240723
 21
-32.922291
 31
0.0
  0
LINE
  5
1BC5
100
AcDbEntity
  8
V0-VYPLNE
  6
DASHED
 62
    52
100
AcDbLine
 10
-130.240723
 20
-32.922291
 30
0.0
 11
-104.071493
 21
-30.90535
 31
0.0
  0
LINE
  5
1BC6
100
AcDbEntity
  8
VO-OBRYS
  6
CONTINUOUS
100
AcDbLine
 10
-148.409948
 20
45.807381
 30
0.0
 11
-151.774617
 21
-32.249979
 31
0.0
  0
LINE
  5
1BC7
100
AcDbEntity
  8
VO-OBRYS
  6
CONTINUOUS
100
AcDbLine
 10
-151.774617
 20
-32.249979
 30
0.0
 11
-141.680603
 21
-32.922291
 31
0.0
  0
ARC
  5
1BC8
100
AcDbEntity
  8
V0-OBRYS
  6
CONTINUOUS
100
AcDbCircle
 10
-191.024102
 20
52.173585
 30
0.0
 40
6.2
100
AcDbArc
 50
180.0
 51
270.0
  0
ARC
  5
1BC9
100
AcDbEntity
  8
VO-OBRYS
100
AcDbCircle
 10
381.555047
 20
89.373585
 30
0.0
 40
143.577345
100
AcDbArc
 50
145.519504
 51
214.480496
  0
ARC
  5
1BCA
100
AcDbEntity
  8
VO-OBRYS
100
AcDbCircle
 10
381.447566
 20
89.373585
 30
0.0
 40
147.933865
100
AcDbArc
 50
145.176436
 51
214.823564
  0
ARC
  5
1BCB
100
AcDbEntity
  8
VO-OBRYS
100
AcDbCircle
 10
382.532735
 20
89.373585
 30
0.0
 40
116.283033
100
AcDbArc
 50
148.377679
 51
211.622321
  0
ARC
  5
1BCC
100
AcDbEntity
  8
VO-OBRYS
100
AcDbCircle
 10
382.332067
 20
89.373585
 30
0.0
 40
120.546365
100
AcDbArc
 50
147.827062
 51
212.172938
  0
ARC
  5
1BCD
100
AcDbEntity
  8
VO-OBRYS
100
AcDbCircle
 10
363.338634
 20
85.838051
 30
0.0
 40
75.888
100
AcDbArc
 50
330.932804
 51
119.067196
  0
ARC
  5
1BCE
100
AcDbEntity
  8
VO-OBRYS
100
AcDbCircle
 10
363.338634
 20
85.838051
 30
0.0
 40
80.352
100
AcDbArc
 50
330.026114
 51
119.973886
  0
ARC
  5
1BCF
100
AcDbEntity
  8
VO-OBRYS
100
AcDbCircle
 10
351.416269
 20
89.373585
 30
0.0
 40
120.546365
100
AcDbArc
 50
327.827062
 51
32.172938
  0
ARC
  5
1BD0
100
AcDbEntity
  8
VO-OBRYS
100
AcDbCircle
 10
351.215601
 20
89.373585
 30
0.0
 40
116.283033
100
AcDbArc
 50
328.377679
 51
31.622321
  0
ARC
  5
1BD1
100
AcDbEntity
  8
VO-OBRYS
100
AcDbCircle
 10
352.193288
 20
89.373585
 30
0.0
 40
143.577345
100
AcDbArc
 50
325.519504
 51
34.480496
  0
ARC
  5
1BD2
100
AcDbEntity
  8
VO-OBRYS
100
AcDbCircle
 10
352.300769
 20
89.373585
 30
0.0
 40
147.933865
100
AcDbArc
 50
325.176436
 51
34.823564
  0
ARC
  5
1BD3
100
AcDbEntity
  8
VO-OBRYS
100
AcDbCircle
 10
366.874168
 20
103.946983
 30
0.0
 40
147.933865
100
AcDbArc
 50
235.176436
 51
304.823564
  0
ARC
  5
1BD4
100
AcDbEntity
  8
VO-OBRYS
100
AcDbCircle
 10
366.874168
 20
104.054464
 30
0.0
 40
143.577345
100
AcDbArc
 50
235.519504
 51
304.480496
  0
ARC
  5
1BD5
100
AcDbEntity
  8
VO-OBRYS
100
AcDbCircle
 10
366.874168
 20
104.831483
 30
0.0
 40
120.546365
100
AcDbArc
 50
237.827062
 51
302.172938
  0
ARC
  5
1BD6
100
AcDbEntity
  8
VO-OBRYS
100
AcDbCircle
 10
366.874168
 20
105.032151
 30
0.0
 40
116.283033
100
AcDbArc
 50
238.377679
 51
301.622321
  0
ARC
  5
1BD7
100
AcDbEntity
  8
VO-OBRYS
100
AcDbCircle
 10
366.874168
 20
106.697516
 30
0.0
 40
94.140397
100
AcDbArc
 50
242.355391
 51
297.644609
  0
ARC
  5
1BD8
100
AcDbEntity
  8
VO-OBRYS
100
AcDbCircle
 10
366.874168
 20
107.200916
 30
0.0
 40
90.179798
100
AcDbArc
 50
243.381695
 51
296.618305
  0
ARC
  5
1BD9
100
AcDbEntity
  8
V0-OBRYS
100
AcDbCircle
 10
366.874168
 20
75.10204
 30
0.0
 40
162.512011
100
AcDbArc
 50
54.17889
 51
125.82111
  0
ARC
  5
1BDA
100
AcDbEntity
  8
V0-OBRYS
100
AcDbCircle
 10
366.874168
 20
75.178845
 30
0.0
 40
166.899206
100
AcDbArc
 50
53.916734
 51
126.083266
  0
ARC
  5
1BDB
100
AcDbEntity
  8
V0-OBRYS
100
AcDbCircle
 10
352.602623
 20
89.373585
 30
0.0
 40
162.512011
100
AcDbArc
 50
324.17889
 51
35.82111
  0
ARC
  5
1BDC
100
AcDbEntity
  8
V0-OBRYS
100
AcDbCircle
 10
352.679428
 20
89.373585
 30
0.0
 40
166.899206
100
AcDbArc
 50
323.916734
 51
36.083266
  0
ARC
  5
1BDD
100
AcDbEntity
  8
V0-OBRYS
100
AcDbCircle
 10
366.874168
 20
103.64513
 30
0.0
 40
162.512011
100
AcDbArc
 50
234.17889
 51
305.82111
  0
ARC
  5
1BDE
100
AcDbEntity
  8
V0-OBRYS
100
AcDbCircle
 10
366.874168
 20
103.568325
 30
0.0
 40
166.899206
100
AcDbArc
 50
233.916734
 51
306.083266
  0
LINE
  5
1BDF
100
AcDbEntity
  8
V0-OBRYS
  6
CONTINUOUS
 62
    90
100
AcDbLine
 10
326.698168
 20
44.733585
 30
0.0
 11
407.050168
 21
44.733585
 31
0.0
  0
LINE
  5
1BE0
100
AcDbEntity
  8
V0-OBRYS
  6
CONTINUOUS
 62
    90
100
AcDbLine
 10
411.514168
 20
49.197585
 30
0.0
 11
411.514168
 21
129.549585
 31
0.0
  0
LINE
  5
1BE1
100
AcDbEntity
  8
V0-OBRYS
  6
CONTINUOUS
 62
    90
100
AcDbLine
 10
407.050168
 20
134.013585
 30
0.0
 11
326.698168
 21
134.013585
 31
0.0
  0
LINE
  5
1BE2
100
AcDbEntity
  8
V0-OBRYS
  6
CONTINUOUS
 62
    90
100
AcDbLine
 10
322.234168
 20
129.549585
 30
0.0
 11
322.234168
 21
49.197585
 31
0.0
  0
ARC
  5
1BE4
100
AcDbEntity
  8
V0-OBRYS
  6
CONTINUOUS
 62
    90
100
AcDbCircle
 10
326.698168
 20
129.549585
 30
0.0
 40
4.464
100
AcDbArc
 50
90.0
 51
180.0
  0
ARC
  5
1BE5
100
AcDbEntity
  8
V0-OBRYS
  6
CONTINUOUS
 62
    90
100
AcDbCircle
 10
326.698168
 20
49.197585
 30
0.0
 40
4.464
100
AcDbArc
 50
180.0
 51
270.0
  0
ARC
  5
1BE7
100
AcDbEntity
  8
V0-OBRYS
  6
CONTINUOUS
 62
    90
100
AcDbCircle
 10
407.050168
 20
49.197585
 30
0.0
 40
4.464
100
AcDbArc
 50
270.0
 51
0.0
  0
ARC
  5
1BE8
100
AcDbEntity
  8
V0-OBRYS
  6
CONTINUOUS
 62
    90
100
AcDbCircle
 10
407.050168
 20
129.549585
 30
0.0
 40
4.464
100
AcDbArc
 50
0.0
 51
90.0
  0
ARC
  5
1BE9
100
AcDbEntity
  8
V0-OBRYS
  6
CONTINUOUS
100
AcDbCircle
 10
366.874168
 20
89.373585
 30
0.0
 40
52.08
100
AcDbArc
 50
58.997281
 51
121.002719
  0
ARC
  5
1BEA
100
AcDbEntity
  8
V0-OBRYS
  6
CONTINUOUS
100
AcDbCircle
 10
366.874168
 20
89.373585
 30
0.0
 40
52.08
100
AcDbArc
 50
328.997281
 51
31.002719
  0
ARC
  5
1BEB
100
AcDbEntity
  8
V0-OBRYS
  6
CONTINUOUS
100
AcDbCircle
 10
366.874168
 20
89.373585
 30
0.0
 40
52.08
100
AcDbArc
 50
238.997281
 51
301.002719
  0
LINE
  5
1BEC
100
AcDbEntity
  8
V0-OBRYS
  6
CONTINUOUS
 62
    90
100
AcDbLine
 10
331.956781
 20
229.165306
 30
0.0
 11
333.465641
 21
222.13045
 31
0.0
  0
ARC
  5
1BED
100
AcDbEntity
  8
V0-OBRYS
  6
CONTINUOUS
 62
    90
100
AcDbCircle
 10
366.874168
 20
89.373585
 30
0.0
 40
148.470257
100
AcDbArc
 50
77.75092
 51
102.24908
  0
LINE
  5
1BEE
100
AcDbEntity
  8
V0-OBRYS
  6
CONTINUOUS
 62
    90
100
AcDbLine
 10
401.791554
 20
229.165306
 30
0.0
 11
400.282694
 21
222.13045
 31
0.0
  0
ARC
  5
1BEF
100
AcDbEntity
  8
V0-OBRYS
  6
CONTINUOUS
 62
    90
100
AcDbCircle
 10
336.321514
 20
230.101469
 30
0.0
 40
4.464
100
AcDbArc
 50
102.24908
 51
192.105591
  0
ARC
  5
1BF0
100
AcDbEntity
  8
V0-OBRYS
  6
CONTINUOUS
 62
    90
100
AcDbCircle
 10
397.426821
 20
230.101469
 30
0.0
 40
4.464
100
AcDbArc
 50
347.894409
 51
77.75092
  0
LINE
  5
1BF1
100
AcDbEntity
  8
V0-OBRYS
  6
CONTINUOUS
 62
    90
100
AcDbLine
 10
387.474103
 20
162.412144
 30
0.0
 11
386.129253
 21
136.12249
 31
0.0
  0
LINE
  5
1BF2
100
AcDbEntity
  8
V0-OBRYS
  6
CONTINUOUS
 62
    90
100
AcDbLine
 10
393.411886
 20
190.096249
 30
0.0
 11
388.412058
 21
166.785232
 31
0.0
  0
LINE
  5
1BF3
100
AcDbEntity
  8
V0-OBRYS
  6
CONTINUOUS
 62
    90
100
AcDbLine
 10
399.345929
 20
217.762912
 30
0.0
 11
394.349014
 21
194.465479
 31
0.0
  0
LINE
  5
1BF4
100
AcDbEntity
  8
V0-OBRYS
  6
CONTINUOUS
 62
    90
100
AcDbLine
 10
334.402406
 20
217.762912
 30
0.0
 11
339.399321
 21
194.465479
 31
0.0
  0
LINE
  5
1BF5
100
AcDbEntity
  8
V0-OBRYS
  6
CONTINUOUS
 62
    90
100
AcDbLine
 10
340.336449
 20
190.096249
 30
0.0
 11
345.336277
 21
166.785232
 31
0.0
  0
LINE
  5
1BF6
100
AcDbEntity
  8
V0-OBRYS
  6
CONTINUOUS
 62
    90
100
AcDbLine
 10
346.274232
 20
162.412144
 30
0.0
 11
347.619082
 21
136.12249
 31
0.0
  0
LINE
  5
1BF7
100
AcDbEntity
  8
V0-OBRYS
  6
CONTINUOUS
 62
    90
100
AcDbLine
 10
293.835608
 20
68.773649
 30
0.0
 11
316.589728
 21
73.654033
 31
0.0
  0
LINE
  5
1BF8
100
AcDbEntity
  8
V0-OBRYS
  6
CONTINUOUS
 62
    90
100
AcDbLine
 10
293.835608
 20
109.97352
 30
0.0
 11
320.125262
 21
108.62867
 31
0.0
  0
ARC
  5
1BF9
100
AcDbEntity
  8
V0-OBRYS
  6
CONTINUOUS
 62
    90
100
AcDbCircle
 10
226.146283
 20
119.926238
 30
0.0
 40
4.464
100
AcDbArc
 50
77.894409
 51
167.75092
  0
ARC
  5
1BFA
100
AcDbEntity
  8
V0-OBRYS
  6
CONTINUOUS
 62
    90
100
AcDbCircle
 10
366.874168
 20
89.373585
 30
0.0
 40
148.470257
100
AcDbArc
 50
167.75092
 51
192.24908
  0
LINE
  5
1BFB
100
AcDbEntity
  8
V0-OBRYS
  6
CONTINUOUS
 62
    90
100
AcDbLine
 10
238.48484
 20
56.901823
 30
0.0
 11
261.782274
 21
61.898738
 31
0.0
  0
LINE
  5
1BFC
100
AcDbEntity
  8
V0-OBRYS
  6
CONTINUOUS
 62
    90
100
AcDbLine
 10
266.151503
 20
62.835866
 30
0.0
 11
289.46252
 21
67.835694
 31
0.0
  0
LINE
  5
1BFD
100
AcDbEntity
  8
V0-OBRYS
  6
CONTINUOUS
 62
    90
100
AcDbLine
 10
227.082446
 20
54.456198
 30
0.0
 11
234.117303
 21
55.965058
 31
0.0
  0
ARC
  5
1BFE
100
AcDbEntity
  8
V0-OBRYS
  6
CONTINUOUS
 62
    90
100
AcDbCircle
 10
226.146283
 20
58.820931
 30
0.0
 40
4.464
100
AcDbArc
 50
192.24908
 51
282.105591
  0
LINE
  5
1BFF
100
AcDbEntity
  8
V0-OBRYS
  6
CONTINUOUS
 62
    90
100
AcDbLine
 10
238.48484
 20
121.845346
 30
0.0
 11
261.782274
 21
116.848431
 31
0.0
  0
LINE
  5
1C00
100
AcDbEntity
  8
V0-OBRYS
  6
CONTINUOUS
 62
    90
100
AcDbLine
 10
266.151503
 20
115.911303
 30
0.0
 11
289.46252
 21
110.911475
 31
0.0
  0
LINE
  5
1C01
100
AcDbEntity
  8
V0-OBRYS
  6
CONTINUOUS
 62
    90
100
AcDbLine
 10
227.082446
 20
124.290971
 30
0.0
 11
234.117303
 21
122.782111
 31
0.0
  0
LINE
  5
1C02
100
AcDbEntity
  8
V0-OBRYS
  6
CONTINUOUS
 62
    90
100
AcDbLine
 10
387.474103
 20
16.335025
 30
0.0
 11
382.59372
 21
39.089145
 31
0.0
  0
LINE
  5
1C03
100
AcDbEntity
  8
V0-OBRYS
  6
CONTINUOUS
 62
    90
100
AcDbLine
 10
346.274232
 20
16.335025
 30
0.0
 11
351.154616
 21
39.089145
 31
0.0
  0
ARC
  5
1C04
100
AcDbEntity
  8
V0-OBRYS
  6
CONTINUOUS
 62
    90
100
AcDbCircle
 10
336.321514
 20
-51.3543
 30
0.0
 40
4.464
100
AcDbArc
 50
167.894409
 51
257.75092
  0
ARC
  5
1C05
100
AcDbEntity
  8
V0-OBRYS
  6
CONTINUOUS
 62
    90
100
AcDbCircle
 10
366.874168
 20
89.373585
 30
0.0
 40
148.470257
100
AcDbArc
 50
257.75092
 51
282.24908
  0
LINE
  5
1C06
100
AcDbEntity
  8
V0-OBRYS
  6
CONTINUOUS
 62
    90
100
AcDbLine
 10
399.345929
 20
-39.015743
 30
0.0
 11
394.349014
 21
-15.718309
 31
0.0
  0
LINE
  5
1C07
100
AcDbEntity
  8
V0-OBRYS
  6
CONTINUOUS
 62
    90
100
AcDbLine
 10
393.411886
 20
-11.34908
 30
0.0
 11
388.412058
 21
11.961937
 31
0.0
  0
LINE
  5
1C08
100
AcDbEntity
  8
V0-OBRYS
  6
CONTINUOUS
 62
    90
100
AcDbLine
 10
401.791554
 20
-50.418137
 30
0.0
 11
400.282694
 21
-43.38328
 31
0.0
  0
ARC
  5
1C09
100
AcDbEntity
  8
V0-OBRYS
  6
CONTINUOUS
 62
    90
100
AcDbCircle
 10
397.426821
 20
-51.3543
 30
0.0
 40
4.464
100
AcDbArc
 50
282.24908
 51
12.105591
  0
LINE
  5
1C0A
100
AcDbEntity
  8
V0-OBRYS
  6
CONTINUOUS
 62
    90
100
AcDbLine
 10
334.402406
 20
-39.015743
 30
0.0
 11
339.399321
 21
-15.718309
 31
0.0
  0
LINE
  5
1C0B
100
AcDbEntity
  8
V0-OBRYS
  6
CONTINUOUS
 62
    90
100
AcDbLine
 10
340.336449
 20
-11.34908
 30
0.0
 11
345.336277
 21
11.961937
 31
0.0
  0
LINE
  5
1C0C
100
AcDbEntity
  8
V0-OBRYS
  6
CONTINUOUS
 62
    90
100
AcDbLine
 10
331.956781
 20
-50.418137
 30
0.0
 11
333.465641
 21
-43.38328
 31
0.0
  0
LINE
  5
1C0D
100
AcDbEntity
  8
V0-OBRYS
  6
CONTINUOUS
 62
    90
100
AcDbLine
 10
439.912727
 20
109.97352
 30
0.0
 11
417.158607
 21
105.093137
 31
0.0
  0
LINE
  5
1C0E
100
AcDbEntity
  8
V0-OBRYS
  6
CONTINUOUS
 62
    90
100
AcDbLine
 10
439.912727
 20
68.773649
 30
0.0
 11
417.158607
 21
73.654033
 31
0.0
  0
ARC
  5
1C0F
100
AcDbEntity
  8
V0-OBRYS
  6
CONTINUOUS
 62
    90
100
AcDbCircle
 10
507.602052
 20
58.820931
 30
0.0
 40
4.464
100
AcDbArc
 50
257.894409
 51
347.75092
  0
ARC
  5
1C10
100
AcDbEntity
  8
V0-OBRYS
  6
CONTINUOUS
 62
    90
100
AcDbCircle
 10
366.874168
 20
89.373585
 30
0.0
 40
148.470257
100
AcDbArc
 50
347.75092
 51
12.24908
  0
LINE
  5
1C11
100
AcDbEntity
  8
V0-OBRYS
  6
CONTINUOUS
 62
    90
100
AcDbLine
 10
495.263495
 20
121.845346
 30
0.0
 11
471.966062
 21
116.848431
 31
0.0
  0
LINE
  5
1C12
100
AcDbEntity
  8
V0-OBRYS
  6
CONTINUOUS
 62
    90
100
AcDbLine
 10
467.596832
 20
115.911303
 30
0.0
 11
444.285815
 21
110.911475
 31
0.0
  0
LINE
  5
1C13
100
AcDbEntity
  8
V0-OBRYS
  6
CONTINUOUS
 62
    90
100
AcDbLine
 10
506.665889
 20
124.290971
 30
0.0
 11
499.631033
 21
122.782111
 31
0.0
  0
ARC
  5
1C14
100
AcDbEntity
  8
V0-OBRYS
  6
CONTINUOUS
 62
    90
100
AcDbCircle
 10
507.602052
 20
119.926238
 30
0.0
 40
4.464
100
AcDbArc
 50
12.24908
 51
102.105591
  0
LINE
  5
1C15
100
AcDbEntity
  8
V0-OBRYS
  6
CONTINUOUS
 62
    90
100
AcDbLine
 10
495.263495
 20
56.901823
 30
0.0
 11
471.966062
 21
61.898738
 31
0.0
  0
LINE
  5
1C16
100
AcDbEntity
  8
V0-OBRYS
  6
CONTINUOUS
 62
    90
100
AcDbLine
 10
467.596832
 20
62.835866
 30
0.0
 11
444.285815
 21
67.835694
 31
0.0
  0
LINE
  5
1C17
100
AcDbEntity
  8
V0-OBRYS
  6
CONTINUOUS
 62
    90
100
AcDbLine
 10
506.665889
 20
54.456198
 30
0.0
 11
499.631033
 21
55.965058
 31
0.0
  0
CIRCLE
  5
1C91
100
AcDbEntity
  8
V0-OBRYS
  6
CONTINUOUS
 62
    90
100
AcDbCircle
 10
229.234168
 20
227.013585
 30
0.0
 40
5.58
  0
ARC
  5
1C92
100
AcDbEntity
  8
V0-VYPLNE
100
AcDbCircle
 10
404.803214
 20
116.955648
 30
0.0
 40
241.561379
100
AcDbArc
 50
219.282107
 51
228.164578
  0
CIRCLE
  5
1C93
100
AcDbEntity
  8
V0-OBRYS
  6
CONTINUOUS
 62
    90
100
AcDbCircle
 10
229.234168
 20
-49.766415
 30
0.0
 40
5.58
  0
ARC
  5
1C94
100
AcDbEntity
  8
V0-VYPLNE
100
AcDbCircle
 10
324.66856
 20
131.46159
 30
0.0
 40
255.3176
100
AcDbArc
 50
311.018468
 51
319.65822
  0
CIRCLE
  5
1C95
100
AcDbEntity
  8
V0-OBRYS
  6
CONTINUOUS
 62
    90
100
AcDbCircle
 10
504.514168
 20
-49.766415
 30
0.0
 40
5.58
  0
ARC
  5
1C96
100
AcDbEntity
  8
V0-VYPLNE
100
AcDbCircle
 10
328.945121
 20
61.791521
 30
0.0
 40
241.561379
100
AcDbArc
 50
39.282107
 51
48.164578
  0
CIRCLE
  5
1C97
100
AcDbEntity
  8
V0-OBRYS
  6
CONTINUOUS
 62
    90
100
AcDbCircle
 10
504.514168
 20
227.013585
 30
0.0
 40
5.58
  0
DIMENSION
  5
1CA4
100
AcDbEntity
  8
V0-VYPLNE
  6
CONTINUOUS
 62
    41
100
AcDbDimension
  2
*D6
 10
504.514168
 20
-120.791793
 30
0.0
 11
366.874168
 21
-108.789825
 31
0.0
 70
    32
  3
ED20
100
AcDbAlignedDimension
 13
229.234168
 23
-49.766415
 33
0.0
 14
504.514168
 24
-49.766415
 34
0.0
100
AcDbRotatedDimension
  0
CIRCLE
  5
1CB2
100
AcDbEntity
  8
V0-OBRYS
  6
CONTINUOUS
 62
    90
100
AcDbCircle
 10
333.394168
 20
122.853585
 30
0.0
 40
2.976
  0
CIRCLE
  5
1CB3
100
AcDbEntity
  8
V0-OBRYS
  6
CONTINUOUS
 62
    90
100
AcDbCircle
 10
333.394168
 20
55.893585
 30
0.0
 40
2.976
  0
CIRCLE
  5
1CB4
100
AcDbEntity
  8
V0-OBRYS
  6
CONTINUOUS
 62
    90
100
AcDbCircle
 10
400.354168
 20
55.893585
 30
0.0
 40
2.976
  0
CIRCLE
  5
1CB5
100
AcDbEntity
  8
V0-OBRYS
  6
CONTINUOUS
 62
    90
100
AcDbCircle
 10
400.354168
 20
122.853585
 30
0.0
 40
2.976
  0
POINT
  5
1CB6
100
AcDbEntity
  8
V0-VYPLNE
  6
CONTINUOUS
 62
    41
100
AcDbPoint
 10
366.874168
 20
89.373585
 30
0.0
  0
TEXT
  5
1D2A
100
AcDbEntity
  8
V0-VYPLNE
 62
     6
100
AcDbText
 10
-181.359443
 20
-211.383794
 30
0.0
 40
30.0
  1
HXM-250
  7
ED30
100
AcDbText
  0
LINE
  5
1D9C
100
AcDbEntity
  8
V0-VYPLNE
100
AcDbLine
 10
-73.073035
 20
89.373585
 30
0.0
 11
-158.644102
 21
89.373585
 31
0.0
  0
ARC
  5
1E4E
100
AcDbEntity
  8
V0-OBRYS
  6
CONTINUOUS
 62
    90
100
AcDbCircle
 10
-98.526471
 20
392.523057
 30
0.0
 40
176.072226
100
AcDbArc
 50
259.992222
 51
269.141651
  0
ARC
  5
1E52
100
AcDbEntity
  8
V0-OBRYS
  6
CONTINUOUS
 62
    90
100
AcDbCircle
 10
-128.224102
 20
224.048152
 30
0.0
 40
5.0
100
AcDbArc
 50
180.0
 51
259.624089
  0
ARC
  5
1E53
100
AcDbEntity
  8
V0-OBRYS
  6
CONTINUOUS
 62
    90
100
AcDbCircle
 10
-98.526471
 20
-213.775888
 30
0.0
 40
176.072226
100
AcDbArc
 50
90.858349
 51
100.007778
  0
ARC
  5
1E54
100
AcDbEntity
  8
V0-OBRYS
  6
CONTINUOUS
 62
    90
100
AcDbCircle
 10
-128.224102
 20
-45.300983
 30
0.0
 40
5.0
100
AcDbArc
 50
100.375911
 51
180.0
  0
LINE
  5
1E56
100
AcDbEntity
  8
V0-OBRYS
100
AcDbLine
 10
-133.221674
 20
-77.184258
 30
0.0
 11
-133.224102
 21
89.375742
 31
0.0
  0
ARC
  5
1F73
100
AcDbEntity
  8
VO-OBRYS
  6
CONTINUOUS
100
AcDbCircle
 10
-159.264102
 20
246.226393
 30
0.0
 40
0.62
100
AcDbArc
 50
0.0
 51
180.0
  0
LINE
  5
1F77
100
AcDbEntity
  8
VO-OBRYS
  6
CONTINUOUS
100
AcDbLine
 10
-159.884102
 20
240.300336
 30
0.0
 11
-164.844102
 21
225.893709
 31
0.0
  0
LINE
  5
1F78
100
AcDbEntity
  8
VO-OBRYS
  6
CONTINUOUS
100
AcDbLine
 10
-166.084102
 20
226.832803
 30
0.0
 11
-171.044102
 21
212.426177
 31
0.0
  0
LINE
  5
1F79
100
AcDbEntity
  8
VO-OBRYS
  6
CONTINUOUS
100
AcDbLine
 10
-166.084102
 20
222.292053
 30
0.0
 11
-171.044102
 21
207.885426
 31
0.0
  0
LINE
  5
1F7F
100
AcDbEntity
  8
VO-OBRYS
  6
CONTINUOUS
100
AcDbLine
 10
-158.644102
 20
89.373585
 30
0.0
 11
-158.644102
 21
-67.479224
 31
0.0
  0
LINE
  5
1F80
100
AcDbEntity
  8
VO-OBRYS
  6
CONTINUOUS
100
AcDbLine
 10
-159.884102
 20
89.373585
 30
0.0
 11
-159.884102
 21
-67.479224
 31
0.0
  0
LINE
  5
1F81
100
AcDbEntity
  8
VO-OBRYS
  6
CONTINUOUS
100
AcDbLine
 10
-159.884102
 20
-61.553167
 30
0.0
 11
-164.844102
 21
-47.14654
 31
0.0
  0
LINE
  5
1F82
100
AcDbEntity
  8
VO-OBRYS
  6
CONTINUOUS
100
AcDbLine
 10
-159.884102
 20
-66.093917
 30
0.0
 11
-164.844102
 21
-51.687291
 31
0.0
  0
LINE
  5
1F83
100
AcDbEntity
  8
VO-OBRYS
  6
CONTINUOUS
100
AcDbLine
 10
-143.044647
 20
-69.892431
 30
0.0
 11
-158.24677
 21
-66.308898
 31
0.0
  0
LINE
  5
1F84
100
AcDbEntity
  8
VO-OBRYS
  6
CONTINUOUS
100
AcDbLine
 10
-143.32915
 20
-71.099352
 30
0.0
 11
-158.644182
 21
-67.489204
 31
0.0
  0
LINE
  5
1F85
100
AcDbEntity
  8
VO-OBRYS
  6
CONTINUOUS
100
AcDbLine
 10
-158.24677
 20
-66.308898
 30
0.0
 11
-158.644102
 21
-65.154823
 31
0.0
  0
ARC
  5
1F86
100
AcDbEntity
  8
VO-OBRYS
  6
CONTINUOUS
100
AcDbCircle
 10
-159.264102
 20
-67.479224
 30
0.0
 40
0.62
100
AcDbArc
 50
180.0
 51
0.0
  0
LINE
  5
1F87
100
AcDbEntity
  8
V0-OBRYS
  6
CONTINUOUS
100
AcDbLine
 10
-143.144102
 20
45.973585
 30
0.0
 11
-171.044102
 21
45.973585
 31
0.0
  0
LINE
  5
1F88
100
AcDbEntity
  8
VO-OBRYS
  6
CONTINUOUS
100
AcDbLine
 10
-159.884102
 20
-410.478101
 30
0.0
 11
-159.884102
 21
-567.33091
 31
0.0
  0
LINE
  5
1F89
100
AcDbEntity
  8
VO-OBRYS
  6
CONTINUOUS
100
AcDbLine
 10
-158.644102
 20
-410.478101
 30
0.0
 11
-158.644102
 21
-567.33091
 31
0.0
  0
LINE
  5
1F8A
100
AcDbEntity
  8
VO-OBRYS
  6
CONTINUOUS
100
AcDbLine
 10
-166.084102
 20
-546.46258
 30
0.0
 11
-171.044102
 21
-528.989943
 31
0.0
  0
LINE
  5
1F8B
100
AcDbEntity
  8
VO-OBRYS
  6
CONTINUOUS
100
AcDbLine
 10
-166.084102
 20
-551.00333
 30
0.0
 11
-171.044102
 21
-533.530693
 31
0.0
  0
LINE
  5
1F8C
100
AcDbEntity
  8
V0-OBRYS
100
AcDbLine
 10
-133.221674
 20
-577.035944
 30
0.0
 11
-133.224102
 21
-410.475944
 31
0.0
  0
LINE
  5
1F8D
100
AcDbEntity
  8
V0-OBRYS
100
AcDbLine
 10
-143.144102
 20
-410.478101
 30
0.0
 11
-143.144102
 21
-577.038101
 31
0.0
  0
LINE
  5
1F8E
100
AcDbEntity
  8
VO-OBRYS
  6
CONTINUOUS
100
AcDbLine
 10
-164.844102
 20
-410.478101
 30
0.0
 11
-164.844102
 21
-556.172955
 31
0.0
  0
LINE
  5
1F8F
100
AcDbEntity
  8
VO-OBRYS
  6
CONTINUOUS
100
AcDbLine
 10
-166.084102
 20
-410.478101
 30
0.0
 11
-166.084102
 21
-556.172955
 31
0.0
  0
LINE
  5
1F90
100
AcDbEntity
  8
V0-OBRYS
100
AcDbLine
 10
-102.164102
 20
-538.078101
 30
0.0
 11
-101.664102
 21
-410.478101
 31
0.0
  0
ARC
  5
1F91
100
AcDbEntity
  8
V0-OBRYS
  6
CONTINUOUS
 62
    90
100
AcDbCircle
 10
-98.526471
 20
-713.627573
 30
0.0
 40
176.072226
100
AcDbArc
 50
90.858349
 51
100.007778
  0
LINE
  5
1F92
100
AcDbEntity
  8
VO-OBRYS
  6
CONTINUOUS
100
AcDbLine
 10
-143.32915
 20
-570.951038
 30
0.0
 11
-158.644182
 21
-567.340889
 31
0.0
  0
LINE
  5
1F93
100
AcDbEntity
  8
VO-OBRYS
  6
CONTINUOUS
100
AcDbLine
 10
-143.044647
 20
-569.744117
 30
0.0
 11
-158.24677
 21
-566.160584
 31
0.0
  0
LINE
  5
1F94
100
AcDbEntity
  8
VO-OBRYS
  6
CONTINUOUS
100
AcDbLine
 10
-159.884102
 20
-565.945603
 30
0.0
 11
-164.844102
 21
-551.538976
 31
0.0
  0
LINE
  5
1F95
100
AcDbEntity
  8
VO-OBRYS
  6
CONTINUOUS
100
AcDbLine
 10
-159.884102
 20
-561.404852
 30
0.0
 11
-164.844102
 21
-546.998226
 31
0.0
  0
ARC
  5
1F96
100
AcDbEntity
  8
VO-OBRYS
  6
CONTINUOUS
100
AcDbCircle
 10
-159.264102
 20
-567.33091
 30
0.0
 40
0.62
100
AcDbArc
 50
180.0
 51
0.0
  0
LINE
  5
1F97
100
AcDbEntity
  8
VO-OBRYS
  6
CONTINUOUS
100
AcDbLine
 10
-158.24677
 20
-566.160584
 30
0.0
 11
-158.644102
 21
-565.006509
 31
0.0
  0
LINE
  5
1F98
100
AcDbEntity
  8
V0-OBRYS
100
AcDbLine
 10
-133.224102
 20
-577.038101
 30
0.0
 11
-143.144102
 21
-577.038101
 31
0.0
  0
ARC
  5
1F99
100
AcDbEntity
  8
V0-OBRYS
  6
CONTINUOUS
 62
    90
100
AcDbCircle
 10
-128.224102
 20
-545.152669
 30
0.0
 40
5.0
100
AcDbArc
 50
100.375911
 51
180.0
  0
ARC
  5
1F9A
100
AcDbEntity
  8
V0-OBRYS
  6
CONTINUOUS
100
AcDbCircle
 10
-222.024102
 20
-376.998101
 30
0.0
 40
3.72
100
AcDbArc
 50
90.0
 51
180.0
  0
ARC
  5
1F9B
100
AcDbEntity
  8
V0-OBRYS
  6
CONTINUOUS
100
AcDbCircle
 10
-222.024102
 20
-443.958101
 30
0.0
 40
3.72
100
AcDbArc
 50
180.0
 51
270.0
  0
LINE
  5
1F9C
100
AcDbEntity
  8
V0-VYPLNE
100
AcDbLine
 10
-184.684102
 20
-410.478101
 30
0.0
 11
-305.614534
 21
-410.478101
 31
0.0
  0
LINE
  5
1F9D
100
AcDbEntity
  8
V0-VYPLNE
  6
CONTINUOUS
 62
    41
100
AcDbLine
 10
-258.564034
 20
-410.478101
 30
0.0
 11
-300.629384
 21
-398.330922
 31
0.0
  0
LINE
  5
1F9E
100
AcDbEntity
  8
V0-VYPLNE
  6
CONTINUOUS
 62
    41
100
AcDbLine
 10
-258.564034
 20
-410.478101
 30
0.0
 11
-300.629384
 21
-422.62528
 31
0.0
  0
LINE
  5
1F9F
100
AcDbEntity
  8
V0-VYPLNE
  6
CONTINUOUS
 62
    41
100
AcDbLine
 10
-258.564034
 20
-410.478101
 30
0.0
 11
-321.433977
 21
-410.478101
 31
0.0
  0
LINE
  5
1FA0
100
AcDbEntity
  8
V0-OBRYS
100
AcDbLine
 10
-225.744102
 20
-410.478101
 30
0.0
 11
-225.744102
 21
-376.998101
 31
0.0
  0
LINE
  5
1FA1
100
AcDbEntity
  8
V0-VYPLNE
  6
CONTINUOUS
 62
    41
100
AcDbLine
 10
-258.564034
 20
-410.478101
 30
0.0
 11
-258.564034
 21
-410.478101
 31
0.0
  0
LINE
  5
1FA2
100
AcDbEntity
  8
V0-OBRYS
100
AcDbLine
 10
-225.744102
 20
-410.478101
 30
0.0
 11
-225.744102
 21
-443.958101
 31
0.0
  0
LINE
  5
1FA3
100
AcDbEntity
  8
VO-OBRYS
  6
CONTINUOUS
100
AcDbLine
 10
-158.644102
 20
-410.478101
 30
0.0
 11
-158.644102
 21
-253.625293
 31
0.0
  0
LINE
  5
1FA4
100
AcDbEntity
  8
VO-OBRYS
  6
CONTINUOUS
100
AcDbLine
 10
-184.684102
 20
-335.475261
 30
0.0
 11
-190.687251
 21
-356.622608
 31
0.0
  0
LINE
  5
1FA5
100
AcDbEntity
  8
VO-OBRYS
  6
CONTINUOUS
100
AcDbLine
 10
-184.684102
 20
-340.016011
 30
0.0
 11
-190.264102
 21
-359.672728
 31
0.0
  0
LINE
  5
1FA6
100
AcDbEntity
  8
VO-OBRYS
  6
CONTINUOUS
100
AcDbLine
 10
-159.884102
 20
-410.478101
 30
0.0
 11
-159.884102
 21
-253.625293
 31
0.0
  0
LINE
  5
1FA7
100
AcDbEntity
  8
VO-OBRYS
  6
CONTINUOUS
100
AcDbLine
 10
-166.084102
 20
-410.478101
 30
0.0
 11
-166.084102
 21
-267.849258
 31
0.0
  0
LINE
  5
1FA8
100
AcDbEntity
  8
VO-OBRYS
  6
CONTINUOUS
100
AcDbLine
 10
-164.844102
 20
-410.478101
 30
0.0
 11
-164.844102
 21
-267.849258
 31
0.0
  0
LINE
  5
1FA9
100
AcDbEntity
  8
V0-OBRYS
100
AcDbLine
 10
-133.224102
 20
-243.918101
 30
0.0
 11
-133.224102
 21
-410.478101
 31
0.0
  0
LINE
  5
1FAA
100
AcDbEntity
  8
V0-OBRYS
100
AcDbLine
 10
-143.144102
 20
-410.478101
 30
0.0
 11
-143.144102
 21
-243.918101
 31
0.0
  0
LINE
  5
1FAB
100
AcDbEntity
  8
VO-OBRYS
  6
CONTINUOUS
100
AcDbLine
 10
-178.484102
 20
-410.478101
 30
0.0
 11
-178.484102
 21
-308.46484
 31
0.0
  0
LINE
  5
1FAC
100
AcDbEntity
  8
VO-OBRYS
  6
CONTINUOUS
100
AcDbLine
 10
-177.244102
 20
-410.478101
 30
0.0
 11
-177.244102
 21
-308.46484
 31
0.0
  0
LINE
  5
1FAD
100
AcDbEntity
  8
VO-OBRYS
  6
CONTINUOUS
100
AcDbLine
 10
-172.284102
 20
-410.478101
 30
0.0
 11
-172.284102
 21
-286.624043
 31
0.0
  0
LINE
  5
1FAE
100
AcDbEntity
  8
VO-OBRYS
  6
CONTINUOUS
100
AcDbLine
 10
-171.044102
 20
-410.478101
 30
0.0
 11
-171.044102
 21
-286.624043
 31
0.0
  0
LINE
  5
1FAF
100
AcDbEntity
  8
VO-OBRYS
  6
CONTINUOUS
100
AcDbLine
 10
-184.684102
 20
-410.478101
 30
0.0
 11
-184.684102
 21
-329.657477
 31
0.0
  0
LINE
  5
1FB0
100
AcDbEntity
  8
VO-OBRYS
  6
CONTINUOUS
100
AcDbLine
 10
-183.444102
 20
-410.478101
 30
0.0
 11
-183.444102
 21
-329.657477
 31
0.0
  0
LINE
  5
1FB1
100
AcDbEntity
  8
VO-OBRYS
  6
CONTINUOUS
100
AcDbLine
 10
-148.409948
 20
-366.911898
 30
0.0
 11
-151.774617
 21
-288.854537
 31
0.0
  0
LINE
  5
1FB2
100
AcDbEntity
  8
V0-VYPLNE
  6
DASHED
 62
    52
100
AcDbLine
 10
-104.071493
 20
-290.199166
 30
0.0
 11
-137.643
 21
-367.044882
 31
0.0
  0
LINE
  5
1FB3
100
AcDbEntity
  8
V0-OBRYS
100
AcDbLine
 10
-101.164102
 20
-283.378101
 30
0.0
 11
-101.664102
 21
-410.478101
 31
0.0
  0
LINE
  5
1FB4
100
AcDbEntity
  8
V0-VYPLNE
  6
DASHED
 62
    52
100
AcDbLine
 10
-104.071493
 20
-290.199166
 30
0.0
 11
-108.782033
 21
-367.044885
 31
0.0
  0
LINE
  5
1FB5
100
AcDbEntity
  8
V0-VYPLNE
  6
DASHED
 62
    52
100
AcDbLine
 10
-110.941135
 20
-367.044885
 30
0.0
 11
-143.144102
 21
-367.044885
 31
0.0
  0
LINE
  5
1FB6
100
AcDbEntity
  8
V0-VYPLNE
  6
DASHED
 62
    52
100
AcDbLine
 10
-110.941135
 20
-453.911317
 30
0.0
 11
-143.144102
 21
-453.911317
 31
0.0
  0
LINE
  5
1FB7
100
AcDbEntity
  8
V0-VYPLNE
100
AcDbLine
 10
-73.073035
 20
-410.478101
 30
0.0
 11
-158.644102
 21
-410.478101
 31
0.0
  0
LINE
  5
1FB8
100
AcDbEntity
  8
V0-VYPLNE
  6
DASHED
 62
    52
100
AcDbLine
 10
-130.240723
 20
-532.773976
 30
0.0
 11
-104.071493
 21
-530.757036
 31
0.0
  0
LINE
  5
1FB9
100
AcDbEntity
  8
V0-VYPLNE
  6
DASHED
 62
    52
100
AcDbLine
 10
-130.153297
 20
-532.846795
 30
0.0
 11
-103.985513
 21
-530.81687
 31
0.0
  0
LINE
  5
1FBA
100
AcDbEntity
  8
V0-VYPLNE
  6
DASHED
 62
    52
100
AcDbLine
 10
-130.240723
 20
-532.773976
 30
0.0
 11
-104.071493
 21
-530.757036
 31
0.0
  0
LINE
  5
1FBB
100
AcDbEntity
  8
V0-VYPLNE
  6
DASHED
 62
    52
100
AcDbLine
 10
-104.071493
 20
-530.757036
 30
0.0
 11
-137.643
 21
-453.91132
 31
0.0
  0
LINE
  5
1FBC
100
AcDbEntity
  8
V0-OBRYS
  6
CONTINUOUS
100
AcDbLine
 10
-197.224102
 20
-447.678101
 30
0.0
 11
-197.224102
 21
-410.478101
 31
0.0
  0
LINE
  5
1FBD
100
AcDbEntity
  8
VO-OBRYS
  6
CONTINUOUS
100
AcDbLine
 10
-216.381689
 20
-448.199696
 30
0.0
 11
-216.381689
 21
-410.550131
 31
0.0
  0
LINE
  5
1FBE
100
AcDbEntity
  8
VO-OBRYS
  6
CONTINUOUS
100
AcDbLine
 10
-183.444102
 20
-410.478101
 30
0.0
 11
-183.444102
 21
-491.298725
 31
0.0
  0
LINE
  5
1FBF
100
AcDbEntity
  8
VO-OBRYS
  6
CONTINUOUS
100
AcDbLine
 10
-184.684102
 20
-410.478101
 30
0.0
 11
-184.684102
 21
-491.298725
 31
0.0
  0
LINE
  5
1FC0
100
AcDbEntity
  8
V0-OBRYS
  6
CONTINUOUS
100
AcDbLine
 10
-190.264102
 20
-463.55385
 30
0.0
 11
-190.264102
 21
-410.478101
 31
0.0
  0
LINE
  5
1FC1
100
AcDbEntity
  8
V0-OBRYS
  6
CONTINUOUS
100
AcDbLine
 10
-192.124102
 20
-463.55385
 30
0.0
 11
-192.124102
 21
-410.478101
 31
0.0
  0
LINE
  5
1FC2
100
AcDbEntity
  8
VO-OBRYS
  6
CONTINUOUS
100
AcDbLine
 10
-177.244102
 20
-410.478101
 30
0.0
 11
-177.244102
 21
-512.491362
 31
0.0
  0
LINE
  5
1FC3
100
AcDbEntity
  8
VO-OBRYS
  6
CONTINUOUS
100
AcDbLine
 10
-178.484102
 20
-410.478101
 30
0.0
 11
-178.484102
 21
-512.491362
 31
0.0
  0
LINE
  5
1FC4
100
AcDbEntity
  8
VO-OBRYS
  6
CONTINUOUS
100
AcDbLine
 10
-171.044102
 20
-410.478101
 30
0.0
 11
-171.044102
 21
-534.332159
 31
0.0
  0
LINE
  5
1FC5
100
AcDbEntity
  8
VO-OBRYS
  6
CONTINUOUS
100
AcDbLine
 10
-172.284102
 20
-410.478101
 30
0.0
 11
-172.284102
 21
-534.332159
 31
0.0
  0
LINE
  5
1FC6
100
AcDbEntity
  8
V0-OBRYS
  6
CONTINUOUS
100
AcDbLine
 10
-172.284102
 20
-453.878101
 30
0.0
 11
-177.244102
 21
-453.878101
 31
0.0
  0
LINE
  5
1FC7
100
AcDbEntity
  8
VO-OBRYS
  6
CONTINUOUS
100
AcDbLine
 10
-172.284102
 20
-529.162534
 30
0.0
 11
-177.244102
 21
-511.689897
 31
0.0
  0
LINE
  5
1FC8
100
AcDbEntity
  8
VO-OBRYS
  6
CONTINUOUS
100
AcDbLine
 10
-172.284102
 20
-524.621784
 30
0.0
 11
-177.244102
 21
-507.149146
 31
0.0
  0
LINE
  5
1FC9
100
AcDbEntity
  8
VO-OBRYS
  6
CONTINUOUS
100
AcDbLine
 10
-178.484102
 20
-507.321738
 30
0.0
 11
-183.444102
 21
-489.849101
 31
0.0
  0
LINE
  5
1FCA
100
AcDbEntity
  8
VO-OBRYS
  6
CONTINUOUS
100
AcDbLine
 10
-178.484102
 20
-502.780987
 30
0.0
 11
-183.444102
 21
-485.30835
 31
0.0
  0
ARC
  5
1FCB
100
AcDbEntity
  8
VO-OBRYS
  6
CONTINUOUS
100
AcDbCircle
 10
-184.064102
 20
-491.298725
 30
0.0
 40
0.62
100
AcDbArc
 50
180.0
 51
0.0
  0
ARC
  5
1FCC
100
AcDbEntity
  8
VO-OBRYS
  6
CONTINUOUS
100
AcDbCircle
 10
-177.864102
 20
-512.491362
 30
0.0
 40
0.62
100
AcDbArc
 50
180.0
 51
0.0
  0
ARC
  5
1FCD
100
AcDbEntity
  8
V0-OBRYS
  6
CONTINUOUS
100
AcDbCircle
 10
-191.024102
 20
-447.678101
 30
0.0
 40
6.2
100
AcDbArc
 50
180.0
 51
270.0
  0
LINE
  5
1FCE
100
AcDbEntity
  8
V0-OBRYS
  6
CONTINUOUS
100
AcDbLine
 10
-197.224102
 20
-447.678101
 30
0.0
 11
-222.024102
 21
-447.678101
 31
0.0
  0
LINE
  5
1FCF
100
AcDbEntity
  8
VO-OBRYS
  6
CONTINUOUS
100
AcDbLine
 10
-184.684102
 20
-485.480941
 30
0.0
 11
-190.687251
 21
-464.333594
 31
0.0
  0
LINE
  5
1FD0
100
AcDbEntity
  8
VO-OBRYS
  6
CONTINUOUS
100
AcDbLine
 10
-184.684102
 20
-480.940191
 30
0.0
 11
-190.264102
 21
-461.283474
 31
0.0
  0
LINE
  5
1FD1
100
AcDbEntity
  8
V0-OBRYS
  6
CONTINUOUS
100
AcDbLine
 10
-184.684102
 20
-453.878101
 30
0.0
 11
-190.264102
 21
-453.878101
 31
0.0
  0
LINE
  5
1FD2
100
AcDbEntity
  8
V0-OBRYS
  6
CONTINUOUS
100
AcDbLine
 10
-192.124102
 20
-453.878101
 30
0.0
 11
-191.024102
 21
-453.878101
 31
0.0
  0
ARC
  5
1FD3
100
AcDbEntity
  8
V0-OBRYS
  6
CONTINUOUS
100
AcDbCircle
 10
-191.194102
 20
-463.55385
 30
0.0
 40
0.93
100
AcDbArc
 50
180.0
 51
0.0
  0
LINE
  5
1FD4
100
AcDbEntity
  8
V0-OBRYS
  6
CONTINUOUS
100
AcDbLine
 10
-178.484102
 20
-453.878101
 30
0.0
 11
-183.444102
 21
-453.878101
 31
0.0
  0
LINE
  5
1FD5
100
AcDbEntity
  8
VO-OBRYS
  6
CONTINUOUS
100
AcDbLine
 10
-148.409948
 20
-454.044304
 30
0.0
 11
-151.774617
 21
-532.101665
 31
0.0
  0
LINE
  5
1FD6
100
AcDbEntity
  8
VO-OBRYS
  6
CONTINUOUS
100
AcDbLine
 10
-151.774617
 20
-532.101665
 30
0.0
 11
-141.680603
 21
-532.773976
 31
0.0
  0
LINE
  5
1FD7
100
AcDbEntity
  8
VO-OBRYS
  6
CONTINUOUS
100
AcDbLine
 10
-151.687666
 20
-532.189873
 30
0.0
 11
-141.593174
 21
-532.854971
 31
0.0
  0
LINE
  5
1FD8
100
AcDbEntity
  8
VO-OBRYS
  6
CONTINUOUS
100
AcDbLine
 10
-151.774617
 20
-532.101665
 30
0.0
 11
-141.680603
 21
-532.773976
 31
0.0
  0
ARC
  5
1FD9
100
AcDbEntity
  8
VO-OBRYS
  6
CONTINUOUS
100
AcDbCircle
 10
-171.664102
 20
-534.332159
 30
0.0
 40
0.62
100
AcDbArc
 50
180.0
 51
0.0
  0
LINE
  5
1FDA
100
AcDbEntity
  8
V0-VYPLNE
  6
DASHED
 62
    52
100
AcDbLine
 10
-141.680603
 20
-532.773976
 30
0.0
 11
-130.240723
 21
-532.773976
 31
0.0
  0
LINE
  5
1FDB
100
AcDbEntity
  8
V0-VYPLNE
  6
DASHED
 62
    52
100
AcDbLine
 10
-141.593174
 20
-532.854971
 30
0.0
 11
-130.153297
 21
-532.846795
 31
0.0
  0
LINE
  5
1FDC
100
AcDbEntity
  8
V0-VYPLNE
  6
DASHED
 62
    52
100
AcDbLine
 10
-141.680603
 20
-532.773976
 30
0.0
 11
-130.240723
 21
-532.773976
 31
0.0
  0
LINE
  5
1FDD
100
AcDbEntity
  8
V0-OBRYS
  6
CONTINUOUS
100
AcDbLine
 10
-143.144102
 20
-453.878101
 30
0.0
 11
-171.044102
 21
-453.878101
 31
0.0
  0
LINE
  5
1FDE
100
AcDbEntity
  8
V0-OBRYS
  6
CONTINUOUS
100
AcDbLine
 10
-166.084102
 20
-453.878101
 30
0.0
 11
-171.044102
 21
-453.878101
 31
0.0
  0
LINE
  5
1FDF
100
AcDbEntity
  8
V0-OBRYS
  6
CONTINUOUS
100
AcDbLine
 10
-172.284102
 20
-367.078101
 30
0.0
 11
-177.244102
 21
-367.078101
 31
0.0
  0
LINE
  5
1FE0
100
AcDbEntity
  8
V0-OBRYS
  6
CONTINUOUS
100
AcDbLine
 10
-197.224102
 20
-373.278101
 30
0.0
 11
-197.224102
 21
-410.478101
 31
0.0
  0
LINE
  5
1FE1
100
AcDbEntity
  8
VO-OBRYS
  6
CONTINUOUS
100
AcDbLine
 10
-216.381689
 20
-372.756507
 30
0.0
 11
-216.381689
 21
-410.406071
 31
0.0
  0
LINE
  5
1FE2
100
AcDbEntity
  8
V0-OBRYS
  6
CONTINUOUS
100
AcDbLine
 10
-190.264102
 20
-357.402353
 30
0.0
 11
-190.264102
 21
-410.478101
 31
0.0
  0
LINE
  5
1FE3
100
AcDbEntity
  8
V0-OBRYS
  6
CONTINUOUS
100
AcDbLine
 10
-192.124102
 20
-357.402353
 30
0.0
 11
-192.124102
 21
-410.478101
 31
0.0
  0
LINE
  5
1FE4
100
AcDbEntity
  8
V0-OBRYS
  6
CONTINUOUS
100
AcDbLine
 10
-197.224102
 20
-373.278101
 30
0.0
 11
-222.024102
 21
-373.278101
 31
0.0
  0
ARC
  5
1FE5
100
AcDbEntity
  8
V0-OBRYS
  6
CONTINUOUS
100
AcDbCircle
 10
-191.024102
 20
-373.278101
 30
0.0
 40
6.2
100
AcDbArc
 50
90.0
 51
180.0
  0
LINE
  5
1FE6
100
AcDbEntity
  8
V0-OBRYS
  6
CONTINUOUS
100
AcDbLine
 10
-184.684102
 20
-367.078101
 30
0.0
 11
-190.264102
 21
-367.078101
 31
0.0
  0
ARC
  5
1FE7
100
AcDbEntity
  8
V0-OBRYS
  6
CONTINUOUS
100
AcDbCircle
 10
-191.194102
 20
-357.402353
 30
0.0
 40
0.93
100
AcDbArc
 50
0.0
 51
180.0
  0
LINE
  5
1FE8
100
AcDbEntity
  8
V0-OBRYS
  6
CONTINUOUS
100
AcDbLine
 10
-192.124102
 20
-367.078101
 30
0.0
 11
-191.024102
 21
-367.078101
 31
0.0
  0
LINE
  5
1FE9
100
AcDbEntity
  8
V0-OBRYS
  6
CONTINUOUS
100
AcDbLine
 10
-178.484102
 20
-367.078101
 30
0.0
 11
-183.444102
 21
-367.078101
 31
0.0
  0
LINE
  5
1FEA
100
AcDbEntity
  8
V0-OBRYS
  6
CONTINUOUS
100
AcDbLine
 10
-143.144102
 20
-367.078101
 30
0.0
 11
-171.044102
 21
-367.078101
 31
0.0
  0
LINE
  5
1FEB
100
AcDbEntity
  8
V0-VYPLNE
  6
DASHED
 62
    52
100
AcDbLine
 10
-104.741135
 20
-447.711317
 30
0.0
 11
-104.741135
 21
-410.476851
 31
0.0
  0
LINE
  5
1FEC
100
AcDbEntity
  8
V0-VYPLNE
  6
DASHED
 62
    52
100
AcDbLine
 10
-104.071493
 20
-530.757036
 30
0.0
 11
-108.782033
 21
-453.911317
 31
0.0
  0
ARC
  5
1FED
100
AcDbEntity
  8
V0-VYPLNE
  6
DASHED
 62
    52
100
AcDbCircle
 10
-110.941135
 20
-447.711317
 30
0.0
 40
6.2
100
AcDbArc
 50
270.0
 51
0.0
  0
POINT
  5
1FEE
100
AcDbEntity
  8
V0-VYPLNE
  6
CONTINUOUS
 62
    41
100
AcDbPoint
 10
-101.664102
 20
-410.478101
 30
0.0
  0
LINE
  5
1FEF
100
AcDbEntity
  8
V0-VYPLNE
  6
DASHED
 62
    52
100
AcDbLine
 10
-104.741135
 20
-373.244885
 30
0.0
 11
-104.741135
 21
-410.479352
 31
0.0
  0
ARC
  5
1FF0
100
AcDbEntity
  8
V0-VYPLNE
  6
DASHED
 62
    52
100
AcDbCircle
 10
-110.941135
 20
-373.244885
 30
0.0
 40
6.2
100
AcDbArc
 50
0.0
 51
90.0
  0
LINE
  5
1FF1
100
AcDbEntity
  8
V0-VYPLNE
  6
DASHED
 62
    52
100
AcDbLine
 10
-130.240723
 20
-288.182226
 30
0.0
 11
-104.071493
 21
-290.199166
 31
0.0
  0
ARC
  5
1FF2
100
AcDbEntity
  8
V0-OBRYS
  6
CONTINUOUS
 62
    90
100
AcDbCircle
 10
-98.526471
 20
-107.328629
 30
0.0
 40
176.072226
100
AcDbArc
 50
259.992222
 51
269.141651
  0
LINE
  5
1FF3
100
AcDbEntity
  8
VO-OBRYS
  6
CONTINUOUS
100
AcDbLine
 10
-159.884102
 20
-259.55135
 30
0.0
 11
-164.844102
 21
-273.957976
 31
0.0
  0
LINE
  5
1FF4
100
AcDbEntity
  8
VO-OBRYS
  6
CONTINUOUS
100
AcDbLine
 10
-159.884102
 20
-255.010599
 30
0.0
 11
-164.844102
 21
-269.417226
 31
0.0
  0
LINE
  5
1FF5
100
AcDbEntity
  8
VO-OBRYS
  6
CONTINUOUS
100
AcDbLine
 10
-172.284102
 20
-296.334419
 30
0.0
 11
-177.244102
 21
-313.807056
 31
0.0
  0
LINE
  5
1FF6
100
AcDbEntity
  8
VO-OBRYS
  6
CONTINUOUS
100
AcDbLine
 10
-172.284102
 20
-291.793668
 30
0.0
 11
-177.244102
 21
-309.266305
 31
0.0
  0
LINE
  5
1FF7
100
AcDbEntity
  8
VO-OBRYS
  6
CONTINUOUS
100
AcDbLine
 10
-178.484102
 20
-318.175215
 30
0.0
 11
-183.444102
 21
-335.647852
 31
0.0
  0
ARC
  5
1FF8
100
AcDbEntity
  8
VO-OBRYS
  6
CONTINUOUS
100
AcDbCircle
 10
-184.064102
 20
-329.657477
 30
0.0
 40
0.62
100
AcDbArc
 50
0.0
 51
180.0
  0
LINE
  5
1FF9
100
AcDbEntity
  8
VO-OBRYS
  6
CONTINUOUS
100
AcDbLine
 10
-178.484102
 20
-313.634464
 30
0.0
 11
-183.444102
 21
-331.107101
 31
0.0
  0
ARC
  5
1FFA
100
AcDbEntity
  8
VO-OBRYS
  6
CONTINUOUS
100
AcDbCircle
 10
-177.864102
 20
-308.46484
 30
0.0
 40
0.62
100
AcDbArc
 50
0.0
 51
180.0
  0
LINE
  5
1FFB
100
AcDbEntity
  8
VO-OBRYS
  6
CONTINUOUS
100
AcDbLine
 10
-151.774617
 20
-288.854537
 30
0.0
 11
-141.680603
 21
-288.182226
 31
0.0
  0
LINE
  5
1FFC
100
AcDbEntity
  8
VO-OBRYS
  6
CONTINUOUS
100
AcDbLine
 10
-166.084102
 20
-277.559633
 30
0.0
 11
-171.044102
 21
-291.966259
 31
0.0
  0
LINE
  5
1FFD
100
AcDbEntity
  8
VO-OBRYS
  6
CONTINUOUS
100
AcDbLine
 10
-166.084102
 20
-273.018882
 30
0.0
 11
-171.044102
 21
-287.425509
 31
0.0
  0
ARC
  5
1FFE
100
AcDbEntity
  8
VO-OBRYS
  6
CONTINUOUS
100
AcDbCircle
 10
-165.464102
 20
-267.849258
 30
0.0
 40
0.62
100
AcDbArc
 50
0.0
 51
180.0
  0
ARC
  5
1FFF
100
AcDbEntity
  8
VO-OBRYS
  6
CONTINUOUS
100
AcDbCircle
 10
-171.664102
 20
-286.624043
 30
0.0
 40
0.62
100
AcDbArc
 50
0.0
 51
180.0
  0
LINE
  5
2000
100
AcDbEntity
  8
V0-VYPLNE
  6
DASHED
 62
    52
100
AcDbLine
 10
-141.680603
 20
-288.182226
 30
0.0
 11
-130.240723
 21
-288.182226
 31
0.0
  0
ARC
  5
2001
100
AcDbEntity
  8
V0-OBRYS
  6
CONTINUOUS
 62
    90
100
AcDbCircle
 10
-128.224102
 20
-275.803534
 30
0.0
 40
5.0
100
AcDbArc
 50
180.0
 51
259.624089
  0
LINE
  5
2002
100
AcDbEntity
  8
VO-OBRYS
  6
CONTINUOUS
100
AcDbLine
 10
-143.044647
 20
-251.212085
 30
0.0
 11
-158.24677
 21
-254.795618
 31
0.0
  0
LINE
  5
2003
100
AcDbEntity
  8
VO-OBRYS
  6
CONTINUOUS
100
AcDbLine
 10
-143.32915
 20
-250.005164
 30
0.0
 11
-158.644182
 21
-253.615313
 31
0.0
  0
LINE
  5
2004
100
AcDbEntity
  8
VO-OBRYS
  6
CONTINUOUS
100
AcDbLine
 10
-158.24677
 20
-254.795618
 30
0.0
 11
-158.644102
 21
-255.949693
 31
0.0
  0
ARC
  5
2005
100
AcDbEntity
  8
VO-OBRYS
  6
CONTINUOUS
100
AcDbCircle
 10
-159.264102
 20
-253.625293
 30
0.0
 40
0.62
100
AcDbArc
 50
0.0
 51
180.0
  0
LINE
  5
2006
100
AcDbEntity
  8
V0-OBRYS
100
AcDbLine
 10
-133.224102
 20
-243.918101
 30
0.0
 11
-143.144102
 21
-243.918101
 31
0.0
  0
CIRCLE
  5
2024
100
AcDbEntity
  8
V0-OBRYS
  6
CONTINUOUS
 62
    90
100
AcDbCircle
 10
480.691662
 20
203.191079
 30
0.0
 40
4.0
  0
ARC
  5
2025
100
AcDbEntity
  8
VO-OBRYS
  6
CONTINUOUS
100
AcDbCircle
 10
480.691662
 20
203.191079
 30
0.0
 40
15.832
100
AcDbArc
 50
315.0
 51
135.0
  0
LINE
  5
2026
100
AcDbEntity
  8
V0-VYPLNE
100
AcDbLine
 10
277.104847
 20
227.239253
 30
0.0
 11
228.750002
 21
178.884409
 31
0.0
  0
ARC
  5
2027
100
AcDbEntity
  8
VO-OBRYS
  6
CONTINUOUS
100
AcDbCircle
 10
253.056673
 20
203.191079
 30
0.0
 40
15.832
100
AcDbArc
 50
45.0
 51
225.0
  0
CIRCLE
  5
2028
100
AcDbEntity
  8
V0-OBRYS
  6
CONTINUOUS
 62
    90
100
AcDbCircle
 10
253.056673
 20
203.191079
 30
0.0
 40
4.0
  0
LINE
  5
2029
100
AcDbEntity
  8
V0-VYPLNE
100
AcDbLine
 10
229.008499
 20
-0.395736
 30
0.0
 11
277.363344
 21
-48.750581
 31
0.0
  0
ARC
  5
202A
100
AcDbEntity
  8
VO-OBRYS
  6
CONTINUOUS
100
AcDbCircle
 10
253.056673
 20
-24.44391
 30
0.0
 40
15.832
100
AcDbArc
 50
135.0
 51
315.0
  0
CIRCLE
  5
202B
100
AcDbEntity
  8
V0-OBRYS
  6
CONTINUOUS
 62
    90
100
AcDbCircle
 10
253.056673
 20
-24.44391
 30
0.0
 40
4.0
  0
LINE
  5
202C
100
AcDbEntity
  8
V0-VYPLNE
100
AcDbLine
 10
456.643488
 20
-48.492084
 30
0.0
 11
504.998333
 21
-0.137239
 31
0.0
  0
ARC
  5
202D
100
AcDbEntity
  8
VO-OBRYS
  6
CONTINUOUS
100
AcDbCircle
 10
480.691662
 20
-24.44391
 30
0.0
 40
15.832
100
AcDbArc
 50
225.0
 51
45.0
  0
CIRCLE
  5
202E
100
AcDbEntity
  8
V0-OBRYS
  6
CONTINUOUS
 62
    90
100
AcDbCircle
 10
480.691662
 20
-24.44391
 30
0.0
 40
4.0
  0
LEADER
  5
2045
100
AcDbEntity
  8
V0-OBRYS
  6
CONTINUOUS
 62
    41
100
AcDbLeader
  3
ED20
 73
     0
 75
     1
 40
20.0
 41
159.43187
 76
     3
 10
225.997508
 20
-54.173072
 30
0.0
 10
187.74571
 20
-98.853225
 30
0.0
 10
167.74571
 20
-98.853225
 30
0.0
 77
    90
340
2046
  0
MTEXT
  5
2046
102
{ACAD_REACTORS
330
2045
102
}
100
AcDbEntity
  8
V0-OBRYS
  6
CONTINUOUS
 62
    41
100
AcDbMText
 10
165.74571
 20
-86.853225
 30
0.0
 40
20.0
 41
0.0
 71
     6
 72
     1
  1
\A1;4 OTVORY %%c9
  7
ED20
  0
VIEWPORT
  5
22
100
AcDbEntity
 67
     1
  8
0
100
AcDbViewport
 10
261.517699
 20
148.5
 30
0.0
 40
523.035398
 41
297.0
 68
    -1
 69
     1
1001
ACAD
1000
MVIEW
1002
{
1070
    16
1010
0.0
1020
0.0
1030
0.0
1010
0.0
1020
0.0
1030
1.0
1040
0.0
1040
297.0
1040
261.517699
1040
148.5
1040
50.0
1040
0.0
1040
0.0
1070
     0
1070
   100
1070
     1
1070
     1
1070
     0
1070
     0
1070
     0
1070
     0
1040
0.0
1040
0.0
1040
0.0
1040
1.0
1040
1.0
1040
10.0
1040
10.0
1070
     0
1002
{
1002
}
1002
}
  0
ENDSEC
  0
SECTION
  2
OBJECTS
  0
DICTIONARY
  5
C
100
AcDbDictionary
  3
ACAD_GROUP
350
D
  3
ACAD_MLINESTYLE
350
E
  3
ACDBVARIABLEDICTIONARY
350
5D
  0
DICTIONARY
  5
D
102
{ACAD_REACTORS
330
C
102
}
100
AcDbDictionary
  0
DICTIONARY
  5
E
102
{ACAD_REACTORS
330
C
102
}
100
AcDbDictionary
  3
STANDARD
350
13
  0
DICTIONARY
  5
5D
102
{ACAD_REACTORS
330
C
102
}
100
AcDbDictionary
  3
DIMADEC
350
5E
  3
SORTENTS
350
3D8
  0
MLINESTYLE
  5
13
102
{ACAD_REACTORS
330
E
102
}
100
AcDbMlineStyle
  2
STANDARD
 70
     0
  3

 62
     0
 51
90.0
 52
90.0
 71
     2
 49
0.5
 62
   256
  6
BYLAYER
 49
-0.5
 62
   256
  6
BYLAYER
  0
DICTIONARYVAR
  5
5E
102
{ACAD_REACTORS
330
5D
102
}
100
DictionaryVariables
280
     0
  1
0
  0
DICTIONARYVAR
  5
3D8
102
{ACAD_REACTORS
330
5D
102
}
100
DictionaryVariables
280
     0
  1
96
  0
ENDSEC
  0
EOF
