  0
SECTION
  2
HEADER
  9
$ACADVER
  1
AC1014
  9
$ACADMAINTVER
 70
     9
  9
$DWGCODEPAGE
  3
ANSI_1250
  9
$INSBASE
 10
0.0
 20
0.0
 30
0.0
  9
$EXTMIN
 10
-130.995523
 20
-632.3061320000001
 30
0.0
  9
$EXTMAX
 10
854.3851676285902
 20
393.055474
 30
0.0
  9
$LIMMIN
 10
0.0
 20
0.0
  9
$LIMMAX
 10
0.0
 20
0.0
  9
$ORTHOMODE
 70
     1
  9
$REGENMODE
 70
     1
  9
$FILLMODE
 70
     1
  9
$QTEXTMODE
 70
     0
  9
$MIRRTEXT
 70
     1
  9
$DRAGMODE
 70
     2
  9
$LTSCALE
 40
3.0
  9
$OSMODE
 70
    37
  9
$ATTMODE
 70
     1
  9
$TEXTSIZE
 40
0.2
  9
$TRACEWID
 40
0.05
  9
$TEXTSTYLE
  7
ED10
  9
$CLAYER
  8
V0-OBRYS
  9
$CELTYPE
  6
CONTINUOUS
  9
$CECOLOR
 62
    90
  9
$CELTSCALE
 40
1.0
  9
$DELOBJ
 70
     1
  9
$DISPSILH
 70
     0
  9
$DIMSCALE
 40
1.0
  9
$DIMASZ
 40
15.0
  9
$DIMEXO
 40
1.0
  9
$DIMDLI
 40
0.38
  9
$DIMRND
 40
0.0
  9
$DIMDLE
 40
0.0
  9
$DIMEXE
 40
1.25
  9
$DIMTP
 40
0.0
  9
$DIMTM
 40
0.0
  9
$DIMTXT
 40
10.0
  9
$DIMCEN
 40
0.09
  9
$DIMTSZ
 40
0.0
  9
$DIMTOL
 70
     0
  9
$DIMLIM
 70
     0
  9
$DIMTIH
 70
     0
  9
$DIMTOH
 70
     0
  9
$DIMSE1
 70
     0
  9
$DIMSE2
 70
     0
  9
$DIMTAD
 70
     1
  9
$DIMZIN
 70
     0
  9
$DIMBLK
  1
OPEN
  9
$DIMASO
 70
     1
  9
$DIMSHO
 70
     1
  9
$DIMPOST
  1

  9
$DIMAPOST
  1

  9
$DIMALT
 70
     0
  9
$DIMALTD
 70
     2
  9
$DIMALTF
 40
25.4
  9
$DIMLFAC
 40
1.0
  9
$DIMTOFL
 70
     1
  9
$DIMTVP
 40
0.0
  9
$DIMTIX
 70
     1
  9
$DIMSOXD
 70
     0
  9
$DIMSAH
 70
     0
  9
$DIMBLK1
  1

  9
$DIMBLK2
  1

  9
$DIMSTYLE
  2
ED10
  9
$DIMCLRD
 70
     0
  9
$DIMCLRE
 70
     0
  9
$DIMCLRT
 70
     0
  9
$DIMTFAC
 40
1.0
  9
$DIMGAP
 40
1.5
  9
$DIMJUST
 70
     0
  9
$DIMSD1
 70
     0
  9
$DIMSD2
 70
     0
  9
$DIMTOLJ
 70
     1
  9
$DIMTZIN
 70
     0
  9
$DIMALTZ
 70
     0
  9
$DIMALTTZ
 70
     0
  9
$DIMFIT
 70
     3
  9
$DIMUPT
 70
     1
  9
$DIMUNIT
 70
     2
  9
$DIMDEC
 70
     0
  9
$DIMTDEC
 70
     4
  9
$DIMALTU
 70
     2
  9
$DIMALTTD
 70
     2
  9
$DIMTXSTY
  7
ED20
  9
$DIMAUNIT
 70
     0
  9
$LUNITS
 70
     2
  9
$LUPREC
 70
     4
  9
$SKETCHINC
 40
0.1
  9
$FILLETRAD
 40
0.5
  9
$AUNITS
 70
     0
  9
$AUPREC
 70
     0
  9
$MENU
  1
.
  9
$ELEVATION
 40
0.0
  9
$PELEVATION
 40
0.0
  9
$THICKNESS
 40
0.0
  9
$LIMCHECK
 70
     0
  9
$BLIPMODE
 70
     0
  9
$CHAMFERA
 40
0.5
  9
$CHAMFERB
 40
0.5
  9
$CHAMFERC
 40
1.0
  9
$CHAMFERD
 40
0.0
  9
$SKPOLY
 70
     0
  9
$TDCREATE
 40
2455593.643085752
  9
$TDUPDATE
 40
2455593.643085764
  9
$TDINDWG
 40
0.0000000116
  9
$TDUSRTIMER
 40
0.0000000116
  9
$USRTIMER
 70
     1
  9
$ANGBASE
 50
0.0
  9
$ANGDIR
 70
     0
  9
$PDMODE
 70
     3
  9
$PDSIZE
 40
15.0
  9
$PLINEWID
 40
0.0
  9
$COORDS
 70
     1
  9
$SPLFRAME
 70
     0
  9
$SPLINETYPE
 70
     6
  9
$SPLINESEGS
 70
     8
  9
$ATTDIA
 70
     0
  9
$ATTREQ
 70
     1
  9
$HANDLING
 70
     1
  9
$HANDSEED
  5
1871
  9
$SURFTAB1
 70
     6
  9
$SURFTAB2
 70
     6
  9
$SURFTYPE
 70
     6
  9
$SURFU
 70
     6
  9
$SURFV
 70
     6
  9
$UCSNAME
  2

  9
$UCSORG
 10
0.0
 20
0.0
 30
0.0
  9
$UCSXDIR
 10
1.0
 20
0.0
 30
0.0
  9
$UCSYDIR
 10
0.0
 20
1.0
 30
0.0
  9
$PUCSNAME
  2

  9
$PUCSORG
 10
0.0
 20
0.0
 30
0.0
  9
$PUCSXDIR
 10
1.0
 20
0.0
 30
0.0
  9
$PUCSYDIR
 10
0.0
 20
1.0
 30
0.0
  9
$USERI1
 70
     0
  9
$USERI2
 70
     0
  9
$USERI3
 70
     0
  9
$USERI4
 70
     0
  9
$USERI5
 70
     0
  9
$USERR1
 40
0.0
  9
$USERR2
 40
0.0
  9
$USERR3
 40
0.0
  9
$USERR4
 40
0.0
  9
$USERR5
 40
0.0
  9
$WORLDVIEW
 70
     1
  9
$SHADEDGE
 70
     3
  9
$SHADEDIF
 70
    70
  9
$TILEMODE
 70
     1
  9
$MAXACTVP
 70
    64
  9
$PINSBASE
 10
0.0
 20
0.0
 30
0.0
  9
$PLIMCHECK
 70
     0
  9
$PEXTMIN
 10
1.000000000000000E+20
 20
1.000000000000000E+20
 30
1.000000000000000E+20
  9
$PEXTMAX
 10
-1.000000000000000E+20
 20
-1.000000000000000E+20
 30
-1.000000000000000E+20
  9
$PLIMMIN
 10
0.0
 20
0.0
  9
$PLIMMAX
 10
12.0
 20
9.0
  9
$UNITMODE
 70
     0
  9
$VISRETAIN
 70
     1
  9
$PLINEGEN
 70
     0
  9
$PSLTSCALE
 70
     1
  9
$TREEDEPTH
 70
  3020
  9
$PICKSTYLE
 70
     1
  9
$CMLSTYLE
  2
STANDARD
  9
$CMLJUST
 70
     0
  9
$CMLSCALE
 40
1.0
  9
$PROXYGRAPHICS
 70
     1
  9
$MEASUREMENT
 70
     0
  0
ENDSEC
  0
SECTION
  2
CLASSES
  0
CLASS
  1
ACDBDICTIONARYWDFLT
  2
AcDbDictionaryWithDefault
  3
ObjectDBX Classes
 90
        0
280
     0
281
     0
  0
CLASS
  1
XRECORD
  2
AcDbXrecord
  3
AutoCAD 2000
 90
        0
280
     0
281
     0
  0
CLASS
  1
LWPOLYLINE
  2
AcDbPolyline
  3
AutoCAD 2000
 90
        0
280
     0
281
     1
  0
CLASS
  1
HATCH
  2
AcDbHatch
  3
AutoCAD 2000
 90
        0
280
     0
281
     1
  0
CLASS
  1
ACDBPLACEHOLDER
  2
AcDbPlaceHolder
  3
ObjectDBX Classes
 90
        0
280
     0
281
     0
  0
CLASS
  1
LAYOUT
  2
AcDbLayout
  3
ObjectDBX Classes
 90
        0
280
     0
281
     0
  0
ENDSEC
  0
SECTION
  2
TABLES
  0
TABLE
  2
VPORT
  5
17B6
330
0
100
AcDbSymbolTable
 70
     2
  0
VPORT
  5
17D7
102
{ACAD_XDICTIONARY
360
186F
102
}
330
17B6
100
AcDbSymbolTableRecord
100
AcDbViewportTableRecord
  2
*ACTIVE
 70
     0
 10
0.0
 20
0.0
 11
1.0
 21
1.0
 12
237.384169
 22
-12.706921
 13
0.0
 23
0.0
 14
1.0
 24
1.0
 15
5.0
 25
5.0
 16
0.0
 26
0.0
 36
1.0
 17
0.0
 27
0.0
 37
0.0
 40
1318.259592
 41
0.013469848323814
 42
50.0
 43
0.0
 44
0.0
 50
0.0
 51
0.0000000000007958
 71
     0
 72
   100
 73
     1
 74
     3
 75
     0
 76
     0
 77
     0
 78
     0
  0
ENDTAB
  0
TABLE
  2
LTYPE
  5
17B3
330
0
100
AcDbSymbolTable
 70
    25
  0
LTYPE
  5
17C2
330
17B3
100
AcDbSymbolTableRecord
100
AcDbLinetypeTableRecord
  2
BYBLOCK
 70
     0
  3

 72
    65
 73
     0
 40
0.0
  0
LTYPE
  5
17C3
330
17B3
100
AcDbSymbolTableRecord
100
AcDbLinetypeTableRecord
  2
BYLAYER
 70
     0
  3

 72
    65
 73
     0
 40
0.0
  0
LTYPE
  5
17C4
330
17B3
100
AcDbSymbolTableRecord
100
AcDbLinetypeTableRecord
  2
CONTINUOUS
 70
     0
  3
Solid line
 72
    65
 73
     0
 40
0.0
  0
LTYPE
  5
17DF
330
17B3
100
AcDbSymbolTableRecord
100
AcDbLinetypeTableRecord
  2
CENTER
 70
     0
  3
Center ____ _ ____ _ ____ _ ____ _ ____ _ ____
 72
    65
 73
     4
 40
2.0
 49
1.25
 74
     0
 49
-0.25
 74
     0
 49
0.25
 74
     0
 49
-0.25
 74
     0
  0
LTYPE
  5
17E0
330
17B3
100
AcDbSymbolTableRecord
100
AcDbLinetypeTableRecord
  2
DASHDOT
 70
     0
  3
Dashdot __ . __ . __ . __ . __ . __ . __ . __
 72
    65
 73
     4
 40
1.0
 49
0.5
 74
     0
 49
-0.25
 74
     0
 49
0.0
 74
     0
 49
-0.25
 74
     0
  0
LTYPE
  5
17E1
330
17B3
100
AcDbSymbolTableRecord
100
AcDbLinetypeTableRecord
  2
DASHED
 70
     0
  3
Dashed __ __ __ __ __ __ __ __ __ __ __ __ __ _
 72
    65
 73
     2
 40
0.75
 49
0.5
 74
     0
 49
-0.25
 74
     0
  0
LTYPE
  5
17E2
330
17B3
100
AcDbSymbolTableRecord
100
AcDbLinetypeTableRecord
  2
HIDDEN
 70
     0
  3
Hidden __ __ __ __ __ __ __ __ __ __ __ __ __ __
 72
    65
 73
     2
 40
0.375
 49
0.25
 74
     0
 49
-0.125
 74
     0
  0
LTYPE
  5
17E3
330
17B3
100
AcDbSymbolTableRecord
100
AcDbLinetypeTableRecord
  2
HIDDEN2
 70
     0
  3
Hidden2 _ _ _ _ _ _ _ _ _ _ _ _ _ _ _ _ _ 
 72
    65
 73
     2
 40
0.1875
 49
0.125
 74
     0
 49
-0.0625
 74
     0
  0
LTYPE
  5
17E4
330
17B3
100
AcDbSymbolTableRecord
100
AcDbLinetypeTableRecord
  2
BORDER
 70
     0
  3
Border __ __ . __ __ . __ __ . __ __ . __ __ .
 72
    65
 73
     6
 40
1.75
 49
0.5
 74
     0
 49
-0.25
 74
     0
 49
0.5
 74
     0
 49
-0.25
 74
     0
 49
0.0
 74
     0
 49
-0.25
 74
     0
  0
LTYPE
  5
17E5
330
17B3
100
AcDbSymbolTableRecord
100
AcDbLinetypeTableRecord
  2
BORDER2
 70
     0
  3
Border2 __.__.__.__.__.__.__.__.__.__.__.
 72
    65
 73
     6
 40
0.875
 49
0.25
 74
     0
 49
-0.125
 74
     0
 49
0.25
 74
     0
 49
-0.125
 74
     0
 49
0.0
 74
     0
 49
-0.125
 74
     0
  0
LTYPE
  5
17E6
330
17B3
100
AcDbSymbolTableRecord
100
AcDbLinetypeTableRecord
  2
BORDERX2
 70
     0
  3
Borderx2  ____  ____  .  ____  ____  .  ___
 72
    65
 73
     6
 40
3.5
 49
1.0
 74
     0
 49
-0.5
 74
     0
 49
1.0
 74
     0
 49
-0.5
 74
     0
 49
0.0
 74
     0
 49
-0.5
 74
     0
  0
LTYPE
  5
17E7
330
17B3
100
AcDbSymbolTableRecord
100
AcDbLinetypeTableRecord
  2
CENTER2
 70
     0
  3
Center2  ___ _ ___ _ ___ _ ___ _ ___ _ ___
 72
    65
 73
     4
 40
1.125
 49
0.75
 74
     0
 49
-0.125
 74
     0
 49
0.125
 74
     0
 49
-0.125
 74
     0
  0
LTYPE
  5
17E8
330
17B3
100
AcDbSymbolTableRecord
100
AcDbLinetypeTableRecord
  2
CENTERX2
 70
     0
  3
Centerx2  ________  __  ________  __  _____
 72
    65
 73
     4
 40
4.0
 49
2.5
 74
     0
 49
-0.5
 74
     0
 49
0.5
 74
     0
 49
-0.5
 74
     0
  0
LTYPE
  5
17E9
330
17B3
100
AcDbSymbolTableRecord
100
AcDbLinetypeTableRecord
  2
DASHDOT2
 70
     0
  3
Dashdot2  _._._._._._._._._._._._._._._.
 72
    65
 73
     4
 40
0.5
 49
0.25
 74
     0
 49
-0.125
 74
     0
 49
0.0
 74
     0
 49
-0.125
 74
     0
  0
LTYPE
  5
17EA
330
17B3
100
AcDbSymbolTableRecord
100
AcDbLinetypeTableRecord
  2
DASHDOTX2
 70
     0
  3
Dashdotx2 ____  .  ____  .  ____  .  ___
 72
    65
 73
     4
 40
2.0
 49
1.0
 74
     0
 49
-0.5
 74
     0
 49
0.0
 74
     0
 49
-0.5
 74
     0
  0
LTYPE
  5
17EB
330
17B3
100
AcDbSymbolTableRecord
100
AcDbLinetypeTableRecord
  2
DASHED2
 70
     0
  3
Dashed2 _ _ _ _ _ _ _ _ _ _ _ _ _ _ _ _ _ 
 72
    65
 73
     2
 40
0.375
 49
0.25
 74
     0
 49
-0.125
 74
     0
  0
LTYPE
  5
17EC
330
17B3
100
AcDbSymbolTableRecord
100
AcDbLinetypeTableRecord
  2
DASHEDX2
 70
     0
  3
Dashedx2 ____  ____  ____  ____  ____  ___
 72
    65
 73
     2
 40
1.5
 49
1.0
 74
     0
 49
-0.5
 74
     0
  0
LTYPE
  5
17ED
330
17B3
100
AcDbSymbolTableRecord
100
AcDbLinetypeTableRecord
  2
DIVIDE
 70
     0
  3
Divide ____ . . ____ . . ____ . . ____ . . ____
 72
    65
 73
     6
 40
1.25
 49
0.5
 74
     0
 49
-0.25
 74
     0
 49
0.0
 74
     0
 49
-0.25
 74
     0
 49
0.0
 74
     0
 49
-0.25
 74
     0
  0
LTYPE
  5
17EE
330
17B3
100
AcDbSymbolTableRecord
100
AcDbLinetypeTableRecord
  2
DIVIDE2
 70
     0
  3
Divide2 __..__..__..__..__..__..__..__.._
 72
    65
 73
     6
 40
0.625
 49
0.25
 74
     0
 49
-0.125
 74
     0
 49
0.0
 74
     0
 49
-0.125
 74
     0
 49
0.0
 74
     0
 49
-0.125
 74
     0
  0
LTYPE
  5
17EF
330
17B3
100
AcDbSymbolTableRecord
100
AcDbLinetypeTableRecord
  2
DIVIDEX2
 70
     0
  3
Dividex2 ________  .  .  ________  .  .  _
 72
    65
 73
     6
 40
2.5
 49
1.0
 74
     0
 49
-0.5
 74
     0
 49
0.0
 74
     0
 49
-0.5
 74
     0
 49
0.0
 74
     0
 49
-0.5
 74
     0
  0
LTYPE
  5
17F0
330
17B3
100
AcDbSymbolTableRecord
100
AcDbLinetypeTableRecord
  2
DOT
 70
     0
  3
Dot . . . . . . . . . . . . . . . . . . . . . . . .
 72
    65
 73
     2
 40
0.25
 49
0.0
 74
     0
 49
-0.25
 74
     0
  0
LTYPE
  5
17F1
330
17B3
100
AcDbSymbolTableRecord
100
AcDbLinetypeTableRecord
  2
DOT2
 70
     0
  3
Dot2 ........................................
 72
    65
 73
     2
 40
0.125
 49
0.0
 74
     0
 49
-0.125
 74
     0
  0
LTYPE
  5
17F2
330
17B3
100
AcDbSymbolTableRecord
100
AcDbLinetypeTableRecord
  2
DOTX2
 70
     0
  3
Dotx2 .  .  .  .  .  .  .  .  .  .  .  .  .  .
 72
    65
 73
     2
 40
0.5
 49
0.0
 74
     0
 49
-0.5
 74
     0
  0
LTYPE
  5
17F3
330
17B3
100
AcDbSymbolTableRecord
100
AcDbLinetypeTableRecord
  2
HIDDENX2
 70
     0
  3
Hiddenx2 ____ ____ ____ ____ ____ ____ ____ 
 72
    65
 73
     2
 40
0.75
 49
0.5
 74
     0
 49
-0.25
 74
     0
  0
LTYPE
  5
17F4
330
17B3
100
AcDbSymbolTableRecord
100
AcDbLinetypeTableRecord
  2
PHANTOM
 70
     0
  3
Phantom ______  __  __  ______  __  __  ______ 
 72
    65
 73
     6
 40
2.5
 49
1.25
 74
     0
 49
-0.25
 74
     0
 49
0.25
 74
     0
 49
-0.25
 74
     0
 49
0.25
 74
     0
 49
-0.25
 74
     0
  0
LTYPE
  5
17F5
330
17B3
100
AcDbSymbolTableRecord
100
AcDbLinetypeTableRecord
  2
PHANTOM2
 70
     0
  3
Phantom2 ___ _ _ ___ _ _ ___ _ _ ___ _ _
 72
    65
 73
     6
 40
1.25
 49
0.625
 74
     0
 49
-0.125
 74
     0
 49
0.125
 74
     0
 49
-0.125
 74
     0
 49
0.125
 74
     0
 49
-0.125
 74
     0
  0
LTYPE
  5
17F6
330
17B3
100
AcDbSymbolTableRecord
100
AcDbLinetypeTableRecord
  2
PHANTOMX2
 70
     0
  3
Phantomx2 ____________    ____    ____   _
 72
    65
 73
     6
 40
5.0
 49
2.5
 74
     0
 49
-0.5
 74
     0
 49
0.5
 74
     0
 49
-0.5
 74
     0
 49
0.5
 74
     0
 49
-0.5
 74
     0
  0
ENDTAB
  0
TABLE
  2
LAYER
  5
17B0
330
0
100
AcDbSymbolTable
 70
     6
  0
LAYER
  5
17BE
330
17B0
100
AcDbSymbolTableRecord
100
AcDbLayerTableRecord
  2
0
 70
     0
 62
     7
  6
CONTINUOUS
  0
LAYER
  5
2E
330
17B0
100
AcDbSymbolTableRecord
100
AcDbLayerTableRecord
  2
DEFPOINTS
 70
     0
 62
     7
  6
CONTINUOUS
  0
LAYER
  5
4E
330
17B0
100
AcDbSymbolTableRecord
100
AcDbLayerTableRecord
  2
V0-OBRYS
 70
     0
 62
    90
  6
CONTINUOUS
  0
LAYER
  5
24
330
17B0
100
AcDbSymbolTableRecord
100
AcDbLayerTableRecord
  2
V0-VYPLNE
 70
     0
 62
    52
  6
CONTINUOUS
  0
LAYER
  5
91
330
17B0
100
AcDbSymbolTableRecord
100
AcDbLayerTableRecord
  2
V0-NAZVY
 70
     0
 62
   210
  6
CONTINUOUS
  0
LAYER
  5
FE
330
17B0
100
AcDbSymbolTableRecord
100
AcDbLayerTableRecord
  2
V0-ZBYTEK
 70
     0
 62
    51
  6
CONTINUOUS
  0
ENDTAB
  0
TABLE
  2
STYLE
  5
17B1
330
0
100
AcDbSymbolTable
 70
     7
  0
STYLE
  5
17BF
330
17B1
100
AcDbSymbolTableRecord
100
AcDbTextStyleTableRecord
  2
STANDARD
 70
     0
 40
0.0
 41
1.0
 50
0.0
 71
     0
 42
0.2
  3
ISOCP.shx
  4

1001
ACAD
1000
ISOCP.shx
1071
        0
  0
STYLE
  5
2F3
330
17B1
100
AcDbSymbolTableRecord
100
AcDbTextStyleTableRecord
  2
ED30
 70
     0
 40
30.0
 41
1.0
 50
0.0
 71
     0
 42
0.2
  3
ISOCP.shx
  4

1001
ACAD
1000
ISOCP.shx
1071
        0
  0
STYLE
  5
2F4
330
17B1
100
AcDbSymbolTableRecord
100
AcDbTextStyleTableRecord
  2
ED20
 70
     0
 40
20.0
 41
1.0
 50
0.0
 71
     0
 42
0.2
  3
isocp.shx
  4

1001
ACAD
1000
isocp.shx
1071
        0
  0
STYLE
  5
2F5
330
17B1
100
AcDbSymbolTableRecord
100
AcDbTextStyleTableRecord
  2
ED40
 70
     0
 40
40.0
 41
1.0
 50
0.0
 71
     0
 42
0.2
  3
isocp.shx
  4

1001
ACAD
1000
isocp.shx
1071
        0
  0
STYLE
  5
2F6
330
17B1
100
AcDbSymbolTableRecord
100
AcDbTextStyleTableRecord
  2
ED10
 70
     0
 40
10.0
 41
1.0
 50
0.0
 71
     0
 42
0.2
  3
isocp.shx
  4

1001
ACAD
1000
isocp.shx
1071
        0
  0
STYLE
  5
2F7
330
17B1
100
AcDbSymbolTableRecord
100
AcDbTextStyleTableRecord
  2
VD_RECOV_1_2F7_
 70
     0
 40
0.0
 41
1.0
 50
0.0
 71
     0
 42
0.2
  3
ltypeshp.shx
  4

1001
ACAD
1000
ltypeshp.shx
1071
        0
  0
STYLE
  5
415
330
17B1
100
AcDbSymbolTableRecord
100
AcDbTextStyleTableRecord
  2
ED5
 70
     0
 40
10.0
 41
1.0
 50
0.0
 71
     0
 42
0.2
  3
ISOCP.shx
  4

1001
ACAD
1000
ISOCP.shx
1071
        0
  0
ENDTAB
  0
TABLE
  2
VIEW
  5
17B4
330
0
100
AcDbSymbolTable
 70
     0
  0
ENDTAB
  0
TABLE
  2
UCS
  5
17B5
330
0
100
AcDbSymbolTable
 70
     0
  0
ENDTAB
  0
TABLE
  2
APPID
  5
17B7
330
0
100
AcDbSymbolTable
 70
     6
  0
APPID
  5
17C0
330
17B7
100
AcDbSymbolTableRecord
100
AcDbRegAppTableRecord
  2
ACAD
 70
     0
  0
APPID
  5
17D8
330
17B7
100
AcDbSymbolTableRecord
100
AcDbRegAppTableRecord
  2
VD_INVISIBLE_NOT_FOR_READ
 70
     0
  0
APPID
  5
17D9
330
17B7
100
AcDbSymbolTableRecord
100
AcDbRegAppTableRecord
  2
VD_TEMPHATCH
 70
     0
  0
APPID
  5
17DA
330
17B7
100
AcDbSymbolTableRecord
100
AcDbRegAppTableRecord
  2
VDEXTRAPARAM
 70
     0
  0
APPID
  5
17DB
330
17B7
100
AcDbSymbolTableRecord
100
AcDbRegAppTableRecord
  2
PE_URL
 70
     0
  0
APPID
  5
17DC
330
17B7
100
AcDbSymbolTableRecord
100
AcDbRegAppTableRecord
  2
VD_UNKNOWN
 70
     0
  0
ENDTAB
  0
TABLE
  2
DIMSTYLE
  5
17B8
330
0
100
AcDbSymbolTable
 70
     6
  0
DIMSTYLE
105
17D5
330
17B8
100
AcDbSymbolTableRecord
100
AcDbDimStyleTableRecord
  2
STANDARD
 70
     0
  3

  4

  5
OPEN
  6

  7

 40
5.0
 41
3.5
 42
0.0625
 43
0.38
 44
0.18
 45
0.0
 46
0.0
 47
0.0
 48
0.0
140
3.5
141
0.09
142
0.0
143
25.4
144
1.0
145
0.0
146
1.0
147
0.625
 71
     0
 72
     0
 73
     0
 74
     0
 75
     0
 76
     0
 77
     1
 78
     0
170
     0
171
     2
172
     1
173
     0
174
     1
175
     0
176
     0
177
     0
178
     0
270
     2
271
     0
272
     4
273
     2
274
     2
340
17BF
275
     0
280
     0
281
     0
282
     0
283
     1
284
     0
285
     0
286
     0
287
     3
288
     1
  0
DIMSTYLE
105
2F8
330
17B8
100
AcDbSymbolTableRecord
100
AcDbDimStyleTableRecord
  2
ED30
 70
     0
  3

  4

  5
OPEN
  6

  7

 40
1.0
 41
25.0
 42
1.0
 43
0.38
 44
1.25
 45
0.0
 46
0.0
 47
0.0
 48
0.0
140
30.0
141
0.09
142
0.0
143
25.4
144
1.0
145
0.0
146
1.0
147
2.0
 71
     0
 72
     0
 73
     0
 74
     0
 75
     0
 76
     0
 77
     1
 78
     0
170
     0
171
     2
172
     1
173
     0
174
     1
175
     0
176
     0
177
     0
178
     0
270
     2
271
     0
272
     4
273
     2
274
     2
340
2F3
275
     0
280
     0
281
     0
282
     0
283
     1
284
     0
285
     0
286
     0
287
     3
288
     1
  0
DIMSTYLE
105
2F9
330
17B8
100
AcDbSymbolTableRecord
100
AcDbDimStyleTableRecord
  2
ED40
 70
     0
  3

  4

  5
OPEN
  6

  7

 40
1.0
 41
35.0
 42
1.0
 43
0.38
 44
1.25
 45
0.0
 46
0.0
 47
0.0
 48
0.0
140
40.0
141
0.09
142
0.0
143
25.4
144
1.0
145
0.0
146
1.0
147
3.0
 71
     0
 72
     0
 73
     0
 74
     0
 75
     0
 76
     0
 77
     1
 78
     0
170
     0
171
     2
172
     1
173
     0
174
     1
175
     0
176
     0
177
     0
178
     0
270
     2
271
     0
272
     4
273
     2
274
     2
340
2F5
275
     0
280
     0
281
     0
282
     0
283
     1
284
     0
285
     0
286
     0
287
     3
288
     1
  0
DIMSTYLE
105
2FA
330
17B8
100
AcDbSymbolTableRecord
100
AcDbDimStyleTableRecord
  2
ED20
 70
     0
  3

  4

  5
OPEN
  6

  7

 40
1.0
 41
20.0
 42
1.0
 43
0.38
 44
1.25
 45
0.0
 46
0.0
 47
0.0
 48
0.0
140
20.0
141
0.09
142
0.0
143
25.4
144
1.0
145
0.0
146
1.0
147
1.5
 71
     0
 72
     0
 73
     0
 74
     0
 75
     0
 76
     0
 77
     1
 78
     0
170
     0
171
     2
172
     1
173
     0
174
     1
175
     0
176
     0
177
     0
178
     0
270
     2
271
     0
272
     4
273
     2
274
     2
340
2F4
275
     0
280
     0
281
     0
282
     0
283
     1
284
     0
285
     0
286
     0
287
     3
288
     1
  0
DIMSTYLE
105
2FB
102
{ACAD_REACTORS
330
B07
330
B14
330
E13
330
1101
330
1102
330
1103
102
}
330
17B8
100
AcDbSymbolTableRecord
100
AcDbDimStyleTableRecord
  2
ED10
 70
     0
  3

  4

  5
OPEN
  6

  7

 40
1.0
 41
15.0
 42
1.0
 43
0.38
 44
1.25
 45
0.0
 46
0.0
 47
0.0
 48
0.0
140
10.0
141
0.09
142
0.0
143
25.4
144
1.0
145
0.0
146
1.0
147
1.5
 71
     0
 72
     0
 73
     0
 74
     0
 75
     0
 76
     0
 77
     1
 78
     0
170
     0
171
     2
172
     1
173
     0
174
     1
175
     0
176
     0
177
     0
178
     0
270
     2
271
     0
272
     4
273
     2
274
     2
340
2F4
275
     0
280
     0
281
     0
282
     0
283
     1
284
     0
285
     0
286
     0
287
     3
288
     1
  0
DIMSTYLE
105
417
330
17B8
100
AcDbSymbolTableRecord
100
AcDbDimStyleTableRecord
  2
ED5
 70
     0
  3

  4

  5
OPEN
  6

  7

 40
1.0
 41
12.0
 42
1.0
 43
0.38
 44
1.25
 45
0.0
 46
0.0
 47
0.0
 48
0.0
140
10.0
141
0.09
142
0.0
143
25.4
144
1.0
145
0.0
146
1.0
147
1.5
 71
     0
 72
     0
 73
     0
 74
     0
 75
     0
 76
     0
 77
     1
 78
     0
170
     0
171
     2
172
     1
173
     0
174
     1
175
     0
176
     0
177
     0
178
     0
270
     2
271
     0
272
     4
273
     2
274
     2
340
415
275
     0
280
     0
281
     0
282
     0
283
     1
284
     0
285
     0
286
     0
287
     3
288
     1
  0
ENDTAB
  0
TABLE
  2
BLOCK_RECORD
  5
17AF
330
0
100
AcDbSymbolTable
 70
    11
  0
BLOCK_RECORD
  5
17CD
330
17AF
100
AcDbSymbolTableRecord
100
AcDbBlockTableRecord
  2
*MODEL_SPACE
  0
BLOCK_RECORD
  5
17C9
330
17AF
100
AcDbSymbolTableRecord
100
AcDbBlockTableRecord
  2
*PAPER_SPACE
  0
BLOCK_RECORD
  5
1D
330
17AF
100
AcDbSymbolTableRecord
100
AcDbBlockTableRecord
  2
_OPEN
  0
BLOCK_RECORD
  5
213
330
17AF
100
AcDbSymbolTableRecord
100
AcDbBlockTableRecord
  2
A20_350
  0
BLOCK_RECORD
  5
17AB
330
17AF
100
AcDbSymbolTableRecord
100
AcDbBlockTableRecord
  2
VDDIM_DEFAULT
  0
BLOCK_RECORD
  5
17AD
330
17AF
100
AcDbSymbolTableRecord
100
AcDbBlockTableRecord
  2
VDDIM_NONE
  0
BLOCK_RECORD
  5
1800
330
17AF
100
AcDbSymbolTableRecord
100
AcDbBlockTableRecord
  2
*D5
  0
BLOCK_RECORD
  5
180D
330
17AF
100
AcDbSymbolTableRecord
100
AcDbBlockTableRecord
  2
*D6
  0
BLOCK_RECORD
  5
1819
330
17AF
100
AcDbSymbolTableRecord
100
AcDbBlockTableRecord
  2
*D7
  0
BLOCK_RECORD
  5
1824
330
17AF
100
AcDbSymbolTableRecord
100
AcDbBlockTableRecord
  2
*D8
  0
BLOCK_RECORD
  5
1832
330
17AF
100
AcDbSymbolTableRecord
100
AcDbBlockTableRecord
  2
*D9
  0
BLOCK_RECORD
  5
1840
330
17AF
100
AcDbSymbolTableRecord
100
AcDbBlockTableRecord
  2
*D10
  0
ENDTAB
  0
ENDSEC
  0
SECTION
  2
BLOCKS
  0
BLOCK
  5
17CE
330
17CD
100
AcDbEntity
  8
0
100
AcDbBlockBegin
  2
*MODEL_SPACE
 70
     0
 71
     0
 10
0.0
 20
0.0
 30
0.0
  3
*MODEL_SPACE
  1

  0
ENDBLK
  5
17CF
330
17CD
100
AcDbEntity
  8
0
100
AcDbBlockEnd
  0
BLOCK
  5
17CA
330
17C9
100
AcDbEntity
 67
     1
  8
0
100
AcDbBlockBegin
  2
*PAPER_SPACE
 70
     0
 71
     0
 10
0.0
 20
0.0
 30
0.0
  3
*PAPER_SPACE
  1

  0
ENDBLK
  5
17CB
330
17C9
100
AcDbEntity
 67
     1
  8
0
100
AcDbBlockEnd
  0
BLOCK
  5
17F7
330
1D
100
AcDbEntity
  8
0
100
AcDbBlockBegin
  2
_OPEN
 70
     0
 71
     0
 10
0.0
 20
0.0
 30
0.0
  3
_OPEN
  1

  0
LINE
  5
1E
330
1D
100
AcDbEntity
  8
0
  6
BYBLOCK
 62
     0
100
AcDbLine
 10
-1.0
 20
0.166667
 30
0.0
 11
0.0
 21
0.0
 31
0.0
  0
LINE
  5
1F
330
1D
100
AcDbEntity
  8
0
  6
BYBLOCK
 62
     0
100
AcDbLine
 10
0.0
 20
0.0
 30
0.0
 11
-1.0
 21
-0.166667
 31
0.0
  0
LINE
  5
20
330
1D
100
AcDbEntity
  8
0
  6
BYBLOCK
 62
     0
100
AcDbLine
 10
0.0
 20
0.0
 30
0.0
 11
-1.0
 21
0.0
 31
0.0
  0
ENDBLK
  5
17F8
330
1D
100
AcDbEntity
  8
0
100
AcDbBlockEnd
  0
BLOCK
  5
17F9
330
213
100
AcDbEntity
  8
0
100
AcDbBlockBegin
  2
A20_350
 70
     0
 71
     0
 10
0.0
 20
0.0
 30
0.0
  3
A20_350
  1

  0
ENDBLK
  5
17FA
330
213
100
AcDbEntity
  8
0
100
AcDbBlockEnd
  0
BLOCK
  5
17FB
330
17AB
100
AcDbEntity
  8
0
100
AcDbBlockBegin
  2
VDDIM_DEFAULT
 70
     0
 71
     0
 10
0.0
 20
0.0
 30
0.0
  3
VDDIM_DEFAULT
  1

  0
LWPOLYLINE
  5
17AC
330
17AB
100
AcDbEntity
  8
0
  6
CONTINUOUS
 62
     0
100
AcDbPolyline
 90
        4
 70
     0
 43
0.0
 10
0.0
 20
0.0
 10
-1.0
 20
-0.1665
 10
-1.0
 20
0.1665
 10
0.0
 20
0.0
1001
VDEXTRAPARAM
1071
        1
1071
        0
1071
        0
1040
1.0
1000

1000

1040
0.0
1040
0.0
  0
HATCH
  5
17FF
330
17AB
100
AcDbEntity
  8
0
  6
CONTINUOUS
 62
     0
100
AcDbHatch
 10
0.0
 20
0.0
 30
0.0
210
0.0
220
0.0
230
1.0
  2
SOLID
 70
     1
 71
     0
 91
        1
 92
        2
 72
     0
 73
     1
 93
        3
 10
0.0
 20
0.0
 10
-1.0
 20
-0.1665
 10
-1.0
 20
0.1665
 97
        0
 75
     0
 76
     1
 98
        1
 10
0.0
 20
0.0
1001
VDEXTRAPARAM
1071
        1
1071
        0
1071
        0
1040
1.0
1000

1000

1040
0.0
1040
0.0
1001
VD_TEMPHATCH
1000
VD_TEMPHATCH
  0
ENDBLK
  5
17FC
330
17AB
100
AcDbEntity
  8
0
100
AcDbBlockEnd
  0
BLOCK
  5
17FD
330
17AD
100
AcDbEntity
  8
0
100
AcDbBlockBegin
  2
VDDIM_NONE
 70
     0
 71
     0
 10
0.0
 20
0.0
 30
0.0
  3
VDDIM_NONE
  1

  0
ENDBLK
  5
17FE
330
17AD
100
AcDbEntity
  8
0
100
AcDbBlockEnd
  0
BLOCK
  5
180B
330
1800
100
AcDbEntity
  8
0
100
AcDbBlockBegin
  2
*D5
 70
     1
 71
     0
 10
0.0
 20
0.0
 30
0.0
  3
*D5
  1

  0
LINE
  5
1801
330
1800
100
AcDbEntity
  8
V0-VYPLNE
 62
     0
100
AcDbLine
 10
406.296907
 20
13.84319
 30
0.0
 11
406.296907
 21
-50.03718699999443
 31
0.0
  0
LINE
  5
1802
330
1800
100
AcDbEntity
  8
V0-VYPLNE
 62
     0
100
AcDbLine
 10
774.342247
 20
13.84319
 30
0.0
 11
774.342247
 21
-50.03718699999445
 31
0.0
  0
LINE
  5
1803
330
1800
100
AcDbEntity
  8
V0-VYPLNE
 62
     0
100
AcDbLine
 10
421.296907
 20
-48.78718699999443
 30
0.0
 11
583.0288101428571
 21
-48.78718699999444
 31
0.0
  0
LINE
  5
1804
330
1800
100
AcDbEntity
  8
V0-VYPLNE
 62
     0
100
AcDbLine
 10
759.342247
 20
-48.78718699999445
 30
0.0
 11
611.7430958571429
 21
-48.78718699999444
 31
0.0
  0
INSERT
  5
1805
330
1800
100
AcDbEntity
  8
V0-VYPLNE
 62
     0
100
AcDbBlockReference
  2
_OPEN
 10
406.296907
 20
-48.78718699999443
 30
0.0
 41
15.0
 42
15.0
 43
15.0
 50
180.0
  0
INSERT
  5
1806
330
1800
100
AcDbEntity
  8
V0-VYPLNE
 62
     0
100
AcDbBlockReference
  2
_OPEN
 10
774.342247
 20
-48.78718699999445
 30
0.0
 41
15.0
 42
15.0
 43
15.0
 50
360.0
  0
MTEXT
  5
1807
330
1800
100
AcDbEntity
  8
V0-VYPLNE
 62
     0
100
AcDbMText
 10
597.385953
 20
-48.787187
 30
0.0
 40
10.0
 41
0.0
 71
     5
 72
     1
  1
\A1;368
  7
ED20
  0
POINT
  5
1808
330
1800
100
AcDbEntity
  8
DEFPOINTS
 62
     0
100
AcDbPoint
 10
406.296907
 20
14.84319
 30
0.0
  0
POINT
  5
1809
330
1800
100
AcDbEntity
  8
DEFPOINTS
 62
     0
100
AcDbPoint
 10
774.342247
 20
14.84319
 30
0.0
  0
POINT
  5
180A
330
1800
100
AcDbEntity
  8
DEFPOINTS
 62
     0
100
AcDbPoint
 10
774.342247
 20
-48.78718699999445
 30
0.0
  0
ENDBLK
  5
180C
330
1800
100
AcDbEntity
  8
0
100
AcDbBlockEnd
  0
BLOCK
  5
1817
330
180D
100
AcDbEntity
  8
0
100
AcDbBlockBegin
  2
*D6
 70
     1
 71
     0
 10
0.0
 20
0.0
 30
0.0
  3
*D6
  1

  0
LINE
  5
180E
330
180D
100
AcDbEntity
  8
V0-VYPLNE
 62
     0
100
AcDbLine
 10
429.186747
 20
393.00919
 30
0.0
 11
361.0874509999999
 21
393.0091899999999
 31
0.0
  0
LINE
  5
180F
330
180D
100
AcDbEntity
  8
V0-VYPLNE
 62
     0
100
AcDbLine
 10
429.186747
 20
-10.04665
 30
0.0
 11
361.0874509999999
 21
-10.04665
 31
0.0
  0
LINE
  5
1810
330
180D
100
AcDbEntity
  8
V0-VYPLNE
 62
     0
100
AcDbLine
 10
362.337451
 20
378.0091899999999
 30
0.0
 11
362.3374509999999
 21
4.95335
 31
0.0
  0
INSERT
  5
1811
330
180D
100
AcDbEntity
  8
V0-VYPLNE
 62
     0
100
AcDbBlockReference
  2
_OPEN
 10
362.337451
 20
393.0091899999999
 30
0.0
 41
15.0
 42
15.0
 43
15.0
 50
89.99999999999999
  0
INSERT
  5
1812
330
180D
100
AcDbEntity
  8
V0-VYPLNE
 62
     0
100
AcDbBlockReference
  2
_OPEN
 10
362.3374509999999
 20
-10.04665
 30
0.0
 41
15.0
 42
15.0
 43
15.0
 50
270.0
  0
MTEXT
  5
1813
330
180D
100
AcDbEntity
  8
V0-VYPLNE
 62
     0
100
AcDbMText
 10
355.8374509999999
 20
191.48127
 30
0.0
 40
10.0
 41
0.0
 71
     5
 72
     1
  1
\A1;403
  7
ED20
 11
1.410311257636362E-16
 21
1.0
 31
0.0
  0
POINT
  5
1814
330
180D
100
AcDbEntity
  8
DEFPOINTS
 62
     0
100
AcDbPoint
 10
430.186747
 20
393.00919
 30
0.0
  0
POINT
  5
1815
330
180D
100
AcDbEntity
  8
DEFPOINTS
 62
     0
100
AcDbPoint
 10
430.186747
 20
-10.04665
 30
0.0
  0
POINT
  5
1816
330
180D
100
AcDbEntity
  8
DEFPOINTS
 62
     0
100
AcDbPoint
 10
362.3374509999999
 20
-10.04665
 30
0.0
  0
ENDBLK
  5
1818
330
180D
100
AcDbEntity
  8
0
100
AcDbBlockEnd
  0
BLOCK
  5
1822
330
1819
100
AcDbEntity
  8
0
100
AcDbBlockBegin
  2
*D7
 70
     1
 71
     0
 10
0.0
 20
0.0
 30
0.0
  3
*D7
  1

  0
LINE
  5
181A
330
1819
100
AcDbEntity
  8
V0-VYPLNE
 62
     0
100
AcDbLine
 10
803.4038501314708
 20
232.9412791954976
 30
0.0
 11
764.3155197499762
 21
225.3358256486925
 31
0.0
  0
LINE
  5
181B
330
1819
100
AcDbEntity
  8
V0-VYPLNE
 62
     0
100
AcDbLine
 10
416.3236352500239
 20
157.6267143513076
 30
0.0
 11
401.5997535000478
 21
154.7618747026151
 31
0.0
  0
MTEXT
  5
181C
330
1819
100
AcDbEntity
  8
V0-VYPLNE
 62
     0
100
AcDbMText
 10
821.937244
 20
236.54734
 30
0.0
 40
10.0
 41
0.0
 71
     5
 72
     1
  1
\A1;\U+2205325
  7
ED20
 11
0.9815921166650744
 21
0.1909893099128301
 31
0.0
  0
INSERT
  5
181D
330
1819
100
AcDbEntity
  8
V0-VYPLNE
 62
     0
100
AcDbBlockReference
  2
_OPEN
 10
749.591638
 20
222.470986
 30
0.0
 41
15.0
 42
15.0
 43
15.0
 50
191.0105248169517
  0
INSERT
  5
181E
330
1819
100
AcDbEntity
  8
V0-VYPLNE
 62
     0
100
AcDbBlockReference
  2
_OPEN
 10
431.047517
 20
160.491554
 30
0.0
 41
15.0
 42
15.0
 43
15.0
 50
11.01052481695179
  0
LINE
  5
181F
330
1819
100
AcDbEntity
  8
V0-VYPLNE
 62
     0
100
AcDbLine
 10
431.047517
 20
160.491554
 30
0.0
 11
749.591638
 21
222.470986
 31
0.0
  0
POINT
  5
1820
330
1819
100
AcDbEntity
  8
DEFPOINTS
 62
     0
100
AcDbPoint
 10
749.591638
 20
222.470986
 30
0.0
  0
POINT
  5
1821
330
1819
100
AcDbEntity
  8
DEFPOINTS
 62
     0
100
AcDbPoint
 10
431.047517
 20
160.491554
 30
0.0
  0
ENDBLK
  5
1823
330
1819
100
AcDbEntity
  8
0
100
AcDbBlockEnd
  0
BLOCK
  5
1830
330
1824
100
AcDbEntity
  8
0
100
AcDbBlockBegin
  2
*D8
 70
     1
 71
     0
 10
0.0
 20
0.0
 30
0.0
  3
*D8
  1

  0
LINE
  5
1825
330
1824
100
AcDbEntity
  8
V0-VYPLNE
 62
     0
100
AcDbLine
 10
165.779056
 20
-11.092934
 30
0.0
 11
165.779056
 21
-85.28603000000112
 31
0.0
  0
LINE
  5
1826
330
1824
100
AcDbEntity
  8
V0-VYPLNE
 62
     0
100
AcDbLine
 10
162.568056
 20
-11.092934
 30
0.0
 11
162.568056
 21
-85.28603000000112
 31
0.0
  0
LINE
  5
1827
330
1824
100
AcDbEntity
  8
V0-VYPLNE
 62
     0
100
AcDbLine
 10
147.568056
 20
-84.03603000000112
 30
0.0
 11
132.568056
 21
-84.03603000000112
 31
0.0
  0
LINE
  5
1828
330
1824
100
AcDbEntity
  8
V0-VYPLNE
 62
     0
100
AcDbLine
 10
180.779056
 20
-84.03603000000112
 30
0.0
 11
270.6218414285714
 21
-84.03603000000112
 31
0.0
  0
LINE
  5
1829
330
1824
100
AcDbEntity
  8
V0-VYPLNE
 62
     0
100
AcDbLine
 10
165.779056
 20
-84.03603000000112
 30
0.0
 11
162.568056
 21
-84.03603000000112
 31
0.0
  0
INSERT
  5
182A
330
1824
100
AcDbEntity
  8
V0-VYPLNE
 62
     0
100
AcDbBlockReference
  2
_OPEN
 10
165.779056
 20
-84.03603000000112
 30
0.0
 41
15.0
 42
15.0
 43
15.0
 50
180.0
  0
INSERT
  5
182B
330
1824
100
AcDbEntity
  8
V0-VYPLNE
 62
     0
100
AcDbBlockReference
  2
_OPEN
 10
162.568056
 20
-84.03603000000112
 30
0.0
 41
15.0
 42
15.0
 43
15.0
  0
MTEXT
  5
182C
330
1824
100
AcDbEntity
  8
V0-VYPLNE
 62
     0
100
AcDbMText
 10
237.69327
 20
-84.03603
 30
0.0
 40
10.0
 41
0.0
 71
     5
 72
     1
  1
3 az 25
  7
ED20
  0
POINT
  5
182D
330
1824
100
AcDbEntity
  8
DEFPOINTS
 62
     0
100
AcDbPoint
 10
165.779056
 20
-10.092934
 30
0.0
  0
POINT
  5
182E
330
1824
100
AcDbEntity
  8
DEFPOINTS
 62
     0
100
AcDbPoint
 10
162.568056
 20
-10.092934
 30
0.0
  0
POINT
  5
182F
330
1824
100
AcDbEntity
  8
DEFPOINTS
 62
     0
100
AcDbPoint
 10
162.568056
 20
-84.03603000000112
 30
0.0
  0
ENDBLK
  5
1831
330
1824
100
AcDbEntity
  8
0
100
AcDbBlockEnd
  0
BLOCK
  5
183E
330
1832
100
AcDbEntity
  8
0
100
AcDbBlockBegin
  2
*D9
 70
     1
 71
     0
 10
0.0
 20
0.0
 30
0.0
  3
*D9
  1

  0
LINE
  5
1833
330
1832
100
AcDbEntity
  8
V0-VYPLNE
 62
     0
100
AcDbLine
 10
187.324624
 20
34.479703
 30
0.0
 11
187.324624
 21
-50.03718700000009
 31
0.0
  0
LINE
  5
1834
330
1832
100
AcDbEntity
  8
V0-VYPLNE
 62
     0
100
AcDbLine
 10
165.779056
 20
-11.092934
 30
0.0
 11
165.779056
 21
-50.03718700000009
 31
0.0
  0
LINE
  5
1835
330
1832
100
AcDbEntity
  8
V0-VYPLNE
 62
     0
100
AcDbLine
 10
202.324624
 20
-48.78718700000009
 30
0.0
 11
217.324624
 21
-48.78718700000009
 31
0.0
  0
LINE
  5
1836
330
1832
100
AcDbEntity
  8
V0-VYPLNE
 62
     0
100
AcDbLine
 10
150.779056
 20
-48.78718700000009
 30
0.0
 11
135.779056
 21
-48.78718700000009
 31
0.0
  0
LINE
  5
1837
330
1832
100
AcDbEntity
  8
V0-VYPLNE
 62
     0
100
AcDbLine
 10
187.324624
 20
-48.78718700000009
 30
0.0
 11
165.779056
 21
-48.78718700000009
 31
0.0
  0
INSERT
  5
1838
330
1832
100
AcDbEntity
  8
V0-VYPLNE
 62
     0
100
AcDbBlockReference
  2
_OPEN
 10
187.324624
 20
-48.78718700000009
 30
0.0
 41
15.0
 42
15.0
 43
15.0
 50
180.0
  0
INSERT
  5
1839
330
1832
100
AcDbEntity
  8
V0-VYPLNE
 62
     0
100
AcDbBlockReference
  2
_OPEN
 10
165.779056
 20
-48.78718700000009
 30
0.0
 41
15.0
 42
15.0
 43
15.0
  0
MTEXT
  5
183A
330
1832
100
AcDbEntity
  8
V0-VYPLNE
 62
     0
100
AcDbMText
 10
176.55184
 20
-48.787187
 30
0.0
 40
10.0
 41
0.0
 71
     5
 72
     1
  1
\A1;22
  7
ED20
  0
POINT
  5
183B
330
1832
100
AcDbEntity
  8
DEFPOINTS
 62
     0
100
AcDbPoint
 10
187.324624
 20
35.479703
 30
0.0
  0
POINT
  5
183C
330
1832
100
AcDbEntity
  8
DEFPOINTS
 62
     0
100
AcDbPoint
 10
165.779056
 20
-10.092934
 30
0.0
  0
POINT
  5
183D
330
1832
100
AcDbEntity
  8
DEFPOINTS
 62
     0
100
AcDbPoint
 10
165.779056
 20
-48.78718700000009
 30
0.0
  0
ENDBLK
  5
183F
330
1832
100
AcDbEntity
  8
0
100
AcDbBlockEnd
  0
BLOCK
  5
184B
330
1840
100
AcDbEntity
  8
0
100
AcDbBlockBegin
  2
*D10
 70
     1
 71
     0
 10
0.0
 20
0.0
 30
0.0
  3
*D10
  1

  0
LINE
  5
1841
330
1840
100
AcDbEntity
  8
V0-VYPLNE
 62
     0
100
AcDbLine
 10
162.568056
 20
-12.698434
 30
0.0
 11
162.568056
 21
-118.576601
 31
0.0
  0
LINE
  5
1842
330
1840
100
AcDbEntity
  8
V0-VYPLNE
 62
     0
100
AcDbLine
 10
12.78985
 20
-11.092934
 30
0.0
 11
12.78985
 21
-118.576601
 31
0.0
  0
LINE
  5
1843
330
1840
100
AcDbEntity
  8
V0-VYPLNE
 62
     0
100
AcDbLine
 10
147.568056
 20
-117.326601
 30
0.0
 11
136.6007121428571
 21
-117.326601
 31
0.0
  0
LINE
  5
1844
330
1840
100
AcDbEntity
  8
V0-VYPLNE
 62
     0
100
AcDbLine
 10
27.78985
 20
-117.326601
 30
0.0
 11
109.3149978571429
 21
-117.326601
 31
0.0
  0
INSERT
  5
1845
330
1840
100
AcDbEntity
  8
V0-VYPLNE
 62
     0
100
AcDbBlockReference
  2
_OPEN
 10
162.568056
 20
-117.326601
 30
0.0
 41
15.0
 42
15.0
 43
15.0
  0
INSERT
  5
1846
330
1840
100
AcDbEntity
  8
V0-VYPLNE
 62
     0
100
AcDbBlockReference
  2
_OPEN
 10
12.78985
 20
-117.326601
 30
0.0
 41
15.0
 42
15.0
 43
15.0
 50
180.0
  0
MTEXT
  5
1847
330
1840
100
AcDbEntity
  8
V0-VYPLNE
 62
     0
100
AcDbMText
 10
122.957855
 20
-117.326601
 30
0.0
 40
10.0
 41
0.0
 71
     5
 72
     1
  1
\A1;150
  7
ED20
  0
POINT
  5
1848
330
1840
100
AcDbEntity
  8
DEFPOINTS
 62
     0
100
AcDbPoint
 10
162.568056
 20
-11.698434
 30
0.0
  0
POINT
  5
1849
330
1840
100
AcDbEntity
  8
DEFPOINTS
 62
     0
100
AcDbPoint
 10
12.78985
 20
-10.092934
 30
0.0
  0
POINT
  5
184A
330
1840
100
AcDbEntity
  8
DEFPOINTS
 62
     0
100
AcDbPoint
 10
12.78985
 20
-117.326601
 30
0.0
  0
ENDBLK
  5
184C
330
1840
100
AcDbEntity
  8
0
100
AcDbBlockEnd
  0
ENDSEC
  0
SECTION
  2
ENTITIES
  0
LINE
  5
1C0
330
17CD
100
AcDbEntity
  8
V0-OBRYS
  6
CONTINUOUS
 62
    90
100
AcDbLine
 10
439.9876
 20
295.967797
 30
0.0
 11
740.651555
 21
295.967797
 31
0.0
  0
LINE
  5
1C1
330
17CD
100
AcDbEntity
  8
V0-OBRYS
  6
CONTINUOUS
 62
    90
100
AcDbLine
 10
507.533105
 20
281.041151
 30
0.0
 11
507.693187
 21
281.041151
 31
0.0
  0
LINE
  5
1C2
330
17CD
100
AcDbEntity
  8
V0-OBRYS
  6
CONTINUOUS
 62
    90
100
AcDbLine
 10
439.9876
 20
266.114504
 30
0.0
 11
740.651555
 21
266.114504
 31
0.0
  0
LINE
  5
1C3
330
17CD
100
AcDbEntity
  8
V0-OBRYS
  6
CONTINUOUS
 62
    90
100
AcDbLine
 10
439.9876
 20
251.187857
 30
0.0
 11
740.651555
 21
251.187857
 31
0.0
  0
LINE
  5
1C9
330
17CD
100
AcDbEntity
  8
V0-OBRYS
  6
CONTINUOUS
 62
    90
100
AcDbLine
 10
439.9876
 20
281.041151
 30
0.0
 11
740.651555
 21
281.041151
 31
0.0
  0
LINE
  5
1D4
330
17CD
100
AcDbEntity
  8
V0-OBRYS
  6
CONTINUOUS
 62
    90
100
AcDbLine
 10
439.9876
 20
101.92139
 30
0.0
 11
740.651555
 21
101.92139
 31
0.0
  0
LINE
  5
1D5
330
17CD
100
AcDbEntity
  8
V0-OBRYS
  6
CONTINUOUS
 62
    90
100
AcDbLine
 10
439.9876
 20
131.774683
 30
0.0
 11
740.651555
 21
131.774683
 31
0.0
  0
LINE
  5
1D7
330
17CD
100
AcDbEntity
  8
V0-OBRYS
  6
CONTINUOUS
 62
    90
100
AcDbLine
 10
439.9876
 20
116.848036
 30
0.0
 11
740.651555
 21
116.848036
 31
0.0
  0
LINE
  5
1DA
330
17CD
100
AcDbEntity
  8
V0-OBRYS
  6
CONTINUOUS
 62
    90
100
AcDbLine
 10
439.9876
 20
86.994743
 30
0.0
 11
740.651555
 21
86.994743
 31
0.0
  0
POINT
  5
59D
330
17CD
100
AcDbEntity
  8
V0-VYPLNE
  6
CONTINUOUS
 62
    52
100
AcDbPoint
 10
552.992379
 20
191.48127
 30
0.0
  0
LINE
  5
6FB
330
17CD
100
AcDbEntity
  8
V0-OBRYS
  6
CONTINUOUS
 62
    90
100
AcDbLine
 10
587.930593
 20
393.00919
 30
0.0
 11
430.186747
 21
393.00919
 31
0.0
  0
LINE
  5
6FC
330
17CD
100
AcDbEntity
  8
V0-OBRYS
  6
CONTINUOUS
 62
    90
100
AcDbLine
 10
406.296907
 20
191.48127
 30
0.0
 11
406.296907
 21
369.11935
 31
0.0
  0
LINE
  5
6FD
330
17CD
100
AcDbEntity
  8
V0-OBRYS
  6
CONTINUOUS
 62
    90
100
AcDbLine
 10
590.319577
 20
-10.04665
 30
0.0
 11
430.186747
 21
-10.04665
 31
0.0
  0
LINE
  5
6FE
330
17CD
100
AcDbEntity
  8
V0-OBRYS
  6
CONTINUOUS
 62
    90
100
AcDbLine
 10
406.296907
 20
189.092286
 30
0.0
 11
406.296907
 21
14.84318999999999
 31
0.0
  0
LINE
  5
6FF
330
17CD
100
AcDbEntity
  8
V0-OBRYS
  6
CONTINUOUS
 62
    90
100
AcDbLine
 10
774.342247
 20
191.48127
 30
0.0
 11
774.342247
 21
14.84318999999999
 31
0.0
  0
LINE
  5
700
330
17CD
100
AcDbEntity
  8
V0-OBRYS
  6
CONTINUOUS
 62
    90
100
AcDbLine
 10
592.708561
 20
-10.04665
 30
0.0
 11
750.452407
 21
-10.04665
 31
0.0
  0
LINE
  5
701
330
17CD
100
AcDbEntity
  8
V0-OBRYS
  6
CONTINUOUS
 62
    90
100
AcDbLine
 10
590.319577
 20
393.00919
 30
0.0
 11
750.452407
 21
393.00919
 31
0.0
  0
LINE
  5
702
330
17CD
100
AcDbEntity
  8
V0-OBRYS
  6
CONTINUOUS
 62
    90
100
AcDbLine
 10
774.342247
 20
193.870254
 30
0.0
 11
774.342247
 21
369.11935
 31
0.0
  0
ARC
  5
703
330
17CD
100
AcDbEntity
  8
V0-OBRYS
  6
CONTINUOUS
 62
    90
100
AcDbCircle
 10
430.186747
 20
369.11935
 30
0.0
 40
23.88984
100
AcDbArc
 50
90.0
 51
180.0
  0
ARC
  5
704
330
17CD
100
AcDbEntity
  8
V0-OBRYS
  6
CONTINUOUS
 62
    90
100
AcDbCircle
 10
431.057747
 20
14.699284
 30
0.0
 40
24.761258
100
AcDbArc
 50
179.66701
 51
267.984153
  0
ARC
  5
705
330
17CD
100
AcDbEntity
  8
V0-OBRYS
  6
CONTINUOUS
 62
    90
100
AcDbCircle
 10
749.581408
 20
14.699284
 30
0.0
 40
24.761258
100
AcDbArc
 50
272.015847
 51
0.33299
  0
ARC
  5
706
330
17CD
100
AcDbEntity
  8
V0-OBRYS
  6
CONTINUOUS
 62
    90
100
AcDbCircle
 10
750.452407
 20
369.11935
 30
0.0
 40
23.88984
100
AcDbArc
 50
360.0
 51
90.0
  0
LINE
  5
710
330
17CD
100
AcDbEntity
  8
V0-OBRYS
  6
CONTINUOUS
 62
    90
100
AcDbLine
 10
473.501792
 20
192.490191
 30
0.0
 11
473.501792
 21
204.018933
 31
0.0
  0
LINE
  5
711
330
17CD
100
AcDbEntity
  8
V0-OBRYS
  6
CONTINUOUS
 62
    90
100
AcDbLine
 10
473.501792
 20
190.101207
 30
0.0
 11
473.501792
 21
178.943607
 31
0.0
  0
LINE
  5
718
330
17CD
100
AcDbEntity
  8
V0-OBRYS
  6
CONTINUOUS
 62
    90
100
AcDbLine
 10
439.9876
 20
293.578813
 30
0.0
 11
740.651555
 21
293.578813
 31
0.0
  0
LINE
  5
719
330
17CD
100
AcDbEntity
  8
V0-OBRYS
  6
CONTINUOUS
 62
    90
100
AcDbLine
 10
439.9876
 20
278.652167
 30
0.0
 11
740.651555
 21
278.652167
 31
0.0
  0
LINE
  5
71A
330
17CD
100
AcDbEntity
  8
V0-OBRYS
  6
CONTINUOUS
 62
    90
100
AcDbLine
 10
439.9876
 20
263.72552
 30
0.0
 11
740.651555
 21
263.72552
 31
0.0
  0
LINE
  5
71C
330
17CD
100
AcDbEntity
  8
V0-OBRYS
  6
CONTINUOUS
 62
    90
100
AcDbLine
 10
439.9876
 20
248.798873
 30
0.0
 11
740.651555
 21
248.798873
 31
0.0
  0
LINE
  5
725
330
17CD
100
AcDbEntity
  8
V0-OBRYS
  6
CONTINUOUS
 62
    90
100
AcDbLine
 10
439.9876
 20
134.163667
 30
0.0
 11
740.651555
 21
134.163667
 31
0.0
  0
LINE
  5
726
330
17CD
100
AcDbEntity
  8
V0-OBRYS
  6
CONTINUOUS
 62
    90
100
AcDbLine
 10
439.9876
 20
119.23702
 30
0.0
 11
740.651555
 21
119.23702
 31
0.0
  0
LINE
  5
727
330
17CD
100
AcDbEntity
  8
V0-OBRYS
  6
CONTINUOUS
 62
    90
100
AcDbLine
 10
439.9876
 20
104.310374
 30
0.0
 11
740.651555
 21
104.310374
 31
0.0
  0
LINE
  5
728
330
17CD
100
AcDbEntity
  8
V0-OBRYS
  6
CONTINUOUS
 62
    90
100
AcDbLine
 10
439.9876
 20
89.38372699999999
 30
0.0
 11
740.651555
 21
89.38372699999999
 31
0.0
  0
LINE
  5
72D
330
17CD
100
AcDbEntity
  8
V0-OBRYS
  6
CONTINUOUS
 62
    90
100
AcDbLine
 10
439.9876
 20
295.967797
 30
0.0
 11
439.9876
 21
293.578813
 31
0.0
  0
LINE
  5
72E
330
17CD
100
AcDbEntity
  8
V0-OBRYS
  6
CONTINUOUS
 62
    90
100
AcDbLine
 10
439.9876
 20
281.041151
 30
0.0
 11
439.9876
 21
278.652167
 31
0.0
  0
LINE
  5
72F
330
17CD
100
AcDbEntity
  8
V0-OBRYS
  6
CONTINUOUS
 62
    90
100
AcDbLine
 10
439.9876
 20
266.114504
 30
0.0
 11
439.9876
 21
263.72552
 31
0.0
  0
LINE
  5
730
330
17CD
100
AcDbEntity
  8
V0-OBRYS
  6
CONTINUOUS
 62
    90
100
AcDbLine
 10
439.9876
 20
251.187857
 30
0.0
 11
439.9876
 21
248.798873
 31
0.0
  0
LINE
  5
73B
330
17CD
100
AcDbEntity
  8
V0-OBRYS
  6
CONTINUOUS
 62
    90
100
AcDbLine
 10
439.9876
 20
134.163667
 30
0.0
 11
439.9876
 21
131.774683
 31
0.0
  0
LINE
  5
73C
330
17CD
100
AcDbEntity
  8
V0-OBRYS
  6
CONTINUOUS
 62
    90
100
AcDbLine
 10
439.9876
 20
119.23702
 30
0.0
 11
439.9876
 21
116.848036
 31
0.0
  0
LINE
  5
73D
330
17CD
100
AcDbEntity
  8
V0-OBRYS
  6
CONTINUOUS
 62
    90
100
AcDbLine
 10
439.9876
 20
104.310374
 30
0.0
 11
439.9876
 21
101.92139
 31
0.0
  0
LINE
  5
73E
330
17CD
100
AcDbEntity
  8
V0-OBRYS
  6
CONTINUOUS
 62
    90
100
AcDbLine
 10
439.9876
 20
89.38372699999999
 30
0.0
 11
439.9876
 21
86.994743
 31
0.0
  0
LINE
  5
73F
330
17CD
100
AcDbEntity
  8
V0-OBRYS
  6
CONTINUOUS
 62
    90
100
AcDbLine
 10
740.651555
 20
89.38372699999999
 30
0.0
 11
740.651555
 21
86.994743
 31
0.0
  0
LINE
  5
740
330
17CD
100
AcDbEntity
  8
V0-OBRYS
  6
CONTINUOUS
 62
    90
100
AcDbLine
 10
740.651555
 20
104.310374
 30
0.0
 11
740.651555
 21
101.92139
 31
0.0
  0
LINE
  5
741
330
17CD
100
AcDbEntity
  8
V0-OBRYS
  6
CONTINUOUS
 62
    90
100
AcDbLine
 10
740.651555
 20
119.23702
 30
0.0
 11
740.651555
 21
116.848036
 31
0.0
  0
LINE
  5
742
330
17CD
100
AcDbEntity
  8
V0-OBRYS
  6
CONTINUOUS
 62
    90
100
AcDbLine
 10
740.651555
 20
134.163667
 30
0.0
 11
740.651555
 21
131.774683
 31
0.0
  0
LINE
  5
74D
330
17CD
100
AcDbEntity
  8
V0-OBRYS
  6
CONTINUOUS
 62
    90
100
AcDbLine
 10
740.651555
 20
251.187857
 30
0.0
 11
740.651555
 21
248.798873
 31
0.0
  0
LINE
  5
74E
330
17CD
100
AcDbEntity
  8
V0-OBRYS
  6
CONTINUOUS
 62
    90
100
AcDbLine
 10
740.651555
 20
266.114504
 30
0.0
 11
740.651555
 21
263.72552
 31
0.0
  0
LINE
  5
74F
330
17CD
100
AcDbEntity
  8
V0-OBRYS
  6
CONTINUOUS
 62
    90
100
AcDbLine
 10
740.651555
 20
281.041151
 30
0.0
 11
740.651555
 21
278.652167
 31
0.0
  0
LINE
  5
750
330
17CD
100
AcDbEntity
  8
V0-OBRYS
  6
CONTINUOUS
 62
    90
100
AcDbLine
 10
740.651555
 20
295.967797
 30
0.0
 11
740.651555
 21
293.578813
 31
0.0
  0
LINE
  5
9F0
330
17CD
100
AcDbEntity
  8
V0-OBRYS
  6
CONTINUOUS
 62
    90
100
AcDbLine
 10
439.9876
 20
251.187857
 30
0.0
 11
740.651555
 21
251.187857
 31
0.0
  0
LINE
  5
9F1
330
17CD
100
AcDbEntity
  8
V0-OBRYS
  6
CONTINUOUS
 62
    90
100
AcDbLine
 10
439.9876
 20
221.334564
 30
0.0
 11
740.651555
 21
221.334564
 31
0.0
  0
LINE
  5
9F2
330
17CD
100
AcDbEntity
  8
V0-OBRYS
  6
CONTINUOUS
 62
    90
100
AcDbLine
 10
439.9876
 20
206.407917
 30
0.0
 11
740.651555
 21
206.407917
 31
0.0
  0
LINE
  5
9F3
330
17CD
100
AcDbEntity
  8
V0-OBRYS
  6
CONTINUOUS
 62
    90
100
AcDbLine
 10
439.9876
 20
236.26121
 30
0.0
 11
740.651555
 21
236.26121
 31
0.0
  0
LINE
  5
9F4
330
17CD
100
AcDbEntity
  8
V0-OBRYS
  6
CONTINUOUS
 62
    90
100
AcDbLine
 10
439.9876
 20
248.798873
 30
0.0
 11
740.651555
 21
248.798873
 31
0.0
  0
LINE
  5
9F5
330
17CD
100
AcDbEntity
  8
V0-OBRYS
  6
CONTINUOUS
 62
    90
100
AcDbLine
 10
439.9876
 20
233.872226
 30
0.0
 11
740.651555
 21
233.872226
 31
0.0
  0
LINE
  5
9F6
330
17CD
100
AcDbEntity
  8
V0-OBRYS
  6
CONTINUOUS
 62
    90
100
AcDbLine
 10
439.9876
 20
218.94558
 30
0.0
 11
740.651555
 21
218.94558
 31
0.0
  0
LINE
  5
9F7
330
17CD
100
AcDbEntity
  8
V0-OBRYS
  6
CONTINUOUS
 62
    90
100
AcDbLine
 10
439.9876
 20
204.018933
 30
0.0
 11
740.651555
 21
204.018933
 31
0.0
  0
LINE
  5
9F8
330
17CD
100
AcDbEntity
  8
V0-OBRYS
  6
CONTINUOUS
 62
    90
100
AcDbLine
 10
439.9876
 20
221.334564
 30
0.0
 11
439.9876
 21
218.94558
 31
0.0
  0
LINE
  5
9F9
330
17CD
100
AcDbEntity
  8
V0-OBRYS
  6
CONTINUOUS
 62
    90
100
AcDbLine
 10
439.9876
 20
206.407917
 30
0.0
 11
439.9876
 21
204.018933
 31
0.0
  0
LINE
  5
9FA
330
17CD
100
AcDbEntity
  8
V0-OBRYS
  6
CONTINUOUS
 62
    90
100
AcDbLine
 10
439.9876
 20
251.187857
 30
0.0
 11
439.9876
 21
248.798873
 31
0.0
  0
LINE
  5
9FB
330
17CD
100
AcDbEntity
  8
V0-OBRYS
  6
CONTINUOUS
 62
    90
100
AcDbLine
 10
439.9876
 20
236.26121
 30
0.0
 11
439.9876
 21
233.872226
 31
0.0
  0
LINE
  5
A26
330
17CD
100
AcDbEntity
  8
V0-OBRYS
  6
CONTINUOUS
 62
    90
100
AcDbLine
 10
439.9876
 20
146.70133
 30
0.0
 11
740.651555
 21
146.70133
 31
0.0
  0
LINE
  5
A27
330
17CD
100
AcDbEntity
  8
V0-OBRYS
  6
CONTINUOUS
 62
    90
100
AcDbLine
 10
439.9876
 20
176.554623
 30
0.0
 11
740.651555
 21
176.554623
 31
0.0
  0
LINE
  5
A28
330
17CD
100
AcDbEntity
  8
V0-OBRYS
  6
CONTINUOUS
 62
    90
100
AcDbLine
 10
439.9876
 20
161.627977
 30
0.0
 11
740.651555
 21
161.627977
 31
0.0
  0
LINE
  5
A29
330
17CD
100
AcDbEntity
  8
V0-OBRYS
  6
CONTINUOUS
 62
    90
100
AcDbLine
 10
439.9876
 20
178.943607
 30
0.0
 11
740.651555
 21
178.943607
 31
0.0
  0
LINE
  5
A2A
330
17CD
100
AcDbEntity
  8
V0-OBRYS
  6
CONTINUOUS
 62
    90
100
AcDbLine
 10
439.9876
 20
164.016961
 30
0.0
 11
740.651555
 21
164.016961
 31
0.0
  0
LINE
  5
A2B
330
17CD
100
AcDbEntity
  8
V0-OBRYS
  6
CONTINUOUS
 62
    90
100
AcDbLine
 10
439.9876
 20
149.090314
 30
0.0
 11
740.651555
 21
149.090314
 31
0.0
  0
LINE
  5
A2C
330
17CD
100
AcDbEntity
  8
V0-OBRYS
  6
CONTINUOUS
 62
    90
100
AcDbLine
 10
439.9876
 20
149.090314
 30
0.0
 11
439.9876
 21
146.70133
 31
0.0
  0
LINE
  5
A2D
330
17CD
100
AcDbEntity
  8
V0-OBRYS
  6
CONTINUOUS
 62
    90
100
AcDbLine
 10
439.9876
 20
178.943607
 30
0.0
 11
439.9876
 21
176.554623
 31
0.0
  0
LINE
  5
A2E
330
17CD
100
AcDbEntity
  8
V0-OBRYS
  6
CONTINUOUS
 62
    90
100
AcDbLine
 10
439.9876
 20
164.016961
 30
0.0
 11
439.9876
 21
161.627977
 31
0.0
  0
LINE
  5
A2F
330
17CD
100
AcDbEntity
  8
V0-OBRYS
  6
CONTINUOUS
 62
    90
100
AcDbLine
 10
439.9876
 20
325.821091
 30
0.0
 11
740.651555
 21
325.821091
 31
0.0
  0
LINE
  5
A30
330
17CD
100
AcDbEntity
  8
V0-OBRYS
  6
CONTINUOUS
 62
    90
100
AcDbLine
 10
439.9876
 20
295.967797
 30
0.0
 11
740.651555
 21
295.967797
 31
0.0
  0
LINE
  5
A31
330
17CD
100
AcDbEntity
  8
V0-OBRYS
  6
CONTINUOUS
 62
    90
100
AcDbLine
 10
439.9876
 20
310.894444
 30
0.0
 11
740.651555
 21
310.894444
 31
0.0
  0
LINE
  5
A32
330
17CD
100
AcDbEntity
  8
V0-OBRYS
  6
CONTINUOUS
 62
    90
100
AcDbLine
 10
439.9876
 20
323.432107
 30
0.0
 11
740.651555
 21
323.432107
 31
0.0
  0
LINE
  5
A33
330
17CD
100
AcDbEntity
  8
V0-OBRYS
  6
CONTINUOUS
 62
    90
100
AcDbLine
 10
439.9876
 20
308.50546
 30
0.0
 11
740.651555
 21
308.50546
 31
0.0
  0
LINE
  5
A34
330
17CD
100
AcDbEntity
  8
V0-OBRYS
  6
CONTINUOUS
 62
    90
100
AcDbLine
 10
439.9876
 20
293.578813
 30
0.0
 11
740.651555
 21
293.578813
 31
0.0
  0
LINE
  5
A35
330
17CD
100
AcDbEntity
  8
V0-OBRYS
  6
CONTINUOUS
 62
    90
100
AcDbLine
 10
439.9876
 20
295.967797
 30
0.0
 11
439.9876
 21
293.578813
 31
0.0
  0
LINE
  5
A36
330
17CD
100
AcDbEntity
  8
V0-OBRYS
  6
CONTINUOUS
 62
    90
100
AcDbLine
 10
439.9876
 20
325.821091
 30
0.0
 11
439.9876
 21
323.432107
 31
0.0
  0
LINE
  5
A37
330
17CD
100
AcDbEntity
  8
V0-OBRYS
  6
CONTINUOUS
 62
    90
100
AcDbLine
 10
439.9876
 20
310.894444
 30
0.0
 11
439.9876
 21
308.50546
 31
0.0
  0
LINE
  5
A38
330
17CD
100
AcDbEntity
  8
V0-OBRYS
  6
CONTINUOUS
 62
    90
100
AcDbLine
 10
439.9876
 20
72.068096
 30
0.0
 11
740.651555
 21
72.068096
 31
0.0
  0
LINE
  5
A39
330
17CD
100
AcDbEntity
  8
V0-OBRYS
  6
CONTINUOUS
 62
    90
100
AcDbLine
 10
439.9876
 20
57.141449
 30
0.0
 11
740.651555
 21
57.141449
 31
0.0
  0
LINE
  5
A3A
330
17CD
100
AcDbEntity
  8
V0-OBRYS
  6
CONTINUOUS
 62
    90
100
AcDbLine
 10
439.9876
 20
74.45708000000001
 30
0.0
 11
740.651555
 21
74.45708000000001
 31
0.0
  0
LINE
  5
A3B
330
17CD
100
AcDbEntity
  8
V0-OBRYS
  6
CONTINUOUS
 62
    90
100
AcDbLine
 10
439.9876
 20
59.530433
 30
0.0
 11
740.651555
 21
59.530433
 31
0.0
  0
LINE
  5
A3C
330
17CD
100
AcDbEntity
  8
V0-OBRYS
  6
CONTINUOUS
 62
    90
100
AcDbLine
 10
439.9876
 20
74.45708000000001
 30
0.0
 11
439.9876
 21
72.068096
 31
0.0
  0
LINE
  5
A3D
330
17CD
100
AcDbEntity
  8
V0-OBRYS
  6
CONTINUOUS
 62
    90
100
AcDbLine
 10
439.9876
 20
59.530433
 30
0.0
 11
439.9876
 21
57.141449
 31
0.0
  0
DIMENSION
  5
B07
330
17CD
100
AcDbEntity
  8
V0-VYPLNE
  6
CONTINUOUS
 62
    41
100
AcDbDimension
  2
*D5
 10
774.342247
 20
-48.78718699999445
 30
0.0
 11
597.385953
 21
-48.787187
 31
0.0
 70
   160
  3
ED10
100
AcDbAlignedDimension
 13
406.296907
 23
14.84319
 33
0.0
 14
774.342247
 24
14.84319
 34
0.0
100
AcDbRotatedDimension
1001
ACAD
1000
DSTYLE
1002
{
1070
    40
1040
1.0
1002
}
  0
DIMENSION
  5
B14
330
17CD
100
AcDbEntity
  8
V0-VYPLNE
  6
CONTINUOUS
 62
    41
100
AcDbDimension
  2
*D6
 10
362.3374509999999
 20
-10.04665
 30
0.0
 11
355.8374509999999
 21
191.48127
 31
0.0
 70
    32
  3
ED10
100
AcDbAlignedDimension
 13
430.186747
 23
393.00919
 33
0.0
 14
430.186747
 24
-10.04665
 34
0.0
 50
90.0
100
AcDbRotatedDimension
1001
ACAD
1000
DSTYLE
1002
{
1070
    40
1040
1.0
1002
}
  0
LINE
  5
D49
330
17CD
100
AcDbEntity
  8
V0-OBRYS
  6
CONTINUOUS
 62
    90
100
AcDbLine
 10
740.651555
 20
236.26121
 30
0.0
 11
740.651555
 21
233.872226
 31
0.0
  0
LINE
  5
D4A
330
17CD
100
AcDbEntity
  8
V0-OBRYS
  6
CONTINUOUS
 62
    90
100
AcDbLine
 10
740.651555
 20
218.94558
 30
0.0
 11
740.651555
 21
221.334564
 31
0.0
  0
LINE
  5
D4B
330
17CD
100
AcDbEntity
  8
V0-OBRYS
  6
CONTINUOUS
 62
    90
100
AcDbLine
 10
740.651555
 20
206.407917
 30
0.0
 11
740.651555
 21
204.018933
 31
0.0
  0
LINE
  5
D4C
330
17CD
100
AcDbEntity
  8
V0-OBRYS
  6
CONTINUOUS
 62
    90
100
AcDbLine
 10
740.651555
 20
176.554623
 30
0.0
 11
740.651555
 21
178.943607
 31
0.0
  0
LINE
  5
D4D
330
17CD
100
AcDbEntity
  8
V0-OBRYS
  6
CONTINUOUS
 62
    90
100
AcDbLine
 10
740.651555
 20
164.016961
 30
0.0
 11
740.651555
 21
161.627977
 31
0.0
  0
LINE
  5
D4E
330
17CD
100
AcDbEntity
  8
V0-OBRYS
  6
CONTINUOUS
 62
    90
100
AcDbLine
 10
740.651555
 20
149.090314
 30
0.0
 11
740.651555
 21
146.70133
 31
0.0
  0
LINE
  5
D4F
330
17CD
100
AcDbEntity
  8
V0-OBRYS
  6
CONTINUOUS
 62
    90
100
AcDbLine
 10
439.9876
 20
190.101207
 30
0.0
 11
740.651555
 21
190.101207
 31
0.0
  0
LINE
  5
D50
330
17CD
100
AcDbEntity
  8
V0-OBRYS
  6
CONTINUOUS
 62
    90
100
AcDbLine
 10
439.9876
 20
192.490191
 30
0.0
 11
740.651555
 21
192.490191
 31
0.0
  0
LINE
  5
D51
330
17CD
100
AcDbEntity
  8
V0-OBRYS
  6
CONTINUOUS
 62
    90
100
AcDbLine
 10
439.9876
 20
192.490191
 30
0.0
 11
439.9876
 21
190.101207
 31
0.0
  0
LINE
  5
D52
330
17CD
100
AcDbEntity
  8
V0-OBRYS
  6
CONTINUOUS
 62
    90
100
AcDbLine
 10
740.651555
 20
192.490191
 30
0.0
 11
740.651555
 21
190.101207
 31
0.0
  0
CIRCLE
  5
E07
330
17CD
100
AcDbEntity
  8
V0-VYPLNE
  6
DASHED
 62
    52
100
AcDbCircle
 10
590.319577
 20
191.48127
 30
0.0
 40
163.761
  0
DIMENSION
  5
E13
330
17CD
100
AcDbEntity
  8
V0-VYPLNE
  6
CONTINUOUS
 62
    41
100
AcDbDimension
  2
*D7
 10
431.047517
 20
160.491554
 30
0.0
 11
821.937244
 21
236.54734
 31
0.0
 70
   163
  3
ED10
100
AcDbDiametricDimension
 15
749.591638
 25
222.470986
 35
0.0
 40
0.0
1001
ACAD
1000
DSTYLE
1002
{
1070
    40
1040
1.0
1002
}
  0
LINE
  5
E17
330
17CD
100
AcDbEntity
  8
V0-OBRYS
  6
CONTINUOUS
 62
    90
100
AcDbLine
 10
476.589292
 20
192.490191
 30
0.0
 11
476.589292
 21
204.018933
 31
0.0
  0
LINE
  5
E18
330
17CD
100
AcDbEntity
  8
V0-OBRYS
  6
CONTINUOUS
 62
    90
100
AcDbLine
 10
476.589292
 20
190.101207
 30
0.0
 11
476.589292
 21
178.943607
 31
0.0
  0
LINE
  5
E1A
330
17CD
100
AcDbEntity
  8
V0-OBRYS
  6
CONTINUOUS
 62
    90
100
AcDbLine
 10
476.589292
 20
221.334564
 30
0.0
 11
476.589292
 21
233.872226
 31
0.0
  0
LINE
  5
E1B
330
17CD
100
AcDbEntity
  8
V0-OBRYS
  6
CONTINUOUS
 62
    90
100
AcDbLine
 10
473.501792
 20
221.334564
 30
0.0
 11
473.501792
 21
233.872226
 31
0.0
  0
LINE
  5
E1C
330
17CD
100
AcDbEntity
  8
V0-OBRYS
  6
CONTINUOUS
 62
    90
100
AcDbLine
 10
473.501792
 20
236.26121
 30
0.0
 11
473.501792
 21
248.798873
 31
0.0
  0
LINE
  5
E1D
330
17CD
100
AcDbEntity
  8
V0-OBRYS
  6
CONTINUOUS
 62
    90
100
AcDbLine
 10
476.589292
 20
236.26121
 30
0.0
 11
476.589292
 21
248.798873
 31
0.0
  0
LINE
  5
E1E
330
17CD
100
AcDbEntity
  8
V0-OBRYS
  6
CONTINUOUS
 62
    90
100
AcDbLine
 10
476.589292
 20
251.187857
 30
0.0
 11
476.589292
 21
263.72552
 31
0.0
  0
LINE
  5
E1F
330
17CD
100
AcDbEntity
  8
V0-OBRYS
  6
CONTINUOUS
 62
    90
100
AcDbLine
 10
473.501792
 20
251.187857
 30
0.0
 11
473.501792
 21
263.72552
 31
0.0
  0
LINE
  5
E20
330
17CD
100
AcDbEntity
  8
V0-OBRYS
  6
CONTINUOUS
 62
    90
100
AcDbLine
 10
473.501792
 20
266.114504
 30
0.0
 11
473.501792
 21
278.652167
 31
0.0
  0
LINE
  5
E21
330
17CD
100
AcDbEntity
  8
V0-OBRYS
  6
CONTINUOUS
 62
    90
100
AcDbLine
 10
476.589292
 20
266.114504
 30
0.0
 11
476.589292
 21
278.652167
 31
0.0
  0
LINE
  5
E22
330
17CD
100
AcDbEntity
  8
V0-OBRYS
  6
CONTINUOUS
 62
    90
100
AcDbLine
 10
476.589292
 20
281.041151
 30
0.0
 11
476.589292
 21
293.578813
 31
0.0
  0
LINE
  5
E23
330
17CD
100
AcDbEntity
  8
V0-OBRYS
  6
CONTINUOUS
 62
    90
100
AcDbLine
 10
473.501792
 20
281.041151
 30
0.0
 11
473.501792
 21
293.578813
 31
0.0
  0
LINE
  5
E24
330
17CD
100
AcDbEntity
  8
V0-OBRYS
  6
CONTINUOUS
 62
    90
100
AcDbLine
 10
473.501792
 20
295.967797
 30
0.0
 11
473.501792
 21
308.50546
 31
0.0
  0
LINE
  5
E25
330
17CD
100
AcDbEntity
  8
V0-OBRYS
  6
CONTINUOUS
 62
    90
100
AcDbLine
 10
476.589292
 20
295.967797
 30
0.0
 11
476.589292
 21
308.50546
 31
0.0
  0
LINE
  5
E26
330
17CD
100
AcDbEntity
  8
V0-OBRYS
  6
CONTINUOUS
 62
    90
100
AcDbLine
 10
476.589292
 20
310.894444
 30
0.0
 11
476.589292
 21
323.432107
 31
0.0
  0
LINE
  5
E27
330
17CD
100
AcDbEntity
  8
V0-OBRYS
  6
CONTINUOUS
 62
    90
100
AcDbLine
 10
473.501792
 20
310.894444
 30
0.0
 11
473.501792
 21
323.432107
 31
0.0
  0
LINE
  5
E28
330
17CD
100
AcDbEntity
  8
V0-OBRYS
  6
CONTINUOUS
 62
    90
100
AcDbLine
 10
473.501792
 20
206.407917
 30
0.0
 11
473.501792
 21
218.94558
 31
0.0
  0
LINE
  5
E29
330
17CD
100
AcDbEntity
  8
V0-OBRYS
  6
CONTINUOUS
 62
    90
100
AcDbLine
 10
476.589292
 20
206.407917
 30
0.0
 11
476.589292
 21
218.94558
 31
0.0
  0
LINE
  5
E2A
330
17CD
100
AcDbEntity
  8
V0-OBRYS
  6
CONTINUOUS
 62
    90
100
AcDbLine
 10
473.501792
 20
176.554623
 30
0.0
 11
473.501792
 21
164.016961
 31
0.0
  0
LINE
  5
E2B
330
17CD
100
AcDbEntity
  8
V0-OBRYS
  6
CONTINUOUS
 62
    90
100
AcDbLine
 10
476.589292
 20
176.554623
 30
0.0
 11
476.589292
 21
164.016961
 31
0.0
  0
LINE
  5
E2C
330
17CD
100
AcDbEntity
  8
V0-OBRYS
  6
CONTINUOUS
 62
    90
100
AcDbLine
 10
476.589292
 20
161.627977
 30
0.0
 11
476.589292
 21
149.090314
 31
0.0
  0
LINE
  5
E2D
330
17CD
100
AcDbEntity
  8
V0-OBRYS
  6
CONTINUOUS
 62
    90
100
AcDbLine
 10
473.501792
 20
161.627977
 30
0.0
 11
473.501792
 21
149.090314
 31
0.0
  0
LINE
  5
E2E
330
17CD
100
AcDbEntity
  8
V0-OBRYS
  6
CONTINUOUS
 62
    90
100
AcDbLine
 10
473.501792
 20
146.70133
 30
0.0
 11
473.501792
 21
134.163667
 31
0.0
  0
LINE
  5
E2F
330
17CD
100
AcDbEntity
  8
V0-OBRYS
  6
CONTINUOUS
 62
    90
100
AcDbLine
 10
476.589292
 20
146.70133
 30
0.0
 11
476.589292
 21
134.163667
 31
0.0
  0
LINE
  5
E30
330
17CD
100
AcDbEntity
  8
V0-OBRYS
  6
CONTINUOUS
 62
    90
100
AcDbLine
 10
476.589292
 20
131.774683
 30
0.0
 11
476.589292
 21
119.23702
 31
0.0
  0
LINE
  5
E31
330
17CD
100
AcDbEntity
  8
V0-OBRYS
  6
CONTINUOUS
 62
    90
100
AcDbLine
 10
473.501792
 20
131.774683
 30
0.0
 11
473.501792
 21
119.23702
 31
0.0
  0
LINE
  5
E32
330
17CD
100
AcDbEntity
  8
V0-OBRYS
  6
CONTINUOUS
 62
    90
100
AcDbLine
 10
473.501792
 20
116.848036
 30
0.0
 11
473.501792
 21
104.310374
 31
0.0
  0
LINE
  5
E33
330
17CD
100
AcDbEntity
  8
V0-OBRYS
  6
CONTINUOUS
 62
    90
100
AcDbLine
 10
476.589292
 20
116.848036
 30
0.0
 11
476.589292
 21
104.310374
 31
0.0
  0
LINE
  5
E34
330
17CD
100
AcDbEntity
  8
V0-OBRYS
  6
CONTINUOUS
 62
    90
100
AcDbLine
 10
473.501792
 20
101.92139
 30
0.0
 11
473.501792
 21
89.38372699999999
 31
0.0
  0
LINE
  5
E35
330
17CD
100
AcDbEntity
  8
V0-OBRYS
  6
CONTINUOUS
 62
    90
100
AcDbLine
 10
476.589292
 20
101.92139
 30
0.0
 11
476.589292
 21
89.38372699999999
 31
0.0
  0
LINE
  5
E36
330
17CD
100
AcDbEntity
  8
V0-OBRYS
  6
CONTINUOUS
 62
    90
100
AcDbLine
 10
476.589292
 20
86.994743
 30
0.0
 11
476.589292
 21
74.45708000000001
 31
0.0
  0
LINE
  5
E37
330
17CD
100
AcDbEntity
  8
V0-OBRYS
  6
CONTINUOUS
 62
    90
100
AcDbLine
 10
473.501792
 20
86.994743
 30
0.0
 11
473.501792
 21
74.45708000000001
 31
0.0
  0
LINE
  5
E38
330
17CD
100
AcDbEntity
  8
V0-OBRYS
  6
CONTINUOUS
 62
    90
100
AcDbLine
 10
473.501792
 20
72.068096
 30
0.0
 11
473.501792
 21
59.530433
 31
0.0
  0
LINE
  5
E39
330
17CD
100
AcDbEntity
  8
V0-OBRYS
  6
CONTINUOUS
 62
    90
100
AcDbLine
 10
476.589292
 20
72.068096
 30
0.0
 11
476.589292
 21
59.530433
 31
0.0
  0
LINE
  5
E3A
330
17CD
100
AcDbEntity
  8
V0-OBRYS
  6
CONTINUOUS
 62
    90
100
AcDbLine
 10
704.049863
 20
206.407917
 30
0.0
 11
704.049863
 21
218.94558
 31
0.0
  0
LINE
  5
E3B
330
17CD
100
AcDbEntity
  8
V0-OBRYS
  6
CONTINUOUS
 62
    90
100
AcDbLine
 10
707.1373630000001
 20
206.407917
 30
0.0
 11
707.1373630000001
 21
218.94558
 31
0.0
  0
LINE
  5
E3C
330
17CD
100
AcDbEntity
  8
V0-OBRYS
  6
CONTINUOUS
 62
    90
100
AcDbLine
 10
704.049863
 20
116.848036
 30
0.0
 11
704.049863
 21
104.310374
 31
0.0
  0
LINE
  5
E3D
330
17CD
100
AcDbEntity
  8
V0-OBRYS
  6
CONTINUOUS
 62
    90
100
AcDbLine
 10
707.1373630000001
 20
116.848036
 30
0.0
 11
707.1373630000001
 21
104.310374
 31
0.0
  0
LINE
  5
E3E
330
17CD
100
AcDbEntity
  8
V0-OBRYS
  6
CONTINUOUS
 62
    90
100
AcDbLine
 10
707.1373630000001
 20
72.068096
 30
0.0
 11
707.1373630000001
 21
59.530433
 31
0.0
  0
LINE
  5
E3F
330
17CD
100
AcDbEntity
  8
V0-OBRYS
  6
CONTINUOUS
 62
    90
100
AcDbLine
 10
704.049863
 20
72.068096
 30
0.0
 11
704.049863
 21
59.530433
 31
0.0
  0
LINE
  5
E40
330
17CD
100
AcDbEntity
  8
V0-OBRYS
  6
CONTINUOUS
 62
    90
100
AcDbLine
 10
704.049863
 20
86.994743
 30
0.0
 11
704.049863
 21
74.45708000000001
 31
0.0
  0
LINE
  5
E41
330
17CD
100
AcDbEntity
  8
V0-OBRYS
  6
CONTINUOUS
 62
    90
100
AcDbLine
 10
707.1373630000001
 20
86.994743
 30
0.0
 11
707.1373630000001
 21
74.45708000000001
 31
0.0
  0
LINE
  5
E42
330
17CD
100
AcDbEntity
  8
V0-OBRYS
  6
CONTINUOUS
 62
    90
100
AcDbLine
 10
707.1373630000001
 20
101.92139
 30
0.0
 11
707.1373630000001
 21
89.38372699999999
 31
0.0
  0
LINE
  5
E43
330
17CD
100
AcDbEntity
  8
V0-OBRYS
  6
CONTINUOUS
 62
    90
100
AcDbLine
 10
704.049863
 20
101.92139
 30
0.0
 11
704.049863
 21
89.38372699999999
 31
0.0
  0
LINE
  5
E44
330
17CD
100
AcDbEntity
  8
V0-OBRYS
  6
CONTINUOUS
 62
    90
100
AcDbLine
 10
707.1373630000001
 20
176.554623
 30
0.0
 11
707.1373630000001
 21
164.016961
 31
0.0
  0
LINE
  5
E45
330
17CD
100
AcDbEntity
  8
V0-OBRYS
  6
CONTINUOUS
 62
    90
100
AcDbLine
 10
704.049863
 20
176.554623
 30
0.0
 11
704.049863
 21
164.016961
 31
0.0
  0
LINE
  5
E46
330
17CD
100
AcDbEntity
  8
V0-OBRYS
  6
CONTINUOUS
 62
    90
100
AcDbLine
 10
707.1373630000001
 20
146.70133
 30
0.0
 11
707.1373630000001
 21
134.163667
 31
0.0
  0
LINE
  5
E47
330
17CD
100
AcDbEntity
  8
V0-OBRYS
  6
CONTINUOUS
 62
    90
100
AcDbLine
 10
704.049863
 20
146.70133
 30
0.0
 11
704.049863
 21
134.163667
 31
0.0
  0
LINE
  5
E48
330
17CD
100
AcDbEntity
  8
V0-OBRYS
  6
CONTINUOUS
 62
    90
100
AcDbLine
 10
704.049863
 20
131.774683
 30
0.0
 11
704.049863
 21
119.23702
 31
0.0
  0
LINE
  5
E49
330
17CD
100
AcDbEntity
  8
V0-OBRYS
  6
CONTINUOUS
 62
    90
100
AcDbLine
 10
707.1373630000001
 20
131.774683
 30
0.0
 11
707.1373630000001
 21
119.23702
 31
0.0
  0
LINE
  5
E4A
330
17CD
100
AcDbEntity
  8
V0-OBRYS
  6
CONTINUOUS
 62
    90
100
AcDbLine
 10
704.049863
 20
161.627977
 30
0.0
 11
704.049863
 21
149.090314
 31
0.0
  0
LINE
  5
E4B
330
17CD
100
AcDbEntity
  8
V0-OBRYS
  6
CONTINUOUS
 62
    90
100
AcDbLine
 10
707.1373630000001
 20
161.627977
 30
0.0
 11
707.1373630000001
 21
149.090314
 31
0.0
  0
LINE
  5
E4C
330
17CD
100
AcDbEntity
  8
V0-OBRYS
  6
CONTINUOUS
 62
    90
100
AcDbLine
 10
707.1373630000001
 20
190.101207
 30
0.0
 11
707.1373630000001
 21
178.943607
 31
0.0
  0
LINE
  5
E4D
330
17CD
100
AcDbEntity
  8
V0-OBRYS
  6
CONTINUOUS
 62
    90
100
AcDbLine
 10
704.049863
 20
190.101207
 30
0.0
 11
704.049863
 21
178.943607
 31
0.0
  0
LINE
  5
E4E
330
17CD
100
AcDbEntity
  8
V0-OBRYS
  6
CONTINUOUS
 62
    90
100
AcDbLine
 10
704.049863
 20
192.490191
 30
0.0
 11
704.049863
 21
204.018933
 31
0.0
  0
LINE
  5
E4F
330
17CD
100
AcDbEntity
  8
V0-OBRYS
  6
CONTINUOUS
 62
    90
100
AcDbLine
 10
707.1373630000001
 20
192.490191
 30
0.0
 11
707.1373630000001
 21
204.018933
 31
0.0
  0
LINE
  5
E50
330
17CD
100
AcDbEntity
  8
V0-OBRYS
  6
CONTINUOUS
 62
    90
100
AcDbLine
 10
704.049863
 20
310.894444
 30
0.0
 11
704.049863
 21
323.432107
 31
0.0
  0
LINE
  5
E51
330
17CD
100
AcDbEntity
  8
V0-OBRYS
  6
CONTINUOUS
 62
    90
100
AcDbLine
 10
707.1373630000001
 20
310.894444
 30
0.0
 11
707.1373630000001
 21
323.432107
 31
0.0
  0
LINE
  5
E52
330
17CD
100
AcDbEntity
  8
V0-OBRYS
  6
CONTINUOUS
 62
    90
100
AcDbLine
 10
707.1373630000001
 20
236.26121
 30
0.0
 11
707.1373630000001
 21
248.798873
 31
0.0
  0
LINE
  5
E53
330
17CD
100
AcDbEntity
  8
V0-OBRYS
  6
CONTINUOUS
 62
    90
100
AcDbLine
 10
704.049863
 20
236.26121
 30
0.0
 11
704.049863
 21
248.798873
 31
0.0
  0
LINE
  5
E54
330
17CD
100
AcDbEntity
  8
V0-OBRYS
  6
CONTINUOUS
 62
    90
100
AcDbLine
 10
704.049863
 20
221.334564
 30
0.0
 11
704.049863
 21
233.872226
 31
0.0
  0
LINE
  5
E55
330
17CD
100
AcDbEntity
  8
V0-OBRYS
  6
CONTINUOUS
 62
    90
100
AcDbLine
 10
707.1373630000001
 20
221.334564
 30
0.0
 11
707.1373630000001
 21
233.872226
 31
0.0
  0
LINE
  5
E56
330
17CD
100
AcDbEntity
  8
V0-OBRYS
  6
CONTINUOUS
 62
    90
100
AcDbLine
 10
704.049863
 20
251.187857
 30
0.0
 11
704.049863
 21
263.72552
 31
0.0
  0
LINE
  5
E57
330
17CD
100
AcDbEntity
  8
V0-OBRYS
  6
CONTINUOUS
 62
    90
100
AcDbLine
 10
707.1373630000001
 20
251.187857
 30
0.0
 11
707.1373630000001
 21
263.72552
 31
0.0
  0
LINE
  5
E58
330
17CD
100
AcDbEntity
  8
V0-OBRYS
  6
CONTINUOUS
 62
    90
100
AcDbLine
 10
704.049863
 20
281.041151
 30
0.0
 11
704.049863
 21
293.578813
 31
0.0
  0
LINE
  5
E59
330
17CD
100
AcDbEntity
  8
V0-OBRYS
  6
CONTINUOUS
 62
    90
100
AcDbLine
 10
707.1373630000001
 20
281.041151
 30
0.0
 11
707.1373630000001
 21
293.578813
 31
0.0
  0
LINE
  5
E5A
330
17CD
100
AcDbEntity
  8
V0-OBRYS
  6
CONTINUOUS
 62
    90
100
AcDbLine
 10
707.1373630000001
 20
266.114504
 30
0.0
 11
707.1373630000001
 21
278.652167
 31
0.0
  0
LINE
  5
E5B
330
17CD
100
AcDbEntity
  8
V0-OBRYS
  6
CONTINUOUS
 62
    90
100
AcDbLine
 10
704.049863
 20
266.114504
 30
0.0
 11
704.049863
 21
278.652167
 31
0.0
  0
LINE
  5
E5C
330
17CD
100
AcDbEntity
  8
V0-OBRYS
  6
CONTINUOUS
 62
    90
100
AcDbLine
 10
707.1373630000001
 20
295.967797
 30
0.0
 11
707.1373630000001
 21
308.50546
 31
0.0
  0
LINE
  5
E5D
330
17CD
100
AcDbEntity
  8
V0-OBRYS
  6
CONTINUOUS
 62
    90
100
AcDbLine
 10
704.049863
 20
295.967797
 30
0.0
 11
704.049863
 21
308.50546
 31
0.0
  0
LINE
  5
E5E
330
17CD
100
AcDbEntity
  8
V0-OBRYS
  6
CONTINUOUS
 62
    90
100
AcDbLine
 10
554.418643
 20
206.407917
 30
0.0
 11
554.418643
 21
218.94558
 31
0.0
  0
LINE
  5
E5F
330
17CD
100
AcDbEntity
  8
V0-OBRYS
  6
CONTINUOUS
 62
    90
100
AcDbLine
 10
551.331143
 20
206.407917
 30
0.0
 11
551.331143
 21
218.94558
 31
0.0
  0
LINE
  5
E60
330
17CD
100
AcDbEntity
  8
V0-OBRYS
  6
CONTINUOUS
 62
    90
100
AcDbLine
 10
554.418643
 20
116.848036
 30
0.0
 11
554.418643
 21
104.310374
 31
0.0
  0
LINE
  5
E61
330
17CD
100
AcDbEntity
  8
V0-OBRYS
  6
CONTINUOUS
 62
    90
100
AcDbLine
 10
551.331143
 20
116.848036
 30
0.0
 11
551.331143
 21
104.310374
 31
0.0
  0
LINE
  5
E62
330
17CD
100
AcDbEntity
  8
V0-OBRYS
  6
CONTINUOUS
 62
    90
100
AcDbLine
 10
551.331143
 20
72.068096
 30
0.0
 11
551.331143
 21
59.530433
 31
0.0
  0
LINE
  5
E63
330
17CD
100
AcDbEntity
  8
V0-OBRYS
  6
CONTINUOUS
 62
    90
100
AcDbLine
 10
554.418643
 20
72.068096
 30
0.0
 11
554.418643
 21
59.530433
 31
0.0
  0
LINE
  5
E64
330
17CD
100
AcDbEntity
  8
V0-OBRYS
  6
CONTINUOUS
 62
    90
100
AcDbLine
 10
554.418643
 20
86.994743
 30
0.0
 11
554.418643
 21
74.45708000000001
 31
0.0
  0
LINE
  5
E65
330
17CD
100
AcDbEntity
  8
V0-OBRYS
  6
CONTINUOUS
 62
    90
100
AcDbLine
 10
551.331143
 20
86.994743
 30
0.0
 11
551.331143
 21
74.45708000000001
 31
0.0
  0
LINE
  5
E66
330
17CD
100
AcDbEntity
  8
V0-OBRYS
  6
CONTINUOUS
 62
    90
100
AcDbLine
 10
551.331143
 20
101.92139
 30
0.0
 11
551.331143
 21
89.38372699999999
 31
0.0
  0
LINE
  5
E67
330
17CD
100
AcDbEntity
  8
V0-OBRYS
  6
CONTINUOUS
 62
    90
100
AcDbLine
 10
554.418643
 20
101.92139
 30
0.0
 11
554.418643
 21
89.38372699999999
 31
0.0
  0
LINE
  5
E68
330
17CD
100
AcDbEntity
  8
V0-OBRYS
  6
CONTINUOUS
 62
    90
100
AcDbLine
 10
551.331143
 20
176.554623
 30
0.0
 11
551.331143
 21
164.016961
 31
0.0
  0
LINE
  5
E69
330
17CD
100
AcDbEntity
  8
V0-OBRYS
  6
CONTINUOUS
 62
    90
100
AcDbLine
 10
554.418643
 20
176.554623
 30
0.0
 11
554.418643
 21
164.016961
 31
0.0
  0
LINE
  5
E6A
330
17CD
100
AcDbEntity
  8
V0-OBRYS
  6
CONTINUOUS
 62
    90
100
AcDbLine
 10
551.331143
 20
146.70133
 30
0.0
 11
551.331143
 21
134.163667
 31
0.0
  0
LINE
  5
E6B
330
17CD
100
AcDbEntity
  8
V0-OBRYS
  6
CONTINUOUS
 62
    90
100
AcDbLine
 10
554.418643
 20
146.70133
 30
0.0
 11
554.418643
 21
134.163667
 31
0.0
  0
LINE
  5
E6C
330
17CD
100
AcDbEntity
  8
V0-OBRYS
  6
CONTINUOUS
 62
    90
100
AcDbLine
 10
554.418643
 20
131.774683
 30
0.0
 11
554.418643
 21
119.23702
 31
0.0
  0
LINE
  5
E6D
330
17CD
100
AcDbEntity
  8
V0-OBRYS
  6
CONTINUOUS
 62
    90
100
AcDbLine
 10
551.331143
 20
131.774683
 30
0.0
 11
551.331143
 21
119.23702
 31
0.0
  0
LINE
  5
E6E
330
17CD
100
AcDbEntity
  8
V0-OBRYS
  6
CONTINUOUS
 62
    90
100
AcDbLine
 10
554.418643
 20
161.627977
 30
0.0
 11
554.418643
 21
149.090314
 31
0.0
  0
LINE
  5
E6F
330
17CD
100
AcDbEntity
  8
V0-OBRYS
  6
CONTINUOUS
 62
    90
100
AcDbLine
 10
551.331143
 20
161.627977
 30
0.0
 11
551.331143
 21
149.090314
 31
0.0
  0
LINE
  5
E70
330
17CD
100
AcDbEntity
  8
V0-OBRYS
  6
CONTINUOUS
 62
    90
100
AcDbLine
 10
551.331143
 20
190.101207
 30
0.0
 11
551.331143
 21
178.943607
 31
0.0
  0
LINE
  5
E71
330
17CD
100
AcDbEntity
  8
V0-OBRYS
  6
CONTINUOUS
 62
    90
100
AcDbLine
 10
554.418643
 20
190.101207
 30
0.0
 11
554.418643
 21
178.943607
 31
0.0
  0
LINE
  5
E72
330
17CD
100
AcDbEntity
  8
V0-OBRYS
  6
CONTINUOUS
 62
    90
100
AcDbLine
 10
554.418643
 20
192.490191
 30
0.0
 11
554.418643
 21
204.018933
 31
0.0
  0
LINE
  5
E73
330
17CD
100
AcDbEntity
  8
V0-OBRYS
  6
CONTINUOUS
 62
    90
100
AcDbLine
 10
551.331143
 20
192.490191
 30
0.0
 11
551.331143
 21
204.018933
 31
0.0
  0
LINE
  5
E74
330
17CD
100
AcDbEntity
  8
V0-OBRYS
  6
CONTINUOUS
 62
    90
100
AcDbLine
 10
554.418643
 20
310.894444
 30
0.0
 11
554.418643
 21
323.432107
 31
0.0
  0
LINE
  5
E75
330
17CD
100
AcDbEntity
  8
V0-OBRYS
  6
CONTINUOUS
 62
    90
100
AcDbLine
 10
551.331143
 20
310.894444
 30
0.0
 11
551.331143
 21
323.432107
 31
0.0
  0
LINE
  5
E76
330
17CD
100
AcDbEntity
  8
V0-OBRYS
  6
CONTINUOUS
 62
    90
100
AcDbLine
 10
551.331143
 20
236.26121
 30
0.0
 11
551.331143
 21
248.798873
 31
0.0
  0
LINE
  5
E77
330
17CD
100
AcDbEntity
  8
V0-OBRYS
  6
CONTINUOUS
 62
    90
100
AcDbLine
 10
554.418643
 20
236.26121
 30
0.0
 11
554.418643
 21
248.798873
 31
0.0
  0
LINE
  5
E78
330
17CD
100
AcDbEntity
  8
V0-OBRYS
  6
CONTINUOUS
 62
    90
100
AcDbLine
 10
554.418643
 20
221.334564
 30
0.0
 11
554.418643
 21
233.872226
 31
0.0
  0
LINE
  5
E79
330
17CD
100
AcDbEntity
  8
V0-OBRYS
  6
CONTINUOUS
 62
    90
100
AcDbLine
 10
551.331143
 20
221.334564
 30
0.0
 11
551.331143
 21
233.872226
 31
0.0
  0
LINE
  5
E7A
330
17CD
100
AcDbEntity
  8
V0-OBRYS
  6
CONTINUOUS
 62
    90
100
AcDbLine
 10
554.418643
 20
251.187857
 30
0.0
 11
554.418643
 21
263.72552
 31
0.0
  0
LINE
  5
E7B
330
17CD
100
AcDbEntity
  8
V0-OBRYS
  6
CONTINUOUS
 62
    90
100
AcDbLine
 10
551.331143
 20
251.187857
 30
0.0
 11
551.331143
 21
263.72552
 31
0.0
  0
LINE
  5
E7C
330
17CD
100
AcDbEntity
  8
V0-OBRYS
  6
CONTINUOUS
 62
    90
100
AcDbLine
 10
554.418643
 20
281.041151
 30
0.0
 11
554.418643
 21
293.578813
 31
0.0
  0
LINE
  5
E7D
330
17CD
100
AcDbEntity
  8
V0-OBRYS
  6
CONTINUOUS
 62
    90
100
AcDbLine
 10
551.331143
 20
281.041151
 30
0.0
 11
551.331143
 21
293.578813
 31
0.0
  0
LINE
  5
E7E
330
17CD
100
AcDbEntity
  8
V0-OBRYS
  6
CONTINUOUS
 62
    90
100
AcDbLine
 10
551.331143
 20
266.114504
 30
0.0
 11
551.331143
 21
278.652167
 31
0.0
  0
LINE
  5
E7F
330
17CD
100
AcDbEntity
  8
V0-OBRYS
  6
CONTINUOUS
 62
    90
100
AcDbLine
 10
554.418643
 20
266.114504
 30
0.0
 11
554.418643
 21
278.652167
 31
0.0
  0
LINE
  5
E80
330
17CD
100
AcDbEntity
  8
V0-OBRYS
  6
CONTINUOUS
 62
    90
100
AcDbLine
 10
551.331143
 20
295.967797
 30
0.0
 11
551.331143
 21
308.50546
 31
0.0
  0
LINE
  5
E81
330
17CD
100
AcDbEntity
  8
V0-OBRYS
  6
CONTINUOUS
 62
    90
100
AcDbLine
 10
554.418643
 20
295.967797
 30
0.0
 11
554.418643
 21
308.50546
 31
0.0
  0
LINE
  5
E88
330
17CD
100
AcDbEntity
  8
V0-VYPLNE
  6
DASHDOT
 62
    63
 48
3.0
100
AcDbLine
 10
774.342247
 20
191.48127
 30
0.0
 11
394.83454
 21
191.48127
 31
0.0
  0
LINE
  5
E8B
330
17CD
100
AcDbEntity
  8
V0-VYPLNE
  6
DASHDOT
 62
    63
 48
3.0
100
AcDbLine
 10
590.319577
 20
393.00919
 30
0.0
 11
590.319577
 21
-24.08410600000002
 31
0.0
  0
LINE
  5
101B
330
17CD
100
AcDbEntity
  8
V0-OBRYS
  6
CONTINUOUS
 62
    90
100
AcDbLine
 10
629.308011
 20
295.967797
 30
0.0
 11
629.308011
 21
308.50546
 31
0.0
  0
LINE
  5
101C
330
17CD
100
AcDbEntity
  8
V0-OBRYS
  6
CONTINUOUS
 62
    90
100
AcDbLine
 10
626.220511
 20
295.967797
 30
0.0
 11
626.220511
 21
308.50546
 31
0.0
  0
LINE
  5
101D
330
17CD
100
AcDbEntity
  8
V0-OBRYS
  6
CONTINUOUS
 62
    90
100
AcDbLine
 10
629.308011
 20
146.70133
 30
0.0
 11
629.308011
 21
134.163667
 31
0.0
  0
LINE
  5
101E
330
17CD
100
AcDbEntity
  8
V0-OBRYS
  6
CONTINUOUS
 62
    90
100
AcDbLine
 10
626.220511
 20
146.70133
 30
0.0
 11
626.220511
 21
134.163667
 31
0.0
  0
LINE
  5
101F
330
17CD
100
AcDbEntity
  8
V0-OBRYS
  6
CONTINUOUS
 62
    90
100
AcDbLine
 10
629.308011
 20
101.92139
 30
0.0
 11
629.308011
 21
89.38372699999999
 31
0.0
  0
LINE
  5
1020
330
17CD
100
AcDbEntity
  8
V0-OBRYS
  6
CONTINUOUS
 62
    90
100
AcDbLine
 10
626.220511
 20
101.92139
 30
0.0
 11
626.220511
 21
89.38372699999999
 31
0.0
  0
LINE
  5
1021
330
17CD
100
AcDbEntity
  8
V0-OBRYS
  6
CONTINUOUS
 62
    90
100
AcDbLine
 10
626.220511
 20
72.068096
 30
0.0
 11
626.220511
 21
59.530433
 31
0.0
  0
LINE
  5
1022
330
17CD
100
AcDbEntity
  8
V0-OBRYS
  6
CONTINUOUS
 62
    90
100
AcDbLine
 10
629.308011
 20
72.068096
 30
0.0
 11
629.308011
 21
59.530433
 31
0.0
  0
LINE
  5
1023
330
17CD
100
AcDbEntity
  8
V0-OBRYS
  6
CONTINUOUS
 62
    90
100
AcDbLine
 10
629.308011
 20
86.994743
 30
0.0
 11
629.308011
 21
74.45708000000001
 31
0.0
  0
LINE
  5
1024
330
17CD
100
AcDbEntity
  8
V0-OBRYS
  6
CONTINUOUS
 62
    90
100
AcDbLine
 10
626.220511
 20
86.994743
 30
0.0
 11
626.220511
 21
74.45708000000001
 31
0.0
  0
LINE
  5
1025
330
17CD
100
AcDbEntity
  8
V0-OBRYS
  6
CONTINUOUS
 62
    90
100
AcDbLine
 10
629.308011
 20
116.848036
 30
0.0
 11
629.308011
 21
104.310374
 31
0.0
  0
LINE
  5
1026
330
17CD
100
AcDbEntity
  8
V0-OBRYS
  6
CONTINUOUS
 62
    90
100
AcDbLine
 10
626.220511
 20
116.848036
 30
0.0
 11
626.220511
 21
104.310374
 31
0.0
  0
LINE
  5
1027
330
17CD
100
AcDbEntity
  8
V0-OBRYS
  6
CONTINUOUS
 62
    90
100
AcDbLine
 10
629.308011
 20
131.774683
 30
0.0
 11
629.308011
 21
119.23702
 31
0.0
  0
LINE
  5
1028
330
17CD
100
AcDbEntity
  8
V0-OBRYS
  6
CONTINUOUS
 62
    90
100
AcDbLine
 10
626.220511
 20
131.774683
 30
0.0
 11
626.220511
 21
119.23702
 31
0.0
  0
LINE
  5
1029
330
17CD
100
AcDbEntity
  8
V0-OBRYS
  6
CONTINUOUS
 62
    90
100
AcDbLine
 10
629.308011
 20
206.407917
 30
0.0
 11
629.308011
 21
218.94558
 31
0.0
  0
LINE
  5
102A
330
17CD
100
AcDbEntity
  8
V0-OBRYS
  6
CONTINUOUS
 62
    90
100
AcDbLine
 10
626.220511
 20
206.407917
 30
0.0
 11
626.220511
 21
218.94558
 31
0.0
  0
LINE
  5
102B
330
17CD
100
AcDbEntity
  8
V0-OBRYS
  6
CONTINUOUS
 62
    90
100
AcDbLine
 10
629.308011
 20
176.554623
 30
0.0
 11
629.308011
 21
164.016961
 31
0.0
  0
LINE
  5
102C
330
17CD
100
AcDbEntity
  8
V0-OBRYS
  6
CONTINUOUS
 62
    90
100
AcDbLine
 10
626.220511
 20
176.554623
 30
0.0
 11
626.220511
 21
164.016961
 31
0.0
  0
LINE
  5
102D
330
17CD
100
AcDbEntity
  8
V0-OBRYS
  6
CONTINUOUS
 62
    90
100
AcDbLine
 10
629.308011
 20
161.627977
 30
0.0
 11
629.308011
 21
149.090314
 31
0.0
  0
LINE
  5
102E
330
17CD
100
AcDbEntity
  8
V0-OBRYS
  6
CONTINUOUS
 62
    90
100
AcDbLine
 10
626.220511
 20
161.627977
 30
0.0
 11
626.220511
 21
149.090314
 31
0.0
  0
POINT
  5
102F
330
17CD
100
AcDbEntity
  8
V0-VYPLNE
  6
CONTINUOUS
 62
    52
100
AcDbPoint
 10
627.6467760000001
 20
191.48127
 30
0.0
  0
LINE
  5
1030
330
17CD
100
AcDbEntity
  8
V0-OBRYS
  6
CONTINUOUS
 62
    90
100
AcDbLine
 10
629.308011
 20
192.490191
 30
0.0
 11
629.308011
 21
204.018933
 31
0.0
  0
LINE
  5
1031
330
17CD
100
AcDbEntity
  8
V0-OBRYS
  6
CONTINUOUS
 62
    90
100
AcDbLine
 10
626.220511
 20
192.490191
 30
0.0
 11
626.220511
 21
204.018933
 31
0.0
  0
LINE
  5
1032
330
17CD
100
AcDbEntity
  8
V0-OBRYS
  6
CONTINUOUS
 62
    90
100
AcDbLine
 10
629.308011
 20
190.101207
 30
0.0
 11
629.308011
 21
178.943607
 31
0.0
  0
LINE
  5
1033
330
17CD
100
AcDbEntity
  8
V0-OBRYS
  6
CONTINUOUS
 62
    90
100
AcDbLine
 10
626.220511
 20
190.101207
 30
0.0
 11
626.220511
 21
178.943607
 31
0.0
  0
LINE
  5
1034
330
17CD
100
AcDbEntity
  8
V0-OBRYS
  6
CONTINUOUS
 62
    90
100
AcDbLine
 10
629.308011
 20
251.187857
 30
0.0
 11
629.308011
 21
263.72552
 31
0.0
  0
LINE
  5
1035
330
17CD
100
AcDbEntity
  8
V0-OBRYS
  6
CONTINUOUS
 62
    90
100
AcDbLine
 10
626.220511
 20
251.187857
 30
0.0
 11
626.220511
 21
263.72552
 31
0.0
  0
LINE
  5
1036
330
17CD
100
AcDbEntity
  8
V0-OBRYS
  6
CONTINUOUS
 62
    90
100
AcDbLine
 10
629.308011
 20
236.26121
 30
0.0
 11
629.308011
 21
248.798873
 31
0.0
  0
LINE
  5
1037
330
17CD
100
AcDbEntity
  8
V0-OBRYS
  6
CONTINUOUS
 62
    90
100
AcDbLine
 10
626.220511
 20
236.26121
 30
0.0
 11
626.220511
 21
248.798873
 31
0.0
  0
LINE
  5
1038
330
17CD
100
AcDbEntity
  8
V0-OBRYS
  6
CONTINUOUS
 62
    90
100
AcDbLine
 10
629.308011
 20
221.334564
 30
0.0
 11
629.308011
 21
233.872226
 31
0.0
  0
LINE
  5
1039
330
17CD
100
AcDbEntity
  8
V0-OBRYS
  6
CONTINUOUS
 62
    90
100
AcDbLine
 10
626.220511
 20
221.334564
 30
0.0
 11
626.220511
 21
233.872226
 31
0.0
  0
LINE
  5
103A
330
17CD
100
AcDbEntity
  8
V0-OBRYS
  6
CONTINUOUS
 62
    90
100
AcDbLine
 10
629.308011
 20
266.114504
 30
0.0
 11
629.308011
 21
278.652167
 31
0.0
  0
LINE
  5
103B
330
17CD
100
AcDbEntity
  8
V0-OBRYS
  6
CONTINUOUS
 62
    90
100
AcDbLine
 10
626.220511
 20
266.114504
 30
0.0
 11
626.220511
 21
278.652167
 31
0.0
  0
LINE
  5
103C
330
17CD
100
AcDbEntity
  8
V0-OBRYS
  6
CONTINUOUS
 62
    90
100
AcDbLine
 10
629.308011
 20
281.041151
 30
0.0
 11
629.308011
 21
293.578813
 31
0.0
  0
LINE
  5
103D
330
17CD
100
AcDbEntity
  8
V0-OBRYS
  6
CONTINUOUS
 62
    90
100
AcDbLine
 10
626.220511
 20
281.041151
 30
0.0
 11
626.220511
 21
293.578813
 31
0.0
  0
LINE
  5
103E
330
17CD
100
AcDbEntity
  8
V0-OBRYS
  6
CONTINUOUS
 62
    90
100
AcDbLine
 10
629.308011
 20
310.894444
 30
0.0
 11
629.308011
 21
323.432107
 31
0.0
  0
LINE
  5
103F
330
17CD
100
AcDbEntity
  8
V0-OBRYS
  6
CONTINUOUS
 62
    90
100
AcDbLine
 10
626.220511
 20
310.894444
 30
0.0
 11
626.220511
 21
323.432107
 31
0.0
  0
LINE
  5
10FF
330
17CD
100
AcDbEntity
  8
V0-VYPLNE
  6
DASHDOT
 62
    63
 48
3.0
100
AcDbLine
 10
-17.05356
 20
191.48127
 30
0.0
 11
221.210094
 21
191.48127
 31
0.0
  0
LINE
  5
1100
330
17CD
100
AcDbEntity
  8
V0-VYPLNE
  6
DASHDOT
 62
    63
 48
3.0
100
AcDbLine
 10
12.78985
 20
-431.114428
 30
0.0
 11
221.210094
 21
-431.114428
 31
0.0
  0
DIMENSION
  5
1101
330
17CD
100
AcDbEntity
  8
V0-VYPLNE
  6
CONTINUOUS
 62
    41
100
AcDbDimension
  2
*D8
 10
162.568056
 20
-84.03603000000112
 30
0.0
 11
237.69327
 21
-84.03603
 31
0.0
 70
   160
  1
3 az 25
  3
ED10
100
AcDbAlignedDimension
 13
165.779056
 23
-10.092934
 33
0.0
 14
162.568056
 24
-10.092934
 34
0.0
100
AcDbRotatedDimension
1001
ACAD
1000
DSTYLE
1002
{
1070
    40
1040
1.0
1002
}
  0
DIMENSION
  5
1102
330
17CD
100
AcDbEntity
  8
V0-VYPLNE
  6
CONTINUOUS
 62
    41
100
AcDbDimension
  2
*D9
 10
165.779056
 20
-48.78718700000009
 30
0.0
 11
176.55184
 21
-48.787187
 31
0.0
 70
   160
  3
ED10
100
AcDbAlignedDimension
 13
187.324624
 23
35.479703
 33
0.0
 14
165.779056
 24
-10.092934
 34
0.0
100
AcDbRotatedDimension
1001
ACAD
1000
DSTYLE
1002
{
1070
    40
1040
1.0
1002
}
  0
DIMENSION
  5
1103
330
17CD
100
AcDbEntity
  8
V0-VYPLNE
  6
CONTINUOUS
 62
    41
100
AcDbDimension
  2
*D10
 10
12.78985
 20
-117.326601
 30
0.0
 11
122.957855
 21
-117.326601
 31
0.0
 70
   160
  3
ED10
100
AcDbAlignedDimension
 13
162.568056
 23
-11.698434
 33
0.0
 14
12.78985
 24
-10.092934
 34
0.0
100
AcDbRotatedDimension
1001
ACAD
1000
DSTYLE
1002
{
1070
    40
1040
1.0
1002
}
  0
LINE
  5
1104
330
17CD
100
AcDbEntity
  8
V0-OBRYS
  6
CONTINUOUS
 62
    90
100
AcDbLine
 10
-101.057023
 20
-432.30892
 30
0.0
 11
-101.057023
 21
-229.922724
 31
0.0
  0
LINE
  5
1105
330
17CD
100
AcDbEntity
  8
V0-OBRYS
  6
CONTINUOUS
 62
    90
100
AcDbLine
 10
-97.846023
 20
-432.30892
 30
0.0
 11
-97.846023
 21
-229.922724
 31
0.0
  0
LINE
  5
1107
330
17CD
100
AcDbEntity
  8
V0-OBRYS
  6
CONTINUOUS
 62
    90
100
AcDbLine
 10
-119.050603
 20
-296.979306
 30
0.0
 11
-119.050603
 21
-565.249551
 31
0.0
  0
LINE
  5
1108
330
17CD
100
AcDbEntity
  8
V0-OBRYS
  6
CONTINUOUS
 62
    90
100
AcDbLine
 10
-126.598087
 20
-403.22902
 30
0.0
 11
-126.598087
 21
-431.114428
 31
0.0
  0
LINE
  5
1109
330
17CD
100
AcDbEntity
  8
V0-OBRYS
  6
CONTINUOUS
 62
    90
100
AcDbLine
 10
191.320121
 20
-403.22902
 30
0.0
 11
191.320121
 21
-431.114428
 31
0.0
  0
LINE
  5
110A
330
17CD
100
AcDbEntity
  8
V0-OBRYS
  6
CONTINUOUS
 62
    90
100
AcDbLine
 10
183.772636
 20
-296.979306
 30
0.0
 11
183.772636
 21
-565.249551
 31
0.0
  0
LINE
  5
110C
330
17CD
100
AcDbEntity
  8
V0-OBRYS
  6
CONTINUOUS
 62
    90
100
AcDbLine
 10
162.568056
 20
-432.30892
 30
0.0
 11
162.568056
 21
-229.922724
 31
0.0
  0
LINE
  5
110D
330
17CD
100
AcDbEntity
  8
V0-OBRYS
  6
CONTINUOUS
 62
    90
100
AcDbLine
 10
165.779056
 20
-432.30892
 30
0.0
 11
165.779056
 21
-229.922724
 31
0.0
  0
LINE
  5
110E
330
17CD
100
AcDbEntity
  8
V0-OBRYS
  6
CONTINUOUS
 62
    90
 48
5.0
100
AcDbLine
 10
12.78985
 20
-632.3061320000001
 30
0.0
 11
12.78985
 21
-229.922724
 31
0.0
  0
ARC
  5
1110
330
17CD
100
AcDbEntity
  8
V0-OBRYS
  6
CONTINUOUS
 62
    90
100
AcDbCircle
 10
-2157.867586
 20
-431.854421
 30
0.0
 40
2350.220563
100
AcDbArc
 50
355.373845
 51
357.824765
  0
LINE
  5
1111
330
17CD
100
AcDbEntity
  8
V0-OBRYS
  6
CONTINUOUS
 62
    90
100
AcDbLine
 10
165.779056
 20
-429.919936
 30
0.0
 11
165.779056
 21
-632.3061320000001
 31
0.0
  0
LINE
  5
1112
330
17CD
100
AcDbEntity
  8
V0-OBRYS
  6
CONTINUOUS
 62
    90
100
AcDbLine
 10
162.568056
 20
-429.919936
 30
0.0
 11
162.568056
 21
-632.3061320000001
 31
0.0
  0
LINE
  5
1113
330
17CD
100
AcDbEntity
  8
V0-OBRYS
  6
CONTINUOUS
 62
    90
 48
5.0
100
AcDbLine
 10
172.797465
 20
-632.3061320000001
 30
0.0
 11
12.78985
 21
-632.3061320000001
 31
0.0
  0
ARC
  5
1114
330
17CD
100
AcDbEntity
  8
V0-OBRYS
  6
CONTINUOUS
 62
    90
100
AcDbCircle
 10
172.797465
 20
-620.361212
 30
0.0
 40
11.94492
100
AcDbArc
 50
270.0
 51
354.967741
  0
LINE
  5
1115
330
17CD
100
AcDbEntity
  8
V0-OBRYS
  6
CONTINUOUS
 62
    90
100
AcDbLine
 10
191.320121
 20
-518.114229
 30
0.0
 11
191.320121
 21
-461.388821
 31
0.0
  0
LINE
  5
1116
330
17CD
100
AcDbEntity
  8
V0-OBRYS
  6
CONTINUOUS
 62
    90
100
AcDbLine
 10
187.818904
 20
-565.249551
 30
0.0
 11
183.772636
 21
-565.249551
 31
0.0
  0
LINE
  5
1117
330
17CD
100
AcDbEntity
  8
V0-OBRYS
  6
CONTINUOUS
 62
    90
100
AcDbLine
 10
183.772636
 20
-521.059129
 30
0.0
 11
195.717556
 21
-521.059129
 31
0.0
  0
LINE
  5
1118
330
17CD
100
AcDbEntity
  8
V0-OBRYS
  6
CONTINUOUS
 62
    90
100
AcDbLine
 10
183.772636
 20
-518.6701450000001
 30
0.0
 11
195.717556
 21
-518.6701450000001
 31
0.0
  0
LINE
  5
1119
330
17CD
100
AcDbEntity
  8
V0-OBRYS
  6
CONTINUOUS
 62
    90
100
AcDbLine
 10
195.717556
 20
-521.059129
 30
0.0
 11
195.717556
 21
-518.6701450000001
 31
0.0
  0
LINE
  5
111A
330
17CD
100
AcDbEntity
  8
V0-OBRYS
  6
CONTINUOUS
 62
    90
100
AcDbLine
 10
183.772636
 20
-461.388821
 30
0.0
 11
195.717556
 21
-461.388821
 31
0.0
  0
LINE
  5
111B
330
17CD
100
AcDbEntity
  8
V0-OBRYS
  6
CONTINUOUS
 62
    90
100
AcDbLine
 10
183.772636
 20
-458.999837
 30
0.0
 11
195.717556
 21
-458.999837
 31
0.0
  0
LINE
  5
111C
330
17CD
100
AcDbEntity
  8
V0-OBRYS
  6
CONTINUOUS
 62
    90
100
AcDbLine
 10
191.320121
 20
-458.999837
 30
0.0
 11
191.320121
 21
-431.114428
 31
0.0
  0
LINE
  5
111D
330
17CD
100
AcDbEntity
  8
V0-OBRYS
  6
CONTINUOUS
 62
    90
100
AcDbLine
 10
195.717556
 20
-461.388821
 30
0.0
 11
195.717556
 21
-458.999837
 31
0.0
  0
LINE
  5
111E
330
17CD
100
AcDbEntity
  8
V0-OBRYS
  6
CONTINUOUS
 62
    90
100
AcDbLine
 10
-97.846023
 20
-429.919936
 30
0.0
 11
-97.846023
 21
-632.3061320000001
 31
0.0
  0
LINE
  5
111F
330
17CD
100
AcDbEntity
  8
V0-OBRYS
  6
CONTINUOUS
 62
    90
100
AcDbLine
 10
-101.057023
 20
-429.919936
 30
0.0
 11
-101.057023
 21
-632.3061320000001
 31
0.0
  0
ARC
  5
1120
330
17CD
100
AcDbEntity
  8
V0-OBRYS
  6
CONTINUOUS
 62
    90
100
AcDbCircle
 10
2222.58962
 20
-431.854421
 30
0.0
 40
2350.220563
100
AcDbArc
 50
182.175235
 51
184.626155
  0
ARC
  5
1121
330
17CD
100
AcDbEntity
  8
V0-OBRYS
  6
CONTINUOUS
 62
    90
100
AcDbCircle
 10
-108.075431
 20
-620.361212
 30
0.0
 40
11.94492
100
AcDbArc
 50
185.032259
 51
270.0
  0
LINE
  5
1122
330
17CD
100
AcDbEntity
  8
V0-OBRYS
  6
CONTINUOUS
 62
    90
100
AcDbLine
 10
-126.598087
 20
-518.114229
 30
0.0
 11
-126.598087
 21
-461.388821
 31
0.0
  0
LINE
  5
1123
330
17CD
100
AcDbEntity
  8
V0-OBRYS
  6
CONTINUOUS
 62
    90
100
AcDbLine
 10
-123.09687
 20
-565.249551
 30
0.0
 11
-119.050603
 21
-565.249551
 31
0.0
  0
LINE
  5
1124
330
17CD
100
AcDbEntity
  8
V0-OBRYS
  6
CONTINUOUS
 62
    90
100
AcDbLine
 10
-119.050603
 20
-518.6701450000001
 30
0.0
 11
-130.995523
 21
-518.6701450000001
 31
0.0
  0
LINE
  5
1125
330
17CD
100
AcDbEntity
  8
V0-OBRYS
  6
CONTINUOUS
 62
    90
100
AcDbLine
 10
-119.050603
 20
-521.059129
 30
0.0
 11
-130.995523
 21
-521.059129
 31
0.0
  0
LINE
  5
1126
330
17CD
100
AcDbEntity
  8
V0-OBRYS
  6
CONTINUOUS
 62
    90
100
AcDbLine
 10
-130.995523
 20
-521.059129
 30
0.0
 11
-130.995523
 21
-518.6701450000001
 31
0.0
  0
LINE
  5
1127
330
17CD
100
AcDbEntity
  8
V0-OBRYS
  6
CONTINUOUS
 62
    90
100
AcDbLine
 10
-126.598087
 20
-458.999837
 30
0.0
 11
-126.598087
 21
-431.114428
 31
0.0
  0
LINE
  5
1128
330
17CD
100
AcDbEntity
  8
V0-OBRYS
  6
CONTINUOUS
 62
    90
100
AcDbLine
 10
-119.050603
 20
-458.999837
 30
0.0
 11
-130.995523
 21
-458.999837
 31
0.0
  0
LINE
  5
1129
330
17CD
100
AcDbEntity
  8
V0-OBRYS
  6
CONTINUOUS
 62
    90
100
AcDbLine
 10
-119.050603
 20
-461.388821
 30
0.0
 11
-130.995523
 21
-461.388821
 31
0.0
  0
LINE
  5
112A
330
17CD
100
AcDbEntity
  8
V0-OBRYS
  6
CONTINUOUS
 62
    90
100
AcDbLine
 10
-130.995523
 20
-461.388821
 30
0.0
 11
-130.995523
 21
-458.999837
 31
0.0
  0
ARC
  5
112B
330
17CD
100
AcDbEntity
  8
V0-OBRYS
  6
CONTINUOUS
 62
    90
100
AcDbCircle
 10
-2880.80118
 20
-457.587157
 30
0.0
 40
3073.151984
100
AcDbArc
 50
2.164328
 51
4.044763
  0
LINE
  5
112C
330
17CD
100
AcDbEntity
  8
V0-OBRYS
  6
CONTINUOUS
 62
    90
100
AcDbLine
 10
191.320121
 20
-344.114628
 30
0.0
 11
191.320121
 21
-400.840036
 31
0.0
  0
LINE
  5
112D
330
17CD
100
AcDbEntity
  8
V0-OBRYS
  6
CONTINUOUS
 62
    90
100
AcDbLine
 10
183.772636
 20
-403.22902
 30
0.0
 11
195.717556
 21
-403.22902
 31
0.0
  0
LINE
  5
112E
330
17CD
100
AcDbEntity
  8
V0-OBRYS
  6
CONTINUOUS
 62
    90
100
AcDbLine
 10
183.772636
 20
-400.840036
 30
0.0
 11
195.717556
 21
-400.840036
 31
0.0
  0
LINE
  5
112F
330
17CD
100
AcDbEntity
  8
V0-OBRYS
  6
CONTINUOUS
 62
    90
100
AcDbLine
 10
195.717556
 20
-400.840036
 30
0.0
 11
195.717556
 21
-403.22902
 31
0.0
  0
LINE
  5
1130
330
17CD
100
AcDbEntity
  8
V0-OBRYS
  6
CONTINUOUS
 62
    90
100
AcDbLine
 10
183.772636
 20
-343.916512
 30
0.0
 11
195.717556
 21
-343.916512
 31
0.0
  0
LINE
  5
1131
330
17CD
100
AcDbEntity
  8
V0-OBRYS
  6
CONTINUOUS
 62
    90
100
AcDbLine
 10
183.772636
 20
-341.527528
 30
0.0
 11
195.717556
 21
-341.527528
 31
0.0
  0
LINE
  5
1132
330
17CD
100
AcDbEntity
  8
V0-OBRYS
  6
CONTINUOUS
 62
    90
100
AcDbLine
 10
195.717556
 20
-341.527528
 30
0.0
 11
195.717556
 21
-343.916512
 31
0.0
  0
LINE
  5
1133
330
17CD
100
AcDbEntity
  8
V0-OBRYS
  6
CONTINUOUS
 62
    90
100
AcDbLine
 10
187.818904
 20
-296.979306
 30
0.0
 11
183.772636
 21
-296.979306
 31
0.0
  0
LINE
  5
1134
330
17CD
100
AcDbEntity
  8
V0-OBRYS
  6
CONTINUOUS
 62
    90
 48
5.0
100
AcDbLine
 10
12.78985
 20
-229.922724
 30
0.0
 11
172.797465
 21
-229.922724
 31
0.0
  0
ARC
  5
1135
330
17CD
100
AcDbEntity
  8
V0-OBRYS
  6
CONTINUOUS
 62
    90
100
AcDbCircle
 10
172.797465
 20
-241.867644
 30
0.0
 40
11.94492
100
AcDbArc
 50
5.032259
 51
90.0
  0
ARC
  5
1136
330
17CD
100
AcDbEntity
  8
V0-OBRYS
  6
CONTINUOUS
 62
    90
100
AcDbCircle
 10
2945.523214
 20
-457.587157
 30
0.0
 40
3073.151984
100
AcDbArc
 50
175.955237
 51
177.835672
  0
LINE
  5
1137
330
17CD
100
AcDbEntity
  8
V0-OBRYS
  6
CONTINUOUS
 62
    90
100
AcDbLine
 10
-126.598087
 20
-344.114628
 30
0.0
 11
-126.598087
 21
-400.840036
 31
0.0
  0
LINE
  5
1138
330
17CD
100
AcDbEntity
  8
V0-OBRYS
  6
CONTINUOUS
 62
    90
100
AcDbLine
 10
-119.050603
 20
-400.840036
 30
0.0
 11
-130.995523
 21
-400.840036
 31
0.0
  0
LINE
  5
1139
330
17CD
100
AcDbEntity
  8
V0-OBRYS
  6
CONTINUOUS
 62
    90
100
AcDbLine
 10
-119.050603
 20
-403.22902
 30
0.0
 11
-130.995523
 21
-403.22902
 31
0.0
  0
LINE
  5
113A
330
17CD
100
AcDbEntity
  8
V0-OBRYS
  6
CONTINUOUS
 62
    90
100
AcDbLine
 10
-130.995523
 20
-400.840036
 30
0.0
 11
-130.995523
 21
-403.22902
 31
0.0
  0
LINE
  5
113B
330
17CD
100
AcDbEntity
  8
V0-OBRYS
  6
CONTINUOUS
 62
    90
100
AcDbLine
 10
-119.050603
 20
-341.527528
 30
0.0
 11
-130.995523
 21
-341.527528
 31
0.0
  0
LINE
  5
113C
330
17CD
100
AcDbEntity
  8
V0-OBRYS
  6
CONTINUOUS
 62
    90
100
AcDbLine
 10
-119.050603
 20
-343.916512
 30
0.0
 11
-130.995523
 21
-343.916512
 31
0.0
  0
LINE
  5
113D
330
17CD
100
AcDbEntity
  8
V0-OBRYS
  6
CONTINUOUS
 62
    90
100
AcDbLine
 10
-130.995523
 20
-341.527528
 30
0.0
 11
-130.995523
 21
-343.916512
 31
0.0
  0
LINE
  5
113E
330
17CD
100
AcDbEntity
  8
V0-OBRYS
  6
CONTINUOUS
 62
    90
100
AcDbLine
 10
-123.09687
 20
-296.979306
 30
0.0
 11
-119.050603
 21
-296.979306
 31
0.0
  0
ARC
  5
113F
330
17CD
100
AcDbEntity
  8
V0-OBRYS
  6
CONTINUOUS
 62
    90
100
AcDbCircle
 10
-108.075431
 20
-241.867644
 30
0.0
 40
11.94492
100
AcDbArc
 50
90.0
 51
174.967741
  0
LINE
  5
1140
330
17CD
100
AcDbEntity
  8
V0-OBRYS
  6
CONTINUOUS
 62
    90
100
AcDbLine
 10
-119.050603
 20
288.235122
 30
0.0
 11
-119.050603
 21
281.06817
 31
0.0
  0
ARC
  5
1141
330
17CD
100
AcDbEntity
  8
V0-OBRYS
  6
CONTINUOUS
 62
    90
100
AcDbCircle
 10
1858.760622
 20
191.48127
 30
0.0
 40
1986.39154
100
AcDbArc
 50
177.208112
 51
177.415065
  0
LINE
  5
1142
330
17CD
100
AcDbEntity
  8
V0-OBRYS
  6
CONTINUOUS
 62
    90
100
AcDbLine
 10
-101.057023
 20
190.286778
 30
0.0
 11
-101.057023
 21
393.055474
 31
0.0
  0
LINE
  5
1143
330
17CD
100
AcDbEntity
  8
V0-OBRYS
  6
CONTINUOUS
 62
    90
100
AcDbLine
 10
-97.846023
 20
190.286778
 30
0.0
 11
-97.846023
 21
393.055474
 31
0.0
  0
LINE
  5
1144
330
17CD
100
AcDbEntity
  8
V0-OBRYS
  6
CONTINUOUS
 62
    90
100
AcDbLine
 10
162.568056
 20
190.286778
 30
0.0
 11
162.568056
 21
393.055474
 31
0.0
  0
LINE
  5
1145
330
17CD
100
AcDbEntity
  8
V0-OBRYS
  6
CONTINUOUS
 62
    90
100
AcDbLine
 10
165.779056
 20
190.286778
 30
0.0
 11
165.779056
 21
393.055474
 31
0.0
  0
ARC
  5
1146
330
17CD
100
AcDbEntity
  8
V0-OBRYS
  6
CONTINUOUS
 62
    90
100
AcDbCircle
 10
-1794.038588
 20
191.48127
 30
0.0
 40
1986.39154
100
AcDbArc
 50
2.584935000000001
 51
2.791888
  0
LINE
  5
1147
330
17CD
100
AcDbEntity
  8
V0-OBRYS
  6
CONTINUOUS
 62
    90
100
AcDbLine
 10
183.772636
 20
288.235122
 30
0.0
 11
183.772636
 21
281.06817
 31
0.0
  0
LINE
  5
1148
330
17CD
100
AcDbEntity
  8
V0-OBRYS
  6
CONTINUOUS
 62
    90
 48
5.0
100
AcDbLine
 10
12.78985
 20
-10.092934
 30
0.0
 11
12.78985
 21
393.055474
 31
0.0
  0
LINE
  5
1149
330
17CD
100
AcDbEntity
  8
V0-OBRYS
  6
CONTINUOUS
 62
    90
100
AcDbLine
 10
165.779056
 20
192.675762
 30
0.0
 11
165.779056
 21
-10.09293399999999
 31
0.0
  0
LINE
  5
114A
330
17CD
100
AcDbEntity
  8
V0-OBRYS
  6
CONTINUOUS
 62
    90
100
AcDbLine
 10
162.568056
 20
192.675762
 30
0.0
 11
162.568056
 21
-10.09293399999999
 31
0.0
  0
LINE
  5
114B
330
17CD
100
AcDbEntity
  8
V0-OBRYS
  6
CONTINUOUS
 62
    90
100
AcDbLine
 10
183.772636
 20
104.283354
 30
0.0
 11
183.772636
 21
111.450306
 31
0.0
  0
ARC
  5
114C
330
17CD
100
AcDbEntity
  8
V0-OBRYS
  6
CONTINUOUS
 62
    90
100
AcDbCircle
 10
-1794.038588
 20
191.48127
 30
0.0
 40
1986.39154
100
AcDbArc
 50
357.484042
 51
357.69095
  0
ARC
  5
114D
330
17CD
100
AcDbEntity
  8
V0-OBRYS
  6
CONTINUOUS
 62
    90
100
AcDbCircle
 10
-2166.909289
 20
190.723652
 30
0.0
 40
2359.262266
100
AcDbArc
 50
355.382722
 51
0.221461
  0
LINE
  5
114E
330
17CD
100
AcDbEntity
  8
V0-OBRYS
  6
CONTINUOUS
 62
    90
100
AcDbLine
 10
183.772636
 20
199.842714
 30
0.0
 11
183.772636
 21
56.92641700000002
 31
0.0
  0
LINE
  5
114F
330
17CD
100
AcDbEntity
  8
V0-OBRYS
  6
CONTINUOUS
 62
    90
 48
5.0
100
AcDbLine
 10
172.797465
 20
-10.092934
 30
0.0
 11
12.78985
 21
-10.092934
 31
0.0
  0
ARC
  5
1150
330
17CD
100
AcDbEntity
  8
V0-OBRYS
  6
CONTINUOUS
 62
    90
100
AcDbCircle
 10
172.797465
 20
1.851986
 30
0.0
 40
11.94492
100
AcDbArc
 50
270.0
 51
354.967741
  0
LINE
  5
1151
330
17CD
100
AcDbEntity
  8
V0-OBRYS
  6
CONTINUOUS
 62
    90
100
AcDbLine
 10
183.772636
 20
56.926417
 30
0.0
 11
186.811151
 21
56.926417
 31
0.0
  0
LINE
  5
1152
330
17CD
100
AcDbEntity
  8
V0-OBRYS
  6
CONTINUOUS
 62
    90
100
AcDbLine
 10
183.772636
 20
66.05961000000001
 30
0.0
 11
195.717556
 21
66.05961000000001
 31
0.0
  0
LINE
  5
1153
330
17CD
100
AcDbEntity
  8
V0-OBRYS
  6
CONTINUOUS
 62
    90
100
AcDbLine
 10
183.772636
 20
63.670626
 30
0.0
 11
195.717556
 21
63.670626
 31
0.0
  0
LINE
  5
1154
330
17CD
100
AcDbEntity
  8
V0-OBRYS
  6
CONTINUOUS
 62
    90
100
AcDbLine
 10
183.772636
 20
75.615546
 30
0.0
 11
195.717556
 21
75.615546
 31
0.0
  0
LINE
  5
1155
330
17CD
100
AcDbEntity
  8
V0-OBRYS
  6
CONTINUOUS
 62
    90
100
AcDbLine
 10
183.772636
 20
73.226562
 30
0.0
 11
195.717556
 21
73.226562
 31
0.0
  0
LINE
  5
1156
330
17CD
100
AcDbEntity
  8
V0-OBRYS
  6
CONTINUOUS
 62
    90
100
AcDbLine
 10
183.772636
 20
85.171482
 30
0.0
 11
195.717556
 21
85.171482
 31
0.0
  0
LINE
  5
1157
330
17CD
100
AcDbEntity
  8
V0-OBRYS
  6
CONTINUOUS
 62
    90
100
AcDbLine
 10
183.772636
 20
82.782498
 30
0.0
 11
195.717556
 21
82.782498
 31
0.0
  0
LINE
  5
1158
330
17CD
100
AcDbEntity
  8
V0-OBRYS
  6
CONTINUOUS
 62
    90
100
AcDbLine
 10
183.772636
 20
94.727418
 30
0.0
 11
195.717556
 21
94.727418
 31
0.0
  0
LINE
  5
1159
330
17CD
100
AcDbEntity
  8
V0-OBRYS
  6
CONTINUOUS
 62
    90
100
AcDbLine
 10
183.772636
 20
92.33843400000001
 30
0.0
 11
195.717556
 21
92.33843400000001
 31
0.0
  0
LINE
  5
115A
330
17CD
100
AcDbEntity
  8
V0-OBRYS
  6
CONTINUOUS
 62
    90
100
AcDbLine
 10
183.772636
 20
104.283354
 30
0.0
 11
195.717556
 21
104.283354
 31
0.0
  0
LINE
  5
115B
330
17CD
100
AcDbEntity
  8
V0-OBRYS
  6
CONTINUOUS
 62
    90
100
AcDbLine
 10
183.772636
 20
101.89437
 30
0.0
 11
195.717556
 21
101.89437
 31
0.0
  0
ARC
  5
115C
330
17CD
100
AcDbEntity
  8
V0-OBRYS
  6
CONTINUOUS
 62
    90
100
AcDbCircle
 10
-1794.038588
 20
191.48127
 30
0.0
 40
1986.39154
100
AcDbArc
 50
356.932119
 51
357.13912
  0
LINE
  5
115D
330
17CD
100
AcDbEntity
  8
V0-OBRYS
  6
CONTINUOUS
 62
    90
100
AcDbLine
 10
195.717556
 20
63.670626
 30
0.0
 11
195.717556
 21
66.05961000000001
 31
0.0
  0
LINE
  5
115E
330
17CD
100
AcDbEntity
  8
V0-OBRYS
  6
CONTINUOUS
 62
    90
100
AcDbLine
 10
195.717556
 20
73.226562
 30
0.0
 11
195.717556
 21
75.615546
 31
0.0
  0
LINE
  5
115F
330
17CD
100
AcDbEntity
  8
V0-OBRYS
  6
CONTINUOUS
 62
    90
100
AcDbLine
 10
195.717556
 20
82.782498
 30
0.0
 11
195.717556
 21
85.171482
 31
0.0
  0
LINE
  5
1160
330
17CD
100
AcDbEntity
  8
V0-OBRYS
  6
CONTINUOUS
 62
    90
100
AcDbLine
 10
195.717556
 20
92.33843400000001
 30
0.0
 11
195.717556
 21
94.727418
 31
0.0
  0
LINE
  5
1161
330
17CD
100
AcDbEntity
  8
V0-OBRYS
  6
CONTINUOUS
 62
    90
100
AcDbLine
 10
195.717556
 20
101.89437
 30
0.0
 11
195.717556
 21
104.283354
 31
0.0
  0
ARC
  5
1162
330
17CD
100
AcDbEntity
  8
V0-OBRYS
  6
CONTINUOUS
 62
    90
100
AcDbCircle
 10
-1794.038588
 20
191.48127
 30
0.0
 40
1986.39154
100
AcDbArc
 50
357.208112
 51
357.415065
  0
LINE
  5
1163
330
17CD
100
AcDbEntity
  8
V0-OBRYS
  6
CONTINUOUS
 62
    90
100
AcDbLine
 10
183.772636
 20
85.171482
 30
0.0
 11
183.772636
 21
92.33843400000001
 31
0.0
  0
LINE
  5
1164
330
17CD
100
AcDbEntity
  8
V0-OBRYS
  6
CONTINUOUS
 62
    90
100
AcDbLine
 10
183.772636
 20
66.05961000000001
 30
0.0
 11
183.772636
 21
73.226562
 31
0.0
  0
LINE
  5
1165
330
17CD
100
AcDbEntity
  8
V0-OBRYS
  6
CONTINUOUS
 62
    90
100
AcDbLine
 10
183.772636
 20
94.727418
 30
0.0
 11
183.772636
 21
101.89437
 31
0.0
  0
LINE
  5
1168
330
17CD
100
AcDbEntity
  8
V0-OBRYS
  6
CONTINUOUS
 62
    90
100
AcDbLine
 10
195.717556
 20
149.67405
 30
0.0
 11
195.717556
 21
152.063034
 31
0.0
  0
LINE
  5
1169
330
17CD
100
AcDbEntity
  8
V0-OBRYS
  6
CONTINUOUS
 62
    90
100
AcDbLine
 10
183.772636
 20
113.83929
 30
0.0
 11
195.717556
 21
113.83929
 31
0.0
  0
LINE
  5
116A
330
17CD
100
AcDbEntity
  8
V0-OBRYS
  6
CONTINUOUS
 62
    90
100
AcDbLine
 10
183.772636
 20
111.450306
 30
0.0
 11
195.717556
 21
111.450306
 31
0.0
  0
LINE
  5
116B
330
17CD
100
AcDbEntity
  8
V0-OBRYS
  6
CONTINUOUS
 62
    90
100
AcDbLine
 10
183.772636
 20
123.395226
 30
0.0
 11
195.717556
 21
123.395226
 31
0.0
  0
LINE
  5
116C
330
17CD
100
AcDbEntity
  8
V0-OBRYS
  6
CONTINUOUS
 62
    90
100
AcDbLine
 10
183.772636
 20
121.006242
 30
0.0
 11
195.717556
 21
121.006242
 31
0.0
  0
LINE
  5
116D
330
17CD
100
AcDbEntity
  8
V0-OBRYS
  6
CONTINUOUS
 62
    90
100
AcDbLine
 10
183.772636
 20
132.951162
 30
0.0
 11
195.717556
 21
132.951162
 31
0.0
  0
LINE
  5
116E
330
17CD
100
AcDbEntity
  8
V0-OBRYS
  6
CONTINUOUS
 62
    90
100
AcDbLine
 10
183.772636
 20
130.562178
 30
0.0
 11
195.717556
 21
130.562178
 31
0.0
  0
LINE
  5
116F
330
17CD
100
AcDbEntity
  8
V0-OBRYS
  6
CONTINUOUS
 62
    90
100
AcDbLine
 10
183.772636
 20
142.507098
 30
0.0
 11
195.717556
 21
142.507098
 31
0.0
  0
LINE
  5
1170
330
17CD
100
AcDbEntity
  8
V0-OBRYS
  6
CONTINUOUS
 62
    90
100
AcDbLine
 10
183.772636
 20
140.118114
 30
0.0
 11
195.717556
 21
140.118114
 31
0.0
  0
LINE
  5
1171
330
17CD
100
AcDbEntity
  8
V0-OBRYS
  6
CONTINUOUS
 62
    90
100
AcDbLine
 10
183.772636
 20
149.67405
 30
0.0
 11
195.717556
 21
149.67405
 31
0.0
  0
ARC
  5
1172
330
17CD
100
AcDbEntity
  8
V0-OBRYS
  6
CONTINUOUS
 62
    90
100
AcDbCircle
 10
-1794.038588
 20
191.48127
 30
0.0
 40
1986.39154
100
AcDbArc
 50
358.035731
 51
358.242565
  0
LINE
  5
1173
330
17CD
100
AcDbEntity
  8
V0-OBRYS
  6
CONTINUOUS
 62
    90
100
AcDbLine
 10
195.717556
 20
111.450306
 30
0.0
 11
195.717556
 21
113.83929
 31
0.0
  0
LINE
  5
1174
330
17CD
100
AcDbEntity
  8
V0-OBRYS
  6
CONTINUOUS
 62
    90
100
AcDbLine
 10
195.717556
 20
121.006242
 30
0.0
 11
195.717556
 21
123.395226
 31
0.0
  0
ARC
  5
1175
330
17CD
100
AcDbEntity
  8
V0-OBRYS
  6
CONTINUOUS
 62
    90
100
AcDbCircle
 10
-1794.038588
 20
191.48127
 30
0.0
 40
1986.39154
100
AcDbArc
 50
357.759912
 51
357.966781
  0
LINE
  5
1176
330
17CD
100
AcDbEntity
  8
V0-OBRYS
  6
CONTINUOUS
 62
    90
100
AcDbLine
 10
195.717556
 20
130.562178
 30
0.0
 11
195.717556
 21
132.951162
 31
0.0
  0
LINE
  5
1177
330
17CD
100
AcDbEntity
  8
V0-OBRYS
  6
CONTINUOUS
 62
    90
100
AcDbLine
 10
195.717556
 20
140.118114
 30
0.0
 11
195.717556
 21
142.507098
 31
0.0
  0
ARC
  5
1178
330
17CD
100
AcDbEntity
  8
V0-OBRYS
  6
CONTINUOUS
 62
    90
100
AcDbCircle
 10
-1794.038588
 20
191.48127
 30
0.0
 40
1986.39154
100
AcDbArc
 50
358.311504
 51
358.518308
  0
ARC
  5
1179
330
17CD
100
AcDbEntity
  8
V0-OBRYS
  6
CONTINUOUS
 62
    90
100
AcDbCircle
 10
-1794.038588
 20
191.48127
 30
0.0
 40
1986.39154
100
AcDbArc
 50
358.587238
 51
358.794017
  0
LINE
  5
117A
330
17CD
100
AcDbEntity
  8
V0-OBRYS
  6
CONTINUOUS
 62
    90
100
AcDbLine
 10
183.772636
 20
123.395226
 30
0.0
 11
183.772636
 21
130.562178
 31
0.0
  0
LINE
  5
117B
330
17CD
100
AcDbEntity
  8
V0-OBRYS
  6
CONTINUOUS
 62
    90
100
AcDbLine
 10
183.772636
 20
113.83929
 30
0.0
 11
183.772636
 21
121.006242
 31
0.0
  0
LINE
  5
117C
330
17CD
100
AcDbEntity
  8
V0-OBRYS
  6
CONTINUOUS
 62
    90
100
AcDbLine
 10
183.772636
 20
132.951162
 30
0.0
 11
183.772636
 21
140.118114
 31
0.0
  0
LINE
  5
117D
330
17CD
100
AcDbEntity
  8
V0-OBRYS
  6
CONTINUOUS
 62
    90
100
AcDbLine
 10
183.772636
 20
142.507098
 30
0.0
 11
183.772636
 21
149.67405
 31
0.0
  0
LINE
  5
117E
330
17CD
100
AcDbEntity
  8
V0-OBRYS
  6
CONTINUOUS
 62
    90
100
AcDbLine
 10
183.772636
 20
152.063034
 30
0.0
 11
195.717556
 21
152.063034
 31
0.0
  0
LINE
  5
117F
330
17CD
100
AcDbEntity
  8
V0-OBRYS
  6
CONTINUOUS
 62
    90
100
AcDbLine
 10
183.772636
 20
161.61897
 30
0.0
 11
195.717556
 21
161.61897
 31
0.0
  0
LINE
  5
1180
330
17CD
100
AcDbEntity
  8
V0-OBRYS
  6
CONTINUOUS
 62
    90
100
AcDbLine
 10
183.772636
 20
159.229986
 30
0.0
 11
195.717556
 21
159.229986
 31
0.0
  0
LINE
  5
1181
330
17CD
100
AcDbEntity
  8
V0-OBRYS
  6
CONTINUOUS
 62
    90
100
AcDbLine
 10
183.772636
 20
173.56389
 30
0.0
 11
195.717556
 21
173.56389
 31
0.0
  0
LINE
  5
1182
330
17CD
100
AcDbEntity
  8
V0-OBRYS
  6
CONTINUOUS
 62
    90
100
AcDbLine
 10
183.772636
 20
171.174906
 30
0.0
 11
195.717556
 21
171.174906
 31
0.0
  0
LINE
  5
1183
330
17CD
100
AcDbEntity
  8
V0-OBRYS
  6
CONTINUOUS
 62
    90
100
AcDbLine
 10
183.772636
 20
183.119826
 30
0.0
 11
195.717556
 21
183.119826
 31
0.0
  0
LINE
  5
1184
330
17CD
100
AcDbEntity
  8
V0-OBRYS
  6
CONTINUOUS
 62
    90
100
AcDbLine
 10
183.772636
 20
180.730842
 30
0.0
 11
195.717556
 21
180.730842
 31
0.0
  0
LINE
  5
1185
330
17CD
100
AcDbEntity
  8
V0-OBRYS
  6
CONTINUOUS
 62
    90
100
AcDbLine
 10
183.772636
 20
192.675762
 30
0.0
 11
195.717556
 21
192.675762
 31
0.0
  0
LINE
  5
1186
330
17CD
100
AcDbEntity
  8
V0-OBRYS
  6
CONTINUOUS
 62
    90
100
AcDbLine
 10
183.772636
 20
190.286778
 30
0.0
 11
195.717556
 21
190.286778
 31
0.0
  0
ARC
  5
1187
330
17CD
100
AcDbEntity
  8
V0-OBRYS
  6
CONTINUOUS
 62
    90
100
AcDbCircle
 10
-1794.038588
 20
191.48127
 30
0.0
 40
1986.39154
100
AcDbArc
 50
359.483181
 51
359.689912
  0
LINE
  5
1188
330
17CD
100
AcDbEntity
  8
V0-OBRYS
  6
CONTINUOUS
 62
    90
100
AcDbLine
 10
195.717556
 20
159.229986
 30
0.0
 11
195.717556
 21
161.61897
 31
0.0
  0
ARC
  5
1189
330
17CD
100
AcDbEntity
  8
V0-OBRYS
  6
CONTINUOUS
 62
    90
100
AcDbCircle
 10
-1794.038588
 20
191.48127
 30
0.0
 40
1986.39154
100
AcDbArc
 50
358.86294
 51
359.069698
  0
LINE
  5
118A
330
17CD
100
AcDbEntity
  8
V0-OBRYS
  6
CONTINUOUS
 62
    90
100
AcDbLine
 10
195.717556
 20
171.174906
 30
0.0
 11
195.717556
 21
173.56389
 31
0.0
  0
ARC
  5
118B
330
17CD
100
AcDbEntity
  8
V0-OBRYS
  6
CONTINUOUS
 62
    90
100
AcDbCircle
 10
-1794.038588
 20
191.48127
 30
0.0
 40
1986.39154
100
AcDbArc
 50
359.1386150000001
 51
359.41427
  0
LINE
  5
118C
330
17CD
100
AcDbEntity
  8
V0-OBRYS
  6
CONTINUOUS
 62
    90
100
AcDbLine
 10
195.717556
 20
180.730842
 30
0.0
 11
195.717556
 21
183.119826
 31
0.0
  0
LINE
  5
118D
330
17CD
100
AcDbEntity
  8
V0-OBRYS
  6
CONTINUOUS
 62
    90
100
AcDbLine
 10
195.717556
 20
192.675762
 30
0.0
 11
195.717556
 21
190.286778
 31
0.0
  0
LINE
  5
118E
330
17CD
100
AcDbEntity
  8
V0-OBRYS
  6
CONTINUOUS
 62
    90
100
AcDbLine
 10
183.772636
 20
173.56389
 30
0.0
 11
183.772636
 21
180.730842
 31
0.0
  0
LINE
  5
118F
330
17CD
100
AcDbEntity
  8
V0-OBRYS
  6
CONTINUOUS
 62
    90
100
AcDbLine
 10
183.772636
 20
152.063034
 30
0.0
 11
183.772636
 21
159.229986
 31
0.0
  0
LINE
  5
1190
330
17CD
100
AcDbEntity
  8
V0-OBRYS
  6
CONTINUOUS
 62
    90
100
AcDbLine
 10
183.772636
 20
161.61897
 30
0.0
 11
183.772636
 21
171.174906
 31
0.0
  0
ARC
  5
1191
330
17CD
100
AcDbEntity
  8
V0-OBRYS
  6
CONTINUOUS
 62
    90
100
AcDbCircle
 10
-1794.038588
 20
191.48127
 30
0.0
 40
1986.39154
100
AcDbArc
 50
1.205983
 51
1.412762
  0
LINE
  5
1192
330
17CD
100
AcDbEntity
  8
V0-OBRYS
  6
CONTINUOUS
 62
    90
100
AcDbLine
 10
183.772636
 20
240.455442
 30
0.0
 11
183.772636
 21
233.28849
 31
0.0
  0
LINE
  5
1193
330
17CD
100
AcDbEntity
  8
V0-OBRYS
  6
CONTINUOUS
 62
    90
100
AcDbLine
 10
183.772636
 20
202.231698
 30
0.0
 11
195.717556
 21
202.231698
 31
0.0
  0
LINE
  5
1194
330
17CD
100
AcDbEntity
  8
V0-OBRYS
  6
CONTINUOUS
 62
    90
100
AcDbLine
 10
183.772636
 20
199.842714
 30
0.0
 11
195.717556
 21
199.842714
 31
0.0
  0
LINE
  5
1195
330
17CD
100
AcDbEntity
  8
V0-OBRYS
  6
CONTINUOUS
 62
    90
100
AcDbLine
 10
183.772636
 20
211.787634
 30
0.0
 11
195.717556
 21
211.787634
 31
0.0
  0
LINE
  5
1196
330
17CD
100
AcDbEntity
  8
V0-OBRYS
  6
CONTINUOUS
 62
    90
100
AcDbLine
 10
183.772636
 20
209.39865
 30
0.0
 11
195.717556
 21
209.39865
 31
0.0
  0
LINE
  5
1197
330
17CD
100
AcDbEntity
  8
V0-OBRYS
  6
CONTINUOUS
 62
    90
100
AcDbLine
 10
183.772636
 20
223.732554
 30
0.0
 11
195.717556
 21
223.732554
 31
0.0
  0
LINE
  5
1198
330
17CD
100
AcDbEntity
  8
V0-OBRYS
  6
CONTINUOUS
 62
    90
100
AcDbLine
 10
183.772636
 20
221.34357
 30
0.0
 11
195.717556
 21
221.34357
 31
0.0
  0
LINE
  5
1199
330
17CD
100
AcDbEntity
  8
V0-OBRYS
  6
CONTINUOUS
 62
    90
100
AcDbLine
 10
183.772636
 20
233.28849
 30
0.0
 11
195.717556
 21
233.28849
 31
0.0
  0
LINE
  5
119A
330
17CD
100
AcDbEntity
  8
V0-OBRYS
  6
CONTINUOUS
 62
    90
100
AcDbLine
 10
183.772636
 20
230.899506
 30
0.0
 11
195.717556
 21
230.899506
 31
0.0
  0
ARC
  5
119B
330
17CD
100
AcDbEntity
  8
V0-OBRYS
  6
CONTINUOUS
 62
    90
100
AcDbCircle
 10
-1794.038588
 20
191.48127
 30
0.0
 40
1986.39154
100
AcDbArc
 50
0.58573
 51
0.861385
  0
ARC
  5
119C
330
17CD
100
AcDbEntity
  8
V0-OBRYS
  6
CONTINUOUS
 62
    90
100
AcDbCircle
 10
-1794.038588
 20
191.48127
 30
0.0
 40
1986.39154
100
AcDbArc
 50
0.310088
 51
0.516819
  0
LINE
  5
119D
330
17CD
100
AcDbEntity
  8
V0-OBRYS
  6
CONTINUOUS
 62
    90
100
AcDbLine
 10
195.717556
 20
202.231698
 30
0.0
 11
195.717556
 21
199.842714
 31
0.0
  0
LINE
  5
119E
330
17CD
100
AcDbEntity
  8
V0-OBRYS
  6
CONTINUOUS
 62
    90
100
AcDbLine
 10
195.717556
 20
211.787634
 30
0.0
 11
195.717556
 21
209.39865
 31
0.0
  0
ARC
  5
119F
330
17CD
100
AcDbEntity
  8
V0-OBRYS
  6
CONTINUOUS
 62
    90
100
AcDbCircle
 10
-1794.038588
 20
191.48127
 30
0.0
 40
1986.39154
100
AcDbArc
 50
0.930302
 51
1.13706
  0
LINE
  5
11A0
330
17CD
100
AcDbEntity
  8
V0-OBRYS
  6
CONTINUOUS
 62
    90
100
AcDbLine
 10
195.717556
 20
223.732554
 30
0.0
 11
195.717556
 21
221.34357
 31
0.0
  0
LINE
  5
11A1
330
17CD
100
AcDbEntity
  8
V0-OBRYS
  6
CONTINUOUS
 62
    90
100
AcDbLine
 10
195.717556
 20
233.28849
 30
0.0
 11
195.717556
 21
230.899506
 31
0.0
  0
LINE
  5
11A2
330
17CD
100
AcDbEntity
  8
V0-OBRYS
  6
CONTINUOUS
 62
    90
100
AcDbLine
 10
183.772636
 20
221.34357
 30
0.0
 11
183.772636
 21
211.787634
 31
0.0
  0
LINE
  5
11A3
330
17CD
100
AcDbEntity
  8
V0-OBRYS
  6
CONTINUOUS
 62
    90
100
AcDbLine
 10
183.772636
 20
209.39865
 30
0.0
 11
183.772636
 21
202.231698
 31
0.0
  0
LINE
  5
11A4
330
17CD
100
AcDbEntity
  8
V0-OBRYS
  6
CONTINUOUS
 62
    90
100
AcDbLine
 10
183.772636
 20
230.899506
 30
0.0
 11
183.772636
 21
223.732554
 31
0.0
  0
LINE
  5
11A5
330
17CD
100
AcDbEntity
  8
V0-OBRYS
  6
CONTINUOUS
 62
    90
100
AcDbLine
 10
183.772636
 20
242.844426
 30
0.0
 11
195.717556
 21
242.844426
 31
0.0
  0
LINE
  5
11A6
330
17CD
100
AcDbEntity
  8
V0-OBRYS
  6
CONTINUOUS
 62
    90
100
AcDbLine
 10
183.772636
 20
240.455442
 30
0.0
 11
195.717556
 21
240.455442
 31
0.0
  0
LINE
  5
11A7
330
17CD
100
AcDbEntity
  8
V0-OBRYS
  6
CONTINUOUS
 62
    90
100
AcDbLine
 10
183.772636
 20
252.400362
 30
0.0
 11
195.717556
 21
252.400362
 31
0.0
  0
LINE
  5
11A8
330
17CD
100
AcDbEntity
  8
V0-OBRYS
  6
CONTINUOUS
 62
    90
100
AcDbLine
 10
183.772636
 20
250.011378
 30
0.0
 11
195.717556
 21
250.011378
 31
0.0
  0
LINE
  5
11A9
330
17CD
100
AcDbEntity
  8
V0-OBRYS
  6
CONTINUOUS
 62
    90
100
AcDbLine
 10
183.772636
 20
261.956298
 30
0.0
 11
195.717556
 21
261.956298
 31
0.0
  0
LINE
  5
11AA
330
17CD
100
AcDbEntity
  8
V0-OBRYS
  6
CONTINUOUS
 62
    90
100
AcDbLine
 10
183.772636
 20
259.567314
 30
0.0
 11
195.717556
 21
259.567314
 31
0.0
  0
LINE
  5
11AB
330
17CD
100
AcDbEntity
  8
V0-OBRYS
  6
CONTINUOUS
 62
    90
100
AcDbLine
 10
183.772636
 20
271.512234
 30
0.0
 11
195.717556
 21
271.512234
 31
0.0
  0
LINE
  5
11AC
330
17CD
100
AcDbEntity
  8
V0-OBRYS
  6
CONTINUOUS
 62
    90
100
AcDbLine
 10
183.772636
 20
269.12325
 30
0.0
 11
195.717556
 21
269.12325
 31
0.0
  0
LINE
  5
11AD
330
17CD
100
AcDbEntity
  8
V0-OBRYS
  6
CONTINUOUS
 62
    90
100
AcDbLine
 10
183.772636
 20
281.06817
 30
0.0
 11
195.717556
 21
281.06817
 31
0.0
  0
LINE
  5
11AE
330
17CD
100
AcDbEntity
  8
V0-OBRYS
  6
CONTINUOUS
 62
    90
100
AcDbLine
 10
183.772636
 20
278.679186
 30
0.0
 11
195.717556
 21
278.679186
 31
0.0
  0
LINE
  5
11AF
330
17CD
100
AcDbEntity
  8
V0-OBRYS
  6
CONTINUOUS
 62
    90
100
AcDbLine
 10
195.717556
 20
261.956298
 30
0.0
 11
195.717556
 21
259.567314
 31
0.0
  0
ARC
  5
11B0
330
17CD
100
AcDbEntity
  8
V0-OBRYS
  6
CONTINUOUS
 62
    90
100
AcDbCircle
 10
-1794.038588
 20
191.48127
 30
0.0
 40
1986.39154
100
AcDbArc
 50
1.481692
 51
1.688496
  0
ARC
  5
11B1
330
17CD
100
AcDbEntity
  8
V0-OBRYS
  6
CONTINUOUS
 62
    90
100
AcDbCircle
 10
-1794.038588
 20
191.48127
 30
0.0
 40
1986.39154
100
AcDbArc
 50
1.757435
 51
1.964269
  0
LINE
  5
11B2
330
17CD
100
AcDbEntity
  8
V0-OBRYS
  6
CONTINUOUS
 62
    90
100
AcDbLine
 10
195.717556
 20
242.844426
 30
0.0
 11
195.717556
 21
240.455442
 31
0.0
  0
LINE
  5
11B3
330
17CD
100
AcDbEntity
  8
V0-OBRYS
  6
CONTINUOUS
 62
    90
100
AcDbLine
 10
195.717556
 20
252.400362
 30
0.0
 11
195.717556
 21
250.011378
 31
0.0
  0
ARC
  5
11B4
330
17CD
100
AcDbEntity
  8
V0-OBRYS
  6
CONTINUOUS
 62
    90
100
AcDbCircle
 10
-1794.038588
 20
191.48127
 30
0.0
 40
1986.39154
100
AcDbArc
 50
2.033219
 51
2.240088
  0
ARC
  5
11B5
330
17CD
100
AcDbEntity
  8
V0-OBRYS
  6
CONTINUOUS
 62
    90
100
AcDbCircle
 10
-1794.038588
 20
191.48127
 30
0.0
 40
1986.39154
100
AcDbArc
 50
2.30905
 51
2.515958
  0
LINE
  5
11B6
330
17CD
100
AcDbEntity
  8
V0-OBRYS
  6
CONTINUOUS
 62
    90
100
AcDbLine
 10
195.717556
 20
271.512234
 30
0.0
 11
195.717556
 21
269.12325
 31
0.0
  0
LINE
  5
11B7
330
17CD
100
AcDbEntity
  8
V0-OBRYS
  6
CONTINUOUS
 62
    90
100
AcDbLine
 10
195.717556
 20
281.06817
 30
0.0
 11
195.717556
 21
278.679186
 31
0.0
  0
LINE
  5
11B8
330
17CD
100
AcDbEntity
  8
V0-OBRYS
  6
CONTINUOUS
 62
    90
100
AcDbLine
 10
183.772636
 20
250.011378
 30
0.0
 11
183.772636
 21
242.844426
 31
0.0
  0
LINE
  5
11B9
330
17CD
100
AcDbEntity
  8
V0-OBRYS
  6
CONTINUOUS
 62
    90
100
AcDbLine
 10
183.772636
 20
259.567314
 30
0.0
 11
183.772636
 21
252.400362
 31
0.0
  0
LINE
  5
11BA
330
17CD
100
AcDbEntity
  8
V0-OBRYS
  6
CONTINUOUS
 62
    90
100
AcDbLine
 10
183.772636
 20
269.12325
 30
0.0
 11
183.772636
 21
261.956298
 31
0.0
  0
LINE
  5
11BB
330
17CD
100
AcDbEntity
  8
V0-OBRYS
  6
CONTINUOUS
 62
    90
100
AcDbLine
 10
183.772636
 20
278.679186
 30
0.0
 11
183.772636
 21
271.512234
 31
0.0
  0
LINE
  5
11BC
330
17CD
100
AcDbEntity
  8
V0-OBRYS
  6
CONTINUOUS
 62
    90
100
AcDbLine
 10
-119.050603
 20
199.842714
 30
0.0
 11
-119.050603
 21
56.92641700000002
 31
0.0
  0
ARC
  5
11BD
330
17CD
100
AcDbEntity
  8
V0-OBRYS
  6
CONTINUOUS
 62
    90
100
AcDbCircle
 10
2231.631322
 20
190.723652
 30
0.0
 40
2359.262266
100
AcDbArc
 50
179.778539
 51
184.617278
  0
ARC
  5
11BE
330
17CD
100
AcDbEntity
  8
V0-OBRYS
  6
CONTINUOUS
 62
    90
100
AcDbCircle
 10
1858.760622
 20
191.48127
 30
0.0
 40
1986.39154
100
AcDbArc
 50
182.30905
 51
182.515958
  0
LINE
  5
11BF
330
17CD
100
AcDbEntity
  8
V0-OBRYS
  6
CONTINUOUS
 62
    90
100
AcDbLine
 10
-119.050603
 20
104.283354
 30
0.0
 11
-119.050603
 21
111.450306
 31
0.0
  0
LINE
  5
11C0
330
17CD
100
AcDbEntity
  8
V0-OBRYS
  6
CONTINUOUS
 62
    90
100
AcDbLine
 10
-97.846023
 20
192.675762
 30
0.0
 11
-97.846023
 21
-10.09293399999999
 31
0.0
  0
LINE
  5
11C1
330
17CD
100
AcDbEntity
  8
V0-OBRYS
  6
CONTINUOUS
 62
    90
100
AcDbLine
 10
-101.057023
 20
192.675762
 30
0.0
 11
-101.057023
 21
-10.09293399999999
 31
0.0
  0
ARC
  5
11C2
330
17CD
100
AcDbEntity
  8
V0-OBRYS
  6
CONTINUOUS
 62
    90
100
AcDbCircle
 10
-108.075431
 20
1.851986
 30
0.0
 40
11.94492
100
AcDbArc
 50
185.032259
 51
270.0
  0
LINE
  5
11C3
330
17CD
100
AcDbEntity
  8
V0-OBRYS
  6
CONTINUOUS
 62
    90
100
AcDbLine
 10
-119.050603
 20
56.926417
 30
0.0
 11
-122.089117
 21
56.926417
 31
0.0
  0
LINE
  5
11C4
330
17CD
100
AcDbEntity
  8
V0-OBRYS
  6
CONTINUOUS
 62
    90
100
AcDbLine
 10
-119.050603
 20
85.171482
 30
0.0
 11
-119.050603
 21
92.33843400000001
 31
0.0
  0
ARC
  5
11C5
330
17CD
100
AcDbEntity
  8
V0-OBRYS
  6
CONTINUOUS
 62
    90
100
AcDbCircle
 10
1858.760622
 20
191.48127
 30
0.0
 40
1986.39154
100
AcDbArc
 50
182.86088
 51
183.067881
  0
LINE
  5
11C6
330
17CD
100
AcDbEntity
  8
V0-OBRYS
  6
CONTINUOUS
 62
    90
100
AcDbLine
 10
-119.050603
 20
82.782498
 30
0.0
 11
-130.995523
 21
82.782498
 31
0.0
  0
LINE
  5
11C7
330
17CD
100
AcDbEntity
  8
V0-OBRYS
  6
CONTINUOUS
 62
    90
100
AcDbLine
 10
-119.050603
 20
85.171482
 30
0.0
 11
-130.995523
 21
85.171482
 31
0.0
  0
LINE
  5
11C8
330
17CD
100
AcDbEntity
  8
V0-OBRYS
  6
CONTINUOUS
 62
    90
100
AcDbLine
 10
-119.050603
 20
73.226562
 30
0.0
 11
-130.995523
 21
73.226562
 31
0.0
  0
LINE
  5
11C9
330
17CD
100
AcDbEntity
  8
V0-OBRYS
  6
CONTINUOUS
 62
    90
100
AcDbLine
 10
-119.050603
 20
75.615546
 30
0.0
 11
-130.995523
 21
75.615546
 31
0.0
  0
LINE
  5
11CA
330
17CD
100
AcDbEntity
  8
V0-OBRYS
  6
CONTINUOUS
 62
    90
100
AcDbLine
 10
-119.050603
 20
63.670626
 30
0.0
 11
-130.995523
 21
63.670626
 31
0.0
  0
LINE
  5
11CB
330
17CD
100
AcDbEntity
  8
V0-OBRYS
  6
CONTINUOUS
 62
    90
100
AcDbLine
 10
-119.050603
 20
66.05961000000001
 30
0.0
 11
-130.995523
 21
66.05961000000001
 31
0.0
  0
LINE
  5
11CC
330
17CD
100
AcDbEntity
  8
V0-OBRYS
  6
CONTINUOUS
 62
    90
100
AcDbLine
 10
-119.050603
 20
66.05961000000001
 30
0.0
 11
-119.050603
 21
73.226562
 31
0.0
  0
LINE
  5
11CD
330
17CD
100
AcDbEntity
  8
V0-OBRYS
  6
CONTINUOUS
 62
    90
100
AcDbLine
 10
-130.995523
 20
82.782498
 30
0.0
 11
-130.995523
 21
85.171482
 31
0.0
  0
LINE
  5
11CE
330
17CD
100
AcDbEntity
  8
V0-OBRYS
  6
CONTINUOUS
 62
    90
100
AcDbLine
 10
-130.995523
 20
73.226562
 30
0.0
 11
-130.995523
 21
75.615546
 31
0.0
  0
LINE
  5
11CF
330
17CD
100
AcDbEntity
  8
V0-OBRYS
  6
CONTINUOUS
 62
    90
100
AcDbLine
 10
-130.995523
 20
63.670626
 30
0.0
 11
-130.995523
 21
66.05961000000001
 31
0.0
  0
LINE
  5
11D0
330
17CD
100
AcDbEntity
  8
V0-OBRYS
  6
CONTINUOUS
 62
    90
100
AcDbLine
 10
-119.050603
 20
101.89437
 30
0.0
 11
-130.995523
 21
101.89437
 31
0.0
  0
LINE
  5
11D1
330
17CD
100
AcDbEntity
  8
V0-OBRYS
  6
CONTINUOUS
 62
    90
100
AcDbLine
 10
-119.050603
 20
104.283354
 30
0.0
 11
-130.995523
 21
104.283354
 31
0.0
  0
LINE
  5
11D2
330
17CD
100
AcDbEntity
  8
V0-OBRYS
  6
CONTINUOUS
 62
    90
100
AcDbLine
 10
-119.050603
 20
92.33843400000001
 30
0.0
 11
-130.995523
 21
92.33843400000001
 31
0.0
  0
LINE
  5
11D3
330
17CD
100
AcDbEntity
  8
V0-OBRYS
  6
CONTINUOUS
 62
    90
100
AcDbLine
 10
-119.050603
 20
94.727418
 30
0.0
 11
-130.995523
 21
94.727418
 31
0.0
  0
LINE
  5
11D4
330
17CD
100
AcDbEntity
  8
V0-OBRYS
  6
CONTINUOUS
 62
    90
100
AcDbLine
 10
-119.050603
 20
94.727418
 30
0.0
 11
-119.050603
 21
101.89437
 31
0.0
  0
ARC
  5
11D5
330
17CD
100
AcDbEntity
  8
V0-OBRYS
  6
CONTINUOUS
 62
    90
100
AcDbCircle
 10
1858.760622
 20
191.48127
 30
0.0
 40
1986.39154
100
AcDbArc
 50
182.584935
 51
182.791888
  0
LINE
  5
11D6
330
17CD
100
AcDbEntity
  8
V0-OBRYS
  6
CONTINUOUS
 62
    90
100
AcDbLine
 10
-130.995523
 20
101.89437
 30
0.0
 11
-130.995523
 21
104.283354
 31
0.0
  0
LINE
  5
11D7
330
17CD
100
AcDbEntity
  8
V0-OBRYS
  6
CONTINUOUS
 62
    90
100
AcDbLine
 10
-130.995523
 20
92.33843400000001
 30
0.0
 11
-130.995523
 21
94.727418
 31
0.0
  0
LINE
  5
11D9
330
17CD
100
AcDbEntity
  8
V0-OBRYS
  6
CONTINUOUS
 62
    90
100
AcDbLine
 10
-130.995523
 20
149.67405
 30
0.0
 11
-130.995523
 21
152.063034
 31
0.0
  0
LINE
  5
11DA
330
17CD
100
AcDbEntity
  8
V0-OBRYS
  6
CONTINUOUS
 62
    90
100
AcDbLine
 10
-119.050603
 20
123.395226
 30
0.0
 11
-119.050603
 21
130.562178
 31
0.0
  0
ARC
  5
11DB
330
17CD
100
AcDbEntity
  8
V0-OBRYS
  6
CONTINUOUS
 62
    90
100
AcDbCircle
 10
1858.760622
 20
191.48127
 30
0.0
 40
1986.39154
100
AcDbArc
 50
181.757435
 51
181.964269
  0
LINE
  5
11DC
330
17CD
100
AcDbEntity
  8
V0-OBRYS
  6
CONTINUOUS
 62
    90
100
AcDbLine
 10
-119.050603
 20
121.006242
 30
0.0
 11
-130.995523
 21
121.006242
 31
0.0
  0
LINE
  5
11DD
330
17CD
100
AcDbEntity
  8
V0-OBRYS
  6
CONTINUOUS
 62
    90
100
AcDbLine
 10
-119.050603
 20
123.395226
 30
0.0
 11
-130.995523
 21
123.395226
 31
0.0
  0
LINE
  5
11DE
330
17CD
100
AcDbEntity
  8
V0-OBRYS
  6
CONTINUOUS
 62
    90
100
AcDbLine
 10
-119.050603
 20
111.450306
 30
0.0
 11
-130.995523
 21
111.450306
 31
0.0
  0
LINE
  5
11DF
330
17CD
100
AcDbEntity
  8
V0-OBRYS
  6
CONTINUOUS
 62
    90
100
AcDbLine
 10
-119.050603
 20
113.83929
 30
0.0
 11
-130.995523
 21
113.83929
 31
0.0
  0
LINE
  5
11E0
330
17CD
100
AcDbEntity
  8
V0-OBRYS
  6
CONTINUOUS
 62
    90
100
AcDbLine
 10
-119.050603
 20
113.83929
 30
0.0
 11
-119.050603
 21
121.006242
 31
0.0
  0
ARC
  5
11E1
330
17CD
100
AcDbEntity
  8
V0-OBRYS
  6
CONTINUOUS
 62
    90
100
AcDbCircle
 10
1858.760622
 20
191.48127
 30
0.0
 40
1986.39154
100
AcDbArc
 50
182.033219
 51
182.240088
  0
LINE
  5
11E2
330
17CD
100
AcDbEntity
  8
V0-OBRYS
  6
CONTINUOUS
 62
    90
100
AcDbLine
 10
-130.995523
 20
121.006242
 30
0.0
 11
-130.995523
 21
123.395226
 31
0.0
  0
LINE
  5
11E3
330
17CD
100
AcDbEntity
  8
V0-OBRYS
  6
CONTINUOUS
 62
    90
100
AcDbLine
 10
-130.995523
 20
111.450306
 30
0.0
 11
-130.995523
 21
113.83929
 31
0.0
  0
LINE
  5
11E4
330
17CD
100
AcDbEntity
  8
V0-OBRYS
  6
CONTINUOUS
 62
    90
100
AcDbLine
 10
-119.050603
 20
149.67405
 30
0.0
 11
-130.995523
 21
149.67405
 31
0.0
  0
LINE
  5
11E5
330
17CD
100
AcDbEntity
  8
V0-OBRYS
  6
CONTINUOUS
 62
    90
100
AcDbLine
 10
-119.050603
 20
140.118114
 30
0.0
 11
-130.995523
 21
140.118114
 31
0.0
  0
LINE
  5
11E6
330
17CD
100
AcDbEntity
  8
V0-OBRYS
  6
CONTINUOUS
 62
    90
100
AcDbLine
 10
-119.050603
 20
142.507098
 30
0.0
 11
-130.995523
 21
142.507098
 31
0.0
  0
LINE
  5
11E7
330
17CD
100
AcDbEntity
  8
V0-OBRYS
  6
CONTINUOUS
 62
    90
100
AcDbLine
 10
-119.050603
 20
130.562178
 30
0.0
 11
-130.995523
 21
130.562178
 31
0.0
  0
LINE
  5
11E8
330
17CD
100
AcDbEntity
  8
V0-OBRYS
  6
CONTINUOUS
 62
    90
100
AcDbLine
 10
-119.050603
 20
132.951162
 30
0.0
 11
-130.995523
 21
132.951162
 31
0.0
  0
LINE
  5
11E9
330
17CD
100
AcDbEntity
  8
V0-OBRYS
  6
CONTINUOUS
 62
    90
100
AcDbLine
 10
-119.050603
 20
142.507098
 30
0.0
 11
-119.050603
 21
149.67405
 31
0.0
  0
LINE
  5
11EA
330
17CD
100
AcDbEntity
  8
V0-OBRYS
  6
CONTINUOUS
 62
    90
100
AcDbLine
 10
-119.050603
 20
132.951162
 30
0.0
 11
-119.050603
 21
140.118114
 31
0.0
  0
ARC
  5
11EB
330
17CD
100
AcDbEntity
  8
V0-OBRYS
  6
CONTINUOUS
 62
    90
100
AcDbCircle
 10
1858.760622
 20
191.48127
 30
0.0
 40
1986.39154
100
AcDbArc
 50
181.205983
 51
181.412762
  0
ARC
  5
11EC
330
17CD
100
AcDbEntity
  8
V0-OBRYS
  6
CONTINUOUS
 62
    90
100
AcDbCircle
 10
1858.760622
 20
191.48127
 30
0.0
 40
1986.39154
100
AcDbArc
 50
181.481692
 51
181.688496
  0
LINE
  5
11ED
330
17CD
100
AcDbEntity
  8
V0-OBRYS
  6
CONTINUOUS
 62
    90
100
AcDbLine
 10
-130.995523
 20
140.118114
 30
0.0
 11
-130.995523
 21
142.507098
 31
0.0
  0
LINE
  5
11EE
330
17CD
100
AcDbEntity
  8
V0-OBRYS
  6
CONTINUOUS
 62
    90
100
AcDbLine
 10
-130.995523
 20
130.562178
 30
0.0
 11
-130.995523
 21
132.951162
 31
0.0
  0
LINE
  5
11EF
330
17CD
100
AcDbEntity
  8
V0-OBRYS
  6
CONTINUOUS
 62
    90
100
AcDbLine
 10
-119.050603
 20
173.56389
 30
0.0
 11
-119.050603
 21
180.730842
 31
0.0
  0
ARC
  5
11F0
330
17CD
100
AcDbEntity
  8
V0-OBRYS
  6
CONTINUOUS
 62
    90
100
AcDbCircle
 10
1858.760622
 20
191.48127
 30
0.0
 40
1986.39154
100
AcDbArc
 50
180.310088
 51
180.516819
  0
LINE
  5
11F1
330
17CD
100
AcDbEntity
  8
V0-OBRYS
  6
CONTINUOUS
 62
    90
100
AcDbLine
 10
-119.050603
 20
171.174906
 30
0.0
 11
-130.995523
 21
171.174906
 31
0.0
  0
LINE
  5
11F2
330
17CD
100
AcDbEntity
  8
V0-OBRYS
  6
CONTINUOUS
 62
    90
100
AcDbLine
 10
-119.050603
 20
173.56389
 30
0.0
 11
-130.995523
 21
173.56389
 31
0.0
  0
LINE
  5
11F3
330
17CD
100
AcDbEntity
  8
V0-OBRYS
  6
CONTINUOUS
 62
    90
100
AcDbLine
 10
-119.050603
 20
159.229986
 30
0.0
 11
-130.995523
 21
159.229986
 31
0.0
  0
LINE
  5
11F4
330
17CD
100
AcDbEntity
  8
V0-OBRYS
  6
CONTINUOUS
 62
    90
100
AcDbLine
 10
-119.050603
 20
161.61897
 30
0.0
 11
-130.995523
 21
161.61897
 31
0.0
  0
LINE
  5
11F5
330
17CD
100
AcDbEntity
  8
V0-OBRYS
  6
CONTINUOUS
 62
    90
100
AcDbLine
 10
-119.050603
 20
152.063034
 30
0.0
 11
-130.995523
 21
152.063034
 31
0.0
  0
LINE
  5
11F6
330
17CD
100
AcDbEntity
  8
V0-OBRYS
  6
CONTINUOUS
 62
    90
100
AcDbLine
 10
-119.050603
 20
161.61897
 30
0.0
 11
-119.050603
 21
171.174906
 31
0.0
  0
LINE
  5
11F7
330
17CD
100
AcDbEntity
  8
V0-OBRYS
  6
CONTINUOUS
 62
    90
100
AcDbLine
 10
-119.050603
 20
152.063034
 30
0.0
 11
-119.050603
 21
159.229986
 31
0.0
  0
ARC
  5
11F8
330
17CD
100
AcDbEntity
  8
V0-OBRYS
  6
CONTINUOUS
 62
    90
100
AcDbCircle
 10
1858.760622
 20
191.48127
 30
0.0
 40
1986.39154
100
AcDbArc
 50
180.58573
 51
180.861385
  0
ARC
  5
11F9
330
17CD
100
AcDbEntity
  8
V0-OBRYS
  6
CONTINUOUS
 62
    90
100
AcDbCircle
 10
1858.760622
 20
191.48127
 30
0.0
 40
1986.39154
100
AcDbArc
 50
180.930302
 51
181.13706
  0
LINE
  5
11FA
330
17CD
100
AcDbEntity
  8
V0-OBRYS
  6
CONTINUOUS
 62
    90
100
AcDbLine
 10
-130.995523
 20
171.174906
 30
0.0
 11
-130.995523
 21
173.56389
 31
0.0
  0
LINE
  5
11FB
330
17CD
100
AcDbEntity
  8
V0-OBRYS
  6
CONTINUOUS
 62
    90
100
AcDbLine
 10
-130.995523
 20
159.229986
 30
0.0
 11
-130.995523
 21
161.61897
 31
0.0
  0
LINE
  5
11FC
330
17CD
100
AcDbEntity
  8
V0-OBRYS
  6
CONTINUOUS
 62
    90
100
AcDbLine
 10
-119.050603
 20
190.286778
 30
0.0
 11
-130.995523
 21
190.286778
 31
0.0
  0
LINE
  5
11FD
330
17CD
100
AcDbEntity
  8
V0-OBRYS
  6
CONTINUOUS
 62
    90
100
AcDbLine
 10
-119.050603
 20
192.675762
 30
0.0
 11
-130.995523
 21
192.675762
 31
0.0
  0
LINE
  5
11FE
330
17CD
100
AcDbEntity
  8
V0-OBRYS
  6
CONTINUOUS
 62
    90
100
AcDbLine
 10
-119.050603
 20
180.730842
 30
0.0
 11
-130.995523
 21
180.730842
 31
0.0
  0
LINE
  5
11FF
330
17CD
100
AcDbEntity
  8
V0-OBRYS
  6
CONTINUOUS
 62
    90
100
AcDbLine
 10
-119.050603
 20
183.119826
 30
0.0
 11
-130.995523
 21
183.119826
 31
0.0
  0
LINE
  5
1200
330
17CD
100
AcDbEntity
  8
V0-OBRYS
  6
CONTINUOUS
 62
    90
100
AcDbLine
 10
-130.995523
 20
192.675762
 30
0.0
 11
-130.995523
 21
190.286778
 31
0.0
  0
LINE
  5
1201
330
17CD
100
AcDbEntity
  8
V0-OBRYS
  6
CONTINUOUS
 62
    90
100
AcDbLine
 10
-130.995523
 20
180.730842
 30
0.0
 11
-130.995523
 21
183.119826
 31
0.0
  0
LINE
  5
1202
330
17CD
100
AcDbEntity
  8
V0-OBRYS
  6
CONTINUOUS
 62
    90
100
AcDbLine
 10
-119.050603
 20
240.455442
 30
0.0
 11
-119.050603
 21
233.28849
 31
0.0
  0
ARC
  5
1203
330
17CD
100
AcDbEntity
  8
V0-OBRYS
  6
CONTINUOUS
 62
    90
100
AcDbCircle
 10
1858.760622
 20
191.48127
 30
0.0
 40
1986.39154
100
AcDbArc
 50
178.587238
 51
178.794017
  0
LINE
  5
1204
330
17CD
100
AcDbEntity
  8
V0-OBRYS
  6
CONTINUOUS
 62
    90
100
AcDbLine
 10
-119.050603
 20
221.34357
 30
0.0
 11
-119.050603
 21
211.787634
 31
0.0
  0
ARC
  5
1205
330
17CD
100
AcDbEntity
  8
V0-OBRYS
  6
CONTINUOUS
 62
    90
100
AcDbCircle
 10
1858.760622
 20
191.48127
 30
0.0
 40
1986.39154
100
AcDbArc
 50
179.138615
 51
179.41427
  0
LINE
  5
1206
330
17CD
100
AcDbEntity
  8
V0-OBRYS
  6
CONTINUOUS
 62
    90
100
AcDbLine
 10
-119.050603
 20
209.39865
 30
0.0
 11
-130.995523
 21
209.39865
 31
0.0
  0
LINE
  5
1207
330
17CD
100
AcDbEntity
  8
V0-OBRYS
  6
CONTINUOUS
 62
    90
100
AcDbLine
 10
-119.050603
 20
211.787634
 30
0.0
 11
-130.995523
 21
211.787634
 31
0.0
  0
LINE
  5
1208
330
17CD
100
AcDbEntity
  8
V0-OBRYS
  6
CONTINUOUS
 62
    90
100
AcDbLine
 10
-119.050603
 20
199.842714
 30
0.0
 11
-130.995523
 21
199.842714
 31
0.0
  0
LINE
  5
1209
330
17CD
100
AcDbEntity
  8
V0-OBRYS
  6
CONTINUOUS
 62
    90
100
AcDbLine
 10
-119.050603
 20
202.231698
 30
0.0
 11
-130.995523
 21
202.231698
 31
0.0
  0
LINE
  5
120A
330
17CD
100
AcDbEntity
  8
V0-OBRYS
  6
CONTINUOUS
 62
    90
100
AcDbLine
 10
-119.050603
 20
209.39865
 30
0.0
 11
-119.050603
 21
202.231698
 31
0.0
  0
ARC
  5
120B
330
17CD
100
AcDbEntity
  8
V0-OBRYS
  6
CONTINUOUS
 62
    90
100
AcDbCircle
 10
1858.760622
 20
191.48127
 30
0.0
 40
1986.39154
100
AcDbArc
 50
179.483181
 51
179.689912
  0
LINE
  5
120C
330
17CD
100
AcDbEntity
  8
V0-OBRYS
  6
CONTINUOUS
 62
    90
100
AcDbLine
 10
-130.995523
 20
211.787634
 30
0.0
 11
-130.995523
 21
209.39865
 31
0.0
  0
LINE
  5
120D
330
17CD
100
AcDbEntity
  8
V0-OBRYS
  6
CONTINUOUS
 62
    90
100
AcDbLine
 10
-130.995523
 20
202.231698
 30
0.0
 11
-130.995523
 21
199.842714
 31
0.0
  0
LINE
  5
120E
330
17CD
100
AcDbEntity
  8
V0-OBRYS
  6
CONTINUOUS
 62
    90
100
AcDbLine
 10
-119.050603
 20
230.899506
 30
0.0
 11
-130.995523
 21
230.899506
 31
0.0
  0
LINE
  5
120F
330
17CD
100
AcDbEntity
  8
V0-OBRYS
  6
CONTINUOUS
 62
    90
100
AcDbLine
 10
-119.050603
 20
233.28849
 30
0.0
 11
-130.995523
 21
233.28849
 31
0.0
  0
LINE
  5
1210
330
17CD
100
AcDbEntity
  8
V0-OBRYS
  6
CONTINUOUS
 62
    90
100
AcDbLine
 10
-119.050603
 20
221.34357
 30
0.0
 11
-130.995523
 21
221.34357
 31
0.0
  0
LINE
  5
1211
330
17CD
100
AcDbEntity
  8
V0-OBRYS
  6
CONTINUOUS
 62
    90
100
AcDbLine
 10
-119.050603
 20
223.732554
 30
0.0
 11
-130.995523
 21
223.732554
 31
0.0
  0
LINE
  5
1212
330
17CD
100
AcDbEntity
  8
V0-OBRYS
  6
CONTINUOUS
 62
    90
100
AcDbLine
 10
-119.050603
 20
230.899506
 30
0.0
 11
-119.050603
 21
223.732554
 31
0.0
  0
ARC
  5
1213
330
17CD
100
AcDbEntity
  8
V0-OBRYS
  6
CONTINUOUS
 62
    90
100
AcDbCircle
 10
1858.760622
 20
191.48127
 30
0.0
 40
1986.39154
100
AcDbArc
 50
178.86294
 51
179.069698
  0
LINE
  5
1214
330
17CD
100
AcDbEntity
  8
V0-OBRYS
  6
CONTINUOUS
 62
    90
100
AcDbLine
 10
-130.995523
 20
233.28849
 30
0.0
 11
-130.995523
 21
230.899506
 31
0.0
  0
LINE
  5
1215
330
17CD
100
AcDbEntity
  8
V0-OBRYS
  6
CONTINUOUS
 62
    90
100
AcDbLine
 10
-130.995523
 20
223.732554
 30
0.0
 11
-130.995523
 21
221.34357
 31
0.0
  0
LINE
  5
1216
330
17CD
100
AcDbEntity
  8
V0-OBRYS
  6
CONTINUOUS
 62
    90
100
AcDbLine
 10
-130.995523
 20
261.956298
 30
0.0
 11
-130.995523
 21
259.567314
 31
0.0
  0
LINE
  5
1217
330
17CD
100
AcDbEntity
  8
V0-OBRYS
  6
CONTINUOUS
 62
    90
100
AcDbLine
 10
-119.050603
 20
259.567314
 30
0.0
 11
-130.995523
 21
259.567314
 31
0.0
  0
LINE
  5
1218
330
17CD
100
AcDbEntity
  8
V0-OBRYS
  6
CONTINUOUS
 62
    90
100
AcDbLine
 10
-119.050603
 20
250.011378
 30
0.0
 11
-130.995523
 21
250.011378
 31
0.0
  0
LINE
  5
1219
330
17CD
100
AcDbEntity
  8
V0-OBRYS
  6
CONTINUOUS
 62
    90
100
AcDbLine
 10
-119.050603
 20
252.400362
 30
0.0
 11
-130.995523
 21
252.400362
 31
0.0
  0
LINE
  5
121A
330
17CD
100
AcDbEntity
  8
V0-OBRYS
  6
CONTINUOUS
 62
    90
100
AcDbLine
 10
-119.050603
 20
240.455442
 30
0.0
 11
-130.995523
 21
240.455442
 31
0.0
  0
LINE
  5
121B
330
17CD
100
AcDbEntity
  8
V0-OBRYS
  6
CONTINUOUS
 62
    90
100
AcDbLine
 10
-119.050603
 20
242.844426
 30
0.0
 11
-130.995523
 21
242.844426
 31
0.0
  0
LINE
  5
121C
330
17CD
100
AcDbEntity
  8
V0-OBRYS
  6
CONTINUOUS
 62
    90
100
AcDbLine
 10
-119.050603
 20
259.567314
 30
0.0
 11
-119.050603
 21
252.400362
 31
0.0
  0
LINE
  5
121D
330
17CD
100
AcDbEntity
  8
V0-OBRYS
  6
CONTINUOUS
 62
    90
100
AcDbLine
 10
-119.050603
 20
250.011378
 30
0.0
 11
-119.050603
 21
242.844426
 31
0.0
  0
ARC
  5
121E
330
17CD
100
AcDbEntity
  8
V0-OBRYS
  6
CONTINUOUS
 62
    90
100
AcDbCircle
 10
1858.760622
 20
191.48127
 30
0.0
 40
1986.39154
100
AcDbArc
 50
178.035731
 51
178.242565
  0
ARC
  5
121F
330
17CD
100
AcDbEntity
  8
V0-OBRYS
  6
CONTINUOUS
 62
    90
100
AcDbCircle
 10
1858.760622
 20
191.48127
 30
0.0
 40
1986.39154
100
AcDbArc
 50
178.311504
 51
178.518308
  0
LINE
  5
1220
330
17CD
100
AcDbEntity
  8
V0-OBRYS
  6
CONTINUOUS
 62
    90
100
AcDbLine
 10
-130.995523
 20
252.400362
 30
0.0
 11
-130.995523
 21
250.011378
 31
0.0
  0
LINE
  5
1221
330
17CD
100
AcDbEntity
  8
V0-OBRYS
  6
CONTINUOUS
 62
    90
100
AcDbLine
 10
-130.995523
 20
242.844426
 30
0.0
 11
-130.995523
 21
240.455442
 31
0.0
  0
LINE
  5
1222
330
17CD
100
AcDbEntity
  8
V0-OBRYS
  6
CONTINUOUS
 62
    90
100
AcDbLine
 10
-119.050603
 20
278.679186
 30
0.0
 11
-130.995523
 21
278.679186
 31
0.0
  0
LINE
  5
1223
330
17CD
100
AcDbEntity
  8
V0-OBRYS
  6
CONTINUOUS
 62
    90
100
AcDbLine
 10
-119.050603
 20
281.06817
 30
0.0
 11
-130.995523
 21
281.06817
 31
0.0
  0
LINE
  5
1224
330
17CD
100
AcDbEntity
  8
V0-OBRYS
  6
CONTINUOUS
 62
    90
100
AcDbLine
 10
-119.050603
 20
269.12325
 30
0.0
 11
-130.995523
 21
269.12325
 31
0.0
  0
LINE
  5
1225
330
17CD
100
AcDbEntity
  8
V0-OBRYS
  6
CONTINUOUS
 62
    90
100
AcDbLine
 10
-119.050603
 20
271.512234
 30
0.0
 11
-130.995523
 21
271.512234
 31
0.0
  0
LINE
  5
1226
330
17CD
100
AcDbEntity
  8
V0-OBRYS
  6
CONTINUOUS
 62
    90
100
AcDbLine
 10
-119.050603
 20
261.956298
 30
0.0
 11
-130.995523
 21
261.956298
 31
0.0
  0
LINE
  5
1227
330
17CD
100
AcDbEntity
  8
V0-OBRYS
  6
CONTINUOUS
 62
    90
100
AcDbLine
 10
-119.050603
 20
278.679186
 30
0.0
 11
-119.050603
 21
271.512234
 31
0.0
  0
LINE
  5
1228
330
17CD
100
AcDbEntity
  8
V0-OBRYS
  6
CONTINUOUS
 62
    90
100
AcDbLine
 10
-119.050603
 20
269.12325
 30
0.0
 11
-119.050603
 21
261.956298
 31
0.0
  0
ARC
  5
1229
330
17CD
100
AcDbEntity
  8
V0-OBRYS
  6
CONTINUOUS
 62
    90
100
AcDbCircle
 10
1858.760622
 20
191.48127
 30
0.0
 40
1986.39154
100
AcDbArc
 50
177.484042
 51
177.69095
  0
ARC
  5
122A
330
17CD
100
AcDbEntity
  8
V0-OBRYS
  6
CONTINUOUS
 62
    90
100
AcDbCircle
 10
1858.760622
 20
191.48127
 30
0.0
 40
1986.39154
100
AcDbArc
 50
177.759912
 51
177.966781
  0
LINE
  5
122B
330
17CD
100
AcDbEntity
  8
V0-OBRYS
  6
CONTINUOUS
 62
    90
100
AcDbLine
 10
-130.995523
 20
281.06817
 30
0.0
 11
-130.995523
 21
278.679186
 31
0.0
  0
LINE
  5
122C
330
17CD
100
AcDbEntity
  8
V0-OBRYS
  6
CONTINUOUS
 62
    90
100
AcDbLine
 10
-130.995523
 20
271.512234
 30
0.0
 11
-130.995523
 21
269.12325
 31
0.0
  0
LINE
  5
122D
330
17CD
100
AcDbEntity
  8
V0-OBRYS
  6
CONTINUOUS
 62
    90
 48
5.0
100
AcDbLine
 10
12.78985
 20
393.055474
 30
0.0
 11
172.797465
 21
393.055474
 31
0.0
  0
ARC
  5
122E
330
17CD
100
AcDbEntity
  8
V0-OBRYS
  6
CONTINUOUS
 62
    90
100
AcDbCircle
 10
-2909.58506
 20
164.377519
 30
0.0
 40
3101.935828
100
AcDbArc
 50
2.509207
 51
4.025936
  0
LINE
  5
122F
330
17CD
100
AcDbEntity
  8
V0-OBRYS
  6
CONTINUOUS
 62
    90
100
AcDbLine
 10
183.772636
 20
309.735978
 30
0.0
 11
195.717556
 21
309.735978
 31
0.0
  0
LINE
  5
1230
330
17CD
100
AcDbEntity
  8
V0-OBRYS
  6
CONTINUOUS
 62
    90
100
AcDbLine
 10
183.772636
 20
307.346994
 30
0.0
 11
195.717556
 21
307.346994
 31
0.0
  0
LINE
  5
1231
330
17CD
100
AcDbEntity
  8
V0-OBRYS
  6
CONTINUOUS
 62
    90
100
AcDbLine
 10
183.772636
 20
319.291914
 30
0.0
 11
195.717556
 21
319.291914
 31
0.0
  0
LINE
  5
1232
330
17CD
100
AcDbEntity
  8
V0-OBRYS
  6
CONTINUOUS
 62
    90
100
AcDbLine
 10
183.772636
 20
316.90293
 30
0.0
 11
195.717556
 21
316.90293
 31
0.0
  0
LINE
  5
1233
330
17CD
100
AcDbEntity
  8
V0-OBRYS
  6
CONTINUOUS
 62
    90
100
AcDbLine
 10
183.772636
 20
290.624106
 30
0.0
 11
195.717556
 21
290.624106
 31
0.0
  0
LINE
  5
1234
330
17CD
100
AcDbEntity
  8
V0-OBRYS
  6
CONTINUOUS
 62
    90
100
AcDbLine
 10
183.772636
 20
288.235122
 30
0.0
 11
195.717556
 21
288.235122
 31
0.0
  0
LINE
  5
1235
330
17CD
100
AcDbEntity
  8
V0-OBRYS
  6
CONTINUOUS
 62
    90
100
AcDbLine
 10
183.772636
 20
300.180042
 30
0.0
 11
195.717556
 21
300.180042
 31
0.0
  0
LINE
  5
1236
330
17CD
100
AcDbEntity
  8
V0-OBRYS
  6
CONTINUOUS
 62
    90
100
AcDbLine
 10
183.772636
 20
297.791058
 30
0.0
 11
195.717556
 21
297.791058
 31
0.0
  0
LINE
  5
1237
330
17CD
100
AcDbEntity
  8
V0-OBRYS
  6
CONTINUOUS
 62
    90
100
AcDbLine
 10
187.818904
 20
325.616393
 30
0.0
 11
183.772636
 21
325.616393
 31
0.0
  0
ARC
  5
1238
330
17CD
100
AcDbEntity
  8
V0-OBRYS
  6
CONTINUOUS
 62
    90
100
AcDbCircle
 10
-1794.038588
 20
191.48127
 30
0.0
 40
1986.39154
100
AcDbArc
 50
2.86088
 51
3.067881
  0
LINE
  5
1239
330
17CD
100
AcDbEntity
  8
V0-OBRYS
  6
CONTINUOUS
 62
    90
100
AcDbLine
 10
195.717556
 20
290.624106
 30
0.0
 11
195.717556
 21
288.235122
 31
0.0
  0
LINE
  5
123A
330
17CD
100
AcDbEntity
  8
V0-OBRYS
  6
CONTINUOUS
 62
    90
100
AcDbLine
 10
195.717556
 20
300.180042
 30
0.0
 11
195.717556
 21
297.791058
 31
0.0
  0
LINE
  5
123B
330
17CD
100
AcDbEntity
  8
V0-OBRYS
  6
CONTINUOUS
 62
    90
100
AcDbLine
 10
195.717556
 20
309.735978
 30
0.0
 11
195.717556
 21
307.346994
 31
0.0
  0
LINE
  5
123C
330
17CD
100
AcDbEntity
  8
V0-OBRYS
  6
CONTINUOUS
 62
    90
100
AcDbLine
 10
195.717556
 20
319.291914
 30
0.0
 11
195.717556
 21
316.90293
 31
0.0
  0
LINE
  5
123D
330
17CD
100
AcDbEntity
  8
V0-OBRYS
  6
CONTINUOUS
 62
    90
100
AcDbLine
 10
183.772636
 20
325.616393
 30
0.0
 11
183.772636
 21
300.180042
 31
0.0
  0
LINE
  5
123E
330
17CD
100
AcDbEntity
  8
V0-OBRYS
  6
CONTINUOUS
 62
    90
100
AcDbLine
 10
183.772636
 20
297.791058
 30
0.0
 11
183.772636
 21
290.624106
 31
0.0
  0
LINE
  5
123F
330
17CD
100
AcDbEntity
  8
V0-OBRYS
  6
CONTINUOUS
 62
    90
100
AcDbLine
 10
183.772636
 20
316.90293
 30
0.0
 11
183.772636
 21
309.735978
 31
0.0
  0
ARC
  5
1240
330
17CD
100
AcDbEntity
  8
V0-OBRYS
  6
CONTINUOUS
 62
    90
100
AcDbCircle
 10
172.797465
 20
381.110554
 30
0.0
 40
11.94492
100
AcDbArc
 50
5.032259
 51
90.0
  0
ARC
  5
1241
330
17CD
100
AcDbEntity
  8
V0-OBRYS
  6
CONTINUOUS
 62
    90
100
AcDbCircle
 10
2974.307094
 20
164.377519
 30
0.0
 40
3101.935828
100
AcDbArc
 50
175.974064
 51
177.490793
  0
LINE
  5
1242
330
17CD
100
AcDbEntity
  8
V0-OBRYS
  6
CONTINUOUS
 62
    90
100
AcDbLine
 10
-119.050603
 20
325.616393
 30
0.0
 11
-119.050603
 21
300.180042
 31
0.0
  0
LINE
  5
1243
330
17CD
100
AcDbEntity
  8
V0-OBRYS
  6
CONTINUOUS
 62
    90
100
AcDbLine
 10
-119.050603
 20
297.791058
 30
0.0
 11
-130.995523
 21
297.791058
 31
0.0
  0
LINE
  5
1244
330
17CD
100
AcDbEntity
  8
V0-OBRYS
  6
CONTINUOUS
 62
    90
100
AcDbLine
 10
-119.050603
 20
300.180042
 30
0.0
 11
-130.995523
 21
300.180042
 31
0.0
  0
LINE
  5
1245
330
17CD
100
AcDbEntity
  8
V0-OBRYS
  6
CONTINUOUS
 62
    90
100
AcDbLine
 10
-119.050603
 20
288.235122
 30
0.0
 11
-130.995523
 21
288.235122
 31
0.0
  0
LINE
  5
1246
330
17CD
100
AcDbEntity
  8
V0-OBRYS
  6
CONTINUOUS
 62
    90
100
AcDbLine
 10
-119.050603
 20
290.624106
 30
0.0
 11
-130.995523
 21
290.624106
 31
0.0
  0
LINE
  5
1247
330
17CD
100
AcDbEntity
  8
V0-OBRYS
  6
CONTINUOUS
 62
    90
100
AcDbLine
 10
-119.050603
 20
297.791058
 30
0.0
 11
-119.050603
 21
290.624106
 31
0.0
  0
ARC
  5
1248
330
17CD
100
AcDbEntity
  8
V0-OBRYS
  6
CONTINUOUS
 62
    90
100
AcDbCircle
 10
1858.760622
 20
191.48127
 30
0.0
 40
1986.39154
100
AcDbArc
 50
176.932119
 51
177.13912
  0
LINE
  5
1249
330
17CD
100
AcDbEntity
  8
V0-OBRYS
  6
CONTINUOUS
 62
    90
100
AcDbLine
 10
-130.995523
 20
300.180042
 30
0.0
 11
-130.995523
 21
297.791058
 31
0.0
  0
LINE
  5
124A
330
17CD
100
AcDbEntity
  8
V0-OBRYS
  6
CONTINUOUS
 62
    90
100
AcDbLine
 10
-130.995523
 20
290.624106
 30
0.0
 11
-130.995523
 21
288.235122
 31
0.0
  0
LINE
  5
124B
330
17CD
100
AcDbEntity
  8
V0-OBRYS
  6
CONTINUOUS
 62
    90
100
AcDbLine
 10
-119.050603
 20
316.90293
 30
0.0
 11
-130.995523
 21
316.90293
 31
0.0
  0
LINE
  5
124C
330
17CD
100
AcDbEntity
  8
V0-OBRYS
  6
CONTINUOUS
 62
    90
100
AcDbLine
 10
-119.050603
 20
319.291914
 30
0.0
 11
-130.995523
 21
319.291914
 31
0.0
  0
LINE
  5
124D
330
17CD
100
AcDbEntity
  8
V0-OBRYS
  6
CONTINUOUS
 62
    90
100
AcDbLine
 10
-119.050603
 20
307.346994
 30
0.0
 11
-130.995523
 21
307.346994
 31
0.0
  0
LINE
  5
124E
330
17CD
100
AcDbEntity
  8
V0-OBRYS
  6
CONTINUOUS
 62
    90
100
AcDbLine
 10
-119.050603
 20
309.735978
 30
0.0
 11
-130.995523
 21
309.735978
 31
0.0
  0
LINE
  5
124F
330
17CD
100
AcDbEntity
  8
V0-OBRYS
  6
CONTINUOUS
 62
    90
100
AcDbLine
 10
-119.050603
 20
316.90293
 30
0.0
 11
-119.050603
 21
309.735978
 31
0.0
  0
LINE
  5
1250
330
17CD
100
AcDbEntity
  8
V0-OBRYS
  6
CONTINUOUS
 62
    90
100
AcDbLine
 10
-123.09687
 20
325.616393
 30
0.0
 11
-119.050603
 21
325.616393
 31
0.0
  0
LINE
  5
1251
330
17CD
100
AcDbEntity
  8
V0-OBRYS
  6
CONTINUOUS
 62
    90
100
AcDbLine
 10
-130.995523
 20
319.291914
 30
0.0
 11
-130.995523
 21
316.90293
 31
0.0
  0
LINE
  5
1252
330
17CD
100
AcDbEntity
  8
V0-OBRYS
  6
CONTINUOUS
 62
    90
100
AcDbLine
 10
-130.995523
 20
309.735978
 30
0.0
 11
-130.995523
 21
307.346994
 31
0.0
  0
ARC
  5
1253
330
17CD
100
AcDbEntity
  8
V0-OBRYS
  6
CONTINUOUS
 62
    90
100
AcDbCircle
 10
-108.075431
 20
381.110554
 30
0.0
 40
11.94492
100
AcDbArc
 50
90.0
 51
174.967741
  0
LINE
  5
12E9
330
17CD
100
AcDbEntity
  8
V0-OBRYS
  6
CONTINUOUS
 62
    90
 48
3.0
100
AcDbLine
 10
-108.075431
 20
393.055474
 30
0.0
 11
-97.89619500000001
 21
393.055474
 31
0.0
  0
LINE
  5
12EA
330
17CD
100
AcDbEntity
  8
V0-OBRYS
  6
CONTINUOUS
 62
    90
 48
3.0
100
AcDbLine
 10
-108.075431
 20
-229.922724
 30
0.0
 11
-97.400482
 21
-229.922724
 31
0.0
  0
LINE
  5
12EB
330
17CD
100
AcDbEntity
  8
V0-OBRYS
  6
CONTINUOUS
 62
    90
 48
3.0
100
AcDbLine
 10
-108.075431
 20
-632.3061320000001
 30
0.0
 11
-97.846023
 21
-632.3061320000001
 31
0.0
  0
LINE
  5
12EC
330
17CD
100
AcDbEntity
  8
V0-OBRYS
  6
CONTINUOUS
 62
    90
 48
3.0
100
AcDbLine
 10
-108.075431
 20
-10.092934
 30
0.0
 11
-97.846023
 21
-10.092934
 31
0.0
  0
POINT
  5
12F2
330
17CD
100
AcDbEntity
  8
V0-OBRYS
  6
CONTINUOUS
 62
    90
 48
3.0
100
AcDbPoint
 10
12.78985
 20
191.48127
 30
0.0
  0
POINT
  5
12F3
330
17CD
100
AcDbEntity
  8
V0-OBRYS
  6
CONTINUOUS
 62
    90
 48
3.0
100
AcDbPoint
 10
12.78985
 20
-431.114428
 30
0.0
  0
TEXT
  5
17A3
330
17CD
100
AcDbEntity
  8
V0-ZBYTEK
 62
    51
100
AcDbText
 10
430.0956802142857
 20
-383.818195
 30
0.0
 40
32.398923
  1
MALY AXIALNI
  7
ED5
100
AcDbText
  0
TEXT
  5
17A4
330
17CD
100
AcDbEntity
  8
V0-ZBYTEK
 62
    51
100
AcDbText
 10
459.4089915
 20
-437.8164
 30
0.0
 40
32.398923
  1
VENTILATOR
  7
ED5
100
AcDbText
  0
TEXT
  5
17A5
330
17CD
100
AcDbEntity
  8
V0-NAZVY
100
AcDbText
 10
427.2732537142857
 20
-317.175534
 30
0.0
 40
57.85522
  1
HV 300
  7
ED5
100
AcDbText
  0
VIEWPORT
  5
184D
330
17C9
100
AcDbEntity
 67
     1
  8
0
 60
     1
100
AcDbViewport
 10
0.0
 20
0.0
 30
0.0
 40
10.0
 41
10.0
 68
     0
 69
     1
1001
VD_INVISIBLE_NOT_FOR_READ
1000
VD_INVISIBLE_NOT_FOR_READ
1001
ACAD
1000
MVIEW
1002
{
1070
    16
1010
0.0
1020
0.0
1030
0.0
1010
0.0
1020
0.0
1030
1.0
1040
6.2831853071796
1040
10.0
1040
0.0
1040
0.0
1040
0.0
1040
0.0
1040
0.0
1070
     0
1070
   100
1070
     0
1070
     1
1070
     0
1070
     0
1070
     0
1070
     0
1040
0.0
1040
0.0
1040
0.0
1040
1.0
1040
1.0
1040
0.0
1040
0.0
1070
     0
1002
{
1002
}
1002
}
  0
VIEWPORT
  5
184E
330
17C9
100
AcDbEntity
 67
     1
  8
0
 60
     1
100
AcDbViewport
 10
0.0
 20
0.0
 30
0.0
 40
10.0
 41
10.0
 68
     0
 69
     2
1001
VD_INVISIBLE_NOT_FOR_READ
1000
VD_INVISIBLE_NOT_FOR_READ
1001
ACAD
1000
MVIEW
1002
{
1070
    16
1010
0.0
1020
0.0
1030
0.0
1010
0.0
1020
0.0
1030
1.0
1040
6.2831853071796
1040
10.0
1040
0.0
1040
0.0
1040
0.0
1040
0.0
1040
0.0
1070
     0
1070
   100
1070
     0
1070
     1
1070
     0
1070
     0
1070
     0
1070
     0
1040
0.0
1040
0.0
1040
0.0
1040
1.0
1040
1.0
1040
0.0
1040
0.0
1070
     0
1002
{
1002
}
1002
}
  0
ENDSEC
  0
SECTION
  2
OBJECTS
  0
DICTIONARY
  5
17BA
330
0
100
AcDbDictionary
  3
ACAD_GROUP
350
17BB
  3
ACAD_LAYOUT
350
17C8
  3
ACAD_MLINESTYLE
350
17C5
  3
ACAD_PLOTSETTINGS
350
17C7
  3
ACDBHEADERROUNDTRIPXREC
350
184F
  3
VECTORDRAW_OBJECTS
350
17DD
  0
DICTIONARY
  5
186F
330
17D7
100
AcDbDictionary
280
     1
  3
ACAD_XREC_ROUNDTRIP
360
1870
  0
DICTIONARY
  5
17BB
102
{ACAD_REACTORS
330
17BA
102
}
330
17BA
100
AcDbDictionary
  0
DICTIONARY
  5
17C8
102
{ACAD_REACTORS
330
17BA
102
}
330
17BA
100
AcDbDictionary
  0
DICTIONARY
  5
17C5
102
{ACAD_REACTORS
330
17BA
102
}
330
17BA
100
AcDbDictionary
  3
STANDARD
350
17C6
  0
DICTIONARY
  5
17C7
102
{ACAD_REACTORS
330
17BA
102
}
330
17BA
100
AcDbDictionary
  0
DICTIONARY
  5
184F
102
{ACAD_REACTORS
330
17BA
102
}
330
17BA
100
AcDbDictionary
  3
CEPSNTYPE
350
1858
  3
DIMSTYLEDATA
350
186E
  3
FINGERPRINTGUID
350
1859
  3
HYPERLINKBASE
350
1852
  3
INSUNITS
350
1857
  3
LAYOUTDICT
350
1854
  3
LWETCUNION
350
1856
  3
PLOTSETDICT
350
1855
  3
PSVPSCALE
350
185B
  3
PUCSBASE
350
185E
  3
PUCSORGBACK
350
1864
  3
PUCSORGBOTTOM
350
1860
  3
PUCSORGFRONT
350
1863
  3
PUCSORGLEFT
350
1861
  3
PUCSORGRIGHT
350
1862
  3
PUCSORGTOP
350
185F
  3
PUCSORTHOREF
350
185C
  3
PUCSORTHOVIEW
350
185D
  3
STYLESHEET
350
1853
  3
TSTACKALIGN
350
1850
  3
TSTACKSIZE
350
1851
  3
UCSBASE
350
1867
  3
UCSORGBACK
350
186D
  3
UCSORGBOTTOM
350
1869
  3
UCSORGFRONT
350
186C
  3
UCSORGLEFT
350
186A
  3
UCSORGRIGHT
350
186B
  3
UCSORGTOP
350
1868
  3
UCSORTHOREF
350
1865
  3
UCSORTHOVIEW
350
1866
  3
VERSIONGUID
350
185A
  0
DICTIONARY
  5
17DD
102
{ACAD_REACTORS
330
17BA
102
}
330
17BA
100
AcDbDictionary
  3
SERIALNO
350
17DE
  0
XRECORD
  5
1870
102
{ACAD_REACTORS
330
186F
102
}
330
186F
100
AcDbXrecord
102
UCS
 74
     0
 71
     1
 10
0.0
 20
0.0
 30
0.0
 10
1.0
 20
0.0
 30
0.0
 10
0.0
 20
1.0
 30
0.0
146
0.0
 79
     0
102
VIEW
281
     0
  0
MLINESTYLE
  5
17C6
102
{ACAD_REACTORS
330
17C5
102
}
330
17C5
100
AcDbMlineStyle
  2
Standard
 70
     0
  3

 62
   256
 51
90.0
 52
90.0
 71
     2
 49
0.5
 62
   256
  6
BYLAYER
 49
-0.5
 62
   256
  6
BYLAYER
  0
XRECORD
  5
1858
102
{ACAD_REACTORS
330
184F
102
}
330
184F
100
AcDbXrecord
 90
        0
  0
XRECORD
  5
186E
102
{ACAD_REACTORS
330
184F
102
}
330
184F
100
AcDbXrecord
1000
DSTYLE
1002
{
1070
    41
 40
15.0
1070
   342
340
1D
1070
   271
 70
     0
1070
    44
 40
1.25
1070
    42
 40
1.0
1070
   147
 40
1.5
1070
    77
 70
     1
1070
    73
 70
     0
1070
   174
 70
     1
1070
   172
 70
     1
1070
    74
 70
     0
1070
   340
340
2F4
1070
   140
 40
10.0
1070
   288
 70
     1
1002
}
  0
XRECORD
  5
1859
102
{ACAD_REACTORS
330
184F
102
}
330
184F
100
AcDbXrecord
  1
{FAEB1C30-E019-11D5-929B-00C0DF256EC4}
  0
XRECORD
  5
1852
102
{ACAD_REACTORS
330
184F
102
}
330
184F
100
AcDbXrecord
  1

  0
XRECORD
  5
1857
102
{ACAD_REACTORS
330
184F
102
}
330
184F
100
AcDbXrecord
 90
        1
  0
XRECORD
  5
1854
102
{ACAD_REACTORS
330
184F
102
}
330
184F
100
AcDbXrecord
340
17C8
  0
XRECORD
  5
1856
102
{ACAD_REACTORS
330
184F
102
}
330
184F
100
AcDbXrecord
 90
     2560
  0
XRECORD
  5
1855
102
{ACAD_REACTORS
330
184F
102
}
330
184F
100
AcDbXrecord
340
17C7
  0
XRECORD
  5
185B
102
{ACAD_REACTORS
330
184F
102
}
330
184F
100
AcDbXrecord
 40
0.0
  0
XRECORD
  5
185E
102
{ACAD_REACTORS
330
184F
102
}
330
184F
100
AcDbXrecord
340
0
  0
XRECORD
  5
1864
102
{ACAD_REACTORS
330
184F
102
}
330
184F
100
AcDbXrecord
 10
0.0
 20
0.0
 30
0.0
  0
XRECORD
  5
1860
102
{ACAD_REACTORS
330
184F
102
}
330
184F
100
AcDbXrecord
 10
0.0
 20
0.0
 30
0.0
  0
XRECORD
  5
1863
102
{ACAD_REACTORS
330
184F
102
}
330
184F
100
AcDbXrecord
 10
0.0
 20
0.0
 30
0.0
  0
XRECORD
  5
1861
102
{ACAD_REACTORS
330
184F
102
}
330
184F
100
AcDbXrecord
 10
0.0
 20
0.0
 30
0.0
  0
XRECORD
  5
1862
102
{ACAD_REACTORS
330
184F
102
}
330
184F
100
AcDbXrecord
 10
0.0
 20
0.0
 30
0.0
  0
XRECORD
  5
185F
102
{ACAD_REACTORS
330
184F
102
}
330
184F
100
AcDbXrecord
 10
0.0
 20
0.0
 30
0.0
  0
XRECORD
  5
185C
102
{ACAD_REACTORS
330
184F
102
}
330
184F
100
AcDbXrecord
340
0
  0
XRECORD
  5
185D
102
{ACAD_REACTORS
330
184F
102
}
330
184F
100
AcDbXrecord
 70
     0
  0
XRECORD
  5
1853
102
{ACAD_REACTORS
330
184F
102
}
330
184F
100
AcDbXrecord
  1

  0
XRECORD
  5
1850
102
{ACAD_REACTORS
330
184F
102
}
330
184F
100
AcDbXrecord
 90
        1
  0
XRECORD
  5
1851
102
{ACAD_REACTORS
330
184F
102
}
330
184F
100
AcDbXrecord
 90
       70
  0
XRECORD
  5
1867
102
{ACAD_REACTORS
330
184F
102
}
330
184F
100
AcDbXrecord
340
0
  0
XRECORD
  5
186D
102
{ACAD_REACTORS
330
184F
102
}
330
184F
100
AcDbXrecord
 10
0.0
 20
0.0
 30
0.0
  0
XRECORD
  5
1869
102
{ACAD_REACTORS
330
184F
102
}
330
184F
100
AcDbXrecord
 10
0.0
 20
0.0
 30
0.0
  0
XRECORD
  5
186C
102
{ACAD_REACTORS
330
184F
102
}
330
184F
100
AcDbXrecord
 10
0.0
 20
0.0
 30
0.0
  0
XRECORD
  5
186A
102
{ACAD_REACTORS
330
184F
102
}
330
184F
100
AcDbXrecord
 10
0.0
 20
0.0
 30
0.0
  0
XRECORD
  5
186B
102
{ACAD_REACTORS
330
184F
102
}
330
184F
100
AcDbXrecord
 10
0.0
 20
0.0
 30
0.0
  0
XRECORD
  5
1868
102
{ACAD_REACTORS
330
184F
102
}
330
184F
100
AcDbXrecord
 10
0.0
 20
0.0
 30
0.0
  0
XRECORD
  5
1865
102
{ACAD_REACTORS
330
184F
102
}
330
184F
100
AcDbXrecord
340
0
  0
XRECORD
  5
1866
102
{ACAD_REACTORS
330
184F
102
}
330
184F
100
AcDbXrecord
 70
     0
  0
XRECORD
  5
185A
102
{ACAD_REACTORS
330
184F
102
}
330
184F
100
AcDbXrecord
  1
{FAEB1C32-E019-11D5-929B-00C0DF256EC4}
  0
XRECORD
  5
17DE
102
{ACAD_REACTORS
330
17DD
102
}
330
17DD
100
AcDbXrecord
1000
rInJVR9YY4Q8hfPWdUq5j5319
1070
     4
1070
     6
  0
ENDSEC
  0
EOF
