  0
SECTION
  2
HEADER
  9
$ACADVER
  1
AC1014
  9
$ACADMAINTVER
 70
     9
  9
$DWGCODEPAGE
  3
ANSI_1250
  9
$INSBASE
 10
0.0
 20
0.0
 30
0.0
  9
$EXTMIN
 10
14.839029
 20
-549.458256
 30
0.0
  9
$EXTMAX
 10
798.6053232371994
 20
279.98434
 30
0.0
  9
$LIMMIN
 10
0.0
 20
0.0
  9
$LIMMAX
 10
0.0
 20
0.0
  9
$ORTHOMODE
 70
     1
  9
$REGENMODE
 70
     1
  9
$FILLMODE
 70
     1
  9
$QTEXTMODE
 70
     0
  9
$MIRRTEXT
 70
     1
  9
$DRAGMODE
 70
     2
  9
$LTSCALE
 40
3.0
  9
$OSMODE
 70
    37
  9
$ATTMODE
 70
     1
  9
$TEXTSIZE
 40
0.2
  9
$TRACEWID
 40
0.05
  9
$TEXTSTYLE
  7
ED10
  9
$CLAYER
  8
V0-VYPLNE
  9
$CELTYPE
  6
CONTINUOUS
  9
$CECOLOR
 62
    63
  9
$CELTSCALE
 40
1.0
  9
$DELOBJ
 70
     1
  9
$DISPSILH
 70
     0
  9
$DIMSCALE
 40
1.0
  9
$DIMASZ
 40
15.0
  9
$DIMEXO
 40
1.0
  9
$DIMDLI
 40
0.38
  9
$DIMRND
 40
0.0
  9
$DIMDLE
 40
0.0
  9
$DIMEXE
 40
1.25
  9
$DIMTP
 40
0.0
  9
$DIMTM
 40
0.0
  9
$DIMTXT
 40
10.0
  9
$DIMCEN
 40
0.09
  9
$DIMTSZ
 40
0.0
  9
$DIMTOL
 70
     0
  9
$DIMLIM
 70
     0
  9
$DIMTIH
 70
     0
  9
$DIMTOH
 70
     0
  9
$DIMSE1
 70
     0
  9
$DIMSE2
 70
     0
  9
$DIMTAD
 70
     1
  9
$DIMZIN
 70
     0
  9
$DIMBLK
  1
OPEN
  9
$DIMASO
 70
     1
  9
$DIMSHO
 70
     1
  9
$DIMPOST
  1

  9
$DIMAPOST
  1

  9
$DIMALT
 70
     0
  9
$DIMALTD
 70
     2
  9
$DIMALTF
 40
25.4
  9
$DIMLFAC
 40
1.0
  9
$DIMTOFL
 70
     1
  9
$DIMTVP
 40
0.0
  9
$DIMTIX
 70
     1
  9
$DIMSOXD
 70
     0
  9
$DIMSAH
 70
     0
  9
$DIMBLK1
  1

  9
$DIMBLK2
  1

  9
$DIMSTYLE
  2
ED10
  9
$DIMCLRD
 70
     0
  9
$DIMCLRE
 70
     0
  9
$DIMCLRT
 70
     0
  9
$DIMTFAC
 40
1.0
  9
$DIMGAP
 40
1.5
  9
$DIMJUST
 70
     0
  9
$DIMSD1
 70
     0
  9
$DIMSD2
 70
     0
  9
$DIMTOLJ
 70
     1
  9
$DIMTZIN
 70
     0
  9
$DIMALTZ
 70
     0
  9
$DIMALTTZ
 70
     0
  9
$DIMFIT
 70
     3
  9
$DIMUPT
 70
     1
  9
$DIMUNIT
 70
     2
  9
$DIMDEC
 70
     0
  9
$DIMTDEC
 70
     4
  9
$DIMALTU
 70
     2
  9
$DIMALTTD
 70
     2
  9
$DIMTXSTY
  7
ED20
  9
$DIMAUNIT
 70
     0
  9
$LUNITS
 70
     2
  9
$LUPREC
 70
     4
  9
$SKETCHINC
 40
0.1
  9
$FILLETRAD
 40
0.5
  9
$AUNITS
 70
     0
  9
$AUPREC
 70
     0
  9
$MENU
  1
.
  9
$ELEVATION
 40
0.0
  9
$PELEVATION
 40
0.0
  9
$THICKNESS
 40
0.0
  9
$LIMCHECK
 70
     0
  9
$BLIPMODE
 70
     0
  9
$CHAMFERA
 40
0.5
  9
$CHAMFERB
 40
0.5
  9
$CHAMFERC
 40
1.0
  9
$CHAMFERD
 40
0.0
  9
$SKPOLY
 70
     0
  9
$TDCREATE
 40
2455593.642674143
  9
$TDUPDATE
 40
2455593.642674155
  9
$TDINDWG
 40
0.0000000116
  9
$TDUSRTIMER
 40
0.0000000116
  9
$USRTIMER
 70
     1
  9
$ANGBASE
 50
0.0
  9
$ANGDIR
 70
     0
  9
$PDMODE
 70
     3
  9
$PDSIZE
 40
15.0
  9
$PLINEWID
 40
0.0
  9
$COORDS
 70
     1
  9
$SPLFRAME
 70
     0
  9
$SPLINETYPE
 70
     6
  9
$SPLINESEGS
 70
     8
  9
$ATTDIA
 70
     0
  9
$ATTREQ
 70
     1
  9
$HANDLING
 70
     1
  9
$HANDSEED
  5
1721
  9
$SURFTAB1
 70
     6
  9
$SURFTAB2
 70
     6
  9
$SURFTYPE
 70
     6
  9
$SURFU
 70
     6
  9
$SURFV
 70
     6
  9
$UCSNAME
  2

  9
$UCSORG
 10
0.0
 20
0.0
 30
0.0
  9
$UCSXDIR
 10
1.0
 20
0.0
 30
0.0
  9
$UCSYDIR
 10
0.0
 20
1.0
 30
0.0
  9
$PUCSNAME
  2

  9
$PUCSORG
 10
0.0
 20
0.0
 30
0.0
  9
$PUCSXDIR
 10
1.0
 20
0.0
 30
0.0
  9
$PUCSYDIR
 10
0.0
 20
1.0
 30
0.0
  9
$USERI1
 70
     0
  9
$USERI2
 70
     0
  9
$USERI3
 70
     0
  9
$USERI4
 70
     0
  9
$USERI5
 70
     0
  9
$USERR1
 40
0.0
  9
$USERR2
 40
0.0
  9
$USERR3
 40
0.0
  9
$USERR4
 40
0.0
  9
$USERR5
 40
0.0
  9
$WORLDVIEW
 70
     1
  9
$SHADEDGE
 70
     3
  9
$SHADEDIF
 70
    70
  9
$TILEMODE
 70
     1
  9
$MAXACTVP
 70
    64
  9
$PINSBASE
 10
0.0
 20
0.0
 30
0.0
  9
$PLIMCHECK
 70
     0
  9
$PEXTMIN
 10
1.000000000000000E+20
 20
1.000000000000000E+20
 30
1.000000000000000E+20
  9
$PEXTMAX
 10
-1.000000000000000E+20
 20
-1.000000000000000E+20
 30
-1.000000000000000E+20
  9
$PLIMMIN
 10
0.0
 20
0.0
  9
$PLIMMAX
 10
12.0
 20
9.0
  9
$UNITMODE
 70
     0
  9
$VISRETAIN
 70
     1
  9
$PLINEGEN
 70
     0
  9
$PSLTSCALE
 70
     1
  9
$TREEDEPTH
 70
  3020
  9
$PICKSTYLE
 70
     1
  9
$CMLSTYLE
  2
STANDARD
  9
$CMLJUST
 70
     0
  9
$CMLSCALE
 40
1.0
  9
$PROXYGRAPHICS
 70
     1
  9
$MEASUREMENT
 70
     0
  0
ENDSEC
  0
SECTION
  2
CLASSES
  0
CLASS
  1
ACDBDICTIONARYWDFLT
  2
AcDbDictionaryWithDefault
  3
ObjectDBX Classes
 90
        0
280
     0
281
     0
  0
CLASS
  1
XRECORD
  2
AcDbXrecord
  3
AutoCAD 2000
 90
        0
280
     0
281
     0
  0
CLASS
  1
LWPOLYLINE
  2
AcDbPolyline
  3
AutoCAD 2000
 90
        0
280
     0
281
     1
  0
CLASS
  1
HATCH
  2
AcDbHatch
  3
AutoCAD 2000
 90
        0
280
     0
281
     1
  0
CLASS
  1
ACDBPLACEHOLDER
  2
AcDbPlaceHolder
  3
ObjectDBX Classes
 90
        0
280
     0
281
     0
  0
CLASS
  1
LAYOUT
  2
AcDbLayout
  3
ObjectDBX Classes
 90
        0
280
     0
281
     0
  0
ENDSEC
  0
SECTION
  2
TABLES
  0
TABLE
  2
VPORT
  5
1666
330
0
100
AcDbSymbolTable
 70
     2
  0
VPORT
  5
1687
102
{ACAD_XDICTIONARY
360
171F
102
}
330
1666
100
AcDbSymbolTableRecord
100
AcDbViewportTableRecord
  2
*ACTIVE
 70
     0
 10
0.0
 20
0.0
 11
1.0
 21
1.0
 12
391.42708
 22
-54.551503
 13
0.0
 23
0.0
 14
1.0
 24
1.0
 15
5.0
 25
5.0
 16
0.0
 26
0.0
 36
1.0
 17
0.0
 27
0.0
 37
0.0
 40
1118.519993
 41
0.0158752251786106
 42
50.0
 43
0.0
 44
0.0
 50
0.0
 51
0.0000000000007958
 71
     0
 72
   100
 73
     1
 74
     3
 75
     0
 76
     0
 77
     0
 78
     0
  0
ENDTAB
  0
TABLE
  2
LTYPE
  5
1663
330
0
100
AcDbSymbolTable
 70
    25
  0
LTYPE
  5
1672
330
1663
100
AcDbSymbolTableRecord
100
AcDbLinetypeTableRecord
  2
BYBLOCK
 70
     0
  3

 72
    65
 73
     0
 40
0.0
  0
LTYPE
  5
1673
330
1663
100
AcDbSymbolTableRecord
100
AcDbLinetypeTableRecord
  2
BYLAYER
 70
     0
  3

 72
    65
 73
     0
 40
0.0
  0
LTYPE
  5
1674
330
1663
100
AcDbSymbolTableRecord
100
AcDbLinetypeTableRecord
  2
CONTINUOUS
 70
     0
  3
Solid line
 72
    65
 73
     0
 40
0.0
  0
LTYPE
  5
168F
330
1663
100
AcDbSymbolTableRecord
100
AcDbLinetypeTableRecord
  2
CENTER
 70
     0
  3
Center ____ _ ____ _ ____ _ ____ _ ____ _ ____
 72
    65
 73
     4
 40
2.0
 49
1.25
 74
     0
 49
-0.25
 74
     0
 49
0.25
 74
     0
 49
-0.25
 74
     0
  0
LTYPE
  5
1690
330
1663
100
AcDbSymbolTableRecord
100
AcDbLinetypeTableRecord
  2
DASHDOT
 70
     0
  3
Dashdot __ . __ . __ . __ . __ . __ . __ . __
 72
    65
 73
     4
 40
1.0
 49
0.5
 74
     0
 49
-0.25
 74
     0
 49
0.0
 74
     0
 49
-0.25
 74
     0
  0
LTYPE
  5
1691
330
1663
100
AcDbSymbolTableRecord
100
AcDbLinetypeTableRecord
  2
DASHED
 70
     0
  3
Dashed __ __ __ __ __ __ __ __ __ __ __ __ __ _
 72
    65
 73
     2
 40
0.75
 49
0.5
 74
     0
 49
-0.25
 74
     0
  0
LTYPE
  5
1692
330
1663
100
AcDbSymbolTableRecord
100
AcDbLinetypeTableRecord
  2
HIDDEN
 70
     0
  3
Hidden __ __ __ __ __ __ __ __ __ __ __ __ __ __
 72
    65
 73
     2
 40
0.375
 49
0.25
 74
     0
 49
-0.125
 74
     0
  0
LTYPE
  5
1693
330
1663
100
AcDbSymbolTableRecord
100
AcDbLinetypeTableRecord
  2
HIDDEN2
 70
     0
  3
Hidden2 _ _ _ _ _ _ _ _ _ _ _ _ _ _ _ _ _ 
 72
    65
 73
     2
 40
0.1875
 49
0.125
 74
     0
 49
-0.0625
 74
     0
  0
LTYPE
  5
1694
330
1663
100
AcDbSymbolTableRecord
100
AcDbLinetypeTableRecord
  2
BORDER
 70
     0
  3
Border __ __ . __ __ . __ __ . __ __ . __ __ .
 72
    65
 73
     6
 40
1.75
 49
0.5
 74
     0
 49
-0.25
 74
     0
 49
0.5
 74
     0
 49
-0.25
 74
     0
 49
0.0
 74
     0
 49
-0.25
 74
     0
  0
LTYPE
  5
1695
330
1663
100
AcDbSymbolTableRecord
100
AcDbLinetypeTableRecord
  2
BORDER2
 70
     0
  3
Border2 __.__.__.__.__.__.__.__.__.__.__.
 72
    65
 73
     6
 40
0.875
 49
0.25
 74
     0
 49
-0.125
 74
     0
 49
0.25
 74
     0
 49
-0.125
 74
     0
 49
0.0
 74
     0
 49
-0.125
 74
     0
  0
LTYPE
  5
1696
330
1663
100
AcDbSymbolTableRecord
100
AcDbLinetypeTableRecord
  2
BORDERX2
 70
     0
  3
Borderx2  ____  ____  .  ____  ____  .  ___
 72
    65
 73
     6
 40
3.5
 49
1.0
 74
     0
 49
-0.5
 74
     0
 49
1.0
 74
     0
 49
-0.5
 74
     0
 49
0.0
 74
     0
 49
-0.5
 74
     0
  0
LTYPE
  5
1697
330
1663
100
AcDbSymbolTableRecord
100
AcDbLinetypeTableRecord
  2
CENTER2
 70
     0
  3
Center2  ___ _ ___ _ ___ _ ___ _ ___ _ ___
 72
    65
 73
     4
 40
1.125
 49
0.75
 74
     0
 49
-0.125
 74
     0
 49
0.125
 74
     0
 49
-0.125
 74
     0
  0
LTYPE
  5
1698
330
1663
100
AcDbSymbolTableRecord
100
AcDbLinetypeTableRecord
  2
CENTERX2
 70
     0
  3
Centerx2  ________  __  ________  __  _____
 72
    65
 73
     4
 40
4.0
 49
2.5
 74
     0
 49
-0.5
 74
     0
 49
0.5
 74
     0
 49
-0.5
 74
     0
  0
LTYPE
  5
1699
330
1663
100
AcDbSymbolTableRecord
100
AcDbLinetypeTableRecord
  2
DASHDOT2
 70
     0
  3
Dashdot2  _._._._._._._._._._._._._._._.
 72
    65
 73
     4
 40
0.5
 49
0.25
 74
     0
 49
-0.125
 74
     0
 49
0.0
 74
     0
 49
-0.125
 74
     0
  0
LTYPE
  5
169A
330
1663
100
AcDbSymbolTableRecord
100
AcDbLinetypeTableRecord
  2
DASHDOTX2
 70
     0
  3
Dashdotx2 ____  .  ____  .  ____  .  ___
 72
    65
 73
     4
 40
2.0
 49
1.0
 74
     0
 49
-0.5
 74
     0
 49
0.0
 74
     0
 49
-0.5
 74
     0
  0
LTYPE
  5
169B
330
1663
100
AcDbSymbolTableRecord
100
AcDbLinetypeTableRecord
  2
DASHED2
 70
     0
  3
Dashed2 _ _ _ _ _ _ _ _ _ _ _ _ _ _ _ _ _ 
 72
    65
 73
     2
 40
0.375
 49
0.25
 74
     0
 49
-0.125
 74
     0
  0
LTYPE
  5
169C
330
1663
100
AcDbSymbolTableRecord
100
AcDbLinetypeTableRecord
  2
DASHEDX2
 70
     0
  3
Dashedx2 ____  ____  ____  ____  ____  ___
 72
    65
 73
     2
 40
1.5
 49
1.0
 74
     0
 49
-0.5
 74
     0
  0
LTYPE
  5
169D
330
1663
100
AcDbSymbolTableRecord
100
AcDbLinetypeTableRecord
  2
DIVIDE
 70
     0
  3
Divide ____ . . ____ . . ____ . . ____ . . ____
 72
    65
 73
     6
 40
1.25
 49
0.5
 74
     0
 49
-0.25
 74
     0
 49
0.0
 74
     0
 49
-0.25
 74
     0
 49
0.0
 74
     0
 49
-0.25
 74
     0
  0
LTYPE
  5
169E
330
1663
100
AcDbSymbolTableRecord
100
AcDbLinetypeTableRecord
  2
DIVIDE2
 70
     0
  3
Divide2 __..__..__..__..__..__..__..__.._
 72
    65
 73
     6
 40
0.625
 49
0.25
 74
     0
 49
-0.125
 74
     0
 49
0.0
 74
     0
 49
-0.125
 74
     0
 49
0.0
 74
     0
 49
-0.125
 74
     0
  0
LTYPE
  5
169F
330
1663
100
AcDbSymbolTableRecord
100
AcDbLinetypeTableRecord
  2
DIVIDEX2
 70
     0
  3
Dividex2 ________  .  .  ________  .  .  _
 72
    65
 73
     6
 40
2.5
 49
1.0
 74
     0
 49
-0.5
 74
     0
 49
0.0
 74
     0
 49
-0.5
 74
     0
 49
0.0
 74
     0
 49
-0.5
 74
     0
  0
LTYPE
  5
16A0
330
1663
100
AcDbSymbolTableRecord
100
AcDbLinetypeTableRecord
  2
DOT
 70
     0
  3
Dot . . . . . . . . . . . . . . . . . . . . . . . .
 72
    65
 73
     2
 40
0.25
 49
0.0
 74
     0
 49
-0.25
 74
     0
  0
LTYPE
  5
16A1
330
1663
100
AcDbSymbolTableRecord
100
AcDbLinetypeTableRecord
  2
DOT2
 70
     0
  3
Dot2 ........................................
 72
    65
 73
     2
 40
0.125
 49
0.0
 74
     0
 49
-0.125
 74
     0
  0
LTYPE
  5
16A2
330
1663
100
AcDbSymbolTableRecord
100
AcDbLinetypeTableRecord
  2
DOTX2
 70
     0
  3
Dotx2 .  .  .  .  .  .  .  .  .  .  .  .  .  .
 72
    65
 73
     2
 40
0.5
 49
0.0
 74
     0
 49
-0.5
 74
     0
  0
LTYPE
  5
16A3
330
1663
100
AcDbSymbolTableRecord
100
AcDbLinetypeTableRecord
  2
HIDDENX2
 70
     0
  3
Hiddenx2 ____ ____ ____ ____ ____ ____ ____ 
 72
    65
 73
     2
 40
0.75
 49
0.5
 74
     0
 49
-0.25
 74
     0
  0
LTYPE
  5
16A4
330
1663
100
AcDbSymbolTableRecord
100
AcDbLinetypeTableRecord
  2
PHANTOM
 70
     0
  3
Phantom ______  __  __  ______  __  __  ______ 
 72
    65
 73
     6
 40
2.5
 49
1.25
 74
     0
 49
-0.25
 74
     0
 49
0.25
 74
     0
 49
-0.25
 74
     0
 49
0.25
 74
     0
 49
-0.25
 74
     0
  0
LTYPE
  5
16A5
330
1663
100
AcDbSymbolTableRecord
100
AcDbLinetypeTableRecord
  2
PHANTOM2
 70
     0
  3
Phantom2 ___ _ _ ___ _ _ ___ _ _ ___ _ _
 72
    65
 73
     6
 40
1.25
 49
0.625
 74
     0
 49
-0.125
 74
     0
 49
0.125
 74
     0
 49
-0.125
 74
     0
 49
0.125
 74
     0
 49
-0.125
 74
     0
  0
LTYPE
  5
16A6
330
1663
100
AcDbSymbolTableRecord
100
AcDbLinetypeTableRecord
  2
PHANTOMX2
 70
     0
  3
Phantomx2 ____________    ____    ____   _
 72
    65
 73
     6
 40
5.0
 49
2.5
 74
     0
 49
-0.5
 74
     0
 49
0.5
 74
     0
 49
-0.5
 74
     0
 49
0.5
 74
     0
 49
-0.5
 74
     0
  0
ENDTAB
  0
TABLE
  2
LAYER
  5
1660
330
0
100
AcDbSymbolTable
 70
     6
  0
LAYER
  5
166E
330
1660
100
AcDbSymbolTableRecord
100
AcDbLayerTableRecord
  2
0
 70
     0
 62
     7
  6
CONTINUOUS
  0
LAYER
  5
2E
330
1660
100
AcDbSymbolTableRecord
100
AcDbLayerTableRecord
  2
DEFPOINTS
 70
     0
 62
     7
  6
CONTINUOUS
  0
LAYER
  5
4E
330
1660
100
AcDbSymbolTableRecord
100
AcDbLayerTableRecord
  2
V0-OBRYS
 70
     0
 62
    90
  6
CONTINUOUS
  0
LAYER
  5
24
330
1660
100
AcDbSymbolTableRecord
100
AcDbLayerTableRecord
  2
V0-VYPLNE
 70
     0
 62
    52
  6
CONTINUOUS
  0
LAYER
  5
91
330
1660
100
AcDbSymbolTableRecord
100
AcDbLayerTableRecord
  2
V0-NAZVY
 70
     0
 62
   210
  6
CONTINUOUS
  0
LAYER
  5
FE
330
1660
100
AcDbSymbolTableRecord
100
AcDbLayerTableRecord
  2
V0-ZBYTEK
 70
     0
 62
    51
  6
CONTINUOUS
  0
ENDTAB
  0
TABLE
  2
STYLE
  5
1661
330
0
100
AcDbSymbolTable
 70
     7
  0
STYLE
  5
166F
330
1661
100
AcDbSymbolTableRecord
100
AcDbTextStyleTableRecord
  2
STANDARD
 70
     0
 40
0.0
 41
1.0
 50
0.0
 71
     0
 42
0.2
  3
ISOCP.shx
  4

1001
ACAD
1000
ISOCP.shx
1071
        0
  0
STYLE
  5
2F3
330
1661
100
AcDbSymbolTableRecord
100
AcDbTextStyleTableRecord
  2
ED30
 70
     0
 40
30.0
 41
1.0
 50
0.0
 71
     0
 42
0.2
  3
ISOCP.shx
  4

1001
ACAD
1000
ISOCP.shx
1071
        0
  0
STYLE
  5
2F4
330
1661
100
AcDbSymbolTableRecord
100
AcDbTextStyleTableRecord
  2
ED20
 70
     0
 40
20.0
 41
1.0
 50
0.0
 71
     0
 42
0.2
  3
isocp.shx
  4

1001
ACAD
1000
isocp.shx
1071
        0
  0
STYLE
  5
2F5
330
1661
100
AcDbSymbolTableRecord
100
AcDbTextStyleTableRecord
  2
ED40
 70
     0
 40
40.0
 41
1.0
 50
0.0
 71
     0
 42
0.2
  3
isocp.shx
  4

1001
ACAD
1000
isocp.shx
1071
        0
  0
STYLE
  5
2F6
330
1661
100
AcDbSymbolTableRecord
100
AcDbTextStyleTableRecord
  2
ED10
 70
     0
 40
10.0
 41
1.0
 50
0.0
 71
     0
 42
0.2
  3
isocp.shx
  4

1001
ACAD
1000
isocp.shx
1071
        0
  0
STYLE
  5
2F7
330
1661
100
AcDbSymbolTableRecord
100
AcDbTextStyleTableRecord
  2
VD_RECOV_1_2F7_
 70
     0
 40
0.0
 41
1.0
 50
0.0
 71
     0
 42
0.2
  3
ltypeshp.shx
  4

1001
ACAD
1000
ltypeshp.shx
1071
        0
  0
STYLE
  5
415
330
1661
100
AcDbSymbolTableRecord
100
AcDbTextStyleTableRecord
  2
ED5
 70
     0
 40
10.0
 41
1.0
 50
0.0
 71
     0
 42
0.2
  3
ISOCP.shx
  4

1001
ACAD
1000
ISOCP.shx
1071
        0
  0
ENDTAB
  0
TABLE
  2
VIEW
  5
1664
330
0
100
AcDbSymbolTable
 70
     0
  0
ENDTAB
  0
TABLE
  2
UCS
  5
1665
330
0
100
AcDbSymbolTable
 70
     0
  0
ENDTAB
  0
TABLE
  2
APPID
  5
1667
330
0
100
AcDbSymbolTable
 70
     6
  0
APPID
  5
1670
330
1667
100
AcDbSymbolTableRecord
100
AcDbRegAppTableRecord
  2
ACAD
 70
     0
  0
APPID
  5
1688
330
1667
100
AcDbSymbolTableRecord
100
AcDbRegAppTableRecord
  2
VD_INVISIBLE_NOT_FOR_READ
 70
     0
  0
APPID
  5
1689
330
1667
100
AcDbSymbolTableRecord
100
AcDbRegAppTableRecord
  2
VD_TEMPHATCH
 70
     0
  0
APPID
  5
168A
330
1667
100
AcDbSymbolTableRecord
100
AcDbRegAppTableRecord
  2
VDEXTRAPARAM
 70
     0
  0
APPID
  5
168B
330
1667
100
AcDbSymbolTableRecord
100
AcDbRegAppTableRecord
  2
PE_URL
 70
     0
  0
APPID
  5
168C
330
1667
100
AcDbSymbolTableRecord
100
AcDbRegAppTableRecord
  2
VD_UNKNOWN
 70
     0
  0
ENDTAB
  0
TABLE
  2
DIMSTYLE
  5
1668
330
0
100
AcDbSymbolTable
 70
     6
  0
DIMSTYLE
105
1685
330
1668
100
AcDbSymbolTableRecord
100
AcDbDimStyleTableRecord
  2
STANDARD
 70
     0
  3

  4

  5
OPEN
  6

  7

 40
5.0
 41
3.5
 42
0.0625
 43
0.38
 44
0.18
 45
0.0
 46
0.0
 47
0.0
 48
0.0
140
3.5
141
0.09
142
0.0
143
25.4
144
1.0
145
0.0
146
1.0
147
0.625
 71
     0
 72
     0
 73
     0
 74
     0
 75
     0
 76
     0
 77
     1
 78
     0
170
     0
171
     2
172
     1
173
     0
174
     1
175
     0
176
     0
177
     0
178
     0
270
     2
271
     0
272
     4
273
     2
274
     2
340
166F
275
     0
280
     0
281
     0
282
     0
283
     1
284
     0
285
     0
286
     0
287
     3
288
     1
  0
DIMSTYLE
105
2F8
330
1668
100
AcDbSymbolTableRecord
100
AcDbDimStyleTableRecord
  2
ED30
 70
     0
  3

  4

  5
OPEN
  6

  7

 40
1.0
 41
25.0
 42
1.0
 43
0.38
 44
1.25
 45
0.0
 46
0.0
 47
0.0
 48
0.0
140
30.0
141
0.09
142
0.0
143
25.4
144
1.0
145
0.0
146
1.0
147
2.0
 71
     0
 72
     0
 73
     0
 74
     0
 75
     0
 76
     0
 77
     1
 78
     0
170
     0
171
     2
172
     1
173
     0
174
     1
175
     0
176
     0
177
     0
178
     0
270
     2
271
     0
272
     4
273
     2
274
     2
340
2F3
275
     0
280
     0
281
     0
282
     0
283
     1
284
     0
285
     0
286
     0
287
     3
288
     1
  0
DIMSTYLE
105
2F9
330
1668
100
AcDbSymbolTableRecord
100
AcDbDimStyleTableRecord
  2
ED40
 70
     0
  3

  4

  5
OPEN
  6

  7

 40
1.0
 41
35.0
 42
1.0
 43
0.38
 44
1.25
 45
0.0
 46
0.0
 47
0.0
 48
0.0
140
40.0
141
0.09
142
0.0
143
25.4
144
1.0
145
0.0
146
1.0
147
3.0
 71
     0
 72
     0
 73
     0
 74
     0
 75
     0
 76
     0
 77
     1
 78
     0
170
     0
171
     2
172
     1
173
     0
174
     1
175
     0
176
     0
177
     0
178
     0
270
     2
271
     0
272
     4
273
     2
274
     2
340
2F5
275
     0
280
     0
281
     0
282
     0
283
     1
284
     0
285
     0
286
     0
287
     3
288
     1
  0
DIMSTYLE
105
2FA
330
1668
100
AcDbSymbolTableRecord
100
AcDbDimStyleTableRecord
  2
ED20
 70
     0
  3

  4

  5
OPEN
  6

  7

 40
1.0
 41
20.0
 42
1.0
 43
0.38
 44
1.25
 45
0.0
 46
0.0
 47
0.0
 48
0.0
140
20.0
141
0.09
142
0.0
143
25.4
144
1.0
145
0.0
146
1.0
147
1.5
 71
     0
 72
     0
 73
     0
 74
     0
 75
     0
 76
     0
 77
     1
 78
     0
170
     0
171
     2
172
     1
173
     0
174
     1
175
     0
176
     0
177
     0
178
     0
270
     2
271
     0
272
     4
273
     2
274
     2
340
2F4
275
     0
280
     0
281
     0
282
     0
283
     1
284
     0
285
     0
286
     0
287
     3
288
     1
  0
DIMSTYLE
105
2FB
102
{ACAD_REACTORS
330
B07
330
B14
330
E13
330
F3F
330
F43
330
F6F
102
}
330
1668
100
AcDbSymbolTableRecord
100
AcDbDimStyleTableRecord
  2
ED10
 70
     0
  3

  4

  5
OPEN
  6

  7

 40
1.0
 41
15.0
 42
1.0
 43
0.38
 44
1.25
 45
0.0
 46
0.0
 47
0.0
 48
0.0
140
10.0
141
0.09
142
0.0
143
25.4
144
1.0
145
0.0
146
1.0
147
1.5
 71
     0
 72
     0
 73
     0
 74
     0
 75
     0
 76
     0
 77
     1
 78
     0
170
     0
171
     2
172
     1
173
     0
174
     1
175
     0
176
     0
177
     0
178
     0
270
     2
271
     0
272
     4
273
     2
274
     2
340
2F4
275
     0
280
     0
281
     0
282
     0
283
     1
284
     0
285
     0
286
     0
287
     3
288
     1
  0
DIMSTYLE
105
417
330
1668
100
AcDbSymbolTableRecord
100
AcDbDimStyleTableRecord
  2
ED5
 70
     0
  3

  4

  5
OPEN
  6

  7

 40
1.0
 41
12.0
 42
1.0
 43
0.38
 44
1.25
 45
0.0
 46
0.0
 47
0.0
 48
0.0
140
10.0
141
0.09
142
0.0
143
25.4
144
1.0
145
0.0
146
1.0
147
1.5
 71
     0
 72
     0
 73
     0
 74
     0
 75
     0
 76
     0
 77
     1
 78
     0
170
     0
171
     2
172
     1
173
     0
174
     1
175
     0
176
     0
177
     0
178
     0
270
     2
271
     0
272
     4
273
     2
274
     2
340
415
275
     0
280
     0
281
     0
282
     0
283
     1
284
     0
285
     0
286
     0
287
     3
288
     1
  0
ENDTAB
  0
TABLE
  2
BLOCK_RECORD
  5
165F
330
0
100
AcDbSymbolTable
 70
    11
  0
BLOCK_RECORD
  5
167D
330
165F
100
AcDbSymbolTableRecord
100
AcDbBlockTableRecord
  2
*MODEL_SPACE
  0
BLOCK_RECORD
  5
1679
330
165F
100
AcDbSymbolTableRecord
100
AcDbBlockTableRecord
  2
*PAPER_SPACE
  0
BLOCK_RECORD
  5
1D
330
165F
100
AcDbSymbolTableRecord
100
AcDbBlockTableRecord
  2
_OPEN
  0
BLOCK_RECORD
  5
213
330
165F
100
AcDbSymbolTableRecord
100
AcDbBlockTableRecord
  2
A20_350
  0
BLOCK_RECORD
  5
165B
330
165F
100
AcDbSymbolTableRecord
100
AcDbBlockTableRecord
  2
VDDIM_DEFAULT
  0
BLOCK_RECORD
  5
165D
330
165F
100
AcDbSymbolTableRecord
100
AcDbBlockTableRecord
  2
VDDIM_NONE
  0
BLOCK_RECORD
  5
16B0
330
165F
100
AcDbSymbolTableRecord
100
AcDbBlockTableRecord
  2
*D5
  0
BLOCK_RECORD
  5
16BD
330
165F
100
AcDbSymbolTableRecord
100
AcDbBlockTableRecord
  2
*D6
  0
BLOCK_RECORD
  5
16C9
330
165F
100
AcDbSymbolTableRecord
100
AcDbBlockTableRecord
  2
*D7
  0
BLOCK_RECORD
  5
16D4
330
165F
100
AcDbSymbolTableRecord
100
AcDbBlockTableRecord
  2
*D8
  0
BLOCK_RECORD
  5
16E2
330
165F
100
AcDbSymbolTableRecord
100
AcDbBlockTableRecord
  2
*D9
  0
BLOCK_RECORD
  5
16F0
330
165F
100
AcDbSymbolTableRecord
100
AcDbBlockTableRecord
  2
*D10
  0
ENDTAB
  0
ENDSEC
  0
SECTION
  2
BLOCKS
  0
BLOCK
  5
167E
330
167D
100
AcDbEntity
  8
0
100
AcDbBlockBegin
  2
*MODEL_SPACE
 70
     0
 71
     0
 10
0.0
 20
0.0
 30
0.0
  3
*MODEL_SPACE
  1

  0
ENDBLK
  5
167F
330
167D
100
AcDbEntity
  8
0
100
AcDbBlockEnd
  0
BLOCK
  5
167A
330
1679
100
AcDbEntity
 67
     1
  8
0
100
AcDbBlockBegin
  2
*PAPER_SPACE
 70
     0
 71
     0
 10
0.0
 20
0.0
 30
0.0
  3
*PAPER_SPACE
  1

  0
ENDBLK
  5
167B
330
1679
100
AcDbEntity
 67
     1
  8
0
100
AcDbBlockEnd
  0
BLOCK
  5
16A7
330
1D
100
AcDbEntity
  8
0
100
AcDbBlockBegin
  2
_OPEN
 70
     0
 71
     0
 10
0.0
 20
0.0
 30
0.0
  3
_OPEN
  1

  0
LINE
  5
1E
330
1D
100
AcDbEntity
  8
0
  6
BYBLOCK
 62
     0
100
AcDbLine
 10
-1.0
 20
0.166667
 30
0.0
 11
0.0
 21
0.0
 31
0.0
  0
LINE
  5
1F
330
1D
100
AcDbEntity
  8
0
  6
BYBLOCK
 62
     0
100
AcDbLine
 10
0.0
 20
0.0
 30
0.0
 11
-1.0
 21
-0.166667
 31
0.0
  0
LINE
  5
20
330
1D
100
AcDbEntity
  8
0
  6
BYBLOCK
 62
     0
100
AcDbLine
 10
0.0
 20
0.0
 30
0.0
 11
-1.0
 21
0.0
 31
0.0
  0
ENDBLK
  5
16A8
330
1D
100
AcDbEntity
  8
0
100
AcDbBlockEnd
  0
BLOCK
  5
16A9
330
213
100
AcDbEntity
  8
0
100
AcDbBlockBegin
  2
A20_350
 70
     0
 71
     0
 10
0.0
 20
0.0
 30
0.0
  3
A20_350
  1

  0
ENDBLK
  5
16AA
330
213
100
AcDbEntity
  8
0
100
AcDbBlockEnd
  0
BLOCK
  5
16AB
330
165B
100
AcDbEntity
  8
0
100
AcDbBlockBegin
  2
VDDIM_DEFAULT
 70
     0
 71
     0
 10
0.0
 20
0.0
 30
0.0
  3
VDDIM_DEFAULT
  1

  0
LWPOLYLINE
  5
165C
330
165B
100
AcDbEntity
  8
0
  6
CONTINUOUS
 62
     0
100
AcDbPolyline
 90
        4
 70
     0
 43
0.0
 10
0.0
 20
0.0
 10
-1.0
 20
-0.1665
 10
-1.0
 20
0.1665
 10
0.0
 20
0.0
1001
VDEXTRAPARAM
1071
        1
1071
        0
1071
        0
1040
1.0
1000

1000

1040
0.0
1040
0.0
  0
HATCH
  5
16AF
330
165B
100
AcDbEntity
  8
0
  6
CONTINUOUS
 62
     0
100
AcDbHatch
 10
0.0
 20
0.0
 30
0.0
210
0.0
220
0.0
230
1.0
  2
SOLID
 70
     1
 71
     0
 91
        1
 92
        2
 72
     0
 73
     1
 93
        3
 10
0.0
 20
0.0
 10
-1.0
 20
-0.1665
 10
-1.0
 20
0.1665
 97
        0
 75
     0
 76
     1
 98
        1
 10
0.0
 20
0.0
1001
VDEXTRAPARAM
1071
        1
1071
        0
1071
        0
1040
1.0
1000

1000

1040
0.0
1040
0.0
1001
VD_TEMPHATCH
1000
VD_TEMPHATCH
  0
ENDBLK
  5
16AC
330
165B
100
AcDbEntity
  8
0
100
AcDbBlockEnd
  0
BLOCK
  5
16AD
330
165D
100
AcDbEntity
  8
0
100
AcDbBlockBegin
  2
VDDIM_NONE
 70
     0
 71
     0
 10
0.0
 20
0.0
 30
0.0
  3
VDDIM_NONE
  1

  0
ENDBLK
  5
16AE
330
165D
100
AcDbEntity
  8
0
100
AcDbBlockEnd
  0
BLOCK
  5
16BB
330
16B0
100
AcDbEntity
  8
0
100
AcDbBlockBegin
  2
*D5
 70
     1
 71
     0
 10
0.0
 20
0.0
 30
0.0
  3
*D5
  1

  0
LINE
  5
16B1
330
16B0
100
AcDbEntity
  8
V0-VYPLNE
 62
     0
100
AcDbLine
 10
430.847031
 20
-26.450707
 30
0.0
 11
430.8470310000001
 21
-86.8643940000038
 31
0.0
  0
LINE
  5
16B2
330
16B0
100
AcDbEntity
  8
V0-VYPLNE
 62
     0
100
AcDbLine
 10
731.288602
 20
-26.450707
 30
0.0
 11
731.288602
 21
-86.86439400000381
 31
0.0
  0
LINE
  5
16B3
330
16B0
100
AcDbEntity
  8
V0-VYPLNE
 62
     0
100
AcDbLine
 10
445.8470310000001
 20
-85.6143940000038
 30
0.0
 11
566.7106731428571
 21
-85.6143940000038
 31
0.0
  0
LINE
  5
16B4
330
16B0
100
AcDbEntity
  8
V0-VYPLNE
 62
     0
100
AcDbLine
 10
716.288602
 20
-85.61439400000381
 30
0.0
 11
595.4249588571429
 21
-85.6143940000038
 31
0.0
  0
INSERT
  5
16B5
330
16B0
100
AcDbEntity
  8
V0-VYPLNE
 62
     0
100
AcDbBlockReference
  2
_OPEN
 10
430.8470310000001
 20
-85.6143940000038
 30
0.0
 41
15.0
 42
15.0
 43
15.0
 50
180.0
  0
INSERT
  5
16B6
330
16B0
100
AcDbEntity
  8
V0-VYPLNE
 62
     0
100
AcDbBlockReference
  2
_OPEN
 10
731.288602
 20
-85.61439400000381
 30
0.0
 41
15.0
 42
15.0
 43
15.0
  0
MTEXT
  5
16B7
330
16B0
100
AcDbEntity
  8
V0-VYPLNE
 62
     0
100
AcDbMText
 10
581.067816
 20
-85.614394
 30
0.0
 40
10.0
 41
0.0
 71
     5
 72
     1
  1
\A1;300
  7
ED20
  0
POINT
  5
16B8
330
16B0
100
AcDbEntity
  8
DEFPOINTS
 62
     0
100
AcDbPoint
 10
430.847031
 20
-25.450707
 30
0.0
  0
POINT
  5
16B9
330
16B0
100
AcDbEntity
  8
DEFPOINTS
 62
     0
100
AcDbPoint
 10
731.288602
 20
-25.450707
 30
0.0
  0
POINT
  5
16BA
330
16B0
100
AcDbEntity
  8
DEFPOINTS
 62
     0
100
AcDbPoint
 10
731.288602
 20
-85.61439400000381
 30
0.0
  0
ENDBLK
  5
16BC
330
16B0
100
AcDbEntity
  8
0
100
AcDbBlockEnd
  0
BLOCK
  5
16C7
330
16BD
100
AcDbEntity
  8
0
100
AcDbBlockBegin
  2
*D6
 70
     1
 71
     0
 10
0.0
 20
0.0
 30
0.0
  3
*D6
  1

  0
LINE
  5
16BE
330
16BD
100
AcDbEntity
  8
V0-VYPLNE
 62
     0
100
AcDbLine
 10
449.191031
 20
279.946863
 30
0.0
 11
394.002328999999
 21
279.9468630000001
 31
0.0
  0
LINE
  5
16BF
330
16BD
100
AcDbEntity
  8
V0-VYPLNE
 62
     0
100
AcDbLine
 10
449.191031
 20
-44.794707
 30
0.0
 11
394.002328999999
 21
-44.794707
 31
0.0
  0
LINE
  5
16C0
330
16BD
100
AcDbEntity
  8
V0-VYPLNE
 62
     0
100
AcDbLine
 10
395.252328999999
 20
264.9468630000001
 30
0.0
 11
395.252328999999
 21
-29.79470700000007
 31
0.0
  0
INSERT
  5
16C1
330
16BD
100
AcDbEntity
  8
V0-VYPLNE
 62
     0
100
AcDbBlockReference
  2
_OPEN
 10
395.252328999999
 20
279.9468630000001
 30
0.0
 41
15.0
 42
15.0
 43
15.0
 50
90.0
  0
INSERT
  5
16C2
330
16BD
100
AcDbEntity
  8
V0-VYPLNE
 62
     0
100
AcDbBlockReference
  2
_OPEN
 10
395.252328999999
 20
-44.79470700000005
 30
0.0
 41
15.0
 42
15.0
 43
15.0
 50
270.0
  0
MTEXT
  5
16C3
330
16BD
100
AcDbEntity
  8
V0-VYPLNE
 62
     0
100
AcDbMText
 10
388.752328999999
 20
117.576078
 30
0.0
 40
10.0
 41
0.0
 71
     5
 72
     1
  1
\A1;325
  7
ED20
 11
0.0
 21
1.0
 31
0.0
  0
POINT
  5
16C4
330
16BD
100
AcDbEntity
  8
DEFPOINTS
 62
     0
100
AcDbPoint
 10
450.191031
 20
279.946863
 30
0.0
  0
POINT
  5
16C5
330
16BD
100
AcDbEntity
  8
DEFPOINTS
 62
     0
100
AcDbPoint
 10
450.191031
 20
-44.794707
 30
0.0
  0
POINT
  5
16C6
330
16BD
100
AcDbEntity
  8
DEFPOINTS
 62
     0
100
AcDbPoint
 10
395.252328999999
 20
-44.794707
 30
0.0
  0
ENDBLK
  5
16C8
330
16BD
100
AcDbEntity
  8
0
100
AcDbBlockEnd
  0
BLOCK
  5
16D2
330
16C9
100
AcDbEntity
  8
0
100
AcDbBlockBegin
  2
*D7
 70
     1
 71
     0
 10
0.0
 20
0.0
 30
0.0
  3
*D7
  1

  0
LINE
  5
16CA
330
16C9
100
AcDbEntity
  8
V0-VYPLNE
 62
     0
100
AcDbLine
 10
747.6298089513953
 20
149.675846086077
 30
0.0
 11
723.4478623038947
 21
145.0155099223451
 31
0.0
  0
LINE
  5
16CB
330
16C9
100
AcDbEntity
  8
V0-VYPLNE
 62
     0
100
AcDbLine
 10
438.6877696961053
 20
90.13664607765495
 30
0.0
 11
423.9587993922106
 21
87.29808415530989
 31
0.0
  0
MTEXT
  5
16CC
330
16C9
100
AcDbEntity
  8
V0-VYPLNE
 62
     0
100
AcDbMText
 10
766.169608
 20
153.24883
 30
0.0
 40
10.0
 41
0.0
 71
     5
 72
     1
  1
\A1;\U+2205260
  7
ED20
 11
0.9819313535929819
 21
0.1892374614896704
 31
0.0
  0
INSERT
  5
16CD
330
16C9
100
AcDbEntity
  8
V0-VYPLNE
 62
     0
100
AcDbBlockReference
  2
_OPEN
 10
708.718892
 20
142.176948
 30
0.0
 41
15.0
 42
15.0
 43
15.0
 50
190.9082866763019
  0
INSERT
  5
16CE
330
16C9
100
AcDbEntity
  8
V0-VYPLNE
 62
     0
100
AcDbBlockReference
  2
_OPEN
 10
453.41674
 20
92.975208
 30
0.0
 41
15.0
 42
15.0
 43
15.0
 50
10.90828667630191
  0
LINE
  5
16CF
330
16C9
100
AcDbEntity
  8
V0-VYPLNE
 62
     0
100
AcDbLine
 10
453.41674
 20
92.975208
 30
0.0
 11
708.718892
 21
142.176948
 31
0.0
  0
POINT
  5
16D0
330
16C9
100
AcDbEntity
  8
DEFPOINTS
 62
     0
100
AcDbPoint
 10
708.718892
 20
142.176948
 30
0.0
  0
POINT
  5
16D1
330
16C9
100
AcDbEntity
  8
DEFPOINTS
 62
     0
100
AcDbPoint
 10
453.41674
 20
92.975208
 30
0.0
  0
ENDBLK
  5
16D3
330
16C9
100
AcDbEntity
  8
0
100
AcDbBlockEnd
  0
BLOCK
  5
16E0
330
16D4
100
AcDbEntity
  8
0
100
AcDbBlockBegin
  2
*D8
 70
     1
 71
     0
 10
0.0
 20
0.0
 30
0.0
  3
*D8
  1

  0
LINE
  5
16D5
330
16D4
100
AcDbEntity
  8
V0-VYPLNE
 62
     0
100
AcDbLine
 10
254.092445
 20
-45.832184
 30
0.0
 11
254.092445
 21
-125.9411220000002
 31
0.0
  0
LINE
  5
16D6
330
16D4
100
AcDbEntity
  8
V0-VYPLNE
 62
     0
100
AcDbLine
 10
251.492445
 20
-45.832184
 30
0.0
 11
251.492445
 21
-125.9411220000002
 31
0.0
  0
LINE
  5
16D7
330
16D4
100
AcDbEntity
  8
V0-VYPLNE
 62
     0
100
AcDbLine
 10
236.492445
 20
-124.6911220000002
 30
0.0
 11
221.492445
 21
-124.6911220000002
 31
0.0
  0
LINE
  5
16D8
330
16D4
100
AcDbEntity
  8
V0-VYPLNE
 62
     0
100
AcDbLine
 10
269.092445
 20
-124.6911220000002
 30
0.0
 11
374.5094944285714
 21
-124.6911220000002
 31
0.0
  0
LINE
  5
16D9
330
16D4
100
AcDbEntity
  8
V0-VYPLNE
 62
     0
100
AcDbLine
 10
254.092445
 20
-124.6911220000002
 30
0.0
 11
251.492445
 21
-124.6911220000002
 31
0.0
  0
INSERT
  5
16DA
330
16D4
100
AcDbEntity
  8
V0-VYPLNE
 62
     0
100
AcDbBlockReference
  2
_OPEN
 10
254.092445
 20
-124.6911220000002
 30
0.0
 41
15.0
 42
15.0
 43
15.0
 50
180.0
  0
INSERT
  5
16DB
330
16D4
100
AcDbEntity
  8
V0-VYPLNE
 62
     0
100
AcDbBlockReference
  2
_OPEN
 10
251.492445
 20
-124.6911220000002
 30
0.0
 41
15.0
 42
15.0
 43
15.0
  0
MTEXT
  5
16DC
330
16D4
100
AcDbEntity
  8
V0-VYPLNE
 62
     0
100
AcDbMText
 10
341.580923
 20
-124.691122
 30
0.0
 40
10.0
 41
0.0
 71
     5
 72
     1
  1
3 az 25
  7
ED20
  0
POINT
  5
16DD
330
16D4
100
AcDbEntity
  8
DEFPOINTS
 62
     0
100
AcDbPoint
 10
254.092445
 20
-44.832184
 30
0.0
  0
POINT
  5
16DE
330
16D4
100
AcDbEntity
  8
DEFPOINTS
 62
     0
100
AcDbPoint
 10
251.492445
 20
-44.832184
 30
0.0
  0
POINT
  5
16DF
330
16D4
100
AcDbEntity
  8
DEFPOINTS
 62
     0
100
AcDbPoint
 10
251.492445
 20
-124.6911220000002
 30
0.0
  0
ENDBLK
  5
16E1
330
16D4
100
AcDbEntity
  8
0
100
AcDbBlockEnd
  0
BLOCK
  5
16EE
330
16E2
100
AcDbEntity
  8
0
100
AcDbBlockBegin
  2
*D9
 70
     1
 71
     0
 10
0.0
 20
0.0
 30
0.0
  3
*D9
  1

  0
LINE
  5
16E3
330
16E2
100
AcDbEntity
  8
V0-VYPLNE
 62
     0
100
AcDbLine
 10
276.396549
 20
-9.740981
 30
0.0
 11
276.396549
 21
-85.64112200000128
 31
0.0
  0
LINE
  5
16E4
330
16E2
100
AcDbEntity
  8
V0-VYPLNE
 62
     0
100
AcDbLine
 10
254.092445
 20
-45.832184
 30
0.0
 11
254.092445
 21
-85.64112200000128
 31
0.0
  0
LINE
  5
16E5
330
16E2
100
AcDbEntity
  8
V0-VYPLNE
 62
     0
100
AcDbLine
 10
239.092445
 20
-84.39112200000128
 30
0.0
 11
224.092445
 21
-84.39112200000128
 31
0.0
  0
LINE
  5
16E6
330
16E2
100
AcDbEntity
  8
V0-VYPLNE
 62
     0
100
AcDbLine
 10
291.396549
 20
-84.39112200000128
 30
0.0
 11
342.3526730952381
 21
-84.39112200000128
 31
0.0
  0
LINE
  5
16E7
330
16E2
100
AcDbEntity
  8
V0-VYPLNE
 62
     0
100
AcDbLine
 10
276.396549
 20
-84.39112200000128
 30
0.0
 11
254.092445
 21
-84.39112200000128
 31
0.0
  0
INSERT
  5
16E8
330
16E2
100
AcDbEntity
  8
V0-VYPLNE
 62
     0
100
AcDbBlockReference
  2
_OPEN
 10
276.396549
 20
-84.39112200000128
 30
0.0
 41
15.0
 42
15.0
 43
15.0
 50
180.0
  0
INSERT
  5
16E9
330
16E2
100
AcDbEntity
  8
V0-VYPLNE
 62
     0
100
AcDbBlockReference
  2
_OPEN
 10
254.092445
 20
-84.39112200000128
 30
0.0
 41
15.0
 42
15.0
 43
15.0
  0
MTEXT
  5
16EA
330
16E2
100
AcDbEntity
  8
V0-VYPLNE
 62
     0
100
AcDbMText
 10
332.757435
 20
-84.391122
 30
0.0
 40
10.0
 41
0.0
 71
     5
 72
     1
  1
\A1;22
  7
ED20
  0
POINT
  5
16EB
330
16E2
100
AcDbEntity
  8
DEFPOINTS
 62
     0
100
AcDbPoint
 10
276.396549
 20
-8.740981
 30
0.0
  0
POINT
  5
16EC
330
16E2
100
AcDbEntity
  8
DEFPOINTS
 62
     0
100
AcDbPoint
 10
254.092445
 20
-44.832184
 30
0.0
  0
POINT
  5
16ED
330
16E2
100
AcDbEntity
  8
DEFPOINTS
 62
     0
100
AcDbPoint
 10
254.092445
 20
-84.39112200000128
 30
0.0
  0
ENDBLK
  5
16EF
330
16E2
100
AcDbEntity
  8
0
100
AcDbBlockEnd
  0
BLOCK
  5
16FB
330
16F0
100
AcDbEntity
  8
0
100
AcDbBlockBegin
  2
*D10
 70
     1
 71
     0
 10
0.0
 20
0.0
 30
0.0
  3
*D10
  1

  0
LINE
  5
16F1
330
16F0
100
AcDbEntity
  8
V0-VYPLNE
 62
     0
100
AcDbLine
 10
251.492445
 20
-47.132184
 30
0.0
 11
251.492445
 21
-167.7135850000013
 31
0.0
  0
LINE
  5
16F2
330
16F0
100
AcDbEntity
  8
V0-VYPLNE
 62
     0
100
AcDbLine
 10
109.971631
 20
-45.832184
 30
0.0
 11
109.971631
 21
-167.7135850000013
 31
0.0
  0
LINE
  5
16F3
330
16F0
100
AcDbEntity
  8
V0-VYPLNE
 62
     0
100
AcDbLine
 10
236.492445
 20
-166.4635850000013
 30
0.0
 11
201.1532201428572
 21
-166.4635850000013
 31
0.0
  0
LINE
  5
16F4
330
16F0
100
AcDbEntity
  8
V0-VYPLNE
 62
     0
100
AcDbLine
 10
124.971631
 20
-166.4635850000013
 30
0.0
 11
173.8675058571429
 21
-166.4635850000013
 31
0.0
  0
INSERT
  5
16F5
330
16F0
100
AcDbEntity
  8
V0-VYPLNE
 62
     0
100
AcDbBlockReference
  2
_OPEN
 10
251.492445
 20
-166.4635850000013
 30
0.0
 41
15.0
 42
15.0
 43
15.0
  0
INSERT
  5
16F6
330
16F0
100
AcDbEntity
  8
V0-VYPLNE
 62
     0
100
AcDbBlockReference
  2
_OPEN
 10
109.971631
 20
-166.4635850000013
 30
0.0
 41
15.0
 42
15.0
 43
15.0
 50
180.0
  0
MTEXT
  5
16F7
330
16F0
100
AcDbEntity
  8
V0-VYPLNE
 62
     0
100
AcDbMText
 10
187.510363
 20
-166.463585
 30
0.0
 40
10.0
 41
0.0
 71
     5
 72
     1
  1
\A1;142
  7
ED20
  0
POINT
  5
16F8
330
16F0
100
AcDbEntity
  8
DEFPOINTS
 62
     0
100
AcDbPoint
 10
251.492445
 20
-46.132184
 30
0.0
  0
POINT
  5
16F9
330
16F0
100
AcDbEntity
  8
DEFPOINTS
 62
     0
100
AcDbPoint
 10
109.971631
 20
-44.832184
 30
0.0
  0
POINT
  5
16FA
330
16F0
100
AcDbEntity
  8
DEFPOINTS
 62
     0
100
AcDbPoint
 10
109.971631
 20
-166.4635850000013
 30
0.0
  0
ENDBLK
  5
16FC
330
16F0
100
AcDbEntity
  8
0
100
AcDbBlockEnd
  0
ENDSEC
  0
SECTION
  2
ENTITIES
  0
LINE
  5
1C0
330
167D
100
AcDbEntity
  8
V0-OBRYS
  6
CONTINUOUS
 62
    90
100
AcDbLine
 10
459.341519
 20
202.180554
 30
0.0
 11
702.794114
 21
202.180554
 31
0.0
  0
LINE
  5
1C1
330
167D
100
AcDbEntity
  8
V0-OBRYS
  6
CONTINUOUS
 62
    90
100
AcDbLine
 10
514.034236
 20
190.0942
 30
0.0
 11
514.163857
 21
190.0942
 31
0.0
  0
LINE
  5
1C2
330
167D
100
AcDbEntity
  8
V0-OBRYS
  6
CONTINUOUS
 62
    90
100
AcDbLine
 10
459.341519
 20
178.007846
 30
0.0
 11
702.794114
 21
178.007846
 31
0.0
  0
LINE
  5
1C3
330
167D
100
AcDbEntity
  8
V0-OBRYS
  6
CONTINUOUS
 62
    90
100
AcDbLine
 10
459.341519
 20
165.921493
 30
0.0
 11
702.794114
 21
165.921493
 31
0.0
  0
LINE
  5
1C9
330
167D
100
AcDbEntity
  8
V0-OBRYS
  6
CONTINUOUS
 62
    90
100
AcDbLine
 10
459.341519
 20
190.0942
 30
0.0
 11
702.794114
 21
190.0942
 31
0.0
  0
LINE
  5
1D4
330
167D
100
AcDbEntity
  8
V0-OBRYS
  6
CONTINUOUS
 62
    90
100
AcDbLine
 10
459.341519
 20
45.057956
 30
0.0
 11
702.794114
 21
45.057956
 31
0.0
  0
LINE
  5
1D5
330
167D
100
AcDbEntity
  8
V0-OBRYS
  6
CONTINUOUS
 62
    90
100
AcDbLine
 10
459.341519
 20
69.23066300000001
 30
0.0
 11
702.794114
 21
69.23066300000001
 31
0.0
  0
LINE
  5
1D7
330
167D
100
AcDbEntity
  8
V0-OBRYS
  6
CONTINUOUS
 62
    90
100
AcDbLine
 10
459.341519
 20
57.14431
 30
0.0
 11
702.794114
 21
57.14431
 31
0.0
  0
LINE
  5
1DA
330
167D
100
AcDbEntity
  8
V0-OBRYS
  6
CONTINUOUS
 62
    90
100
AcDbLine
 10
459.341519
 20
32.971602
 30
0.0
 11
702.794114
 21
32.971602
 31
0.0
  0
POINT
  5
59D
330
167D
100
AcDbEntity
  8
V0-VYPLNE
  6
CONTINUOUS
 62
    52
100
AcDbPoint
 10
581.067816
 20
117.576078
 30
0.0
  0
LINE
  5
6FB
330
167D
100
AcDbEntity
  8
V0-OBRYS
  6
CONTINUOUS
 62
    90
100
AcDbLine
 10
579.133416
 20
279.946863
 30
0.0
 11
450.191031
 21
279.946863
 31
0.0
  0
LINE
  5
6FC
330
167D
100
AcDbEntity
  8
V0-OBRYS
  6
CONTINUOUS
 62
    90
100
AcDbLine
 10
430.847031
 20
117.576078
 30
0.0
 11
430.847031
 21
260.602863
 31
0.0
  0
LINE
  5
6FD
330
167D
100
AcDbEntity
  8
V0-OBRYS
  6
CONTINUOUS
 62
    90
100
AcDbLine
 10
581.067816
 20
-44.794707
 30
0.0
 11
450.191031
 21
-44.794707
 31
0.0
  0
LINE
  5
6FE
330
167D
100
AcDbEntity
  8
V0-OBRYS
  6
CONTINUOUS
 62
    90
100
AcDbLine
 10
430.847031
 20
115.641678
 30
0.0
 11
430.847031
 21
-25.45070700000001
 31
0.0
  0
LINE
  5
6FF
330
167D
100
AcDbEntity
  8
V0-OBRYS
  6
CONTINUOUS
 62
    90
100
AcDbLine
 10
731.288602
 20
117.576078
 30
0.0
 11
731.288602
 21
-25.45070699999999
 31
0.0
  0
LINE
  5
700
330
167D
100
AcDbEntity
  8
V0-OBRYS
  6
CONTINUOUS
 62
    90
100
AcDbLine
 10
583.002216
 20
-44.794707
 30
0.0
 11
711.944602
 21
-44.794707
 31
0.0
  0
LINE
  5
701
330
167D
100
AcDbEntity
  8
V0-OBRYS
  6
CONTINUOUS
 62
    90
100
AcDbLine
 10
581.067816
 20
279.946863
 30
0.0
 11
711.944602
 21
279.946863
 31
0.0
  0
LINE
  5
702
330
167D
100
AcDbEntity
  8
V0-OBRYS
  6
CONTINUOUS
 62
    90
100
AcDbLine
 10
731.288602
 20
119.510478
 30
0.0
 11
731.288602
 21
260.602863
 31
0.0
  0
ARC
  5
703
330
167D
100
AcDbEntity
  8
V0-OBRYS
  6
CONTINUOUS
 62
    90
100
AcDbCircle
 10
450.191031
 20
260.602863
 30
0.0
 40
19.344
100
AcDbArc
 50
90.0
 51
180.0
  0
ARC
  5
704
330
167D
100
AcDbEntity
  8
V0-OBRYS
  6
CONTINUOUS
 62
    90
100
AcDbCircle
 10
450.191031
 20
-25.450707
 30
0.0
 40
19.344
100
AcDbArc
 50
180.0
 51
270.0
  0
ARC
  5
705
330
167D
100
AcDbEntity
  8
V0-OBRYS
  6
CONTINUOUS
 62
    90
100
AcDbCircle
 10
711.944602
 20
-25.450707
 30
0.0
 40
19.344
100
AcDbArc
 50
270.0
 51
0.0
  0
ARC
  5
706
330
167D
100
AcDbEntity
  8
V0-OBRYS
  6
CONTINUOUS
 62
    90
100
AcDbCircle
 10
711.944602
 20
260.602863
 30
0.0
 40
19.344
100
AcDbArc
 50
360.0
 51
90.0
  0
LINE
  5
710
330
167D
100
AcDbEntity
  8
V0-OBRYS
  6
CONTINUOUS
 62
    90
100
AcDbLine
 10
486.478516
 20
118.393018
 30
0.0
 11
486.478516
 21
127.728032
 31
0.0
  0
LINE
  5
711
330
167D
100
AcDbEntity
  8
V0-OBRYS
  6
CONTINUOUS
 62
    90
100
AcDbLine
 10
486.478516
 20
116.458618
 30
0.0
 11
486.478516
 21
107.424124
 31
0.0
  0
LINE
  5
718
330
167D
100
AcDbEntity
  8
V0-OBRYS
  6
CONTINUOUS
 62
    90
100
AcDbLine
 10
459.341519
 20
200.246154
 30
0.0
 11
702.794114
 21
200.246154
 31
0.0
  0
LINE
  5
719
330
167D
100
AcDbEntity
  8
V0-OBRYS
  6
CONTINUOUS
 62
    90
100
AcDbLine
 10
459.341519
 20
188.1598
 30
0.0
 11
702.794114
 21
188.1598
 31
0.0
  0
LINE
  5
71A
330
167D
100
AcDbEntity
  8
V0-OBRYS
  6
CONTINUOUS
 62
    90
100
AcDbLine
 10
459.341519
 20
176.073446
 30
0.0
 11
702.794114
 21
176.073446
 31
0.0
  0
LINE
  5
71C
330
167D
100
AcDbEntity
  8
V0-OBRYS
  6
CONTINUOUS
 62
    90
100
AcDbLine
 10
459.341519
 20
163.987093
 30
0.0
 11
702.794114
 21
163.987093
 31
0.0
  0
LINE
  5
725
330
167D
100
AcDbEntity
  8
V0-OBRYS
  6
CONTINUOUS
 62
    90
100
AcDbLine
 10
459.341519
 20
71.165063
 30
0.0
 11
702.794114
 21
71.165063
 31
0.0
  0
LINE
  5
726
330
167D
100
AcDbEntity
  8
V0-OBRYS
  6
CONTINUOUS
 62
    90
100
AcDbLine
 10
459.341519
 20
59.07871
 30
0.0
 11
702.794114
 21
59.07871
 31
0.0
  0
LINE
  5
727
330
167D
100
AcDbEntity
  8
V0-OBRYS
  6
CONTINUOUS
 62
    90
100
AcDbLine
 10
459.341519
 20
46.992356
 30
0.0
 11
702.794114
 21
46.992356
 31
0.0
  0
LINE
  5
728
330
167D
100
AcDbEntity
  8
V0-OBRYS
  6
CONTINUOUS
 62
    90
100
AcDbLine
 10
459.341519
 20
34.906002
 30
0.0
 11
702.794114
 21
34.906002
 31
0.0
  0
LINE
  5
72D
330
167D
100
AcDbEntity
  8
V0-OBRYS
  6
CONTINUOUS
 62
    90
100
AcDbLine
 10
459.341519
 20
202.180554
 30
0.0
 11
459.341519
 21
200.246154
 31
0.0
  0
LINE
  5
72E
330
167D
100
AcDbEntity
  8
V0-OBRYS
  6
CONTINUOUS
 62
    90
100
AcDbLine
 10
459.341519
 20
190.0942
 30
0.0
 11
459.341519
 21
188.1598
 31
0.0
  0
LINE
  5
72F
330
167D
100
AcDbEntity
  8
V0-OBRYS
  6
CONTINUOUS
 62
    90
100
AcDbLine
 10
459.341519
 20
178.007846
 30
0.0
 11
459.341519
 21
176.073446
 31
0.0
  0
LINE
  5
730
330
167D
100
AcDbEntity
  8
V0-OBRYS
  6
CONTINUOUS
 62
    90
100
AcDbLine
 10
459.341519
 20
165.921493
 30
0.0
 11
459.341519
 21
163.987093
 31
0.0
  0
LINE
  5
73B
330
167D
100
AcDbEntity
  8
V0-OBRYS
  6
CONTINUOUS
 62
    90
100
AcDbLine
 10
459.341519
 20
71.165063
 30
0.0
 11
459.341519
 21
69.23066300000001
 31
0.0
  0
LINE
  5
73C
330
167D
100
AcDbEntity
  8
V0-OBRYS
  6
CONTINUOUS
 62
    90
100
AcDbLine
 10
459.341519
 20
59.07871
 30
0.0
 11
459.341519
 21
57.14431
 31
0.0
  0
LINE
  5
73D
330
167D
100
AcDbEntity
  8
V0-OBRYS
  6
CONTINUOUS
 62
    90
100
AcDbLine
 10
459.341519
 20
46.992356
 30
0.0
 11
459.341519
 21
45.057956
 31
0.0
  0
LINE
  5
73E
330
167D
100
AcDbEntity
  8
V0-OBRYS
  6
CONTINUOUS
 62
    90
100
AcDbLine
 10
459.341519
 20
34.906002
 30
0.0
 11
459.341519
 21
32.971602
 31
0.0
  0
LINE
  5
73F
330
167D
100
AcDbEntity
  8
V0-OBRYS
  6
CONTINUOUS
 62
    90
100
AcDbLine
 10
702.794114
 20
34.906002
 30
0.0
 11
702.794114
 21
32.971602
 31
0.0
  0
LINE
  5
740
330
167D
100
AcDbEntity
  8
V0-OBRYS
  6
CONTINUOUS
 62
    90
100
AcDbLine
 10
702.794114
 20
46.992356
 30
0.0
 11
702.794114
 21
45.057956
 31
0.0
  0
LINE
  5
741
330
167D
100
AcDbEntity
  8
V0-OBRYS
  6
CONTINUOUS
 62
    90
100
AcDbLine
 10
702.794114
 20
59.07871
 30
0.0
 11
702.794114
 21
57.14431
 31
0.0
  0
LINE
  5
742
330
167D
100
AcDbEntity
  8
V0-OBRYS
  6
CONTINUOUS
 62
    90
100
AcDbLine
 10
702.794114
 20
71.165063
 30
0.0
 11
702.794114
 21
69.23066300000001
 31
0.0
  0
LINE
  5
74D
330
167D
100
AcDbEntity
  8
V0-OBRYS
  6
CONTINUOUS
 62
    90
100
AcDbLine
 10
702.794114
 20
165.921493
 30
0.0
 11
702.794114
 21
163.987093
 31
0.0
  0
LINE
  5
74E
330
167D
100
AcDbEntity
  8
V0-OBRYS
  6
CONTINUOUS
 62
    90
100
AcDbLine
 10
702.794114
 20
178.007846
 30
0.0
 11
702.794114
 21
176.073446
 31
0.0
  0
LINE
  5
74F
330
167D
100
AcDbEntity
  8
V0-OBRYS
  6
CONTINUOUS
 62
    90
100
AcDbLine
 10
702.794114
 20
190.0942
 30
0.0
 11
702.794114
 21
188.1598
 31
0.0
  0
LINE
  5
750
330
167D
100
AcDbEntity
  8
V0-OBRYS
  6
CONTINUOUS
 62
    90
100
AcDbLine
 10
702.794114
 20
202.180554
 30
0.0
 11
702.794114
 21
200.246154
 31
0.0
  0
LINE
  5
9F0
330
167D
100
AcDbEntity
  8
V0-OBRYS
  6
CONTINUOUS
 62
    90
100
AcDbLine
 10
459.341519
 20
165.921493
 30
0.0
 11
702.794114
 21
165.921493
 31
0.0
  0
LINE
  5
9F1
330
167D
100
AcDbEntity
  8
V0-OBRYS
  6
CONTINUOUS
 62
    90
100
AcDbLine
 10
459.341519
 20
141.748785
 30
0.0
 11
702.794114
 21
141.748785
 31
0.0
  0
LINE
  5
9F2
330
167D
100
AcDbEntity
  8
V0-OBRYS
  6
CONTINUOUS
 62
    90
100
AcDbLine
 10
459.341519
 20
129.662432
 30
0.0
 11
702.794114
 21
129.662432
 31
0.0
  0
LINE
  5
9F3
330
167D
100
AcDbEntity
  8
V0-OBRYS
  6
CONTINUOUS
 62
    90
100
AcDbLine
 10
459.341519
 20
153.835139
 30
0.0
 11
702.794114
 21
153.835139
 31
0.0
  0
LINE
  5
9F4
330
167D
100
AcDbEntity
  8
V0-OBRYS
  6
CONTINUOUS
 62
    90
100
AcDbLine
 10
459.341519
 20
163.987093
 30
0.0
 11
702.794114
 21
163.987093
 31
0.0
  0
LINE
  5
9F5
330
167D
100
AcDbEntity
  8
V0-OBRYS
  6
CONTINUOUS
 62
    90
100
AcDbLine
 10
459.341519
 20
151.900739
 30
0.0
 11
702.794114
 21
151.900739
 31
0.0
  0
LINE
  5
9F6
330
167D
100
AcDbEntity
  8
V0-OBRYS
  6
CONTINUOUS
 62
    90
100
AcDbLine
 10
459.341519
 20
139.814385
 30
0.0
 11
702.794114
 21
139.814385
 31
0.0
  0
LINE
  5
9F7
330
167D
100
AcDbEntity
  8
V0-OBRYS
  6
CONTINUOUS
 62
    90
100
AcDbLine
 10
459.341519
 20
127.728032
 30
0.0
 11
702.794114
 21
127.728032
 31
0.0
  0
LINE
  5
9F8
330
167D
100
AcDbEntity
  8
V0-OBRYS
  6
CONTINUOUS
 62
    90
100
AcDbLine
 10
459.341519
 20
141.748785
 30
0.0
 11
459.341519
 21
139.814385
 31
0.0
  0
LINE
  5
9F9
330
167D
100
AcDbEntity
  8
V0-OBRYS
  6
CONTINUOUS
 62
    90
100
AcDbLine
 10
459.341519
 20
129.662432
 30
0.0
 11
459.341519
 21
127.728032
 31
0.0
  0
LINE
  5
9FA
330
167D
100
AcDbEntity
  8
V0-OBRYS
  6
CONTINUOUS
 62
    90
100
AcDbLine
 10
459.341519
 20
165.921493
 30
0.0
 11
459.341519
 21
163.987093
 31
0.0
  0
LINE
  5
9FB
330
167D
100
AcDbEntity
  8
V0-OBRYS
  6
CONTINUOUS
 62
    90
100
AcDbLine
 10
459.341519
 20
153.835139
 30
0.0
 11
459.341519
 21
151.900739
 31
0.0
  0
LINE
  5
A26
330
167D
100
AcDbEntity
  8
V0-OBRYS
  6
CONTINUOUS
 62
    90
100
AcDbLine
 10
459.341519
 20
81.31701700000001
 30
0.0
 11
702.794114
 21
81.31701700000001
 31
0.0
  0
LINE
  5
A27
330
167D
100
AcDbEntity
  8
V0-OBRYS
  6
CONTINUOUS
 62
    90
100
AcDbLine
 10
459.341519
 20
105.489724
 30
0.0
 11
702.794114
 21
105.489724
 31
0.0
  0
LINE
  5
A28
330
167D
100
AcDbEntity
  8
V0-OBRYS
  6
CONTINUOUS
 62
    90
100
AcDbLine
 10
459.341519
 20
93.40337100000001
 30
0.0
 11
702.794114
 21
93.40337100000001
 31
0.0
  0
LINE
  5
A29
330
167D
100
AcDbEntity
  8
V0-OBRYS
  6
CONTINUOUS
 62
    90
100
AcDbLine
 10
459.341519
 20
107.424124
 30
0.0
 11
702.794114
 21
107.424124
 31
0.0
  0
LINE
  5
A2A
330
167D
100
AcDbEntity
  8
V0-OBRYS
  6
CONTINUOUS
 62
    90
100
AcDbLine
 10
459.341519
 20
95.337771
 30
0.0
 11
702.794114
 21
95.337771
 31
0.0
  0
LINE
  5
A2B
330
167D
100
AcDbEntity
  8
V0-OBRYS
  6
CONTINUOUS
 62
    90
100
AcDbLine
 10
459.341519
 20
83.251417
 30
0.0
 11
702.794114
 21
83.251417
 31
0.0
  0
LINE
  5
A2C
330
167D
100
AcDbEntity
  8
V0-OBRYS
  6
CONTINUOUS
 62
    90
100
AcDbLine
 10
459.341519
 20
83.251417
 30
0.0
 11
459.341519
 21
81.31701700000001
 31
0.0
  0
LINE
  5
A2D
330
167D
100
AcDbEntity
  8
V0-OBRYS
  6
CONTINUOUS
 62
    90
100
AcDbLine
 10
459.341519
 20
107.424124
 30
0.0
 11
459.341519
 21
105.489724
 31
0.0
  0
LINE
  5
A2E
330
167D
100
AcDbEntity
  8
V0-OBRYS
  6
CONTINUOUS
 62
    90
100
AcDbLine
 10
459.341519
 20
95.337771
 30
0.0
 11
459.341519
 21
93.40337100000001
 31
0.0
  0
LINE
  5
A2F
330
167D
100
AcDbEntity
  8
V0-OBRYS
  6
CONTINUOUS
 62
    90
100
AcDbLine
 10
459.341519
 20
226.353261
 30
0.0
 11
702.794114
 21
226.353261
 31
0.0
  0
LINE
  5
A30
330
167D
100
AcDbEntity
  8
V0-OBRYS
  6
CONTINUOUS
 62
    90
100
AcDbLine
 10
459.341519
 20
202.180554
 30
0.0
 11
702.794114
 21
202.180554
 31
0.0
  0
LINE
  5
A31
330
167D
100
AcDbEntity
  8
V0-OBRYS
  6
CONTINUOUS
 62
    90
100
AcDbLine
 10
459.341519
 20
214.266907
 30
0.0
 11
702.794114
 21
214.266907
 31
0.0
  0
LINE
  5
A32
330
167D
100
AcDbEntity
  8
V0-OBRYS
  6
CONTINUOUS
 62
    90
100
AcDbLine
 10
459.341519
 20
224.418861
 30
0.0
 11
702.794114
 21
224.418861
 31
0.0
  0
LINE
  5
A33
330
167D
100
AcDbEntity
  8
V0-OBRYS
  6
CONTINUOUS
 62
    90
100
AcDbLine
 10
459.341519
 20
212.332507
 30
0.0
 11
702.794114
 21
212.332507
 31
0.0
  0
LINE
  5
A34
330
167D
100
AcDbEntity
  8
V0-OBRYS
  6
CONTINUOUS
 62
    90
100
AcDbLine
 10
459.341519
 20
200.246154
 30
0.0
 11
702.794114
 21
200.246154
 31
0.0
  0
LINE
  5
A35
330
167D
100
AcDbEntity
  8
V0-OBRYS
  6
CONTINUOUS
 62
    90
100
AcDbLine
 10
459.341519
 20
202.180554
 30
0.0
 11
459.341519
 21
200.246154
 31
0.0
  0
LINE
  5
A36
330
167D
100
AcDbEntity
  8
V0-OBRYS
  6
CONTINUOUS
 62
    90
100
AcDbLine
 10
459.341519
 20
226.353261
 30
0.0
 11
459.341519
 21
224.418861
 31
0.0
  0
LINE
  5
A37
330
167D
100
AcDbEntity
  8
V0-OBRYS
  6
CONTINUOUS
 62
    90
100
AcDbLine
 10
459.341519
 20
214.266907
 30
0.0
 11
459.341519
 21
212.332507
 31
0.0
  0
LINE
  5
A38
330
167D
100
AcDbEntity
  8
V0-OBRYS
  6
CONTINUOUS
 62
    90
100
AcDbLine
 10
459.341519
 20
20.885249
 30
0.0
 11
702.794114
 21
20.885249
 31
0.0
  0
LINE
  5
A39
330
167D
100
AcDbEntity
  8
V0-OBRYS
  6
CONTINUOUS
 62
    90
100
AcDbLine
 10
459.341519
 20
8.798895
 30
0.0
 11
702.794114
 21
8.798895
 31
0.0
  0
LINE
  5
A3A
330
167D
100
AcDbEntity
  8
V0-OBRYS
  6
CONTINUOUS
 62
    90
100
AcDbLine
 10
459.341519
 20
22.819649
 30
0.0
 11
702.794114
 21
22.819649
 31
0.0
  0
LINE
  5
A3B
330
167D
100
AcDbEntity
  8
V0-OBRYS
  6
CONTINUOUS
 62
    90
100
AcDbLine
 10
459.341519
 20
10.733295
 30
0.0
 11
702.794114
 21
10.733295
 31
0.0
  0
LINE
  5
A3C
330
167D
100
AcDbEntity
  8
V0-OBRYS
  6
CONTINUOUS
 62
    90
100
AcDbLine
 10
459.341519
 20
22.819649
 30
0.0
 11
459.341519
 21
20.885249
 31
0.0
  0
LINE
  5
A3D
330
167D
100
AcDbEntity
  8
V0-OBRYS
  6
CONTINUOUS
 62
    90
100
AcDbLine
 10
459.341519
 20
10.733295
 30
0.0
 11
459.341519
 21
8.798895
 31
0.0
  0
DIMENSION
  5
B07
330
167D
100
AcDbEntity
  8
V0-VYPLNE
  6
CONTINUOUS
 62
    41
100
AcDbDimension
  2
*D5
 10
731.288602
 20
-85.61439400000381
 30
0.0
 11
581.067816
 21
-85.614394
 31
0.0
 70
   160
  3
ED10
100
AcDbAlignedDimension
 13
430.847031
 23
-25.450707
 33
0.0
 14
731.288602
 24
-25.450707
 34
0.0
100
AcDbRotatedDimension
1001
ACAD
1000
DSTYLE
1002
{
1070
    40
1040
1.0
1002
}
  0
DIMENSION
  5
B14
330
167D
100
AcDbEntity
  8
V0-VYPLNE
  6
CONTINUOUS
 62
    41
100
AcDbDimension
  2
*D6
 10
395.252328999999
 20
-44.794707
 30
0.0
 11
388.752328999999
 21
117.576078
 31
0.0
 70
    32
  3
ED10
100
AcDbAlignedDimension
 13
450.191031
 23
279.946863
 33
0.0
 14
450.191031
 24
-44.794707
 34
0.0
 50
90.0
100
AcDbRotatedDimension
1001
ACAD
1000
DSTYLE
1002
{
1070
    40
1040
1.0
1002
}
  0
LINE
  5
D49
330
167D
100
AcDbEntity
  8
V0-OBRYS
  6
CONTINUOUS
 62
    90
100
AcDbLine
 10
702.794114
 20
153.835139
 30
0.0
 11
702.794114
 21
151.900739
 31
0.0
  0
LINE
  5
D4A
330
167D
100
AcDbEntity
  8
V0-OBRYS
  6
CONTINUOUS
 62
    90
100
AcDbLine
 10
702.794114
 20
139.814385
 30
0.0
 11
702.794114
 21
141.748785
 31
0.0
  0
LINE
  5
D4B
330
167D
100
AcDbEntity
  8
V0-OBRYS
  6
CONTINUOUS
 62
    90
100
AcDbLine
 10
702.794114
 20
129.662432
 30
0.0
 11
702.794114
 21
127.728032
 31
0.0
  0
LINE
  5
D4C
330
167D
100
AcDbEntity
  8
V0-OBRYS
  6
CONTINUOUS
 62
    90
100
AcDbLine
 10
702.794114
 20
105.489724
 30
0.0
 11
702.794114
 21
107.424124
 31
0.0
  0
LINE
  5
D4D
330
167D
100
AcDbEntity
  8
V0-OBRYS
  6
CONTINUOUS
 62
    90
100
AcDbLine
 10
702.794114
 20
95.337771
 30
0.0
 11
702.794114
 21
93.40337100000001
 31
0.0
  0
LINE
  5
D4E
330
167D
100
AcDbEntity
  8
V0-OBRYS
  6
CONTINUOUS
 62
    90
100
AcDbLine
 10
702.794114
 20
83.251417
 30
0.0
 11
702.794114
 21
81.31701700000001
 31
0.0
  0
LINE
  5
D4F
330
167D
100
AcDbEntity
  8
V0-OBRYS
  6
CONTINUOUS
 62
    90
100
AcDbLine
 10
459.341519
 20
116.458618
 30
0.0
 11
702.794114
 21
116.458618
 31
0.0
  0
LINE
  5
D50
330
167D
100
AcDbEntity
  8
V0-OBRYS
  6
CONTINUOUS
 62
    90
100
AcDbLine
 10
459.341519
 20
118.393018
 30
0.0
 11
702.794114
 21
118.393018
 31
0.0
  0
LINE
  5
D51
330
167D
100
AcDbEntity
  8
V0-OBRYS
  6
CONTINUOUS
 62
    90
100
AcDbLine
 10
459.341519
 20
118.393018
 30
0.0
 11
459.341519
 21
116.458618
 31
0.0
  0
LINE
  5
D52
330
167D
100
AcDbEntity
  8
V0-OBRYS
  6
CONTINUOUS
 62
    90
100
AcDbLine
 10
702.794114
 20
118.393018
 30
0.0
 11
702.794114
 21
116.458618
 31
0.0
  0
CIRCLE
  5
E07
330
167D
100
AcDbEntity
  8
V0-VYPLNE
  6
DASHED
 62
    52
100
AcDbCircle
 10
581.067816
 20
117.576078
 30
0.0
 40
130.0
  0
DIMENSION
  5
E13
330
167D
100
AcDbEntity
  8
V0-VYPLNE
  6
CONTINUOUS
 62
    41
100
AcDbDimension
  2
*D7
 10
453.41674
 20
92.975208
 30
0.0
 11
766.169608
 21
153.24883
 31
0.0
 70
   163
  3
ED10
100
AcDbDiametricDimension
 15
708.718892
 25
142.176948
 35
0.0
 40
0.0
1001
ACAD
1000
DSTYLE
1002
{
1070
    40
1040
1.0
1002
}
  0
LINE
  5
E17
330
167D
100
AcDbEntity
  8
V0-OBRYS
  6
CONTINUOUS
 62
    90
100
AcDbLine
 10
488.978516
 20
118.393018
 30
0.0
 11
488.978516
 21
127.728032
 31
0.0
  0
LINE
  5
E18
330
167D
100
AcDbEntity
  8
V0-OBRYS
  6
CONTINUOUS
 62
    90
100
AcDbLine
 10
488.978516
 20
116.458618
 30
0.0
 11
488.978516
 21
107.424124
 31
0.0
  0
LINE
  5
E1A
330
167D
100
AcDbEntity
  8
V0-OBRYS
  6
CONTINUOUS
 62
    90
100
AcDbLine
 10
488.978516
 20
141.748785
 30
0.0
 11
488.978516
 21
151.900739
 31
0.0
  0
LINE
  5
E1B
330
167D
100
AcDbEntity
  8
V0-OBRYS
  6
CONTINUOUS
 62
    90
100
AcDbLine
 10
486.478516
 20
141.748785
 30
0.0
 11
486.478516
 21
151.900739
 31
0.0
  0
LINE
  5
E1C
330
167D
100
AcDbEntity
  8
V0-OBRYS
  6
CONTINUOUS
 62
    90
100
AcDbLine
 10
486.478516
 20
153.835139
 30
0.0
 11
486.478516
 21
163.987093
 31
0.0
  0
LINE
  5
E1D
330
167D
100
AcDbEntity
  8
V0-OBRYS
  6
CONTINUOUS
 62
    90
100
AcDbLine
 10
488.978516
 20
153.835139
 30
0.0
 11
488.978516
 21
163.987093
 31
0.0
  0
LINE
  5
E1E
330
167D
100
AcDbEntity
  8
V0-OBRYS
  6
CONTINUOUS
 62
    90
100
AcDbLine
 10
488.978516
 20
165.921493
 30
0.0
 11
488.978516
 21
176.073446
 31
0.0
  0
LINE
  5
E1F
330
167D
100
AcDbEntity
  8
V0-OBRYS
  6
CONTINUOUS
 62
    90
100
AcDbLine
 10
486.478516
 20
165.921493
 30
0.0
 11
486.478516
 21
176.073446
 31
0.0
  0
LINE
  5
E20
330
167D
100
AcDbEntity
  8
V0-OBRYS
  6
CONTINUOUS
 62
    90
100
AcDbLine
 10
486.478516
 20
178.007846
 30
0.0
 11
486.478516
 21
188.1598
 31
0.0
  0
LINE
  5
E21
330
167D
100
AcDbEntity
  8
V0-OBRYS
  6
CONTINUOUS
 62
    90
100
AcDbLine
 10
488.978516
 20
178.007846
 30
0.0
 11
488.978516
 21
188.1598
 31
0.0
  0
LINE
  5
E22
330
167D
100
AcDbEntity
  8
V0-OBRYS
  6
CONTINUOUS
 62
    90
100
AcDbLine
 10
488.978516
 20
190.0942
 30
0.0
 11
488.978516
 21
200.246154
 31
0.0
  0
LINE
  5
E23
330
167D
100
AcDbEntity
  8
V0-OBRYS
  6
CONTINUOUS
 62
    90
100
AcDbLine
 10
486.478516
 20
190.0942
 30
0.0
 11
486.478516
 21
200.246154
 31
0.0
  0
LINE
  5
E24
330
167D
100
AcDbEntity
  8
V0-OBRYS
  6
CONTINUOUS
 62
    90
100
AcDbLine
 10
486.478516
 20
202.180554
 30
0.0
 11
486.478516
 21
212.332507
 31
0.0
  0
LINE
  5
E25
330
167D
100
AcDbEntity
  8
V0-OBRYS
  6
CONTINUOUS
 62
    90
100
AcDbLine
 10
488.978516
 20
202.180554
 30
0.0
 11
488.978516
 21
212.332507
 31
0.0
  0
LINE
  5
E26
330
167D
100
AcDbEntity
  8
V0-OBRYS
  6
CONTINUOUS
 62
    90
100
AcDbLine
 10
488.978516
 20
214.266907
 30
0.0
 11
488.978516
 21
224.418861
 31
0.0
  0
LINE
  5
E27
330
167D
100
AcDbEntity
  8
V0-OBRYS
  6
CONTINUOUS
 62
    90
100
AcDbLine
 10
486.478516
 20
214.266907
 30
0.0
 11
486.478516
 21
224.418861
 31
0.0
  0
LINE
  5
E28
330
167D
100
AcDbEntity
  8
V0-OBRYS
  6
CONTINUOUS
 62
    90
100
AcDbLine
 10
486.478516
 20
129.662432
 30
0.0
 11
486.478516
 21
139.814385
 31
0.0
  0
LINE
  5
E29
330
167D
100
AcDbEntity
  8
V0-OBRYS
  6
CONTINUOUS
 62
    90
100
AcDbLine
 10
488.978516
 20
129.662432
 30
0.0
 11
488.978516
 21
139.814385
 31
0.0
  0
LINE
  5
E2A
330
167D
100
AcDbEntity
  8
V0-OBRYS
  6
CONTINUOUS
 62
    90
100
AcDbLine
 10
486.478516
 20
105.489724
 30
0.0
 11
486.478516
 21
95.337771
 31
0.0
  0
LINE
  5
E2B
330
167D
100
AcDbEntity
  8
V0-OBRYS
  6
CONTINUOUS
 62
    90
100
AcDbLine
 10
488.978516
 20
105.489724
 30
0.0
 11
488.978516
 21
95.337771
 31
0.0
  0
LINE
  5
E2C
330
167D
100
AcDbEntity
  8
V0-OBRYS
  6
CONTINUOUS
 62
    90
100
AcDbLine
 10
488.978516
 20
93.40337100000001
 30
0.0
 11
488.978516
 21
83.251417
 31
0.0
  0
LINE
  5
E2D
330
167D
100
AcDbEntity
  8
V0-OBRYS
  6
CONTINUOUS
 62
    90
100
AcDbLine
 10
486.478516
 20
93.40337100000001
 30
0.0
 11
486.478516
 21
83.251417
 31
0.0
  0
LINE
  5
E2E
330
167D
100
AcDbEntity
  8
V0-OBRYS
  6
CONTINUOUS
 62
    90
100
AcDbLine
 10
486.478516
 20
81.31701700000001
 30
0.0
 11
486.478516
 21
71.165063
 31
0.0
  0
LINE
  5
E2F
330
167D
100
AcDbEntity
  8
V0-OBRYS
  6
CONTINUOUS
 62
    90
100
AcDbLine
 10
488.978516
 20
81.31701700000001
 30
0.0
 11
488.978516
 21
71.165063
 31
0.0
  0
LINE
  5
E30
330
167D
100
AcDbEntity
  8
V0-OBRYS
  6
CONTINUOUS
 62
    90
100
AcDbLine
 10
488.978516
 20
69.23066300000001
 30
0.0
 11
488.978516
 21
59.07871
 31
0.0
  0
LINE
  5
E31
330
167D
100
AcDbEntity
  8
V0-OBRYS
  6
CONTINUOUS
 62
    90
100
AcDbLine
 10
486.478516
 20
69.23066300000001
 30
0.0
 11
486.478516
 21
59.07871
 31
0.0
  0
LINE
  5
E32
330
167D
100
AcDbEntity
  8
V0-OBRYS
  6
CONTINUOUS
 62
    90
100
AcDbLine
 10
486.478516
 20
57.14431
 30
0.0
 11
486.478516
 21
46.992356
 31
0.0
  0
LINE
  5
E33
330
167D
100
AcDbEntity
  8
V0-OBRYS
  6
CONTINUOUS
 62
    90
100
AcDbLine
 10
488.978516
 20
57.14431
 30
0.0
 11
488.978516
 21
46.992356
 31
0.0
  0
LINE
  5
E34
330
167D
100
AcDbEntity
  8
V0-OBRYS
  6
CONTINUOUS
 62
    90
100
AcDbLine
 10
486.478516
 20
45.057956
 30
0.0
 11
486.478516
 21
34.906002
 31
0.0
  0
LINE
  5
E35
330
167D
100
AcDbEntity
  8
V0-OBRYS
  6
CONTINUOUS
 62
    90
100
AcDbLine
 10
488.978516
 20
45.057956
 30
0.0
 11
488.978516
 21
34.906002
 31
0.0
  0
LINE
  5
E36
330
167D
100
AcDbEntity
  8
V0-OBRYS
  6
CONTINUOUS
 62
    90
100
AcDbLine
 10
488.978516
 20
32.971602
 30
0.0
 11
488.978516
 21
22.819649
 31
0.0
  0
LINE
  5
E37
330
167D
100
AcDbEntity
  8
V0-OBRYS
  6
CONTINUOUS
 62
    90
100
AcDbLine
 10
486.478516
 20
32.971602
 30
0.0
 11
486.478516
 21
22.819649
 31
0.0
  0
LINE
  5
E38
330
167D
100
AcDbEntity
  8
V0-OBRYS
  6
CONTINUOUS
 62
    90
100
AcDbLine
 10
486.478516
 20
20.885249
 30
0.0
 11
486.478516
 21
10.733295
 31
0.0
  0
LINE
  5
E39
330
167D
100
AcDbEntity
  8
V0-OBRYS
  6
CONTINUOUS
 62
    90
100
AcDbLine
 10
488.978516
 20
20.885249
 30
0.0
 11
488.978516
 21
10.733295
 31
0.0
  0
LINE
  5
E3A
330
167D
100
AcDbEntity
  8
V0-OBRYS
  6
CONTINUOUS
 62
    90
100
AcDbLine
 10
673.157116
 20
129.662432
 30
0.0
 11
673.157116
 21
139.814385
 31
0.0
  0
LINE
  5
E3B
330
167D
100
AcDbEntity
  8
V0-OBRYS
  6
CONTINUOUS
 62
    90
100
AcDbLine
 10
675.657116
 20
129.662432
 30
0.0
 11
675.657116
 21
139.814385
 31
0.0
  0
LINE
  5
E3C
330
167D
100
AcDbEntity
  8
V0-OBRYS
  6
CONTINUOUS
 62
    90
100
AcDbLine
 10
673.157116
 20
57.14431
 30
0.0
 11
673.157116
 21
46.992356
 31
0.0
  0
LINE
  5
E3D
330
167D
100
AcDbEntity
  8
V0-OBRYS
  6
CONTINUOUS
 62
    90
100
AcDbLine
 10
675.657116
 20
57.14431
 30
0.0
 11
675.657116
 21
46.992356
 31
0.0
  0
LINE
  5
E3E
330
167D
100
AcDbEntity
  8
V0-OBRYS
  6
CONTINUOUS
 62
    90
100
AcDbLine
 10
675.657116
 20
20.885249
 30
0.0
 11
675.657116
 21
10.733295
 31
0.0
  0
LINE
  5
E3F
330
167D
100
AcDbEntity
  8
V0-OBRYS
  6
CONTINUOUS
 62
    90
100
AcDbLine
 10
673.157116
 20
20.885249
 30
0.0
 11
673.157116
 21
10.733295
 31
0.0
  0
LINE
  5
E40
330
167D
100
AcDbEntity
  8
V0-OBRYS
  6
CONTINUOUS
 62
    90
100
AcDbLine
 10
673.157116
 20
32.971602
 30
0.0
 11
673.157116
 21
22.819649
 31
0.0
  0
LINE
  5
E41
330
167D
100
AcDbEntity
  8
V0-OBRYS
  6
CONTINUOUS
 62
    90
100
AcDbLine
 10
675.657116
 20
32.971602
 30
0.0
 11
675.657116
 21
22.819649
 31
0.0
  0
LINE
  5
E42
330
167D
100
AcDbEntity
  8
V0-OBRYS
  6
CONTINUOUS
 62
    90
100
AcDbLine
 10
675.657116
 20
45.057956
 30
0.0
 11
675.657116
 21
34.906002
 31
0.0
  0
LINE
  5
E43
330
167D
100
AcDbEntity
  8
V0-OBRYS
  6
CONTINUOUS
 62
    90
100
AcDbLine
 10
673.157116
 20
45.057956
 30
0.0
 11
673.157116
 21
34.906002
 31
0.0
  0
LINE
  5
E44
330
167D
100
AcDbEntity
  8
V0-OBRYS
  6
CONTINUOUS
 62
    90
100
AcDbLine
 10
675.657116
 20
105.489724
 30
0.0
 11
675.657116
 21
95.337771
 31
0.0
  0
LINE
  5
E45
330
167D
100
AcDbEntity
  8
V0-OBRYS
  6
CONTINUOUS
 62
    90
100
AcDbLine
 10
673.157116
 20
105.489724
 30
0.0
 11
673.157116
 21
95.337771
 31
0.0
  0
LINE
  5
E46
330
167D
100
AcDbEntity
  8
V0-OBRYS
  6
CONTINUOUS
 62
    90
100
AcDbLine
 10
675.657116
 20
81.31701700000001
 30
0.0
 11
675.657116
 21
71.165063
 31
0.0
  0
LINE
  5
E47
330
167D
100
AcDbEntity
  8
V0-OBRYS
  6
CONTINUOUS
 62
    90
100
AcDbLine
 10
673.157116
 20
81.31701700000001
 30
0.0
 11
673.157116
 21
71.165063
 31
0.0
  0
LINE
  5
E48
330
167D
100
AcDbEntity
  8
V0-OBRYS
  6
CONTINUOUS
 62
    90
100
AcDbLine
 10
673.157116
 20
69.23066300000001
 30
0.0
 11
673.157116
 21
59.07871
 31
0.0
  0
LINE
  5
E49
330
167D
100
AcDbEntity
  8
V0-OBRYS
  6
CONTINUOUS
 62
    90
100
AcDbLine
 10
675.657116
 20
69.23066300000001
 30
0.0
 11
675.657116
 21
59.07871
 31
0.0
  0
LINE
  5
E4A
330
167D
100
AcDbEntity
  8
V0-OBRYS
  6
CONTINUOUS
 62
    90
100
AcDbLine
 10
673.157116
 20
93.40337100000001
 30
0.0
 11
673.157116
 21
83.251417
 31
0.0
  0
LINE
  5
E4B
330
167D
100
AcDbEntity
  8
V0-OBRYS
  6
CONTINUOUS
 62
    90
100
AcDbLine
 10
675.657116
 20
93.40337100000001
 30
0.0
 11
675.657116
 21
83.251417
 31
0.0
  0
LINE
  5
E4C
330
167D
100
AcDbEntity
  8
V0-OBRYS
  6
CONTINUOUS
 62
    90
100
AcDbLine
 10
675.657116
 20
116.458618
 30
0.0
 11
675.657116
 21
107.424124
 31
0.0
  0
LINE
  5
E4D
330
167D
100
AcDbEntity
  8
V0-OBRYS
  6
CONTINUOUS
 62
    90
100
AcDbLine
 10
673.157116
 20
116.458618
 30
0.0
 11
673.157116
 21
107.424124
 31
0.0
  0
LINE
  5
E4E
330
167D
100
AcDbEntity
  8
V0-OBRYS
  6
CONTINUOUS
 62
    90
100
AcDbLine
 10
673.157116
 20
118.393018
 30
0.0
 11
673.157116
 21
127.728032
 31
0.0
  0
LINE
  5
E4F
330
167D
100
AcDbEntity
  8
V0-OBRYS
  6
CONTINUOUS
 62
    90
100
AcDbLine
 10
675.657116
 20
118.393018
 30
0.0
 11
675.657116
 21
127.728032
 31
0.0
  0
LINE
  5
E50
330
167D
100
AcDbEntity
  8
V0-OBRYS
  6
CONTINUOUS
 62
    90
100
AcDbLine
 10
673.157116
 20
214.266907
 30
0.0
 11
673.157116
 21
224.418861
 31
0.0
  0
LINE
  5
E51
330
167D
100
AcDbEntity
  8
V0-OBRYS
  6
CONTINUOUS
 62
    90
100
AcDbLine
 10
675.657116
 20
214.266907
 30
0.0
 11
675.657116
 21
224.418861
 31
0.0
  0
LINE
  5
E52
330
167D
100
AcDbEntity
  8
V0-OBRYS
  6
CONTINUOUS
 62
    90
100
AcDbLine
 10
675.657116
 20
153.835139
 30
0.0
 11
675.657116
 21
163.987093
 31
0.0
  0
LINE
  5
E53
330
167D
100
AcDbEntity
  8
V0-OBRYS
  6
CONTINUOUS
 62
    90
100
AcDbLine
 10
673.157116
 20
153.835139
 30
0.0
 11
673.157116
 21
163.987093
 31
0.0
  0
LINE
  5
E54
330
167D
100
AcDbEntity
  8
V0-OBRYS
  6
CONTINUOUS
 62
    90
100
AcDbLine
 10
673.157116
 20
141.748785
 30
0.0
 11
673.157116
 21
151.900739
 31
0.0
  0
LINE
  5
E55
330
167D
100
AcDbEntity
  8
V0-OBRYS
  6
CONTINUOUS
 62
    90
100
AcDbLine
 10
675.657116
 20
141.748785
 30
0.0
 11
675.657116
 21
151.900739
 31
0.0
  0
LINE
  5
E56
330
167D
100
AcDbEntity
  8
V0-OBRYS
  6
CONTINUOUS
 62
    90
100
AcDbLine
 10
673.157116
 20
165.921493
 30
0.0
 11
673.157116
 21
176.073446
 31
0.0
  0
LINE
  5
E57
330
167D
100
AcDbEntity
  8
V0-OBRYS
  6
CONTINUOUS
 62
    90
100
AcDbLine
 10
675.657116
 20
165.921493
 30
0.0
 11
675.657116
 21
176.073446
 31
0.0
  0
LINE
  5
E58
330
167D
100
AcDbEntity
  8
V0-OBRYS
  6
CONTINUOUS
 62
    90
100
AcDbLine
 10
673.157116
 20
190.0942
 30
0.0
 11
673.157116
 21
200.246154
 31
0.0
  0
LINE
  5
E59
330
167D
100
AcDbEntity
  8
V0-OBRYS
  6
CONTINUOUS
 62
    90
100
AcDbLine
 10
675.657116
 20
190.0942
 30
0.0
 11
675.657116
 21
200.246154
 31
0.0
  0
LINE
  5
E5A
330
167D
100
AcDbEntity
  8
V0-OBRYS
  6
CONTINUOUS
 62
    90
100
AcDbLine
 10
675.657116
 20
178.007846
 30
0.0
 11
675.657116
 21
188.1598
 31
0.0
  0
LINE
  5
E5B
330
167D
100
AcDbEntity
  8
V0-OBRYS
  6
CONTINUOUS
 62
    90
100
AcDbLine
 10
673.157116
 20
178.007846
 30
0.0
 11
673.157116
 21
188.1598
 31
0.0
  0
LINE
  5
E5C
330
167D
100
AcDbEntity
  8
V0-OBRYS
  6
CONTINUOUS
 62
    90
100
AcDbLine
 10
675.657116
 20
202.180554
 30
0.0
 11
675.657116
 21
212.332507
 31
0.0
  0
LINE
  5
E5D
330
167D
100
AcDbEntity
  8
V0-OBRYS
  6
CONTINUOUS
 62
    90
100
AcDbLine
 10
673.157116
 20
202.180554
 30
0.0
 11
673.157116
 21
212.332507
 31
0.0
  0
LINE
  5
E5E
330
167D
100
AcDbEntity
  8
V0-OBRYS
  6
CONTINUOUS
 62
    90
100
AcDbLine
 10
582.222686
 20
129.662432
 30
0.0
 11
582.222686
 21
139.814385
 31
0.0
  0
LINE
  5
E5F
330
167D
100
AcDbEntity
  8
V0-OBRYS
  6
CONTINUOUS
 62
    90
100
AcDbLine
 10
579.722686
 20
129.662432
 30
0.0
 11
579.722686
 21
139.814385
 31
0.0
  0
LINE
  5
E60
330
167D
100
AcDbEntity
  8
V0-OBRYS
  6
CONTINUOUS
 62
    90
100
AcDbLine
 10
582.222686
 20
57.14431
 30
0.0
 11
582.222686
 21
46.992356
 31
0.0
  0
LINE
  5
E61
330
167D
100
AcDbEntity
  8
V0-OBRYS
  6
CONTINUOUS
 62
    90
100
AcDbLine
 10
579.722686
 20
57.14431
 30
0.0
 11
579.722686
 21
46.992356
 31
0.0
  0
LINE
  5
E62
330
167D
100
AcDbEntity
  8
V0-OBRYS
  6
CONTINUOUS
 62
    90
100
AcDbLine
 10
579.722686
 20
20.885249
 30
0.0
 11
579.722686
 21
10.733295
 31
0.0
  0
LINE
  5
E63
330
167D
100
AcDbEntity
  8
V0-OBRYS
  6
CONTINUOUS
 62
    90
100
AcDbLine
 10
582.222686
 20
20.885249
 30
0.0
 11
582.222686
 21
10.733295
 31
0.0
  0
LINE
  5
E64
330
167D
100
AcDbEntity
  8
V0-OBRYS
  6
CONTINUOUS
 62
    90
100
AcDbLine
 10
582.222686
 20
32.971602
 30
0.0
 11
582.222686
 21
22.819649
 31
0.0
  0
LINE
  5
E65
330
167D
100
AcDbEntity
  8
V0-OBRYS
  6
CONTINUOUS
 62
    90
100
AcDbLine
 10
579.722686
 20
32.971602
 30
0.0
 11
579.722686
 21
22.819649
 31
0.0
  0
LINE
  5
E66
330
167D
100
AcDbEntity
  8
V0-OBRYS
  6
CONTINUOUS
 62
    90
100
AcDbLine
 10
579.722686
 20
45.057956
 30
0.0
 11
579.722686
 21
34.906002
 31
0.0
  0
LINE
  5
E67
330
167D
100
AcDbEntity
  8
V0-OBRYS
  6
CONTINUOUS
 62
    90
100
AcDbLine
 10
582.222686
 20
45.057956
 30
0.0
 11
582.222686
 21
34.906002
 31
0.0
  0
LINE
  5
E68
330
167D
100
AcDbEntity
  8
V0-OBRYS
  6
CONTINUOUS
 62
    90
100
AcDbLine
 10
579.722686
 20
105.489724
 30
0.0
 11
579.722686
 21
95.337771
 31
0.0
  0
LINE
  5
E69
330
167D
100
AcDbEntity
  8
V0-OBRYS
  6
CONTINUOUS
 62
    90
100
AcDbLine
 10
582.222686
 20
105.489724
 30
0.0
 11
582.222686
 21
95.337771
 31
0.0
  0
LINE
  5
E6A
330
167D
100
AcDbEntity
  8
V0-OBRYS
  6
CONTINUOUS
 62
    90
100
AcDbLine
 10
579.722686
 20
81.31701700000001
 30
0.0
 11
579.722686
 21
71.165063
 31
0.0
  0
LINE
  5
E6B
330
167D
100
AcDbEntity
  8
V0-OBRYS
  6
CONTINUOUS
 62
    90
100
AcDbLine
 10
582.222686
 20
81.31701700000001
 30
0.0
 11
582.222686
 21
71.165063
 31
0.0
  0
LINE
  5
E6C
330
167D
100
AcDbEntity
  8
V0-OBRYS
  6
CONTINUOUS
 62
    90
100
AcDbLine
 10
582.222686
 20
69.23066300000001
 30
0.0
 11
582.222686
 21
59.07871
 31
0.0
  0
LINE
  5
E6D
330
167D
100
AcDbEntity
  8
V0-OBRYS
  6
CONTINUOUS
 62
    90
100
AcDbLine
 10
579.722686
 20
69.23066300000001
 30
0.0
 11
579.722686
 21
59.07871
 31
0.0
  0
LINE
  5
E6E
330
167D
100
AcDbEntity
  8
V0-OBRYS
  6
CONTINUOUS
 62
    90
100
AcDbLine
 10
582.222686
 20
93.40337100000001
 30
0.0
 11
582.222686
 21
83.251417
 31
0.0
  0
LINE
  5
E6F
330
167D
100
AcDbEntity
  8
V0-OBRYS
  6
CONTINUOUS
 62
    90
100
AcDbLine
 10
579.722686
 20
93.40337100000001
 30
0.0
 11
579.722686
 21
83.251417
 31
0.0
  0
LINE
  5
E70
330
167D
100
AcDbEntity
  8
V0-OBRYS
  6
CONTINUOUS
 62
    90
100
AcDbLine
 10
579.722686
 20
116.458618
 30
0.0
 11
579.722686
 21
107.424124
 31
0.0
  0
LINE
  5
E71
330
167D
100
AcDbEntity
  8
V0-OBRYS
  6
CONTINUOUS
 62
    90
100
AcDbLine
 10
582.222686
 20
116.458618
 30
0.0
 11
582.222686
 21
107.424124
 31
0.0
  0
LINE
  5
E72
330
167D
100
AcDbEntity
  8
V0-OBRYS
  6
CONTINUOUS
 62
    90
100
AcDbLine
 10
582.222686
 20
118.393018
 30
0.0
 11
582.222686
 21
127.728032
 31
0.0
  0
LINE
  5
E73
330
167D
100
AcDbEntity
  8
V0-OBRYS
  6
CONTINUOUS
 62
    90
100
AcDbLine
 10
579.722686
 20
118.393018
 30
0.0
 11
579.722686
 21
127.728032
 31
0.0
  0
LINE
  5
E74
330
167D
100
AcDbEntity
  8
V0-OBRYS
  6
CONTINUOUS
 62
    90
100
AcDbLine
 10
582.222686
 20
214.266907
 30
0.0
 11
582.222686
 21
224.418861
 31
0.0
  0
LINE
  5
E75
330
167D
100
AcDbEntity
  8
V0-OBRYS
  6
CONTINUOUS
 62
    90
100
AcDbLine
 10
579.722686
 20
214.266907
 30
0.0
 11
579.722686
 21
224.418861
 31
0.0
  0
LINE
  5
E76
330
167D
100
AcDbEntity
  8
V0-OBRYS
  6
CONTINUOUS
 62
    90
100
AcDbLine
 10
579.722686
 20
153.835139
 30
0.0
 11
579.722686
 21
163.987093
 31
0.0
  0
LINE
  5
E77
330
167D
100
AcDbEntity
  8
V0-OBRYS
  6
CONTINUOUS
 62
    90
100
AcDbLine
 10
582.222686
 20
153.835139
 30
0.0
 11
582.222686
 21
163.987093
 31
0.0
  0
LINE
  5
E78
330
167D
100
AcDbEntity
  8
V0-OBRYS
  6
CONTINUOUS
 62
    90
100
AcDbLine
 10
582.222686
 20
141.748785
 30
0.0
 11
582.222686
 21
151.900739
 31
0.0
  0
LINE
  5
E79
330
167D
100
AcDbEntity
  8
V0-OBRYS
  6
CONTINUOUS
 62
    90
100
AcDbLine
 10
579.722686
 20
141.748785
 30
0.0
 11
579.722686
 21
151.900739
 31
0.0
  0
LINE
  5
E7A
330
167D
100
AcDbEntity
  8
V0-OBRYS
  6
CONTINUOUS
 62
    90
100
AcDbLine
 10
582.222686
 20
165.921493
 30
0.0
 11
582.222686
 21
176.073446
 31
0.0
  0
LINE
  5
E7B
330
167D
100
AcDbEntity
  8
V0-OBRYS
  6
CONTINUOUS
 62
    90
100
AcDbLine
 10
579.722686
 20
165.921493
 30
0.0
 11
579.722686
 21
176.073446
 31
0.0
  0
LINE
  5
E7C
330
167D
100
AcDbEntity
  8
V0-OBRYS
  6
CONTINUOUS
 62
    90
100
AcDbLine
 10
582.222686
 20
190.0942
 30
0.0
 11
582.222686
 21
200.246154
 31
0.0
  0
LINE
  5
E7D
330
167D
100
AcDbEntity
  8
V0-OBRYS
  6
CONTINUOUS
 62
    90
100
AcDbLine
 10
579.722686
 20
190.0942
 30
0.0
 11
579.722686
 21
200.246154
 31
0.0
  0
LINE
  5
E7E
330
167D
100
AcDbEntity
  8
V0-OBRYS
  6
CONTINUOUS
 62
    90
100
AcDbLine
 10
579.722686
 20
178.007846
 30
0.0
 11
579.722686
 21
188.1598
 31
0.0
  0
LINE
  5
E7F
330
167D
100
AcDbEntity
  8
V0-OBRYS
  6
CONTINUOUS
 62
    90
100
AcDbLine
 10
582.222686
 20
178.007846
 30
0.0
 11
582.222686
 21
188.1598
 31
0.0
  0
LINE
  5
E80
330
167D
100
AcDbEntity
  8
V0-OBRYS
  6
CONTINUOUS
 62
    90
100
AcDbLine
 10
579.722686
 20
202.180554
 30
0.0
 11
579.722686
 21
212.332507
 31
0.0
  0
LINE
  5
E81
330
167D
100
AcDbEntity
  8
V0-OBRYS
  6
CONTINUOUS
 62
    90
100
AcDbLine
 10
582.222686
 20
202.180554
 30
0.0
 11
582.222686
 21
212.332507
 31
0.0
  0
LINE
  5
E88
330
167D
100
AcDbEntity
  8
V0-VYPLNE
  6
DASHDOT
 62
    63
 48
3.0
100
AcDbLine
 10
731.288602
 20
117.576078
 30
0.0
 11
421.565762
 21
117.576078
 31
0.0
  0
LINE
  5
E8B
330
167D
100
AcDbEntity
  8
V0-VYPLNE
  6
DASHDOT
 62
    63
 48
3.0
100
AcDbLine
 10
581.067816
 20
279.946863
 30
0.0
 11
581.067816
 21
-56.161069
 31
0.0
  0
DIMENSION
  5
F3F
330
167D
100
AcDbEntity
  8
V0-VYPLNE
  6
CONTINUOUS
 62
    41
100
AcDbDimension
  2
*D8
 10
251.492445
 20
-124.6911220000002
 30
0.0
 11
341.580923
 21
-124.691122
 31
0.0
 70
   160
  1
3 az 25
  3
ED10
100
AcDbAlignedDimension
 13
254.092445
 23
-44.832184
 33
0.0
 14
251.492445
 24
-44.832184
 34
0.0
100
AcDbRotatedDimension
1001
ACAD
1000
DSTYLE
1002
{
1070
    40
1040
1.0
1002
}
  0
ARC
  5
F40
330
167D
100
AcDbEntity
  8
V0-OBRYS
  6
CONTINUOUS
 62
    90
100
AcDbCircle
 10
1908.786487
 20
116.999933
 30
0.0
 40
1891.223102
100
AcDbArc
 50
179.777431
 51
184.64056
  0
LINE
  5
F41
330
167D
100
AcDbEntity
  8
V0-OBRYS
  6
CONTINUOUS
 62
    90
100
AcDbLine
 10
46.539029
 20
118.543278
 30
0.0
 11
46.539029
 21
-44.832184
 31
0.0
  0
LINE
  5
F42
330
167D
100
AcDbEntity
  8
V0-OBRYS
  6
CONTINUOUS
 62
    90
100
AcDbLine
 10
43.939029
 20
118.543278
 30
0.0
 11
43.939029
 21
-44.832184
 31
0.0
  0
DIMENSION
  5
F43
330
167D
100
AcDbEntity
  8
V0-VYPLNE
  6
CONTINUOUS
 62
    41
100
AcDbDimension
  2
*D9
 10
254.092445
 20
-84.39112200000128
 30
0.0
 11
332.757435
 21
-84.391122
 31
0.0
 70
   160
  3
ED10
100
AcDbAlignedDimension
 13
276.396549
 23
-8.740981
 33
0.0
 14
254.092445
 24
-44.832184
 34
0.0
100
AcDbRotatedDimension
1001
ACAD
1000
DSTYLE
1002
{
1070
    40
1040
1.0
1002
}
  0
LINE
  5
F44
330
167D
100
AcDbEntity
  8
V0-OBRYS
  6
CONTINUOUS
 62
    90
100
AcDbLine
 10
254.092445
 20
118.543278
 30
0.0
 11
254.092445
 21
-44.832184
 31
0.0
  0
LINE
  5
F45
330
167D
100
AcDbEntity
  8
V0-OBRYS
  6
CONTINUOUS
 62
    90
100
AcDbLine
 10
251.492445
 20
118.543278
 30
0.0
 11
251.492445
 21
-44.832184
 31
0.0
  0
ARC
  5
F46
330
167D
100
AcDbEntity
  8
V0-OBRYS
  6
CONTINUOUS
 62
    90
100
AcDbCircle
 10
-1610.755013
 20
116.999933
 30
0.0
 40
1891.223102
100
AcDbArc
 50
355.35944
 51
0.222569
  0
LINE
  5
F47
330
167D
100
AcDbEntity
  8
V0-OBRYS
  6
CONTINUOUS
 62
    90
 48
5.0
100
AcDbLine
 10
109.971631
 20
-44.832184
 30
0.0
 11
109.971631
 21
279.98434
 31
0.0
  0
LINE
  5
F48
330
167D
100
AcDbEntity
  8
V0-OBRYS
  6
CONTINUOUS
 62
    90
100
AcDbLine
 10
43.939029
 20
-387.517194
 30
0.0
 11
43.939029
 21
-223.641731
 31
0.0
  0
LINE
  5
F49
330
167D
100
AcDbEntity
  8
V0-OBRYS
  6
CONTINUOUS
 62
    90
100
AcDbLine
 10
46.539029
 20
-387.517194
 30
0.0
 11
46.539029
 21
-223.641731
 31
0.0
  0
LINE
  5
F4A
330
167D
100
AcDbEntity
  8
V0-OBRYS
  6
CONTINUOUS
 62
    90
100
AcDbLine
 10
24.511029
 20
-277.938558
 30
0.0
 11
24.511029
 21
-495.161429
 31
0.0
  0
LINE
  5
F4B
330
167D
100
AcDbEntity
  8
V0-OBRYS
  6
CONTINUOUS
 62
    90
100
AcDbLine
 10
18.399705
 20
-316.104811
 30
0.0
 11
18.399705
 21
-385.285471
 31
0.0
  0
LINE
  5
F4C
330
167D
100
AcDbEntity
  8
V0-OBRYS
  6
CONTINUOUS
 62
    90
100
AcDbLine
 10
279.631769
 20
-316.104811
 30
0.0
 11
279.631769
 21
-385.285471
 31
0.0
  0
LINE
  5
F4D
330
167D
100
AcDbEntity
  8
V0-OBRYS
  6
CONTINUOUS
 62
    90
100
AcDbLine
 10
273.520445
 20
-277.938558
 30
0.0
 11
273.520445
 21
-495.161429
 31
0.0
  0
LINE
  5
F4E
330
167D
100
AcDbEntity
  8
V0-OBRYS
  6
CONTINUOUS
 62
    90
100
AcDbLine
 10
251.492445
 20
-387.517194
 30
0.0
 11
251.492445
 21
-223.641731
 31
0.0
  0
LINE
  5
F4F
330
167D
100
AcDbEntity
  8
V0-OBRYS
  6
CONTINUOUS
 62
    90
100
AcDbLine
 10
254.092445
 20
-387.517194
 30
0.0
 11
254.092445
 21
-223.641731
 31
0.0
  0
LINE
  5
F50
330
167D
100
AcDbEntity
  8
V0-OBRYS
  6
CONTINUOUS
 62
    90
 48
5.0
100
AcDbLine
 10
109.971631
 20
-549.458256
 30
0.0
 11
109.971631
 21
-223.641731
 31
0.0
  0
LINE
  5
F52
330
167D
100
AcDbEntity
  8
V0-VYPLNE
  6
DASHDOT
 62
    63
 48
3.0
100
AcDbLine
 10
109.971631
 20
-386.549994
 30
0.0
 11
303.834176
 21
-386.549994
 31
0.0
  0
LINE
  5
F53
330
167D
100
AcDbEntity
  8
V0-OBRYS
  6
CONTINUOUS
 62
    90
 48
5.0
100
AcDbLine
 10
264.633667
 20
-549.458256
 30
0.0
 11
109.971631
 21
-549.458256
 31
0.0
  0
ARC
  5
F54
330
167D
100
AcDbEntity
  8
V0-OBRYS
  6
CONTINUOUS
 62
    90
100
AcDbCircle
 10
-1622.544512
 20
-387.149178
 30
0.0
 40
1903.012602
100
AcDbArc
 50
355.373845
 51
357.824765
  0
LINE
  5
F55
330
167D
100
AcDbEntity
  8
V0-OBRYS
  6
CONTINUOUS
 62
    90
100
AcDbLine
 10
254.092445
 20
-385.582794
 30
0.0
 11
254.092445
 21
-549.458256
 31
0.0
  0
LINE
  5
F56
330
167D
100
AcDbEntity
  8
V0-OBRYS
  6
CONTINUOUS
 62
    90
100
AcDbLine
 10
251.492445
 20
-385.582794
 30
0.0
 11
251.492445
 21
-549.458256
 31
0.0
  0
ARC
  5
F57
330
167D
100
AcDbEntity
  8
V0-OBRYS
  6
CONTINUOUS
 62
    90
100
AcDbCircle
 10
264.633667
 20
-539.786256
 30
0.0
 40
9.672000000000001
100
AcDbArc
 50
270.0
 51
354.967741
  0
LINE
  5
F59
330
167D
100
AcDbEntity
  8
V0-OBRYS
  6
CONTINUOUS
 62
    90
100
AcDbLine
 10
279.631769
 20
-456.995176
 30
0.0
 11
279.631769
 21
-387.814516
 31
0.0
  0
LINE
  5
F5A
330
167D
100
AcDbEntity
  8
V0-OBRYS
  6
CONTINUOUS
 62
    90
100
AcDbLine
 10
276.796775
 20
-495.161429
 30
0.0
 11
273.520445
 21
-495.161429
 31
0.0
  0
LINE
  5
F5B
330
167D
100
AcDbEntity
  8
V0-OBRYS
  6
CONTINUOUS
 62
    90
100
AcDbLine
 10
273.520445
 20
-459.379711
 30
0.0
 11
283.192445
 21
-459.379711
 31
0.0
  0
LINE
  5
F5C
330
167D
100
AcDbEntity
  8
V0-OBRYS
  6
CONTINUOUS
 62
    90
100
AcDbLine
 10
273.520445
 20
-457.445311
 30
0.0
 11
283.192445
 21
-457.445311
 31
0.0
  0
LINE
  5
F5D
330
167D
100
AcDbEntity
  8
V0-OBRYS
  6
CONTINUOUS
 62
    90
100
AcDbLine
 10
283.192445
 20
-459.379711
 30
0.0
 11
283.192445
 21
-457.445311
 31
0.0
  0
LINE
  5
F5E
330
167D
100
AcDbEntity
  8
V0-OBRYS
  6
CONTINUOUS
 62
    90
100
AcDbLine
 10
273.520445
 20
-387.517194
 30
0.0
 11
283.192445
 21
-387.517194
 31
0.0
  0
LINE
  5
F5F
330
167D
100
AcDbEntity
  8
V0-OBRYS
  6
CONTINUOUS
 62
    90
100
AcDbLine
 10
273.520445
 20
-385.582794
 30
0.0
 11
283.192445
 21
-385.582794
 31
0.0
  0
LINE
  5
F60
330
167D
100
AcDbEntity
  8
V0-OBRYS
  6
CONTINUOUS
 62
    90
100
AcDbLine
 10
283.192445
 20
-385.582794
 30
0.0
 11
283.192445
 21
-387.517194
 31
0.0
  0
LINE
  5
F61
330
167D
100
AcDbEntity
  8
V0-OBRYS
  6
CONTINUOUS
 62
    90
100
AcDbLine
 10
46.539029
 20
-385.582794
 30
0.0
 11
46.539029
 21
-549.458256
 31
0.0
  0
LINE
  5
F62
330
167D
100
AcDbEntity
  8
V0-OBRYS
  6
CONTINUOUS
 62
    90
100
AcDbLine
 10
43.939029
 20
-385.582794
 30
0.0
 11
43.939029
 21
-549.458256
 31
0.0
  0
ARC
  5
F63
330
167D
100
AcDbEntity
  8
V0-OBRYS
  6
CONTINUOUS
 62
    90
100
AcDbCircle
 10
1920.575986
 20
-387.149178
 30
0.0
 40
1903.012602
100
AcDbArc
 50
182.175235
 51
184.626155
  0
ARC
  5
F64
330
167D
100
AcDbEntity
  8
V0-OBRYS
  6
CONTINUOUS
 62
    90
100
AcDbCircle
 10
33.397807
 20
-539.786256
 30
0.0
 40
9.672000000000001
100
AcDbArc
 50
185.032259
 51
270.0
  0
LINE
  5
F65
330
167D
100
AcDbEntity
  8
V0-OBRYS
  6
CONTINUOUS
 62
    90
100
AcDbLine
 10
18.399705
 20
-456.995176
 30
0.0
 11
18.399705
 21
-387.814516
 31
0.0
  0
LINE
  5
F66
330
167D
100
AcDbEntity
  8
V0-OBRYS
  6
CONTINUOUS
 62
    90
100
AcDbLine
 10
21.234699
 20
-495.161429
 30
0.0
 11
24.511029
 21
-495.161429
 31
0.0
  0
LINE
  5
F67
330
167D
100
AcDbEntity
  8
V0-OBRYS
  6
CONTINUOUS
 62
    90
100
AcDbLine
 10
24.511029
 20
-457.445311
 30
0.0
 11
14.839029
 21
-457.445311
 31
0.0
  0
LINE
  5
F68
330
167D
100
AcDbEntity
  8
V0-OBRYS
  6
CONTINUOUS
 62
    90
100
AcDbLine
 10
24.511029
 20
-459.379711
 30
0.0
 11
14.839029
 21
-459.379711
 31
0.0
  0
LINE
  5
F69
330
167D
100
AcDbEntity
  8
V0-OBRYS
  6
CONTINUOUS
 62
    90
100
AcDbLine
 10
14.839029
 20
-459.379711
 30
0.0
 11
14.839029
 21
-457.445311
 31
0.0
  0
LINE
  5
F6B
330
167D
100
AcDbEntity
  8
V0-OBRYS
  6
CONTINUOUS
 62
    90
100
AcDbLine
 10
24.511029
 20
-385.582794
 30
0.0
 11
14.839029
 21
-385.582794
 31
0.0
  0
LINE
  5
F6C
330
167D
100
AcDbEntity
  8
V0-OBRYS
  6
CONTINUOUS
 62
    90
100
AcDbLine
 10
24.511029
 20
-387.517194
 30
0.0
 11
14.839029
 21
-387.517194
 31
0.0
  0
LINE
  5
F6D
330
167D
100
AcDbEntity
  8
V0-OBRYS
  6
CONTINUOUS
 62
    90
100
AcDbLine
 10
14.839029
 20
-385.582794
 30
0.0
 11
14.839029
 21
-387.517194
 31
0.0
  0
LINE
  5
F6E
330
167D
100
AcDbEntity
  8
V0-OBRYS
  6
CONTINUOUS
 62
    90
 48
5.0
100
AcDbLine
 10
109.971631
 20
-223.641731
 30
0.0
 11
264.633667
 21
-223.641731
 31
0.0
  0
DIMENSION
  5
F6F
330
167D
100
AcDbEntity
  8
V0-VYPLNE
  6
CONTINUOUS
 62
    41
100
AcDbDimension
  2
*D10
 10
109.971631
 20
-166.4635850000013
 30
0.0
 11
187.510363
 21
-166.463585
 31
0.0
 70
   160
  3
ED10
100
AcDbAlignedDimension
 13
251.492445
 23
-46.132184
 33
0.0
 14
109.971631
 24
-44.832184
 34
0.0
100
AcDbRotatedDimension
1001
ACAD
1000
DSTYLE
1002
{
1070
    40
1040
1.0
1002
}
  0
LINE
  5
F70
330
167D
100
AcDbEntity
  8
V0-OBRYS
  6
CONTINUOUS
 62
    90
 48
5.0
100
AcDbLine
 10
264.633667
 20
-44.832184
 30
0.0
 11
109.971631
 21
-44.832184
 31
0.0
  0
ARC
  5
F71
330
167D
100
AcDbEntity
  8
V0-OBRYS
  6
CONTINUOUS
 62
    90
100
AcDbCircle
 10
-2207.915843
 20
-407.985401
 30
0.0
 40
2488.382173
100
AcDbArc
 50
2.164328
 51
4.044763
  0
LINE
  5
F72
330
167D
100
AcDbEntity
  8
V0-OBRYS
  6
CONTINUOUS
 62
    90
100
AcDbLine
 10
283.192445
 20
-314.009994
 30
0.0
 11
283.192445
 21
-315.944394
 31
0.0
  0
LINE
  5
F73
330
167D
100
AcDbEntity
  8
V0-OBRYS
  6
CONTINUOUS
 62
    90
100
AcDbLine
 10
273.520445
 20
-315.944394
 30
0.0
 11
283.192445
 21
-315.944394
 31
0.0
  0
LINE
  5
F74
330
167D
100
AcDbEntity
  8
V0-OBRYS
  6
CONTINUOUS
 62
    90
100
AcDbLine
 10
273.520445
 20
-314.009994
 30
0.0
 11
283.192445
 21
-314.009994
 31
0.0
  0
LINE
  5
F75
330
167D
100
AcDbEntity
  8
V0-OBRYS
  6
CONTINUOUS
 62
    90
100
AcDbLine
 10
276.796775
 20
-277.938558
 30
0.0
 11
273.520445
 21
-277.938558
 31
0.0
  0
ARC
  5
F76
330
167D
100
AcDbEntity
  8
V0-OBRYS
  6
CONTINUOUS
 62
    90
100
AcDbCircle
 10
264.633667
 20
-233.313731
 30
0.0
 40
9.672000000000001
100
AcDbArc
 50
5.032259
 51
90.0
  0
ARC
  5
F77
330
167D
100
AcDbEntity
  8
V0-OBRYS
  6
CONTINUOUS
 62
    90
100
AcDbCircle
 10
264.633667
 20
-35.160184
 30
0.0
 40
9.672000000000001
100
AcDbArc
 50
270.0
 51
354.967741
  0
ARC
  5
F78
330
167D
100
AcDbEntity
  8
V0-OBRYS
  6
CONTINUOUS
 62
    90
100
AcDbCircle
 10
2505.947317
 20
-407.985401
 30
0.0
 40
2488.382173
100
AcDbArc
 50
175.955237
 51
177.835672
  0
LINE
  5
F79
330
167D
100
AcDbEntity
  8
V0-OBRYS
  6
CONTINUOUS
 62
    90
100
AcDbLine
 10
14.839029
 20
-314.009994
 30
0.0
 11
14.839029
 21
-315.944394
 31
0.0
  0
LINE
  5
F7A
330
167D
100
AcDbEntity
  8
V0-OBRYS
  6
CONTINUOUS
 62
    90
100
AcDbLine
 10
24.511029
 20
-315.944394
 30
0.0
 11
14.839029
 21
-315.944394
 31
0.0
  0
LINE
  5
F7B
330
167D
100
AcDbEntity
  8
V0-OBRYS
  6
CONTINUOUS
 62
    90
100
AcDbLine
 10
24.511029
 20
-314.009994
 30
0.0
 11
14.839029
 21
-314.009994
 31
0.0
  0
LINE
  5
F7C
330
167D
100
AcDbEntity
  8
V0-OBRYS
  6
CONTINUOUS
 62
    90
100
AcDbLine
 10
21.234699
 20
-277.938558
 30
0.0
 11
24.511029
 21
-277.938558
 31
0.0
  0
ARC
  5
F7D
330
167D
100
AcDbEntity
  8
V0-OBRYS
  6
CONTINUOUS
 62
    90
100
AcDbCircle
 10
33.397807
 20
-233.313731
 30
0.0
 40
9.672000000000001
100
AcDbArc
 50
90.0
 51
174.967741
  0
ARC
  5
F7E
330
167D
100
AcDbEntity
  8
V0-OBRYS
  6
CONTINUOUS
 62
    90
100
AcDbCircle
 10
33.397807
 20
-35.160184
 30
0.0
 40
9.672000000000001
100
AcDbArc
 50
185.032259
 51
270.0
  0
LINE
  5
F7F
330
167D
100
AcDbEntity
  8
V0-VYPLNE
  6
DASHDOT
 62
    63
 48
3.0
100
AcDbLine
 10
85.806926
 20
117.576078
 30
0.0
 11
303.834176
 21
117.576078
 31
0.0
  0
LINE
  5
F80
330
167D
100
AcDbEntity
  8
V0-OBRYS
  6
CONTINUOUS
 62
    90
 48
5.0
100
AcDbLine
 10
109.971631
 20
279.98434
 30
0.0
 11
264.633667
 21
279.98434
 31
0.0
  0
LINE
  5
F81
330
167D
100
AcDbEntity
  8
V0-OBRYS
  6
CONTINUOUS
 62
    90
100
AcDbLine
 10
251.492445
 20
116.608878
 30
0.0
 11
251.492445
 21
279.98434
 31
0.0
  0
LINE
  5
F82
330
167D
100
AcDbEntity
  8
V0-OBRYS
  6
CONTINUOUS
 62
    90
100
AcDbLine
 10
254.092445
 20
116.608878
 30
0.0
 11
254.092445
 21
279.98434
 31
0.0
  0
ARC
  5
F83
330
167D
100
AcDbEntity
  8
V0-OBRYS
  6
CONTINUOUS
 62
    90
100
AcDbCircle
 10
-1327.946133
 20
117.576078
 30
0.0
 40
1608.414203
100
AcDbArc
 50
0.58573
 51
0.861385
  0
LINE
  5
F84
330
167D
100
AcDbEntity
  8
V0-OBRYS
  6
CONTINUOUS
 62
    90
100
AcDbLine
 10
273.520445
 20
141.756078
 30
0.0
 11
273.520445
 21
134.018478
 31
0.0
  0
LINE
  5
F87
330
167D
100
AcDbEntity
  8
V0-OBRYS
  6
CONTINUOUS
 62
    90
100
AcDbLine
 10
283.192445
 20
52.773678
 30
0.0
 11
283.192445
 21
54.708078
 31
0.0
  0
LINE
  5
F88
330
167D
100
AcDbEntity
  8
V0-OBRYS
  6
CONTINUOUS
 62
    90
100
AcDbLine
 10
273.520445
 20
124.346478
 30
0.0
 11
273.520445
 21
8.624780000000001
 31
0.0
  0
LINE
  5
F89
330
167D
100
AcDbEntity
  8
V0-OBRYS
  6
CONTINUOUS
 62
    90
100
AcDbLine
 10
273.520445
 20
8.624779999999999
 30
0.0
 11
275.980781
 21
8.624779999999999
 31
0.0
  0
LINE
  5
F8A
330
167D
100
AcDbEntity
  8
V0-OBRYS
  6
CONTINUOUS
 62
    90
100
AcDbLine
 10
273.520445
 20
16.020078
 30
0.0
 11
283.192445
 21
16.020078
 31
0.0
  0
LINE
  5
F8B
330
167D
100
AcDbEntity
  8
V0-OBRYS
  6
CONTINUOUS
 62
    90
100
AcDbLine
 10
273.520445
 20
14.085678
 30
0.0
 11
283.192445
 21
14.085678
 31
0.0
  0
LINE
  5
F8C
330
167D
100
AcDbEntity
  8
V0-OBRYS
  6
CONTINUOUS
 62
    90
100
AcDbLine
 10
273.520445
 20
23.757678
 30
0.0
 11
283.192445
 21
23.757678
 31
0.0
  0
LINE
  5
F8D
330
167D
100
AcDbEntity
  8
V0-OBRYS
  6
CONTINUOUS
 62
    90
100
AcDbLine
 10
273.520445
 20
21.823278
 30
0.0
 11
283.192445
 21
21.823278
 31
0.0
  0
LINE
  5
F8E
330
167D
100
AcDbEntity
  8
V0-OBRYS
  6
CONTINUOUS
 62
    90
100
AcDbLine
 10
273.520445
 20
31.495278
 30
0.0
 11
283.192445
 21
31.495278
 31
0.0
  0
LINE
  5
F8F
330
167D
100
AcDbEntity
  8
V0-OBRYS
  6
CONTINUOUS
 62
    90
100
AcDbLine
 10
273.520445
 20
29.560878
 30
0.0
 11
283.192445
 21
29.560878
 31
0.0
  0
LINE
  5
F90
330
167D
100
AcDbEntity
  8
V0-OBRYS
  6
CONTINUOUS
 62
    90
100
AcDbLine
 10
273.520445
 20
39.232878
 30
0.0
 11
283.192445
 21
39.232878
 31
0.0
  0
LINE
  5
F91
330
167D
100
AcDbEntity
  8
V0-OBRYS
  6
CONTINUOUS
 62
    90
100
AcDbLine
 10
273.520445
 20
37.298478
 30
0.0
 11
283.192445
 21
37.298478
 31
0.0
  0
LINE
  5
F92
330
167D
100
AcDbEntity
  8
V0-OBRYS
  6
CONTINUOUS
 62
    90
100
AcDbLine
 10
273.520445
 20
46.970478
 30
0.0
 11
283.192445
 21
46.970478
 31
0.0
  0
LINE
  5
F93
330
167D
100
AcDbEntity
  8
V0-OBRYS
  6
CONTINUOUS
 62
    90
100
AcDbLine
 10
273.520445
 20
45.036078
 30
0.0
 11
283.192445
 21
45.036078
 31
0.0
  0
LINE
  5
F94
330
167D
100
AcDbEntity
  8
V0-OBRYS
  6
CONTINUOUS
 62
    90
100
AcDbLine
 10
273.520445
 20
52.773678
 30
0.0
 11
283.192445
 21
52.773678
 31
0.0
  0
ARC
  5
F95
330
167D
100
AcDbEntity
  8
V0-OBRYS
  6
CONTINUOUS
 62
    90
100
AcDbCircle
 10
-1327.946133
 20
117.576078
 30
0.0
 40
1608.414203
100
AcDbArc
 50
357.484042
 51
357.69095
  0
LINE
  5
F96
330
167D
100
AcDbEntity
  8
V0-OBRYS
  6
CONTINUOUS
 62
    90
100
AcDbLine
 10
283.192445
 20
14.085678
 30
0.0
 11
283.192445
 21
16.020078
 31
0.0
  0
LINE
  5
F97
330
167D
100
AcDbEntity
  8
V0-OBRYS
  6
CONTINUOUS
 62
    90
100
AcDbLine
 10
283.192445
 20
21.823278
 30
0.0
 11
283.192445
 21
23.757678
 31
0.0
  0
LINE
  5
F98
330
167D
100
AcDbEntity
  8
V0-OBRYS
  6
CONTINUOUS
 62
    90
100
AcDbLine
 10
283.192445
 20
29.560878
 30
0.0
 11
283.192445
 21
31.495278
 31
0.0
  0
LINE
  5
F99
330
167D
100
AcDbEntity
  8
V0-OBRYS
  6
CONTINUOUS
 62
    90
100
AcDbLine
 10
283.192445
 20
37.298478
 30
0.0
 11
283.192445
 21
39.232878
 31
0.0
  0
LINE
  5
F9A
330
167D
100
AcDbEntity
  8
V0-OBRYS
  6
CONTINUOUS
 62
    90
100
AcDbLine
 10
283.192445
 20
45.036078
 30
0.0
 11
283.192445
 21
46.970478
 31
0.0
  0
LINE
  5
F9B
330
167D
100
AcDbEntity
  8
V0-OBRYS
  6
CONTINUOUS
 62
    90
100
AcDbLine
 10
273.520445
 20
31.495278
 30
0.0
 11
273.520445
 21
37.298478
 31
0.0
  0
ARC
  5
F9C
330
167D
100
AcDbEntity
  8
V0-OBRYS
  6
CONTINUOUS
 62
    90
100
AcDbCircle
 10
-1327.946133
 20
117.576078
 30
0.0
 40
1608.414203
100
AcDbArc
 50
356.932119
 51
357.13912
  0
LINE
  5
F9D
330
167D
100
AcDbEntity
  8
V0-OBRYS
  6
CONTINUOUS
 62
    90
100
AcDbLine
 10
273.520445
 20
16.020078
 30
0.0
 11
273.520445
 21
21.823278
 31
0.0
  0
LINE
  5
F9E
330
167D
100
AcDbEntity
  8
V0-OBRYS
  6
CONTINUOUS
 62
    90
100
AcDbLine
 10
273.520445
 20
39.232878
 30
0.0
 11
273.520445
 21
45.036078
 31
0.0
  0
LINE
  5
F9F
330
167D
100
AcDbEntity
  8
V0-OBRYS
  6
CONTINUOUS
 62
    90
100
AcDbLine
 10
273.520445
 20
46.970478
 30
0.0
 11
273.520445
 21
52.773678
 31
0.0
  0
ARC
  5
FA0
330
167D
100
AcDbEntity
  8
V0-OBRYS
  6
CONTINUOUS
 62
    90
100
AcDbCircle
 10
-1327.946133
 20
117.576078
 30
0.0
 40
1608.414203
100
AcDbArc
 50
357.208112
 51
357.415065
  0
LINE
  5
FA1
330
167D
100
AcDbEntity
  8
V0-OBRYS
  6
CONTINUOUS
 62
    90
100
AcDbLine
 10
273.520445
 20
93.396078
 30
0.0
 11
273.520445
 21
101.133678
 31
0.0
  0
ARC
  5
FA2
330
167D
100
AcDbEntity
  8
V0-OBRYS
  6
CONTINUOUS
 62
    90
100
AcDbCircle
 10
-1327.946133
 20
117.576078
 30
0.0
 40
1608.414203
100
AcDbArc
 50
359.1386150000001
 51
359.41427
  0
LINE
  5
FA3
330
167D
100
AcDbEntity
  8
V0-OBRYS
  6
CONTINUOUS
 62
    90
100
AcDbLine
 10
273.520445
 20
54.708078
 30
0.0
 11
283.192445
 21
54.708078
 31
0.0
  0
LINE
  5
FA4
330
167D
100
AcDbEntity
  8
V0-OBRYS
  6
CONTINUOUS
 62
    90
100
AcDbLine
 10
273.520445
 20
62.445678
 30
0.0
 11
283.192445
 21
62.445678
 31
0.0
  0
LINE
  5
FA5
330
167D
100
AcDbEntity
  8
V0-OBRYS
  6
CONTINUOUS
 62
    90
100
AcDbLine
 10
273.520445
 20
60.511278
 30
0.0
 11
283.192445
 21
60.511278
 31
0.0
  0
LINE
  5
FA6
330
167D
100
AcDbEntity
  8
V0-OBRYS
  6
CONTINUOUS
 62
    90
100
AcDbLine
 10
273.520445
 20
70.183278
 30
0.0
 11
283.192445
 21
70.183278
 31
0.0
  0
LINE
  5
FA7
330
167D
100
AcDbEntity
  8
V0-OBRYS
  6
CONTINUOUS
 62
    90
100
AcDbLine
 10
273.520445
 20
68.24887800000001
 30
0.0
 11
283.192445
 21
68.24887800000001
 31
0.0
  0
LINE
  5
FA8
330
167D
100
AcDbEntity
  8
V0-OBRYS
  6
CONTINUOUS
 62
    90
100
AcDbLine
 10
273.520445
 20
77.920878
 30
0.0
 11
283.192445
 21
77.920878
 31
0.0
  0
LINE
  5
FA9
330
167D
100
AcDbEntity
  8
V0-OBRYS
  6
CONTINUOUS
 62
    90
100
AcDbLine
 10
273.520445
 20
75.98647800000001
 30
0.0
 11
283.192445
 21
75.98647800000001
 31
0.0
  0
LINE
  5
FAA
330
167D
100
AcDbEntity
  8
V0-OBRYS
  6
CONTINUOUS
 62
    90
100
AcDbLine
 10
273.520445
 20
85.658478
 30
0.0
 11
283.192445
 21
85.658478
 31
0.0
  0
LINE
  5
FAB
330
167D
100
AcDbEntity
  8
V0-OBRYS
  6
CONTINUOUS
 62
    90
100
AcDbLine
 10
273.520445
 20
83.72407800000001
 30
0.0
 11
283.192445
 21
83.72407800000001
 31
0.0
  0
LINE
  5
FAC
330
167D
100
AcDbEntity
  8
V0-OBRYS
  6
CONTINUOUS
 62
    90
100
AcDbLine
 10
273.520445
 20
93.396078
 30
0.0
 11
283.192445
 21
93.396078
 31
0.0
  0
LINE
  5
FAD
330
167D
100
AcDbEntity
  8
V0-OBRYS
  6
CONTINUOUS
 62
    90
100
AcDbLine
 10
273.520445
 20
91.46167800000001
 30
0.0
 11
283.192445
 21
91.46167800000001
 31
0.0
  0
ARC
  5
FAE
330
167D
100
AcDbEntity
  8
V0-OBRYS
  6
CONTINUOUS
 62
    90
100
AcDbCircle
 10
-1327.946133
 20
117.576078
 30
0.0
 40
1608.414203
100
AcDbArc
 50
358.311504
 51
358.518308
  0
LINE
  5
FAF
330
167D
100
AcDbEntity
  8
V0-OBRYS
  6
CONTINUOUS
 62
    90
100
AcDbLine
 10
283.192445
 20
60.511278
 30
0.0
 11
283.192445
 21
62.445678
 31
0.0
  0
ARC
  5
FB0
330
167D
100
AcDbEntity
  8
V0-OBRYS
  6
CONTINUOUS
 62
    90
100
AcDbCircle
 10
-1327.946133
 20
117.576078
 30
0.0
 40
1608.414203
100
AcDbArc
 50
357.759912
 51
357.966781
  0
LINE
  5
FB1
330
167D
100
AcDbEntity
  8
V0-OBRYS
  6
CONTINUOUS
 62
    90
100
AcDbLine
 10
283.192445
 20
68.24887800000001
 30
0.0
 11
283.192445
 21
70.183278
 31
0.0
  0
ARC
  5
FB2
330
167D
100
AcDbEntity
  8
V0-OBRYS
  6
CONTINUOUS
 62
    90
100
AcDbCircle
 10
-1327.946133
 20
117.576078
 30
0.0
 40
1608.414203
100
AcDbArc
 50
358.035731
 51
358.242565
  0
LINE
  5
FB3
330
167D
100
AcDbEntity
  8
V0-OBRYS
  6
CONTINUOUS
 62
    90
100
AcDbLine
 10
283.192445
 20
75.98647800000001
 30
0.0
 11
283.192445
 21
77.920878
 31
0.0
  0
LINE
  5
FB4
330
167D
100
AcDbEntity
  8
V0-OBRYS
  6
CONTINUOUS
 62
    90
100
AcDbLine
 10
283.192445
 20
83.72407800000001
 30
0.0
 11
283.192445
 21
85.658478
 31
0.0
  0
LINE
  5
FB5
330
167D
100
AcDbEntity
  8
V0-OBRYS
  6
CONTINUOUS
 62
    90
100
AcDbLine
 10
283.192445
 20
91.46167800000001
 30
0.0
 11
283.192445
 21
93.396078
 31
0.0
  0
ARC
  5
FB6
330
167D
100
AcDbEntity
  8
V0-OBRYS
  6
CONTINUOUS
 62
    90
100
AcDbCircle
 10
-1327.946133
 20
117.576078
 30
0.0
 40
1608.414203
100
AcDbArc
 50
358.587238
 51
358.794017
  0
ARC
  5
FB7
330
167D
100
AcDbEntity
  8
V0-OBRYS
  6
CONTINUOUS
 62
    90
100
AcDbCircle
 10
-1327.946133
 20
117.576078
 30
0.0
 40
1608.414203
100
AcDbArc
 50
358.86294
 51
359.069698
  0
LINE
  5
FB8
330
167D
100
AcDbEntity
  8
V0-OBRYS
  6
CONTINUOUS
 62
    90
100
AcDbLine
 10
273.520445
 20
70.183278
 30
0.0
 11
273.520445
 21
75.98647800000001
 31
0.0
  0
LINE
  5
FB9
330
167D
100
AcDbEntity
  8
V0-OBRYS
  6
CONTINUOUS
 62
    90
100
AcDbLine
 10
273.520445
 20
54.708078
 30
0.0
 11
273.520445
 21
60.511278
 31
0.0
  0
LINE
  5
FBA
330
167D
100
AcDbEntity
  8
V0-OBRYS
  6
CONTINUOUS
 62
    90
100
AcDbLine
 10
273.520445
 20
62.445678
 30
0.0
 11
273.520445
 21
68.24887800000001
 31
0.0
  0
LINE
  5
FBB
330
167D
100
AcDbEntity
  8
V0-OBRYS
  6
CONTINUOUS
 62
    90
100
AcDbLine
 10
273.520445
 20
77.920878
 30
0.0
 11
273.520445
 21
83.72407800000001
 31
0.0
  0
LINE
  5
FBC
330
167D
100
AcDbEntity
  8
V0-OBRYS
  6
CONTINUOUS
 62
    90
100
AcDbLine
 10
273.520445
 20
85.658478
 30
0.0
 11
273.520445
 21
91.46167800000001
 31
0.0
  0
LINE
  5
FBD
330
167D
100
AcDbEntity
  8
V0-OBRYS
  6
CONTINUOUS
 62
    90
100
AcDbLine
 10
273.520445
 20
103.068078
 30
0.0
 11
283.192445
 21
103.068078
 31
0.0
  0
LINE
  5
FBE
330
167D
100
AcDbEntity
  8
V0-OBRYS
  6
CONTINUOUS
 62
    90
100
AcDbLine
 10
273.520445
 20
101.133678
 30
0.0
 11
283.192445
 21
101.133678
 31
0.0
  0
LINE
  5
FBF
330
167D
100
AcDbEntity
  8
V0-OBRYS
  6
CONTINUOUS
 62
    90
100
AcDbLine
 10
273.520445
 20
110.805678
 30
0.0
 11
283.192445
 21
110.805678
 31
0.0
  0
LINE
  5
FC0
330
167D
100
AcDbEntity
  8
V0-OBRYS
  6
CONTINUOUS
 62
    90
100
AcDbLine
 10
273.520445
 20
108.871278
 30
0.0
 11
283.192445
 21
108.871278
 31
0.0
  0
LINE
  5
FC1
330
167D
100
AcDbEntity
  8
V0-OBRYS
  6
CONTINUOUS
 62
    90
100
AcDbLine
 10
273.520445
 20
118.543278
 30
0.0
 11
283.192445
 21
118.543278
 31
0.0
  0
LINE
  5
FC2
330
167D
100
AcDbEntity
  8
V0-OBRYS
  6
CONTINUOUS
 62
    90
100
AcDbLine
 10
273.520445
 20
116.608878
 30
0.0
 11
283.192445
 21
116.608878
 31
0.0
  0
LINE
  5
FC3
330
167D
100
AcDbEntity
  8
V0-OBRYS
  6
CONTINUOUS
 62
    90
100
AcDbLine
 10
273.520445
 20
126.280878
 30
0.0
 11
283.192445
 21
126.280878
 31
0.0
  0
LINE
  5
FC4
330
167D
100
AcDbEntity
  8
V0-OBRYS
  6
CONTINUOUS
 62
    90
100
AcDbLine
 10
273.520445
 20
124.346478
 30
0.0
 11
283.192445
 21
124.346478
 31
0.0
  0
LINE
  5
FC5
330
167D
100
AcDbEntity
  8
V0-OBRYS
  6
CONTINUOUS
 62
    90
100
AcDbLine
 10
273.520445
 20
134.018478
 30
0.0
 11
283.192445
 21
134.018478
 31
0.0
  0
LINE
  5
FC6
330
167D
100
AcDbEntity
  8
V0-OBRYS
  6
CONTINUOUS
 62
    90
100
AcDbLine
 10
273.520445
 20
132.084078
 30
0.0
 11
283.192445
 21
132.084078
 31
0.0
  0
LINE
  5
FC7
330
167D
100
AcDbEntity
  8
V0-OBRYS
  6
CONTINUOUS
 62
    90
100
AcDbLine
 10
283.192445
 20
101.133678
 30
0.0
 11
283.192445
 21
103.068078
 31
0.0
  0
LINE
  5
FC8
330
167D
100
AcDbEntity
  8
V0-OBRYS
  6
CONTINUOUS
 62
    90
100
AcDbLine
 10
283.192445
 20
108.871278
 30
0.0
 11
283.192445
 21
110.805678
 31
0.0
  0
ARC
  5
FC9
330
167D
100
AcDbEntity
  8
V0-OBRYS
  6
CONTINUOUS
 62
    90
100
AcDbCircle
 10
-1327.946133
 20
117.576078
 30
0.0
 40
1608.414203
100
AcDbArc
 50
359.483181
 51
359.689912
  0
ARC
  5
FCA
330
167D
100
AcDbEntity
  8
V0-OBRYS
  6
CONTINUOUS
 62
    90
100
AcDbCircle
 10
-1327.946133
 20
117.576078
 30
0.0
 40
1608.414203
100
AcDbArc
 50
0.310088
 51
0.516819
  0
LINE
  5
FCB
330
167D
100
AcDbEntity
  8
V0-OBRYS
  6
CONTINUOUS
 62
    90
100
AcDbLine
 10
283.192445
 20
118.543278
 30
0.0
 11
283.192445
 21
116.608878
 31
0.0
  0
LINE
  5
FCC
330
167D
100
AcDbEntity
  8
V0-OBRYS
  6
CONTINUOUS
 62
    90
100
AcDbLine
 10
283.192445
 20
126.280878
 30
0.0
 11
283.192445
 21
124.346478
 31
0.0
  0
LINE
  5
FCD
330
167D
100
AcDbEntity
  8
V0-OBRYS
  6
CONTINUOUS
 62
    90
100
AcDbLine
 10
283.192445
 20
134.018478
 30
0.0
 11
283.192445
 21
132.084078
 31
0.0
  0
LINE
  5
FCE
330
167D
100
AcDbEntity
  8
V0-OBRYS
  6
CONTINUOUS
 62
    90
100
AcDbLine
 10
273.520445
 20
103.068078
 30
0.0
 11
273.520445
 21
108.871278
 31
0.0
  0
LINE
  5
FCF
330
167D
100
AcDbEntity
  8
V0-OBRYS
  6
CONTINUOUS
 62
    90
100
AcDbLine
 10
273.520445
 20
132.084078
 30
0.0
 11
273.520445
 21
126.280878
 31
0.0
  0
LINE
  5
FD0
330
167D
100
AcDbEntity
  8
V0-OBRYS
  6
CONTINUOUS
 62
    90
100
AcDbLine
 10
273.520445
 20
219.132078
 30
0.0
 11
273.520445
 21
213.328878
 31
0.0
  0
LINE
  5
FD1
330
167D
100
AcDbEntity
  8
V0-OBRYS
  6
CONTINUOUS
 62
    90
100
AcDbLine
 10
273.520445
 20
226.187513
 30
0.0
 11
273.520445
 21
205.591278
 31
0.0
  0
ARC
  5
FD2
330
167D
100
AcDbEntity
  8
V0-OBRYS
  6
CONTINUOUS
 62
    90
100
AcDbCircle
 10
-2170.519879
 20
96.96551599999999
 30
0.0
 40
2450.986258
100
AcDbArc
 50
2.540135
 51
4.075532
  0
ARC
  5
FD3
330
167D
100
AcDbEntity
  8
V0-OBRYS
  6
CONTINUOUS
 62
    90
100
AcDbCircle
 10
-1327.946133
 20
117.576078
 30
0.0
 40
1608.414203
100
AcDbArc
 50
2.033219
 51
2.240088
  0
LINE
  5
FD4
330
167D
100
AcDbEntity
  8
V0-OBRYS
  6
CONTINUOUS
 62
    90
100
AcDbLine
 10
273.520445
 20
180.444078
 30
0.0
 11
273.520445
 21
174.640878
 31
0.0
  0
LINE
  5
FD5
330
167D
100
AcDbEntity
  8
V0-OBRYS
  6
CONTINUOUS
 62
    90
100
AcDbLine
 10
273.520445
 20
143.690478
 30
0.0
 11
283.192445
 21
143.690478
 31
0.0
  0
LINE
  5
FD6
330
167D
100
AcDbEntity
  8
V0-OBRYS
  6
CONTINUOUS
 62
    90
100
AcDbLine
 10
273.520445
 20
141.756078
 30
0.0
 11
283.192445
 21
141.756078
 31
0.0
  0
LINE
  5
FD7
330
167D
100
AcDbEntity
  8
V0-OBRYS
  6
CONTINUOUS
 62
    90
100
AcDbLine
 10
273.520445
 20
151.428078
 30
0.0
 11
283.192445
 21
151.428078
 31
0.0
  0
LINE
  5
FD8
330
167D
100
AcDbEntity
  8
V0-OBRYS
  6
CONTINUOUS
 62
    90
100
AcDbLine
 10
273.520445
 20
149.493678
 30
0.0
 11
283.192445
 21
149.493678
 31
0.0
  0
LINE
  5
FD9
330
167D
100
AcDbEntity
  8
V0-OBRYS
  6
CONTINUOUS
 62
    90
100
AcDbLine
 10
273.520445
 20
159.165678
 30
0.0
 11
283.192445
 21
159.165678
 31
0.0
  0
LINE
  5
FDA
330
167D
100
AcDbEntity
  8
V0-OBRYS
  6
CONTINUOUS
 62
    90
100
AcDbLine
 10
273.520445
 20
157.231278
 30
0.0
 11
283.192445
 21
157.231278
 31
0.0
  0
LINE
  5
FDB
330
167D
100
AcDbEntity
  8
V0-OBRYS
  6
CONTINUOUS
 62
    90
100
AcDbLine
 10
273.520445
 20
166.903278
 30
0.0
 11
283.192445
 21
166.903278
 31
0.0
  0
LINE
  5
FDC
330
167D
100
AcDbEntity
  8
V0-OBRYS
  6
CONTINUOUS
 62
    90
100
AcDbLine
 10
273.520445
 20
164.968878
 30
0.0
 11
283.192445
 21
164.968878
 31
0.0
  0
LINE
  5
FDD
330
167D
100
AcDbEntity
  8
V0-OBRYS
  6
CONTINUOUS
 62
    90
100
AcDbLine
 10
273.520445
 20
174.640878
 30
0.0
 11
283.192445
 21
174.640878
 31
0.0
  0
LINE
  5
FDE
330
167D
100
AcDbEntity
  8
V0-OBRYS
  6
CONTINUOUS
 62
    90
100
AcDbLine
 10
273.520445
 20
172.706478
 30
0.0
 11
283.192445
 21
172.706478
 31
0.0
  0
ARC
  5
FDF
330
167D
100
AcDbEntity
  8
V0-OBRYS
  6
CONTINUOUS
 62
    90
100
AcDbCircle
 10
-1327.946133
 20
117.576078
 30
0.0
 40
1608.414203
100
AcDbArc
 50
1.205983
 51
1.412762
  0
ARC
  5
FE0
330
167D
100
AcDbEntity
  8
V0-OBRYS
  6
CONTINUOUS
 62
    90
100
AcDbCircle
 10
-1327.946133
 20
117.576078
 30
0.0
 40
1608.414203
100
AcDbArc
 50
0.930302
 51
1.13706
  0
LINE
  5
FE1
330
167D
100
AcDbEntity
  8
V0-OBRYS
  6
CONTINUOUS
 62
    90
100
AcDbLine
 10
283.192445
 20
143.690478
 30
0.0
 11
283.192445
 21
141.756078
 31
0.0
  0
LINE
  5
FE2
330
167D
100
AcDbEntity
  8
V0-OBRYS
  6
CONTINUOUS
 62
    90
100
AcDbLine
 10
283.192445
 20
151.428078
 30
0.0
 11
283.192445
 21
149.493678
 31
0.0
  0
ARC
  5
FE3
330
167D
100
AcDbEntity
  8
V0-OBRYS
  6
CONTINUOUS
 62
    90
100
AcDbCircle
 10
-1327.946133
 20
117.576078
 30
0.0
 40
1608.414203
100
AcDbArc
 50
1.481692
 51
1.688496
  0
ARC
  5
FE4
330
167D
100
AcDbEntity
  8
V0-OBRYS
  6
CONTINUOUS
 62
    90
100
AcDbCircle
 10
-1327.946133
 20
117.576078
 30
0.0
 40
1608.414203
100
AcDbArc
 50
1.757435
 51
1.964269
  0
LINE
  5
FE5
330
167D
100
AcDbEntity
  8
V0-OBRYS
  6
CONTINUOUS
 62
    90
100
AcDbLine
 10
283.192445
 20
159.165678
 30
0.0
 11
283.192445
 21
157.231278
 31
0.0
  0
LINE
  5
FE6
330
167D
100
AcDbEntity
  8
V0-OBRYS
  6
CONTINUOUS
 62
    90
100
AcDbLine
 10
283.192445
 20
166.903278
 30
0.0
 11
283.192445
 21
164.968878
 31
0.0
  0
LINE
  5
FE7
330
167D
100
AcDbEntity
  8
V0-OBRYS
  6
CONTINUOUS
 62
    90
100
AcDbLine
 10
283.192445
 20
174.640878
 30
0.0
 11
283.192445
 21
172.706478
 31
0.0
  0
LINE
  5
FE8
330
167D
100
AcDbEntity
  8
V0-OBRYS
  6
CONTINUOUS
 62
    90
100
AcDbLine
 10
273.520445
 20
157.231278
 30
0.0
 11
273.520445
 21
151.428078
 31
0.0
  0
LINE
  5
FE9
330
167D
100
AcDbEntity
  8
V0-OBRYS
  6
CONTINUOUS
 62
    90
100
AcDbLine
 10
273.520445
 20
149.493678
 30
0.0
 11
273.520445
 21
143.690478
 31
0.0
  0
LINE
  5
FEA
330
167D
100
AcDbEntity
  8
V0-OBRYS
  6
CONTINUOUS
 62
    90
100
AcDbLine
 10
273.520445
 20
164.968878
 30
0.0
 11
273.520445
 21
159.165678
 31
0.0
  0
LINE
  5
FEB
330
167D
100
AcDbEntity
  8
V0-OBRYS
  6
CONTINUOUS
 62
    90
100
AcDbLine
 10
273.520445
 20
172.706478
 30
0.0
 11
273.520445
 21
166.903278
 31
0.0
  0
LINE
  5
FEC
330
167D
100
AcDbEntity
  8
V0-OBRYS
  6
CONTINUOUS
 62
    90
100
AcDbLine
 10
273.520445
 20
213.328878
 30
0.0
 11
283.192445
 21
213.328878
 31
0.0
  0
LINE
  5
FED
330
167D
100
AcDbEntity
  8
V0-OBRYS
  6
CONTINUOUS
 62
    90
100
AcDbLine
 10
273.520445
 20
211.394478
 30
0.0
 11
283.192445
 21
211.394478
 31
0.0
  0
ARC
  5
FEE
330
167D
100
AcDbEntity
  8
V0-OBRYS
  6
CONTINUOUS
 62
    90
100
AcDbCircle
 10
-1327.946133
 20
117.576078
 30
0.0
 40
1608.414203
100
AcDbArc
 50
2.30905
 51
2.515958
  0
LINE
  5
FEF
330
167D
100
AcDbEntity
  8
V0-OBRYS
  6
CONTINUOUS
 62
    90
100
AcDbLine
 10
273.520445
 20
182.378478
 30
0.0
 11
283.192445
 21
182.378478
 31
0.0
  0
LINE
  5
FF0
330
167D
100
AcDbEntity
  8
V0-OBRYS
  6
CONTINUOUS
 62
    90
100
AcDbLine
 10
273.520445
 20
180.444078
 30
0.0
 11
283.192445
 21
180.444078
 31
0.0
  0
LINE
  5
FF1
330
167D
100
AcDbEntity
  8
V0-OBRYS
  6
CONTINUOUS
 62
    90
100
AcDbLine
 10
273.520445
 20
190.116078
 30
0.0
 11
283.192445
 21
190.116078
 31
0.0
  0
LINE
  5
FF2
330
167D
100
AcDbEntity
  8
V0-OBRYS
  6
CONTINUOUS
 62
    90
100
AcDbLine
 10
273.520445
 20
188.181678
 30
0.0
 11
283.192445
 21
188.181678
 31
0.0
  0
LINE
  5
FF3
330
167D
100
AcDbEntity
  8
V0-OBRYS
  6
CONTINUOUS
 62
    90
100
AcDbLine
 10
273.520445
 20
197.853678
 30
0.0
 11
283.192445
 21
197.853678
 31
0.0
  0
LINE
  5
FF4
330
167D
100
AcDbEntity
  8
V0-OBRYS
  6
CONTINUOUS
 62
    90
100
AcDbLine
 10
273.520445
 20
195.919278
 30
0.0
 11
283.192445
 21
195.919278
 31
0.0
  0
LINE
  5
FF5
330
167D
100
AcDbEntity
  8
V0-OBRYS
  6
CONTINUOUS
 62
    90
100
AcDbLine
 10
273.520445
 20
205.591278
 30
0.0
 11
283.192445
 21
205.591278
 31
0.0
  0
LINE
  5
FF6
330
167D
100
AcDbEntity
  8
V0-OBRYS
  6
CONTINUOUS
 62
    90
100
AcDbLine
 10
273.520445
 20
203.656878
 30
0.0
 11
283.192445
 21
203.656878
 31
0.0
  0
LINE
  5
FF7
330
167D
100
AcDbEntity
  8
V0-OBRYS
  6
CONTINUOUS
 62
    90
100
AcDbLine
 10
283.192445
 20
197.853678
 30
0.0
 11
283.192445
 21
195.919278
 31
0.0
  0
LINE
  5
FF8
330
167D
100
AcDbEntity
  8
V0-OBRYS
  6
CONTINUOUS
 62
    90
100
AcDbLine
 10
283.192445
 20
182.378478
 30
0.0
 11
283.192445
 21
180.444078
 31
0.0
  0
LINE
  5
FF9
330
167D
100
AcDbEntity
  8
V0-OBRYS
  6
CONTINUOUS
 62
    90
100
AcDbLine
 10
283.192445
 20
190.116078
 30
0.0
 11
283.192445
 21
188.181678
 31
0.0
  0
LINE
  5
FFA
330
167D
100
AcDbEntity
  8
V0-OBRYS
  6
CONTINUOUS
 62
    90
100
AcDbLine
 10
283.192445
 20
213.328878
 30
0.0
 11
283.192445
 21
211.394478
 31
0.0
  0
LINE
  5
FFB
330
167D
100
AcDbEntity
  8
V0-OBRYS
  6
CONTINUOUS
 62
    90
100
AcDbLine
 10
283.192445
 20
205.591278
 30
0.0
 11
283.192445
 21
203.656878
 31
0.0
  0
ARC
  5
FFC
330
167D
100
AcDbEntity
  8
V0-OBRYS
  6
CONTINUOUS
 62
    90
100
AcDbCircle
 10
-1327.946133
 20
117.576078
 30
0.0
 40
1608.414203
100
AcDbArc
 50
2.584935000000001
 51
2.791888
  0
LINE
  5
FFD
330
167D
100
AcDbEntity
  8
V0-OBRYS
  6
CONTINUOUS
 62
    90
100
AcDbLine
 10
273.520445
 20
188.181678
 30
0.0
 11
273.520445
 21
182.378478
 31
0.0
  0
LINE
  5
FFE
330
167D
100
AcDbEntity
  8
V0-OBRYS
  6
CONTINUOUS
 62
    90
100
AcDbLine
 10
273.520445
 20
195.919278
 30
0.0
 11
273.520445
 21
190.116078
 31
0.0
  0
ARC
  5
FFF
330
167D
100
AcDbEntity
  8
V0-OBRYS
  6
CONTINUOUS
 62
    90
100
AcDbCircle
 10
-1327.946133
 20
117.576078
 30
0.0
 40
1608.414203
100
AcDbArc
 50
2.86088
 51
3.067881
  0
LINE
  5
1000
330
167D
100
AcDbEntity
  8
V0-OBRYS
  6
CONTINUOUS
 62
    90
100
AcDbLine
 10
273.520445
 20
203.656878
 30
0.0
 11
273.520445
 21
197.853678
 31
0.0
  0
LINE
  5
1001
330
167D
100
AcDbEntity
  8
V0-OBRYS
  6
CONTINUOUS
 62
    90
100
AcDbLine
 10
273.520445
 20
221.066478
 30
0.0
 11
283.192445
 21
221.066478
 31
0.0
  0
LINE
  5
1002
330
167D
100
AcDbEntity
  8
V0-OBRYS
  6
CONTINUOUS
 62
    90
100
AcDbLine
 10
273.520445
 20
219.132078
 30
0.0
 11
283.192445
 21
219.132078
 31
0.0
  0
LINE
  5
1003
330
167D
100
AcDbEntity
  8
V0-OBRYS
  6
CONTINUOUS
 62
    90
100
AcDbLine
 10
283.192445
 20
221.066478
 30
0.0
 11
283.192445
 21
219.132078
 31
0.0
  0
LINE
  5
1004
330
167D
100
AcDbEntity
  8
V0-OBRYS
  6
CONTINUOUS
 62
    90
100
AcDbLine
 10
276.796775
 20
226.187513
 30
0.0
 11
273.520445
 21
226.187513
 31
0.0
  0
ARC
  5
1005
330
167D
100
AcDbEntity
  8
V0-OBRYS
  6
CONTINUOUS
 62
    90
100
AcDbCircle
 10
264.633667
 20
270.31234
 30
0.0
 40
9.672000000000001
100
AcDbArc
 50
5.032259
 51
90.0
  0
LINE
  5
1006
330
167D
100
AcDbEntity
  8
V0-OBRYS
  6
CONTINUOUS
 62
    90
100
AcDbLine
 10
24.511029
 20
141.756078
 30
0.0
 11
24.511029
 21
134.018478
 31
0.0
  0
ARC
  5
1007
330
167D
100
AcDbEntity
  8
V0-OBRYS
  6
CONTINUOUS
 62
    90
100
AcDbCircle
 10
1625.977607
 20
117.576078
 30
0.0
 40
1608.414203
100
AcDbArc
 50
179.138615
 51
179.41427
  0
LINE
  5
1008
330
167D
100
AcDbEntity
  8
V0-OBRYS
  6
CONTINUOUS
 62
    90
100
AcDbLine
 10
43.939029
 20
116.608878
 30
0.0
 11
43.939029
 21
279.98434
 31
0.0
  0
LINE
  5
1009
330
167D
100
AcDbEntity
  8
V0-OBRYS
  6
CONTINUOUS
 62
    90
100
AcDbLine
 10
46.539029
 20
116.608878
 30
0.0
 11
46.539029
 21
279.98434
 31
0.0
  0
LINE
  5
100A
330
167D
100
AcDbEntity
  8
V0-OBRYS
  6
CONTINUOUS
 62
    90
100
AcDbLine
 10
24.511029
 20
124.346478
 30
0.0
 11
24.511029
 21
8.624780000000001
 31
0.0
  0
LINE
  5
100B
330
167D
100
AcDbEntity
  8
V0-OBRYS
  6
CONTINUOUS
 62
    90
100
AcDbLine
 10
14.839029
 20
52.773678
 30
0.0
 11
14.839029
 21
54.708078
 31
0.0
  0
LINE
  5
100C
330
167D
100
AcDbEntity
  8
V0-OBRYS
  6
CONTINUOUS
 62
    90
100
AcDbLine
 10
24.511029
 20
8.624779999999999
 30
0.0
 11
22.050693
 21
8.624779999999999
 31
0.0
  0
LINE
  5
100D
330
167D
100
AcDbEntity
  8
V0-OBRYS
  6
CONTINUOUS
 62
    90
100
AcDbLine
 10
24.511029
 20
52.773678
 30
0.0
 11
14.839029
 21
52.773678
 31
0.0
  0
LINE
  5
100E
330
167D
100
AcDbEntity
  8
V0-OBRYS
  6
CONTINUOUS
 62
    90
100
AcDbLine
 10
24.511029
 20
45.036078
 30
0.0
 11
14.839029
 21
45.036078
 31
0.0
  0
LINE
  5
100F
330
167D
100
AcDbEntity
  8
V0-OBRYS
  6
CONTINUOUS
 62
    90
100
AcDbLine
 10
24.511029
 20
46.970478
 30
0.0
 11
14.839029
 21
46.970478
 31
0.0
  0
LINE
  5
1010
330
167D
100
AcDbEntity
  8
V0-OBRYS
  6
CONTINUOUS
 62
    90
100
AcDbLine
 10
24.511029
 20
37.298478
 30
0.0
 11
14.839029
 21
37.298478
 31
0.0
  0
LINE
  5
1011
330
167D
100
AcDbEntity
  8
V0-OBRYS
  6
CONTINUOUS
 62
    90
100
AcDbLine
 10
24.511029
 20
39.232878
 30
0.0
 11
14.839029
 21
39.232878
 31
0.0
  0
LINE
  5
1012
330
167D
100
AcDbEntity
  8
V0-OBRYS
  6
CONTINUOUS
 62
    90
100
AcDbLine
 10
24.511029
 20
29.560878
 30
0.0
 11
14.839029
 21
29.560878
 31
0.0
  0
LINE
  5
1013
330
167D
100
AcDbEntity
  8
V0-OBRYS
  6
CONTINUOUS
 62
    90
100
AcDbLine
 10
24.511029
 20
31.495278
 30
0.0
 11
14.839029
 21
31.495278
 31
0.0
  0
LINE
  5
1014
330
167D
100
AcDbEntity
  8
V0-OBRYS
  6
CONTINUOUS
 62
    90
100
AcDbLine
 10
24.511029
 20
21.823278
 30
0.0
 11
14.839029
 21
21.823278
 31
0.0
  0
LINE
  5
1015
330
167D
100
AcDbEntity
  8
V0-OBRYS
  6
CONTINUOUS
 62
    90
100
AcDbLine
 10
24.511029
 20
23.757678
 30
0.0
 11
14.839029
 21
23.757678
 31
0.0
  0
LINE
  5
1016
330
167D
100
AcDbEntity
  8
V0-OBRYS
  6
CONTINUOUS
 62
    90
100
AcDbLine
 10
24.511029
 20
14.085678
 30
0.0
 11
14.839029
 21
14.085678
 31
0.0
  0
LINE
  5
1017
330
167D
100
AcDbEntity
  8
V0-OBRYS
  6
CONTINUOUS
 62
    90
100
AcDbLine
 10
24.511029
 20
16.020078
 30
0.0
 11
14.839029
 21
16.020078
 31
0.0
  0
ARC
  5
1018
330
167D
100
AcDbEntity
  8
V0-OBRYS
  6
CONTINUOUS
 62
    90
100
AcDbCircle
 10
1625.977607
 20
117.576078
 30
0.0
 40
1608.414203
100
AcDbArc
 50
182.86088
 51
183.067881
  0
LINE
  5
1019
330
167D
100
AcDbEntity
  8
V0-OBRYS
  6
CONTINUOUS
 62
    90
100
AcDbLine
 10
24.511029
 20
31.495278
 30
0.0
 11
24.511029
 21
37.298478
 31
0.0
  0
LINE
  5
101A
330
167D
100
AcDbEntity
  8
V0-OBRYS
  6
CONTINUOUS
 62
    90
100
AcDbLine
 10
24.511029
 20
16.020078
 30
0.0
 11
24.511029
 21
21.823278
 31
0.0
  0
ARC
  5
101B
330
167D
100
AcDbEntity
  8
V0-OBRYS
  6
CONTINUOUS
 62
    90
100
AcDbCircle
 10
1625.977607
 20
117.576078
 30
0.0
 40
1608.414203
100
AcDbArc
 50
182.584935
 51
182.791888
  0
LINE
  5
101C
330
167D
100
AcDbEntity
  8
V0-OBRYS
  6
CONTINUOUS
 62
    90
100
AcDbLine
 10
24.511029
 20
46.970478
 30
0.0
 11
24.511029
 21
52.773678
 31
0.0
  0
LINE
  5
101D
330
167D
100
AcDbEntity
  8
V0-OBRYS
  6
CONTINUOUS
 62
    90
100
AcDbLine
 10
24.511029
 20
39.232878
 30
0.0
 11
24.511029
 21
45.036078
 31
0.0
  0
ARC
  5
101E
330
167D
100
AcDbEntity
  8
V0-OBRYS
  6
CONTINUOUS
 62
    90
100
AcDbCircle
 10
1625.977607
 20
117.576078
 30
0.0
 40
1608.414203
100
AcDbArc
 50
182.30905
 51
182.515958
  0
LINE
  5
101F
330
167D
100
AcDbEntity
  8
V0-OBRYS
  6
CONTINUOUS
 62
    90
100
AcDbLine
 10
14.839029
 20
29.560878
 30
0.0
 11
14.839029
 21
31.495278
 31
0.0
  0
LINE
  5
1020
330
167D
100
AcDbEntity
  8
V0-OBRYS
  6
CONTINUOUS
 62
    90
100
AcDbLine
 10
14.839029
 20
21.823278
 30
0.0
 11
14.839029
 21
23.757678
 31
0.0
  0
LINE
  5
1021
330
167D
100
AcDbEntity
  8
V0-OBRYS
  6
CONTINUOUS
 62
    90
100
AcDbLine
 10
14.839029
 20
14.085678
 30
0.0
 11
14.839029
 21
16.020078
 31
0.0
  0
LINE
  5
1022
330
167D
100
AcDbEntity
  8
V0-OBRYS
  6
CONTINUOUS
 62
    90
100
AcDbLine
 10
14.839029
 20
45.036078
 30
0.0
 11
14.839029
 21
46.970478
 31
0.0
  0
LINE
  5
1023
330
167D
100
AcDbEntity
  8
V0-OBRYS
  6
CONTINUOUS
 62
    90
100
AcDbLine
 10
14.839029
 20
37.298478
 30
0.0
 11
14.839029
 21
39.232878
 31
0.0
  0
ARC
  5
1025
330
167D
100
AcDbEntity
  8
V0-OBRYS
  6
CONTINUOUS
 62
    90
100
AcDbCircle
 10
1625.977607
 20
117.576078
 30
0.0
 40
1608.414203
100
AcDbArc
 50
180.58573
 51
180.861385
  0
LINE
  5
1026
330
167D
100
AcDbEntity
  8
V0-OBRYS
  6
CONTINUOUS
 62
    90
100
AcDbLine
 10
24.511029
 20
93.396078
 30
0.0
 11
24.511029
 21
101.133678
 31
0.0
  0
LINE
  5
1027
330
167D
100
AcDbEntity
  8
V0-OBRYS
  6
CONTINUOUS
 62
    90
100
AcDbLine
 10
24.511029
 20
91.46167800000001
 30
0.0
 11
14.839029
 21
91.46167800000001
 31
0.0
  0
LINE
  5
1028
330
167D
100
AcDbEntity
  8
V0-OBRYS
  6
CONTINUOUS
 62
    90
100
AcDbLine
 10
24.511029
 20
93.396078
 30
0.0
 11
14.839029
 21
93.396078
 31
0.0
  0
LINE
  5
1029
330
167D
100
AcDbEntity
  8
V0-OBRYS
  6
CONTINUOUS
 62
    90
100
AcDbLine
 10
24.511029
 20
83.72407800000001
 30
0.0
 11
14.839029
 21
83.72407800000001
 31
0.0
  0
LINE
  5
102A
330
167D
100
AcDbEntity
  8
V0-OBRYS
  6
CONTINUOUS
 62
    90
100
AcDbLine
 10
24.511029
 20
85.658478
 30
0.0
 11
14.839029
 21
85.658478
 31
0.0
  0
LINE
  5
102B
330
167D
100
AcDbEntity
  8
V0-OBRYS
  6
CONTINUOUS
 62
    90
100
AcDbLine
 10
24.511029
 20
75.98647800000001
 30
0.0
 11
14.839029
 21
75.98647800000001
 31
0.0
  0
LINE
  5
102C
330
167D
100
AcDbEntity
  8
V0-OBRYS
  6
CONTINUOUS
 62
    90
100
AcDbLine
 10
24.511029
 20
77.920878
 30
0.0
 11
14.839029
 21
77.920878
 31
0.0
  0
LINE
  5
102D
330
167D
100
AcDbEntity
  8
V0-OBRYS
  6
CONTINUOUS
 62
    90
100
AcDbLine
 10
24.511029
 20
68.24887800000001
 30
0.0
 11
14.839029
 21
68.24887800000001
 31
0.0
  0
LINE
  5
102E
330
167D
100
AcDbEntity
  8
V0-OBRYS
  6
CONTINUOUS
 62
    90
100
AcDbLine
 10
24.511029
 20
70.183278
 30
0.0
 11
14.839029
 21
70.183278
 31
0.0
  0
LINE
  5
102F
330
167D
100
AcDbEntity
  8
V0-OBRYS
  6
CONTINUOUS
 62
    90
100
AcDbLine
 10
24.511029
 20
60.511278
 30
0.0
 11
14.839029
 21
60.511278
 31
0.0
  0
LINE
  5
1030
330
167D
100
AcDbEntity
  8
V0-OBRYS
  6
CONTINUOUS
 62
    90
100
AcDbLine
 10
24.511029
 20
62.445678
 30
0.0
 11
14.839029
 21
62.445678
 31
0.0
  0
LINE
  5
1031
330
167D
100
AcDbEntity
  8
V0-OBRYS
  6
CONTINUOUS
 62
    90
100
AcDbLine
 10
24.511029
 20
54.708078
 30
0.0
 11
14.839029
 21
54.708078
 31
0.0
  0
LINE
  5
1032
330
167D
100
AcDbEntity
  8
V0-OBRYS
  6
CONTINUOUS
 62
    90
100
AcDbLine
 10
24.511029
 20
70.183278
 30
0.0
 11
24.511029
 21
75.98647800000001
 31
0.0
  0
ARC
  5
1033
330
167D
100
AcDbEntity
  8
V0-OBRYS
  6
CONTINUOUS
 62
    90
100
AcDbCircle
 10
1625.977607
 20
117.576078
 30
0.0
 40
1608.414203
100
AcDbArc
 50
181.481692
 51
181.688496
  0
LINE
  5
1034
330
167D
100
AcDbEntity
  8
V0-OBRYS
  6
CONTINUOUS
 62
    90
100
AcDbLine
 10
24.511029
 20
62.445678
 30
0.0
 11
24.511029
 21
68.24887800000001
 31
0.0
  0
LINE
  5
1035
330
167D
100
AcDbEntity
  8
V0-OBRYS
  6
CONTINUOUS
 62
    90
100
AcDbLine
 10
24.511029
 20
54.708078
 30
0.0
 11
24.511029
 21
60.511278
 31
0.0
  0
ARC
  5
1036
330
167D
100
AcDbEntity
  8
V0-OBRYS
  6
CONTINUOUS
 62
    90
100
AcDbCircle
 10
1625.977607
 20
117.576078
 30
0.0
 40
1608.414203
100
AcDbArc
 50
181.757435
 51
181.964269
  0
ARC
  5
1037
330
167D
100
AcDbEntity
  8
V0-OBRYS
  6
CONTINUOUS
 62
    90
100
AcDbCircle
 10
1625.977607
 20
117.576078
 30
0.0
 40
1608.414203
100
AcDbArc
 50
182.033219
 51
182.240088
  0
LINE
  5
1038
330
167D
100
AcDbEntity
  8
V0-OBRYS
  6
CONTINUOUS
 62
    90
100
AcDbLine
 10
24.511029
 20
85.658478
 30
0.0
 11
24.511029
 21
91.46167800000001
 31
0.0
  0
LINE
  5
1039
330
167D
100
AcDbEntity
  8
V0-OBRYS
  6
CONTINUOUS
 62
    90
100
AcDbLine
 10
24.511029
 20
77.920878
 30
0.0
 11
24.511029
 21
83.72407800000001
 31
0.0
  0
ARC
  5
103A
330
167D
100
AcDbEntity
  8
V0-OBRYS
  6
CONTINUOUS
 62
    90
100
AcDbCircle
 10
1625.977607
 20
117.576078
 30
0.0
 40
1608.414203
100
AcDbArc
 50
180.930302
 51
181.13706
  0
ARC
  5
103B
330
167D
100
AcDbEntity
  8
V0-OBRYS
  6
CONTINUOUS
 62
    90
100
AcDbCircle
 10
1625.977607
 20
117.576078
 30
0.0
 40
1608.414203
100
AcDbArc
 50
181.205983
 51
181.412762
  0
LINE
  5
103C
330
167D
100
AcDbEntity
  8
V0-OBRYS
  6
CONTINUOUS
 62
    90
100
AcDbLine
 10
14.839029
 20
68.24887800000001
 30
0.0
 11
14.839029
 21
70.183278
 31
0.0
  0
LINE
  5
103D
330
167D
100
AcDbEntity
  8
V0-OBRYS
  6
CONTINUOUS
 62
    90
100
AcDbLine
 10
14.839029
 20
60.511278
 30
0.0
 11
14.839029
 21
62.445678
 31
0.0
  0
LINE
  5
103E
330
167D
100
AcDbEntity
  8
V0-OBRYS
  6
CONTINUOUS
 62
    90
100
AcDbLine
 10
14.839029
 20
91.46167800000001
 30
0.0
 11
14.839029
 21
93.396078
 31
0.0
  0
LINE
  5
103F
330
167D
100
AcDbEntity
  8
V0-OBRYS
  6
CONTINUOUS
 62
    90
100
AcDbLine
 10
14.839029
 20
83.72407800000001
 30
0.0
 11
14.839029
 21
85.658478
 31
0.0
  0
LINE
  5
1040
330
167D
100
AcDbEntity
  8
V0-OBRYS
  6
CONTINUOUS
 62
    90
100
AcDbLine
 10
14.839029
 20
75.98647800000001
 30
0.0
 11
14.839029
 21
77.920878
 31
0.0
  0
LINE
  5
1041
330
167D
100
AcDbEntity
  8
V0-OBRYS
  6
CONTINUOUS
 62
    90
100
AcDbLine
 10
24.511029
 20
132.084078
 30
0.0
 11
14.839029
 21
132.084078
 31
0.0
  0
LINE
  5
1042
330
167D
100
AcDbEntity
  8
V0-OBRYS
  6
CONTINUOUS
 62
    90
100
AcDbLine
 10
24.511029
 20
134.018478
 30
0.0
 11
14.839029
 21
134.018478
 31
0.0
  0
LINE
  5
1043
330
167D
100
AcDbEntity
  8
V0-OBRYS
  6
CONTINUOUS
 62
    90
100
AcDbLine
 10
24.511029
 20
124.346478
 30
0.0
 11
14.839029
 21
124.346478
 31
0.0
  0
LINE
  5
1044
330
167D
100
AcDbEntity
  8
V0-OBRYS
  6
CONTINUOUS
 62
    90
100
AcDbLine
 10
24.511029
 20
126.280878
 30
0.0
 11
14.839029
 21
126.280878
 31
0.0
  0
LINE
  5
1045
330
167D
100
AcDbEntity
  8
V0-OBRYS
  6
CONTINUOUS
 62
    90
100
AcDbLine
 10
24.511029
 20
116.608878
 30
0.0
 11
14.839029
 21
116.608878
 31
0.0
  0
LINE
  5
1046
330
167D
100
AcDbEntity
  8
V0-OBRYS
  6
CONTINUOUS
 62
    90
100
AcDbLine
 10
24.511029
 20
118.543278
 30
0.0
 11
14.839029
 21
118.543278
 31
0.0
  0
LINE
  5
1047
330
167D
100
AcDbEntity
  8
V0-OBRYS
  6
CONTINUOUS
 62
    90
100
AcDbLine
 10
24.511029
 20
108.871278
 30
0.0
 11
14.839029
 21
108.871278
 31
0.0
  0
LINE
  5
1048
330
167D
100
AcDbEntity
  8
V0-OBRYS
  6
CONTINUOUS
 62
    90
100
AcDbLine
 10
24.511029
 20
110.805678
 30
0.0
 11
14.839029
 21
110.805678
 31
0.0
  0
LINE
  5
1049
330
167D
100
AcDbEntity
  8
V0-OBRYS
  6
CONTINUOUS
 62
    90
100
AcDbLine
 10
24.511029
 20
101.133678
 30
0.0
 11
14.839029
 21
101.133678
 31
0.0
  0
LINE
  5
104A
330
167D
100
AcDbEntity
  8
V0-OBRYS
  6
CONTINUOUS
 62
    90
100
AcDbLine
 10
24.511029
 20
103.068078
 30
0.0
 11
14.839029
 21
103.068078
 31
0.0
  0
LINE
  5
104B
330
167D
100
AcDbEntity
  8
V0-OBRYS
  6
CONTINUOUS
 62
    90
100
AcDbLine
 10
24.511029
 20
103.068078
 30
0.0
 11
24.511029
 21
108.871278
 31
0.0
  0
ARC
  5
104C
330
167D
100
AcDbEntity
  8
V0-OBRYS
  6
CONTINUOUS
 62
    90
100
AcDbCircle
 10
1625.977607
 20
117.576078
 30
0.0
 40
1608.414203
100
AcDbArc
 50
180.310088
 51
180.516819
  0
LINE
  5
104D
330
167D
100
AcDbEntity
  8
V0-OBRYS
  6
CONTINUOUS
 62
    90
100
AcDbLine
 10
24.511029
 20
132.084078
 30
0.0
 11
24.511029
 21
126.280878
 31
0.0
  0
ARC
  5
104E
330
167D
100
AcDbEntity
  8
V0-OBRYS
  6
CONTINUOUS
 62
    90
100
AcDbCircle
 10
1625.977607
 20
117.576078
 30
0.0
 40
1608.414203
100
AcDbArc
 50
179.483181
 51
179.689912
  0
LINE
  5
104F
330
167D
100
AcDbEntity
  8
V0-OBRYS
  6
CONTINUOUS
 62
    90
100
AcDbLine
 10
14.839029
 20
108.871278
 30
0.0
 11
14.839029
 21
110.805678
 31
0.0
  0
LINE
  5
1050
330
167D
100
AcDbEntity
  8
V0-OBRYS
  6
CONTINUOUS
 62
    90
100
AcDbLine
 10
14.839029
 20
101.133678
 30
0.0
 11
14.839029
 21
103.068078
 31
0.0
  0
LINE
  5
1051
330
167D
100
AcDbEntity
  8
V0-OBRYS
  6
CONTINUOUS
 62
    90
100
AcDbLine
 10
14.839029
 20
134.018478
 30
0.0
 11
14.839029
 21
132.084078
 31
0.0
  0
LINE
  5
1052
330
167D
100
AcDbEntity
  8
V0-OBRYS
  6
CONTINUOUS
 62
    90
100
AcDbLine
 10
14.839029
 20
126.280878
 30
0.0
 11
14.839029
 21
124.346478
 31
0.0
  0
LINE
  5
1053
330
167D
100
AcDbEntity
  8
V0-OBRYS
  6
CONTINUOUS
 62
    90
100
AcDbLine
 10
14.839029
 20
118.543278
 30
0.0
 11
14.839029
 21
116.608878
 31
0.0
  0
ARC
  5
1054
330
167D
100
AcDbEntity
  8
V0-OBRYS
  6
CONTINUOUS
 62
    90
100
AcDbCircle
 10
2468.551353
 20
96.96551599999999
 30
0.0
 40
2450.986258
100
AcDbArc
 50
175.924468
 51
177.459865
  0
LINE
  5
1055
330
167D
100
AcDbEntity
  8
V0-OBRYS
  6
CONTINUOUS
 62
    90
100
AcDbLine
 10
24.511029
 20
226.187513
 30
0.0
 11
24.511029
 21
205.591278
 31
0.0
  0
LINE
  5
1056
330
167D
100
AcDbEntity
  8
V0-OBRYS
  6
CONTINUOUS
 62
    90
100
AcDbLine
 10
24.511029
 20
219.132078
 30
0.0
 11
24.511029
 21
213.328878
 31
0.0
  0
LINE
  5
1057
330
167D
100
AcDbEntity
  8
V0-OBRYS
  6
CONTINUOUS
 62
    90
100
AcDbLine
 10
24.511029
 20
180.444078
 30
0.0
 11
24.511029
 21
174.640878
 31
0.0
  0
ARC
  5
1058
330
167D
100
AcDbEntity
  8
V0-OBRYS
  6
CONTINUOUS
 62
    90
100
AcDbCircle
 10
1625.977607
 20
117.576078
 30
0.0
 40
1608.414203
100
AcDbArc
 50
177.759912
 51
177.966781
  0
LINE
  5
1059
330
167D
100
AcDbEntity
  8
V0-OBRYS
  6
CONTINUOUS
 62
    90
100
AcDbLine
 10
24.511029
 20
172.706478
 30
0.0
 11
14.839029
 21
172.706478
 31
0.0
  0
LINE
  5
105A
330
167D
100
AcDbEntity
  8
V0-OBRYS
  6
CONTINUOUS
 62
    90
100
AcDbLine
 10
24.511029
 20
174.640878
 30
0.0
 11
14.839029
 21
174.640878
 31
0.0
  0
LINE
  5
105B
330
167D
100
AcDbEntity
  8
V0-OBRYS
  6
CONTINUOUS
 62
    90
100
AcDbLine
 10
24.511029
 20
164.968878
 30
0.0
 11
14.839029
 21
164.968878
 31
0.0
  0
LINE
  5
105C
330
167D
100
AcDbEntity
  8
V0-OBRYS
  6
CONTINUOUS
 62
    90
100
AcDbLine
 10
24.511029
 20
166.903278
 30
0.0
 11
14.839029
 21
166.903278
 31
0.0
  0
LINE
  5
105D
330
167D
100
AcDbEntity
  8
V0-OBRYS
  6
CONTINUOUS
 62
    90
100
AcDbLine
 10
24.511029
 20
157.231278
 30
0.0
 11
14.839029
 21
157.231278
 31
0.0
  0
LINE
  5
105E
330
167D
100
AcDbEntity
  8
V0-OBRYS
  6
CONTINUOUS
 62
    90
100
AcDbLine
 10
24.511029
 20
159.165678
 30
0.0
 11
14.839029
 21
159.165678
 31
0.0
  0
LINE
  5
105F
330
167D
100
AcDbEntity
  8
V0-OBRYS
  6
CONTINUOUS
 62
    90
100
AcDbLine
 10
24.511029
 20
149.493678
 30
0.0
 11
14.839029
 21
149.493678
 31
0.0
  0
LINE
  5
1060
330
167D
100
AcDbEntity
  8
V0-OBRYS
  6
CONTINUOUS
 62
    90
100
AcDbLine
 10
24.511029
 20
151.428078
 30
0.0
 11
14.839029
 21
151.428078
 31
0.0
  0
LINE
  5
1061
330
167D
100
AcDbEntity
  8
V0-OBRYS
  6
CONTINUOUS
 62
    90
100
AcDbLine
 10
24.511029
 20
141.756078
 30
0.0
 11
14.839029
 21
141.756078
 31
0.0
  0
LINE
  5
1062
330
167D
100
AcDbEntity
  8
V0-OBRYS
  6
CONTINUOUS
 62
    90
100
AcDbLine
 10
24.511029
 20
143.690478
 30
0.0
 11
14.839029
 21
143.690478
 31
0.0
  0
LINE
  5
1063
330
167D
100
AcDbEntity
  8
V0-OBRYS
  6
CONTINUOUS
 62
    90
100
AcDbLine
 10
24.511029
 20
157.231278
 30
0.0
 11
24.511029
 21
151.428078
 31
0.0
  0
ARC
  5
1064
330
167D
100
AcDbEntity
  8
V0-OBRYS
  6
CONTINUOUS
 62
    90
100
AcDbCircle
 10
1625.977607
 20
117.576078
 30
0.0
 40
1608.414203
100
AcDbArc
 50
178.587238
 51
178.794017
  0
LINE
  5
1065
330
167D
100
AcDbEntity
  8
V0-OBRYS
  6
CONTINUOUS
 62
    90
100
AcDbLine
 10
24.511029
 20
149.493678
 30
0.0
 11
24.511029
 21
143.690478
 31
0.0
  0
ARC
  5
1066
330
167D
100
AcDbEntity
  8
V0-OBRYS
  6
CONTINUOUS
 62
    90
100
AcDbCircle
 10
1625.977607
 20
117.576078
 30
0.0
 40
1608.414203
100
AcDbArc
 50
178.86294
 51
179.069698
  0
LINE
  5
1067
330
167D
100
AcDbEntity
  8
V0-OBRYS
  6
CONTINUOUS
 62
    90
100
AcDbLine
 10
24.511029
 20
172.706478
 30
0.0
 11
24.511029
 21
166.903278
 31
0.0
  0
LINE
  5
1068
330
167D
100
AcDbEntity
  8
V0-OBRYS
  6
CONTINUOUS
 62
    90
100
AcDbLine
 10
24.511029
 20
164.968878
 30
0.0
 11
24.511029
 21
159.165678
 31
0.0
  0
ARC
  5
1069
330
167D
100
AcDbEntity
  8
V0-OBRYS
  6
CONTINUOUS
 62
    90
100
AcDbCircle
 10
1625.977607
 20
117.576078
 30
0.0
 40
1608.414203
100
AcDbArc
 50
178.035731
 51
178.242565
  0
ARC
  5
106A
330
167D
100
AcDbEntity
  8
V0-OBRYS
  6
CONTINUOUS
 62
    90
100
AcDbCircle
 10
1625.977607
 20
117.576078
 30
0.0
 40
1608.414203
100
AcDbArc
 50
178.311504
 51
178.518308
  0
LINE
  5
106B
330
167D
100
AcDbEntity
  8
V0-OBRYS
  6
CONTINUOUS
 62
    90
100
AcDbLine
 10
14.839029
 20
151.428078
 30
0.0
 11
14.839029
 21
149.493678
 31
0.0
  0
LINE
  5
106C
330
167D
100
AcDbEntity
  8
V0-OBRYS
  6
CONTINUOUS
 62
    90
100
AcDbLine
 10
14.839029
 20
143.690478
 30
0.0
 11
14.839029
 21
141.756078
 31
0.0
  0
LINE
  5
106D
330
167D
100
AcDbEntity
  8
V0-OBRYS
  6
CONTINUOUS
 62
    90
100
AcDbLine
 10
14.839029
 20
174.640878
 30
0.0
 11
14.839029
 21
172.706478
 31
0.0
  0
LINE
  5
106E
330
167D
100
AcDbEntity
  8
V0-OBRYS
  6
CONTINUOUS
 62
    90
100
AcDbLine
 10
14.839029
 20
166.903278
 30
0.0
 11
14.839029
 21
164.968878
 31
0.0
  0
LINE
  5
106F
330
167D
100
AcDbEntity
  8
V0-OBRYS
  6
CONTINUOUS
 62
    90
100
AcDbLine
 10
14.839029
 20
159.165678
 30
0.0
 11
14.839029
 21
157.231278
 31
0.0
  0
LINE
  5
1070
330
167D
100
AcDbEntity
  8
V0-OBRYS
  6
CONTINUOUS
 62
    90
100
AcDbLine
 10
24.511029
 20
203.656878
 30
0.0
 11
14.839029
 21
203.656878
 31
0.0
  0
LINE
  5
1071
330
167D
100
AcDbEntity
  8
V0-OBRYS
  6
CONTINUOUS
 62
    90
100
AcDbLine
 10
24.511029
 20
205.591278
 30
0.0
 11
14.839029
 21
205.591278
 31
0.0
  0
LINE
  5
1072
330
167D
100
AcDbEntity
  8
V0-OBRYS
  6
CONTINUOUS
 62
    90
100
AcDbLine
 10
24.511029
 20
195.919278
 30
0.0
 11
14.839029
 21
195.919278
 31
0.0
  0
LINE
  5
1073
330
167D
100
AcDbEntity
  8
V0-OBRYS
  6
CONTINUOUS
 62
    90
100
AcDbLine
 10
24.511029
 20
197.853678
 30
0.0
 11
14.839029
 21
197.853678
 31
0.0
  0
LINE
  5
1074
330
167D
100
AcDbEntity
  8
V0-OBRYS
  6
CONTINUOUS
 62
    90
100
AcDbLine
 10
24.511029
 20
188.181678
 30
0.0
 11
14.839029
 21
188.181678
 31
0.0
  0
LINE
  5
1075
330
167D
100
AcDbEntity
  8
V0-OBRYS
  6
CONTINUOUS
 62
    90
100
AcDbLine
 10
24.511029
 20
190.116078
 30
0.0
 11
14.839029
 21
190.116078
 31
0.0
  0
LINE
  5
1076
330
167D
100
AcDbEntity
  8
V0-OBRYS
  6
CONTINUOUS
 62
    90
100
AcDbLine
 10
24.511029
 20
180.444078
 30
0.0
 11
14.839029
 21
180.444078
 31
0.0
  0
LINE
  5
1077
330
167D
100
AcDbEntity
  8
V0-OBRYS
  6
CONTINUOUS
 62
    90
100
AcDbLine
 10
24.511029
 20
182.378478
 30
0.0
 11
14.839029
 21
182.378478
 31
0.0
  0
LINE
  5
1078
330
167D
100
AcDbEntity
  8
V0-OBRYS
  6
CONTINUOUS
 62
    90
100
AcDbLine
 10
24.511029
 20
211.394478
 30
0.0
 11
14.839029
 21
211.394478
 31
0.0
  0
LINE
  5
1079
330
167D
100
AcDbEntity
  8
V0-OBRYS
  6
CONTINUOUS
 62
    90
100
AcDbLine
 10
24.511029
 20
213.328878
 30
0.0
 11
14.839029
 21
213.328878
 31
0.0
  0
LINE
  5
107A
330
167D
100
AcDbEntity
  8
V0-OBRYS
  6
CONTINUOUS
 62
    90
100
AcDbLine
 10
24.511029
 20
195.919278
 30
0.0
 11
24.511029
 21
190.116078
 31
0.0
  0
LINE
  5
107B
330
167D
100
AcDbEntity
  8
V0-OBRYS
  6
CONTINUOUS
 62
    90
100
AcDbLine
 10
24.511029
 20
188.181678
 30
0.0
 11
24.511029
 21
182.378478
 31
0.0
  0
ARC
  5
107C
330
167D
100
AcDbEntity
  8
V0-OBRYS
  6
CONTINUOUS
 62
    90
100
AcDbCircle
 10
1625.977607
 20
117.576078
 30
0.0
 40
1608.414203
100
AcDbArc
 50
177.208112
 51
177.415065
  0
ARC
  5
107D
330
167D
100
AcDbEntity
  8
V0-OBRYS
  6
CONTINUOUS
 62
    90
100
AcDbCircle
 10
1625.977607
 20
117.576078
 30
0.0
 40
1608.414203
100
AcDbArc
 50
177.484042
 51
177.69095
  0
LINE
  5
107E
330
167D
100
AcDbEntity
  8
V0-OBRYS
  6
CONTINUOUS
 62
    90
100
AcDbLine
 10
24.511029
 20
203.656878
 30
0.0
 11
24.511029
 21
197.853678
 31
0.0
  0
ARC
  5
107F
330
167D
100
AcDbEntity
  8
V0-OBRYS
  6
CONTINUOUS
 62
    90
100
AcDbCircle
 10
1625.977607
 20
117.576078
 30
0.0
 40
1608.414203
100
AcDbArc
 50
176.932119
 51
177.13912
  0
LINE
  5
1080
330
167D
100
AcDbEntity
  8
V0-OBRYS
  6
CONTINUOUS
 62
    90
100
AcDbLine
 10
14.839029
 20
197.853678
 30
0.0
 11
14.839029
 21
195.919278
 31
0.0
  0
LINE
  5
1081
330
167D
100
AcDbEntity
  8
V0-OBRYS
  6
CONTINUOUS
 62
    90
100
AcDbLine
 10
14.839029
 20
190.116078
 30
0.0
 11
14.839029
 21
188.181678
 31
0.0
  0
LINE
  5
1082
330
167D
100
AcDbEntity
  8
V0-OBRYS
  6
CONTINUOUS
 62
    90
100
AcDbLine
 10
14.839029
 20
182.378478
 30
0.0
 11
14.839029
 21
180.444078
 31
0.0
  0
LINE
  5
1083
330
167D
100
AcDbEntity
  8
V0-OBRYS
  6
CONTINUOUS
 62
    90
100
AcDbLine
 10
14.839029
 20
205.591278
 30
0.0
 11
14.839029
 21
203.656878
 31
0.0
  0
LINE
  5
1084
330
167D
100
AcDbEntity
  8
V0-OBRYS
  6
CONTINUOUS
 62
    90
100
AcDbLine
 10
14.839029
 20
213.328878
 30
0.0
 11
14.839029
 21
211.394478
 31
0.0
  0
LINE
  5
1085
330
167D
100
AcDbEntity
  8
V0-OBRYS
  6
CONTINUOUS
 62
    90
100
AcDbLine
 10
24.511029
 20
219.132078
 30
0.0
 11
14.839029
 21
219.132078
 31
0.0
  0
LINE
  5
1086
330
167D
100
AcDbEntity
  8
V0-OBRYS
  6
CONTINUOUS
 62
    90
100
AcDbLine
 10
24.511029
 20
221.066478
 30
0.0
 11
14.839029
 21
221.066478
 31
0.0
  0
LINE
  5
1087
330
167D
100
AcDbEntity
  8
V0-OBRYS
  6
CONTINUOUS
 62
    90
100
AcDbLine
 10
21.234699
 20
226.187513
 30
0.0
 11
24.511029
 21
226.187513
 31
0.0
  0
LINE
  5
1088
330
167D
100
AcDbEntity
  8
V0-OBRYS
  6
CONTINUOUS
 62
    90
100
AcDbLine
 10
14.839029
 20
221.066478
 30
0.0
 11
14.839029
 21
219.132078
 31
0.0
  0
ARC
  5
1089
330
167D
100
AcDbEntity
  8
V0-OBRYS
  6
CONTINUOUS
 62
    90
100
AcDbCircle
 10
33.397807
 20
270.31234
 30
0.0
 40
9.672000000000001
100
AcDbArc
 50
90.0
 51
174.967741
  0
LINE
  5
10D9
330
167D
100
AcDbEntity
  8
V0-VYPLNE
  6
CONTINUOUS
 62
    63
 48
3.0
100
AcDbLine
 10
33.397807
 20
279.98434
 30
0.0
 11
46.539029
 21
279.98434
 31
0.0
  0
LINE
  5
10DA
330
167D
100
AcDbEntity
  8
V0-VYPLNE
  6
CONTINUOUS
 62
    63
 48
3.0
100
AcDbLine
 10
33.397807
 20
-223.641731
 30
0.0
 11
46.539029
 21
-223.641731
 31
0.0
  0
LINE
  5
10DB
330
167D
100
AcDbEntity
  8
V0-VYPLNE
  6
CONTINUOUS
 62
    63
 48
3.0
100
AcDbLine
 10
33.397807
 20
-44.832184
 30
0.0
 11
46.539029
 21
-44.832184
 31
0.0
  0
LINE
  5
10DC
330
167D
100
AcDbEntity
  8
V0-VYPLNE
  6
CONTINUOUS
 62
    63
 48
3.0
100
AcDbLine
 10
33.397807
 20
-549.458256
 30
0.0
 11
46.539029
 21
-549.458256
 31
0.0
  0
POINT
  5
11FF
330
167D
100
AcDbEntity
  8
V0-VYPLNE
  6
CONTINUOUS
 62
    63
 48
3.0
100
AcDbPoint
 10
109.971631
 20
117.576078
 30
0.0
  0
POINT
  5
1200
330
167D
100
AcDbEntity
  8
V0-VYPLNE
  6
CONTINUOUS
 62
    63
 48
3.0
100
AcDbPoint
 10
109.971631
 20
-386.549994
 30
0.0
  0
TEXT
  5
1653
330
167D
100
AcDbEntity
  8
V0-ZBYTEK
 62
    51
100
AcDbText
 10
451.3318657142858
 20
-348.2534483333333
 30
0.0
 40
26.233946
  1
MALY AXIALNI
  7
ED5
100
AcDbText
  0
TEXT
  5
1654
330
167D
100
AcDbEntity
  8
V0-ZBYTEK
 62
    51
100
AcDbText
 10
475.0673406666667
 20
-391.9766916666666
 30
0.0
 40
26.233946
  1
VENTILATOR
  7
ED5
100
AcDbText
  0
TEXT
  5
1655
330
167D
100
AcDbEntity
  8
V0-NAZVY
100
AcDbText
 10
449.0465015714286
 20
-294.291779
 30
0.0
 40
46.846332
  1
HV 230
  7
ED5
100
AcDbText
  0
VIEWPORT
  5
16FD
330
1679
100
AcDbEntity
 67
     1
  8
0
 60
     1
100
AcDbViewport
 10
0.0
 20
0.0
 30
0.0
 40
10.0
 41
10.0
 68
     0
 69
     1
1001
VD_INVISIBLE_NOT_FOR_READ
1000
VD_INVISIBLE_NOT_FOR_READ
1001
ACAD
1000
MVIEW
1002
{
1070
    16
1010
0.0
1020
0.0
1030
0.0
1010
0.0
1020
0.0
1030
1.0
1040
6.2831853071796
1040
10.0
1040
0.0
1040
0.0
1040
0.0
1040
0.0
1040
0.0
1070
     0
1070
   100
1070
     0
1070
     1
1070
     0
1070
     0
1070
     0
1070
     0
1040
0.0
1040
0.0
1040
0.0
1040
1.0
1040
1.0
1040
0.0
1040
0.0
1070
     0
1002
{
1002
}
1002
}
  0
VIEWPORT
  5
16FE
330
1679
100
AcDbEntity
 67
     1
  8
0
 60
     1
100
AcDbViewport
 10
0.0
 20
0.0
 30
0.0
 40
10.0
 41
10.0
 68
     0
 69
     2
1001
VD_INVISIBLE_NOT_FOR_READ
1000
VD_INVISIBLE_NOT_FOR_READ
1001
ACAD
1000
MVIEW
1002
{
1070
    16
1010
0.0
1020
0.0
1030
0.0
1010
0.0
1020
0.0
1030
1.0
1040
6.2831853071796
1040
10.0
1040
0.0
1040
0.0
1040
0.0
1040
0.0
1040
0.0
1070
     0
1070
   100
1070
     0
1070
     1
1070
     0
1070
     0
1070
     0
1070
     0
1040
0.0
1040
0.0
1040
0.0
1040
1.0
1040
1.0
1040
0.0
1040
0.0
1070
     0
1002
{
1002
}
1002
}
  0
ENDSEC
  0
SECTION
  2
OBJECTS
  0
DICTIONARY
  5
166A
330
0
100
AcDbDictionary
  3
ACAD_GROUP
350
166B
  3
ACAD_LAYOUT
350
1678
  3
ACAD_MLINESTYLE
350
1675
  3
ACAD_PLOTSETTINGS
350
1677
  3
ACDBHEADERROUNDTRIPXREC
350
16FF
  3
VECTORDRAW_OBJECTS
350
168D
  0
DICTIONARY
  5
171F
330
1687
100
AcDbDictionary
280
     1
  3
ACAD_XREC_ROUNDTRIP
360
1720
  0
DICTIONARY
  5
166B
102
{ACAD_REACTORS
330
166A
102
}
330
166A
100
AcDbDictionary
  0
DICTIONARY
  5
1678
102
{ACAD_REACTORS
330
166A
102
}
330
166A
100
AcDbDictionary
  0
DICTIONARY
  5
1675
102
{ACAD_REACTORS
330
166A
102
}
330
166A
100
AcDbDictionary
  3
STANDARD
350
1676
  0
DICTIONARY
  5
1677
102
{ACAD_REACTORS
330
166A
102
}
330
166A
100
AcDbDictionary
  0
DICTIONARY
  5
16FF
102
{ACAD_REACTORS
330
166A
102
}
330
166A
100
AcDbDictionary
  3
CEPSNTYPE
350
1708
  3
DIMSTYLEDATA
350
171E
  3
FINGERPRINTGUID
350
1709
  3
HYPERLINKBASE
350
1702
  3
INSUNITS
350
1707
  3
LAYOUTDICT
350
1704
  3
LWETCUNION
350
1706
  3
PLOTSETDICT
350
1705
  3
PSVPSCALE
350
170B
  3
PUCSBASE
350
170E
  3
PUCSORGBACK
350
1714
  3
PUCSORGBOTTOM
350
1710
  3
PUCSORGFRONT
350
1713
  3
PUCSORGLEFT
350
1711
  3
PUCSORGRIGHT
350
1712
  3
PUCSORGTOP
350
170F
  3
PUCSORTHOREF
350
170C
  3
PUCSORTHOVIEW
350
170D
  3
STYLESHEET
350
1703
  3
TSTACKALIGN
350
1700
  3
TSTACKSIZE
350
1701
  3
UCSBASE
350
1717
  3
UCSORGBACK
350
171D
  3
UCSORGBOTTOM
350
1719
  3
UCSORGFRONT
350
171C
  3
UCSORGLEFT
350
171A
  3
UCSORGRIGHT
350
171B
  3
UCSORGTOP
350
1718
  3
UCSORTHOREF
350
1715
  3
UCSORTHOVIEW
350
1716
  3
VERSIONGUID
350
170A
  0
DICTIONARY
  5
168D
102
{ACAD_REACTORS
330
166A
102
}
330
166A
100
AcDbDictionary
  3
SERIALNO
350
168E
  0
XRECORD
  5
1720
102
{ACAD_REACTORS
330
171F
102
}
330
171F
100
AcDbXrecord
102
UCS
 74
     0
 71
     1
 10
0.0
 20
0.0
 30
0.0
 10
1.0
 20
0.0
 30
0.0
 10
0.0
 20
1.0
 30
0.0
146
0.0
 79
     0
102
VIEW
281
     0
  0
MLINESTYLE
  5
1676
102
{ACAD_REACTORS
330
1675
102
}
330
1675
100
AcDbMlineStyle
  2
Standard
 70
     0
  3

 62
   256
 51
90.0
 52
90.0
 71
     2
 49
0.5
 62
   256
  6
BYLAYER
 49
-0.5
 62
   256
  6
BYLAYER
  0
XRECORD
  5
1708
102
{ACAD_REACTORS
330
16FF
102
}
330
16FF
100
AcDbXrecord
 90
        0
  0
XRECORD
  5
171E
102
{ACAD_REACTORS
330
16FF
102
}
330
16FF
100
AcDbXrecord
1000
DSTYLE
1002
{
1070
    41
 40
15.0
1070
   342
340
1D
1070
   271
 70
     0
1070
    44
 40
1.25
1070
    42
 40
1.0
1070
   147
 40
1.5
1070
    77
 70
     1
1070
    73
 70
     0
1070
   174
 70
     1
1070
   172
 70
     1
1070
    74
 70
     0
1070
   340
340
2F4
1070
   140
 40
10.0
1070
   288
 70
     1
1002
}
  0
XRECORD
  5
1709
102
{ACAD_REACTORS
330
16FF
102
}
330
16FF
100
AcDbXrecord
  1
{FAEB1C30-E019-11D5-929B-00C0DF256EC4}
  0
XRECORD
  5
1702
102
{ACAD_REACTORS
330
16FF
102
}
330
16FF
100
AcDbXrecord
  1

  0
XRECORD
  5
1707
102
{ACAD_REACTORS
330
16FF
102
}
330
16FF
100
AcDbXrecord
 90
        1
  0
XRECORD
  5
1704
102
{ACAD_REACTORS
330
16FF
102
}
330
16FF
100
AcDbXrecord
340
1678
  0
XRECORD
  5
1706
102
{ACAD_REACTORS
330
16FF
102
}
330
16FF
100
AcDbXrecord
 90
     2560
  0
XRECORD
  5
1705
102
{ACAD_REACTORS
330
16FF
102
}
330
16FF
100
AcDbXrecord
340
1677
  0
XRECORD
  5
170B
102
{ACAD_REACTORS
330
16FF
102
}
330
16FF
100
AcDbXrecord
 40
0.0
  0
XRECORD
  5
170E
102
{ACAD_REACTORS
330
16FF
102
}
330
16FF
100
AcDbXrecord
340
0
  0
XRECORD
  5
1714
102
{ACAD_REACTORS
330
16FF
102
}
330
16FF
100
AcDbXrecord
 10
0.0
 20
0.0
 30
0.0
  0
XRECORD
  5
1710
102
{ACAD_REACTORS
330
16FF
102
}
330
16FF
100
AcDbXrecord
 10
0.0
 20
0.0
 30
0.0
  0
XRECORD
  5
1713
102
{ACAD_REACTORS
330
16FF
102
}
330
16FF
100
AcDbXrecord
 10
0.0
 20
0.0
 30
0.0
  0
XRECORD
  5
1711
102
{ACAD_REACTORS
330
16FF
102
}
330
16FF
100
AcDbXrecord
 10
0.0
 20
0.0
 30
0.0
  0
XRECORD
  5
1712
102
{ACAD_REACTORS
330
16FF
102
}
330
16FF
100
AcDbXrecord
 10
0.0
 20
0.0
 30
0.0
  0
XRECORD
  5
170F
102
{ACAD_REACTORS
330
16FF
102
}
330
16FF
100
AcDbXrecord
 10
0.0
 20
0.0
 30
0.0
  0
XRECORD
  5
170C
102
{ACAD_REACTORS
330
16FF
102
}
330
16FF
100
AcDbXrecord
340
0
  0
XRECORD
  5
170D
102
{ACAD_REACTORS
330
16FF
102
}
330
16FF
100
AcDbXrecord
 70
     0
  0
XRECORD
  5
1703
102
{ACAD_REACTORS
330
16FF
102
}
330
16FF
100
AcDbXrecord
  1

  0
XRECORD
  5
1700
102
{ACAD_REACTORS
330
16FF
102
}
330
16FF
100
AcDbXrecord
 90
        1
  0
XRECORD
  5
1701
102
{ACAD_REACTORS
330
16FF
102
}
330
16FF
100
AcDbXrecord
 90
       70
  0
XRECORD
  5
1717
102
{ACAD_REACTORS
330
16FF
102
}
330
16FF
100
AcDbXrecord
340
0
  0
XRECORD
  5
171D
102
{ACAD_REACTORS
330
16FF
102
}
330
16FF
100
AcDbXrecord
 10
0.0
 20
0.0
 30
0.0
  0
XRECORD
  5
1719
102
{ACAD_REACTORS
330
16FF
102
}
330
16FF
100
AcDbXrecord
 10
0.0
 20
0.0
 30
0.0
  0
XRECORD
  5
171C
102
{ACAD_REACTORS
330
16FF
102
}
330
16FF
100
AcDbXrecord
 10
0.0
 20
0.0
 30
0.0
  0
XRECORD
  5
171A
102
{ACAD_REACTORS
330
16FF
102
}
330
16FF
100
AcDbXrecord
 10
0.0
 20
0.0
 30
0.0
  0
XRECORD
  5
171B
102
{ACAD_REACTORS
330
16FF
102
}
330
16FF
100
AcDbXrecord
 10
0.0
 20
0.0
 30
0.0
  0
XRECORD
  5
1718
102
{ACAD_REACTORS
330
16FF
102
}
330
16FF
100
AcDbXrecord
 10
0.0
 20
0.0
 30
0.0
  0
XRECORD
  5
1715
102
{ACAD_REACTORS
330
16FF
102
}
330
16FF
100
AcDbXrecord
340
0
  0
XRECORD
  5
1716
102
{ACAD_REACTORS
330
16FF
102
}
330
16FF
100
AcDbXrecord
 70
     0
  0
XRECORD
  5
170A
102
{ACAD_REACTORS
330
16FF
102
}
330
16FF
100
AcDbXrecord
  1
{FAEB1C32-E019-11D5-929B-00C0DF256EC4}
  0
XRECORD
  5
168E
102
{ACAD_REACTORS
330
168D
102
}
330
168D
100
AcDbXrecord
1000
rInJVR9YY4Q8hfPWdUq5j5319
1070
     4
1070
     6
  0
ENDSEC
  0
EOF
