  0
SECTION
  2
HEADER
  9
$ACADVER
  1
AC1015
  9
$ACADMAINTVER
 70
    13
  9
$DWGCODEPAGE
  3
ANSI_1252
  9
$INSBASE
 10
0.0
 20
0.0
 30
0.0
  9
$EXTMIN
 10
-11.6082169168578
 20
-87.589493031242
 30
0.0
  9
$EXTMAX
 10
2425.535573942934
 20
1517.618799117999
 30
0.0
  9
$LIMMIN
 10
0.0
 20
0.0
  9
$LIMMAX
 10
420.0
 20
297.0
  9
$ORTHOMODE
 70
     0
  9
$REGENMODE
 70
     1
  9
$FILLMODE
 70
     1
  9
$QTEXTMODE
 70
     0
  9
$MIRRTEXT
 70
     1
  9
$LTSCALE
 40
1.0
  9
$ATTMODE
 70
     1
  9
$TEXTSIZE
 40
30.0
  9
$TRACEWID
 40
1.0
  9
$TEXTSTYLE
  7
Standard
  9
$CLAYER
  8
popis
  9
$CELTYPE
  6
ByLayer
  9
$CECOLOR
 62
   256
  9
$CELTSCALE
 40
1.0
  9
$DISPSILH
 70
     0
  9
$DIMSCALE
 40
10.0
  9
$DIMASZ
 40
2.0
  9
$DIMEXO
 40
0.625
  9
$DIMDLI
 40
3.75
  9
$DIMRND
 40
0.0
  9
$DIMDLE
 40
0.0
  9
$DIMEXE
 40
1.25
  9
$DIMTP
 40
0.0
  9
$DIMTM
 40
0.0
  9
$DIMTXT
 40
2.0
  9
$DIMCEN
 40
2.5
  9
$DIMTSZ
 40
0.0
  9
$DIMTOL
 70
     0
  9
$DIMLIM
 70
     0
  9
$DIMTIH
 70
     0
  9
$DIMTOH
 70
     0
  9
$DIMSE1
 70
     0
  9
$DIMSE2
 70
     0
  9
$DIMTAD
 70
     1
  9
$DIMZIN
 70
     8
  9
$DIMBLK
  1

  9
$DIMASO
 70
     1
  9
$DIMSHO
 70
     1
  9
$DIMPOST
  1

  9
$DIMAPOST
  1

  9
$DIMALT
 70
     0
  9
$DIMALTD
 70
     3
  9
$DIMALTF
 40
0.03937007874016
  9
$DIMLFAC
 40
1.0
  9
$DIMTOFL
 70
     1
  9
$DIMTVP
 40
0.0
  9
$DIMTIX
 70
     0
  9
$DIMSOXD
 70
     0
  9
$DIMSAH
 70
     0
  9
$DIMBLK1
  1

  9
$DIMBLK2
  1

  9
$DIMSTYLE
  2
ISO-25
  9
$DIMCLRD
 70
     0
  9
$DIMCLRE
 70
     0
  9
$DIMCLRT
 70
     0
  9
$DIMTFAC
 40
1.0
  9
$DIMGAP
 40
0.625
  9
$DIMJUST
 70
     0
  9
$DIMSD1
 70
     0
  9
$DIMSD2
 70
     0
  9
$DIMTOLJ
 70
     0
  9
$DIMTZIN
 70
     8
  9
$DIMALTZ
 70
     0
  9
$DIMALTTZ
 70
     0
  9
$DIMUPT
 70
     0
  9
$DIMDEC
 70
     2
  9
$DIMTDEC
 70
     2
  9
$DIMALTU
 70
     2
  9
$DIMALTTD
 70
     3
  9
$DIMTXSTY
  7
Standard
  9
$DIMAUNIT
 70
     0
  9
$DIMADEC
 70
     0
  9
$DIMALTRND
 40
0.0
  9
$DIMAZIN
 70
     0
  9
$DIMDSEP
 70
    44
  9
$DIMATFIT
 70
     3
  9
$DIMFRAC
 70
     0
  9
$DIMLDRBLK
  1

  9
$DIMLUNIT
 70
     2
  9
$DIMLWD
 70
    -2
  9
$DIMLWE
 70
    -2
  9
$DIMTMOVE
 70
     0
  9
$LUNITS
 70
     2
  9
$LUPREC
 70
     4
  9
$SKETCHINC
 40
1.0
  9
$FILLETRAD
 40
10.0
  9
$AUNITS
 70
     0
  9
$AUPREC
 70
     0
  9
$MENU
  1
.
  9
$ELEVATION
 40
0.0
  9
$PELEVATION
 40
0.0
  9
$THICKNESS
 40
0.0
  9
$LIMCHECK
 70
     0
  9
$CHAMFERA
 40
10.0
  9
$CHAMFERB
 40
10.0
  9
$CHAMFERC
 40
20.0
  9
$CHAMFERD
 40
0.0
  9
$SKPOLY
 70
     0
  9
$TDCREATE
 40
2453639.734018240
  9
$TDUCREATE
 40
2453639.650684907
  9
$TDUPDATE
 40
2453664.068799004
  9
$TDUUPDATE
 40
2453663.985465671
  9
$TDINDWG
 40
0.0250308218
  9
$TDUSRTIMER
 40
0.0250302431
  9
$USRTIMER
 70
     1
  9
$ANGBASE
 50
0.0
  9
$ANGDIR
 70
     0
  9
$PDMODE
 70
     0
  9
$PDSIZE
 40
0.0
  9
$PLINEWID
 40
0.0
  9
$SPLFRAME
 70
     0
  9
$SPLINETYPE
 70
     6
  9
$SPLINESEGS
 70
     8
  9
$HANDSEED
  5
1A2
  9
$SURFTAB1
 70
     6
  9
$SURFTAB2
 70
     6
  9
$SURFTYPE
 70
     6
  9
$SURFU
 70
     6
  9
$SURFV
 70
     6
  9
$UCSBASE
  2

  9
$UCSNAME
  2

  9
$UCSORG
 10
0.0
 20
0.0
 30
0.0
  9
$UCSXDIR
 10
1.0
 20
0.0
 30
0.0
  9
$UCSYDIR
 10
0.0
 20
1.0
 30
0.0
  9
$UCSORTHOREF
  2

  9
$UCSORTHOVIEW
 70
     1
  9
$UCSORGTOP
 10
0.0
 20
0.0
 30
0.0
  9
$UCSORGBOTTOM
 10
0.0
 20
0.0
 30
0.0
  9
$UCSORGLEFT
 10
0.0
 20
0.0
 30
0.0
  9
$UCSORGRIGHT
 10
0.0
 20
0.0
 30
0.0
  9
$UCSORGFRONT
 10
0.0
 20
0.0
 30
0.0
  9
$UCSORGBACK
 10
0.0
 20
0.0
 30
0.0
  9
$PUCSBASE
  2

  9
$PUCSNAME
  2

  9
$PUCSORG
 10
0.0
 20
0.0
 30
0.0
  9
$PUCSXDIR
 10
1.0
 20
0.0
 30
0.0
  9
$PUCSYDIR
 10
0.0
 20
1.0
 30
0.0
  9
$PUCSORTHOREF
  2

  9
$PUCSORTHOVIEW
 70
     0
  9
$PUCSORGTOP
 10
0.0
 20
0.0
 30
0.0
  9
$PUCSORGBOTTOM
 10
0.0
 20
0.0
 30
0.0
  9
$PUCSORGLEFT
 10
0.0
 20
0.0
 30
0.0
  9
$PUCSORGRIGHT
 10
0.0
 20
0.0
 30
0.0
  9
$PUCSORGFRONT
 10
0.0
 20
0.0
 30
0.0
  9
$PUCSORGBACK
 10
0.0
 20
0.0
 30
0.0
  9
$USERI1
 70
     0
  9
$USERI2
 70
     0
  9
$USERI3
 70
     0
  9
$USERI4
 70
     0
  9
$USERI5
 70
     0
  9
$USERR1
 40
0.0
  9
$USERR2
 40
0.0
  9
$USERR3
 40
0.0
  9
$USERR4
 40
0.0
  9
$USERR5
 40
0.0
  9
$WORLDVIEW
 70
     1
  9
$SHADEDGE
 70
     3
  9
$SHADEDIF
 70
    70
  9
$TILEMODE
 70
     1
  9
$MAXACTVP
 70
    64
  9
$PINSBASE
 10
0.0
 20
0.0
 30
0.0
  9
$PLIMCHECK
 70
     0
  9
$PEXTMIN
 10
1.000000000000000E+20
 20
1.000000000000000E+20
 30
1.000000000000000E+20
  9
$PEXTMAX
 10
-1.000000000000000E+20
 20
-1.000000000000000E+20
 30
-1.000000000000000E+20
  9
$PLIMMIN
 10
0.0
 20
0.0
  9
$PLIMMAX
 10
420.0
 20
297.0
  9
$UNITMODE
 70
     0
  9
$VISRETAIN
 70
     1
  9
$PLINEGEN
 70
     0
  9
$PSLTSCALE
 70
     1
  9
$TREEDEPTH
 70
  3020
  9
$CMLSTYLE
  2
Standard
  9
$CMLJUST
 70
     0
  9
$CMLSCALE
 40
20.0
  9
$PROXYGRAPHICS
 70
     1
  9
$MEASUREMENT
 70
     1
  9
$CELWEIGHT
370
    -1
  9
$ENDCAPS
280
     0
  9
$JOINSTYLE
280
     0
  9
$LWDISPLAY
290
     0
  9
$INSUNITS
 70
     4
  9
$HYPERLINKBASE
  1

  9
$STYLESHEET
  1

  9
$XEDIT
290
     1
  9
$CEPSNTYPE
380
     0
  9
$PSTYLEMODE
290
     1
  9
$FINGERPRINTGUID
  2
{9B47308E-04D6-42FB-BD32-F27AC533D1CD}
  9
$VERSIONGUID
  2
{8A34B5C8-98F8-4F5A-ACC7-E18BD69A1960}
  9
$EXTNAMES
290
     1
  9
$PSVPSCALE
 40
0.0
  9
$OLESTARTUP
290
     0
  0
ENDSEC
  0
SECTION
  2
CLASSES
  0
CLASS
  1
ACDBDICTIONARYWDFLT
  2
AcDbDictionaryWithDefault
  3
AutoCAD 2000
 90
        0
280
     0
281
     0
  0
CLASS
  1
ACDBPLACEHOLDER
  2
AcDbPlaceHolder
  3
AutoCAD 2000
 90
        0
280
     0
281
     0
  0
CLASS
  1
LAYOUT
  2
AcDbLayout
  3
AutoCAD 2000
 90
        0
280
     0
281
     0
  0
CLASS
  1
DICTIONARYVAR
  2
AcDbDictionaryVar
  3
AutoCAD 2000
 90
        0
280
     0
281
     0
  0
CLASS
  1
DIMASSOC
  2
AcDbDimAssoc
  3
"AcDbDimAssoc|Product Desc:     AcDim ARX App For Dimension|Company:          Autodesk, Inc.|WEB Address:      www.autodesk.com"
 90
        0
280
     0
281
     0
  0
ENDSEC
  0
SECTION
  2
TABLES
  0
TABLE
  2
VPORT
  5
8
330
0
100
AcDbSymbolTable
 70
     2
  0
VPORT
  5
1A1
330
8
100
AcDbSymbolTableRecord
100
AcDbViewportTableRecord
  2
*Active
 70
     0
 10
0.0
 20
0.0
 11
1.0
 21
1.0
 12
1206.963678513038
 22
715.0146530433785
 13
0.0
 23
0.0
 14
10.0
 24
10.0
 15
10.0
 25
10.0
 16
0.0
 26
0.0
 36
1.0
 17
0.0
 27
0.0
 37
0.0
 40
1623.801438390351
 41
1.83558994197292
 42
50.0
 43
0.0
 44
0.0
 50
0.0
 51
0.0
 71
     0
 72
   100
 73
     1
 74
     3
 75
     0
 76
     0
 77
     0
 78
     0
281
     0
 65
     1
110
0.0
120
0.0
130
0.0
111
1.0
121
0.0
131
0.0
112
0.0
122
1.0
132
0.0
 79
     1
146
0.0
  0
ENDTAB
  0
TABLE
  2
LTYPE
  5
5
330
0
100
AcDbSymbolTable
 70
     1
  0
LTYPE
  5
14
330
5
100
AcDbSymbolTableRecord
100
AcDbLinetypeTableRecord
  2
ByBlock
 70
     0
  3

 72
    65
 73
     0
 40
0.0
  0
LTYPE
  5
15
330
5
100
AcDbSymbolTableRecord
100
AcDbLinetypeTableRecord
  2
ByLayer
 70
     0
  3

 72
    65
 73
     0
 40
0.0
  0
LTYPE
  5
16
330
5
100
AcDbSymbolTableRecord
100
AcDbLinetypeTableRecord
  2
Continuous
 70
     0
  3
Solid line
 72
    65
 73
     0
 40
0.0
  0
ENDTAB
  0
TABLE
  2
LAYER
  5
2
330
0
100
AcDbSymbolTable
 70
     4
  0
LAYER
  5
10
330
2
100
AcDbSymbolTableRecord
100
AcDbLayerTableRecord
  2
0
 70
     0
 62
    90
  6
Continuous
370
    -3
390
F
  0
LAYER
  5
2B
330
2
100
AcDbSymbolTableRecord
100
AcDbLayerTableRecord
  2
koty
 70
     0
 62
    41
  6
Continuous
370
    -3
390
F
  0
LAYER
  5
2C
330
2
100
AcDbSymbolTableRecord
100
AcDbLayerTableRecord
  2
popis
 70
     0
 62
   210
  6
Continuous
370
    -3
390
F
  0
LAYER
  5
106
330
2
100
AcDbSymbolTableRecord
100
AcDbLayerTableRecord
  2
Defpoints
 70
     0
 62
     7
  6
Continuous
290
     0
370
    -3
390
F
  0
ENDTAB
  0
TABLE
  2
STYLE
  5
3
330
0
100
AcDbSymbolTable
 70
     1
  0
STYLE
  5
11
330
3
100
AcDbSymbolTableRecord
100
AcDbTextStyleTableRecord
  2
Standard
 70
     0
 40
0.0
 41
1.0
 50
0.0
 71
     0
 42
30.0
  3
txt
  4

  0
ENDTAB
  0
TABLE
  2
VIEW
  5
6
330
0
100
AcDbSymbolTable
 70
     0
  0
ENDTAB
  0
TABLE
  2
UCS
  5
7
330
0
100
AcDbSymbolTable
 70
     0
  0
ENDTAB
  0
TABLE
  2
APPID
  5
9
330
0
100
AcDbSymbolTable
 70
     1
  0
APPID
  5
12
330
9
100
AcDbSymbolTableRecord
100
AcDbRegAppTableRecord
  2
ACAD
 70
     0
  0
ENDTAB
  0
TABLE
  2
DIMSTYLE
  5
A
330
0
100
AcDbSymbolTable
 70
     1
100
AcDbDimStyleTable
 71
     1
340
27
  0
DIMSTYLE
105
27
102
{ACAD_REACTORS
330
105
330
11E
330
136
330
14E
330
166
330
17E
102
}
330
A
100
AcDbSymbolTableRecord
100
AcDbDimStyleTableRecord
  2
ISO-25
 70
     0
 40
10.0
 41
2.0
 42
0.625
 43
3.75
 44
1.25
 73
     0
 74
     0
 77
     1
 78
     8
140
2.0
141
2.5
143
0.03937007874016
147
0.625
171
     3
172
     1
271
     2
272
     2
274
     3
278
    44
283
     0
284
     8
340
11
  0
ENDTAB
  0
TABLE
  2
BLOCK_RECORD
  5
1
330
0
100
AcDbSymbolTable
 70
     8
  0
BLOCK_RECORD
  5
1F
330
1
100
AcDbSymbolTableRecord
100
AcDbBlockTableRecord
  2
*Model_Space
340
22
  0
BLOCK_RECORD
  5
1B
330
1
100
AcDbSymbolTableRecord
100
AcDbBlockTableRecord
  2
*Paper_Space
340
1E
  0
BLOCK_RECORD
  5
23
330
1
100
AcDbSymbolTableRecord
100
AcDbBlockTableRecord
  2
*Paper_Space0
340
26
  0
BLOCK_RECORD
  5
44
330
1
100
AcDbSymbolTableRecord
100
AcDbBlockTableRecord
  2
A$C6B7417A8
340
0
  0
BLOCK_RECORD
  5
107
330
1
100
AcDbSymbolTableRecord
100
AcDbBlockTableRecord
  2
*D2
340
0
  0
BLOCK_RECORD
  5
11F
330
1
100
AcDbSymbolTableRecord
100
AcDbBlockTableRecord
  2
*D3
340
0
  0
BLOCK_RECORD
  5
137
330
1
100
AcDbSymbolTableRecord
100
AcDbBlockTableRecord
  2
*D4
340
0
  0
BLOCK_RECORD
  5
14F
330
1
100
AcDbSymbolTableRecord
100
AcDbBlockTableRecord
  2
*D5
340
0
  0
BLOCK_RECORD
  5
167
330
1
100
AcDbSymbolTableRecord
100
AcDbBlockTableRecord
  2
*D6
340
0
  0
BLOCK_RECORD
  5
17F
330
1
100
AcDbSymbolTableRecord
100
AcDbBlockTableRecord
  2
*D7
340
0
  0
ENDTAB
  0
ENDSEC
  0
SECTION
  2
BLOCKS
  0
BLOCK
  5
20
330
1F
100
AcDbEntity
  8
0
100
AcDbBlockBegin
  2
*Model_Space
 70
     0
 10
0.0
 20
0.0
 30
0.0
  3
*Model_Space
  1

  0
ENDBLK
  5
21
330
1F
100
AcDbEntity
  8
0
100
AcDbBlockEnd
  0
BLOCK
  5
1C
330
1B
100
AcDbEntity
 67
     1
  8
0
100
AcDbBlockBegin
  2
*Paper_Space
 70
     0
 10
0.0
 20
0.0
 30
0.0
  3
*Paper_Space
  1

  0
ENDBLK
  5
1D
330
1B
100
AcDbEntity
 67
     1
  8
0
100
AcDbBlockEnd
  0
BLOCK
  5
24
330
23
100
AcDbEntity
  8
0
100
AcDbBlockBegin
  2
*Paper_Space0
 70
     0
 10
0.0
 20
0.0
 30
0.0
  3
*Paper_Space0
  1

  0
ENDBLK
  5
25
330
23
100
AcDbEntity
  8
0
100
AcDbBlockEnd
  0
BLOCK
  5
46
330
44
100
AcDbEntity
  8
0
100
AcDbBlockBegin
  2
A$C6B7417A8
 70
     0
 10
0.0
 20
0.0
 30
0.0
  3
A$C6B7417A8
  1

  0
LINE
  5
45
330
44
100
AcDbEntity
  8
0
100
AcDbLine
 10
0.0
 20
61.51431411503745
 30
0.0
 11
222.5935172049512
 21
0.0
 31
0.0
  0
ENDBLK
  5
47
330
44
100
AcDbEntity
  8
0
100
AcDbBlockEnd
  0
BLOCK
  5
111
330
107
100
AcDbEntity
  8
0
100
AcDbBlockBegin
  2
*D2
 70
     1
 10
0.0
 20
0.0
 30
0.0
  3
*D2
  1

  0
LINE
  5
114
330
107
100
AcDbEntity
  8
koty
 62
     0
370
    -2
100
AcDbLine
 10
139.9717650421748
 20
40.63715800106115
 30
0.0
 11
139.9717650421748
 21
-87.589493031242
 31
0.0
  0
LINE
  5
115
330
107
100
AcDbEntity
  8
koty
 62
     0
370
    -2
100
AcDbLine
 10
1514.971765042175
 20
40.63715800106115
 30
0.0
 11
1514.971765042175
 21
-87.589493031242
 31
0.0
  0
LINE
  5
116
330
107
100
AcDbEntity
  8
koty
 62
     0
370
    -2
100
AcDbLine
 10
159.9717650421748
 20
-75.089493031242
 30
0.0
 11
1494.971765042174
 21
-75.089493031242
 31
0.0
  0
SOLID
  5
117
330
107
100
AcDbEntity
  8
koty
 62
     0
100
AcDbTrace
 10
159.9717650421748
 20
-71.75615969790867
 30
0.0
 11
159.9717650421748
 21
-78.42282636457532
 31
0.0
 12
139.9717650421748
 22
-75.089493031242
 32
0.0
 13
139.9717650421748
 23
-75.089493031242
 33
0.0
  0
SOLID
  5
118
330
107
100
AcDbEntity
  8
koty
 62
     0
100
AcDbTrace
 10
1494.971765042174
 20
-71.75615969790867
 30
0.0
 11
1494.971765042174
 21
-78.42282636457532
 31
0.0
 12
1514.971765042175
 22
-75.089493031242
 32
0.0
 13
1514.971765042175
 23
-75.089493031242
 33
0.0
  0
MTEXT
  5
119
330
107
100
AcDbEntity
  8
koty
 62
     0
100
AcDbMText
 10
827.4717650421749
 20
-58.839493031242
 30
0.0
 40
20.0
 41
0.0
 71
     5
 72
     1
  1
1375
 73
     1
 44
1.0
  0
POINT
  5
11A
330
107
100
AcDbEntity
  8
Defpoints
 62
     0
100
AcDbPoint
 10
139.9717650421748
 20
46.88715800106115
 30
0.0
  0
POINT
  5
11B
330
107
100
AcDbEntity
  8
Defpoints
 62
     0
100
AcDbPoint
 10
1514.971765042175
 20
46.88715800106115
 30
0.0
  0
POINT
  5
11C
330
107
100
AcDbEntity
  8
Defpoints
 62
     0
100
AcDbPoint
 10
1514.971765042175
 20
-75.089493031242
 30
0.0
  0
ENDBLK
  5
112
330
107
100
AcDbEntity
  8
0
100
AcDbBlockEnd
  0
BLOCK
  5
129
330
11F
100
AcDbEntity
  8
0
100
AcDbBlockBegin
  2
*D3
 70
     1
 10
0.0
 20
0.0
 30
0.0
  3
*D3
  1

  0
LINE
  5
12C
330
11F
100
AcDbEntity
  8
koty
 62
     0
370
    -2
100
AcDbLine
 10
133.7217650421748
 20
46.88715800106115
 30
0.0
 11
2.141783083142154
 21
46.88715800106119
 31
0.0
  0
LINE
  5
12D
330
11F
100
AcDbEntity
  8
koty
 62
     0
370
    -2
100
AcDbLine
 10
133.7217650421748
 20
1421.887158001061
 30
0.0
 11
2.141783083142459
 21
1421.887158001061
 31
0.0
  0
LINE
  5
12E
330
11F
100
AcDbEntity
  8
koty
 62
     0
370
    -2
100
AcDbLine
 10
14.64178308314216
 20
66.88715800106118
 30
0.0
 11
14.64178308314246
 21
1401.887158001061
 31
0.0
  0
SOLID
  5
12F
330
11F
100
AcDbEntity
  8
koty
 62
     0
100
AcDbTrace
 10
11.30844974980883
 20
66.88715800106118
 30
0.0
 11
17.97511641647549
 21
66.88715800106118
 31
0.0
 12
14.64178308314216
 22
46.88715800106119
 32
0.0
 13
14.64178308314216
 23
46.88715800106119
 33
0.0
  0
SOLID
  5
130
330
11F
100
AcDbEntity
  8
koty
 62
     0
100
AcDbTrace
 10
11.30844974980912
 20
1401.887158001061
 30
0.0
 11
17.97511641647579
 21
1401.887158001061
 31
0.0
 12
14.64178308314246
 22
1421.887158001061
 32
0.0
 13
14.64178308314246
 23
1421.887158001061
 33
0.0
  0
MTEXT
  5
131
330
11F
100
AcDbEntity
  8
koty
 62
     0
100
AcDbMText
 10
-1.608216916857805
 20
734.3871580010612
 30
0.0
 40
20.0
 41
0.0
 71
     5
 72
     1
  1
1375
 11
0.0000000000000001
 21
1.0
 31
0.0
 73
     1
 44
1.0
  0
POINT
  5
132
330
11F
100
AcDbEntity
  8
Defpoints
 62
     0
100
AcDbPoint
 10
139.9717650421748
 20
46.88715800106115
 30
0.0
  0
POINT
  5
133
330
11F
100
AcDbEntity
  8
Defpoints
 62
     0
100
AcDbPoint
 10
139.9717650421748
 20
1421.887158001061
 30
0.0
  0
POINT
  5
134
330
11F
100
AcDbEntity
  8
Defpoints
 62
     0
100
AcDbPoint
 10
14.64178308314246
 20
1421.887158001061
 30
0.0
  0
ENDBLK
  5
12A
330
11F
100
AcDbEntity
  8
0
100
AcDbBlockEnd
  0
BLOCK
  5
141
330
137
100
AcDbEntity
  8
0
100
AcDbBlockBegin
  2
*D4
 70
     1
 10
0.0
 20
0.0
 30
0.0
  3
*D4
  1

  0
LINE
  5
144
330
137
100
AcDbEntity
  8
koty
 62
     0
370
    -2
100
AcDbLine
 10
1767.243008846423
 20
40.63715800106115
 30
0.0
 11
1767.243008846423
 21
-83.65791097624015
 31
0.0
  0
LINE
  5
145
330
137
100
AcDbEntity
  8
koty
 62
     0
370
    -2
100
AcDbLine
 10
2247.243008846423
 20
40.63715800106115
 30
0.0
 11
2247.243008846423
 21
-83.65791097624015
 31
0.0
  0
LINE
  5
146
330
137
100
AcDbEntity
  8
koty
 62
     0
370
    -2
100
AcDbLine
 10
1787.243008846423
 20
-71.15791097624015
 30
0.0
 11
2227.243008846423
 21
-71.15791097624015
 31
0.0
  0
SOLID
  5
147
330
137
100
AcDbEntity
  8
koty
 62
     0
100
AcDbTrace
 10
1787.243008846423
 20
-67.82457764290682
 30
0.0
 11
1787.243008846423
 21
-74.49124430957347
 31
0.0
 12
1767.243008846423
 22
-71.15791097624015
 32
0.0
 13
1767.243008846423
 23
-71.15791097624015
 33
0.0
  0
SOLID
  5
148
330
137
100
AcDbEntity
  8
koty
 62
     0
100
AcDbTrace
 10
2227.243008846423
 20
-67.82457764290682
 30
0.0
 11
2227.243008846423
 21
-74.49124430957347
 31
0.0
 12
2247.243008846423
 22
-71.15791097624015
 32
0.0
 13
2247.243008846423
 23
-71.15791097624015
 33
0.0
  0
MTEXT
  5
149
330
137
100
AcDbEntity
  8
koty
 62
     0
100
AcDbMText
 10
2007.243008846423
 20
-54.90791097624015
 30
0.0
 40
20.0
 41
0.0
 71
     5
 72
     1
  1
480
 73
     1
 44
1.0
  0
POINT
  5
14A
330
137
100
AcDbEntity
  8
Defpoints
 62
     0
100
AcDbPoint
 10
1767.243008846423
 20
46.88715800106115
 30
0.0
  0
POINT
  5
14B
330
137
100
AcDbEntity
  8
Defpoints
 62
     0
100
AcDbPoint
 10
2247.243008846423
 20
46.88715800106115
 30
0.0
  0
POINT
  5
14C
330
137
100
AcDbEntity
  8
Defpoints
 62
     0
100
AcDbPoint
 10
2247.243008846423
 20
-71.15791097624015
 30
0.0
  0
ENDBLK
  5
142
330
137
100
AcDbEntity
  8
0
100
AcDbBlockEnd
  0
BLOCK
  5
159
330
14F
100
AcDbEntity
  8
0
100
AcDbBlockBegin
  2
*D5
 70
     1
 10
0.0
 20
0.0
 30
0.0
  3
*D5
  1

  0
LINE
  5
15C
330
14F
100
AcDbEntity
  8
koty
 62
     0
370
    -2
100
AcDbLine
 10
2073.493008846423
 20
454.3871580010611
 30
0.0
 11
2425.535573942934
 21
454.3871580010611
 31
0.0
  0
LINE
  5
15D
330
14F
100
AcDbEntity
  8
koty
 62
     0
370
    -2
100
AcDbLine
 10
2073.493008846423
 20
1014.387158001061
 30
0.0
 11
2425.535573942934
 21
1014.387158001061
 31
0.0
  0
LINE
  5
15E
330
14F
100
AcDbEntity
  8
koty
 62
     0
370
    -2
100
AcDbLine
 10
2413.035573942934
 20
474.3871580010611
 30
0.0
 11
2413.035573942934
 21
994.3871580010609
 31
0.0
  0
SOLID
  5
15F
330
14F
100
AcDbEntity
  8
koty
 62
     0
100
AcDbTrace
 10
2409.7022406096
 20
474.3871580010611
 30
0.0
 11
2416.368907276268
 21
474.3871580010611
 31
0.0
 12
2413.035573942934
 22
454.3871580010611
 32
0.0
 13
2413.035573942934
 23
454.3871580010611
 33
0.0
  0
SOLID
  5
160
330
14F
100
AcDbEntity
  8
koty
 62
     0
100
AcDbTrace
 10
2409.7022406096
 20
994.3871580010609
 30
0.0
 11
2416.368907276268
 21
994.3871580010609
 31
0.0
 12
2413.035573942934
 22
1014.387158001061
 32
0.0
 13
2413.035573942934
 23
1014.387158001061
 33
0.0
  0
MTEXT
  5
161
330
14F
100
AcDbEntity
  8
koty
 62
     0
100
AcDbMText
 10
2396.785573942934
 20
734.3871580010614
 30
0.0
 40
20.0
 41
0.0
 71
     5
 72
     1
  1
560
 11
0.0000000000000001
 21
1.0
 31
0.0
 73
     1
 44
1.0
  0
POINT
  5
162
330
14F
100
AcDbEntity
  8
Defpoints
 62
     0
100
AcDbPoint
 10
2067.243008846423
 20
454.3871580010611
 30
0.0
  0
POINT
  5
163
330
14F
100
AcDbEntity
  8
Defpoints
 62
     0
100
AcDbPoint
 10
2067.243008846423
 20
1014.387158001061
 30
0.0
  0
POINT
  5
164
330
14F
100
AcDbEntity
  8
Defpoints
 62
     0
100
AcDbPoint
 10
2413.035573942934
 20
1014.387158001061
 30
0.0
  0
ENDBLK
  5
15A
330
14F
100
AcDbEntity
  8
0
100
AcDbBlockEnd
  0
BLOCK
  5
171
330
167
100
AcDbEntity
  8
0
100
AcDbBlockBegin
  2
*D6
 70
     1
 10
0.0
 20
0.0
 30
0.0
  3
*D6
  1

  0
LINE
  5
174
330
167
100
AcDbEntity
  8
koty
 62
     0
370
    -2
100
AcDbLine
 10
2067.243008846423
 20
448.1371580010611
 30
0.0
 11
2067.243008846423
 21
-22.7364891195175
 31
0.0
  0
LINE
  5
175
330
167
100
AcDbEntity
  8
koty
 62
     0
370
    -2
100
AcDbLine
 10
2247.243008846423
 20
40.63715800106115
 30
0.0
 11
2247.243008846423
 21
-22.7364891195175
 31
0.0
  0
LINE
  5
176
330
167
100
AcDbEntity
  8
koty
 62
     0
370
    -2
100
AcDbLine
 10
2087.243008846423
 20
-10.2364891195175
 30
0.0
 11
2227.243008846423
 21
-10.2364891195175
 31
0.0
  0
SOLID
  5
177
330
167
100
AcDbEntity
  8
koty
 62
     0
100
AcDbTrace
 10
2087.243008846423
 20
-6.903155786184167
 30
0.0
 11
2087.243008846423
 21
-13.56982245285083
 31
0.0
 12
2067.243008846423
 22
-10.2364891195175
 32
0.0
 13
2067.243008846423
 23
-10.2364891195175
 33
0.0
  0
SOLID
  5
178
330
167
100
AcDbEntity
  8
koty
 62
     0
100
AcDbTrace
 10
2227.243008846423
 20
-6.903155786184167
 30
0.0
 11
2227.243008846423
 21
-13.56982245285083
 31
0.0
 12
2247.243008846423
 22
-10.2364891195175
 32
0.0
 13
2247.243008846423
 23
-10.2364891195175
 33
0.0
  0
MTEXT
  5
179
330
167
100
AcDbEntity
  8
koty
 62
     0
100
AcDbMText
 10
2157.243008846423
 20
6.013510880482499
 30
0.0
 40
20.0
 41
0.0
 71
     5
 72
     1
  1
180
 73
     1
 44
1.0
  0
POINT
  5
17A
330
167
100
AcDbEntity
  8
Defpoints
 62
     0
100
AcDbPoint
 10
2067.243008846423
 20
454.3871580010611
 30
0.0
  0
POINT
  5
17B
330
167
100
AcDbEntity
  8
Defpoints
 62
     0
100
AcDbPoint
 10
2247.243008846423
 20
46.88715800106115
 30
0.0
  0
POINT
  5
17C
330
167
100
AcDbEntity
  8
Defpoints
 62
     0
100
AcDbPoint
 10
2247.243008846423
 20
-10.2364891195175
 30
0.0
  0
ENDBLK
  5
172
330
167
100
AcDbEntity
  8
0
100
AcDbBlockEnd
  0
BLOCK
  5
188
330
17F
100
AcDbEntity
  8
0
100
AcDbBlockBegin
  2
*D7
 70
     1
 10
0.0
 20
0.0
 30
0.0
  3
*D7
  1

  0
LINE
  5
18B
330
17F
100
AcDbEntity
  8
koty
 62
     0
370
    -2
100
AcDbLine
 10
1944.599129606331
 20
968.1127680783474
 30
0.0
 11
2043.61866338568
 21
1005.473527901517
 31
0.0
  0
LINE
  5
18C
330
17F
100
AcDbEntity
  8
koty
 62
     0
370
    -2
100
AcDbLine
 10
2090.867354307166
 20
1023.300788100604
 30
0.0
 11
2109.579707147358
 21
1030.36108916955
 31
0.0
  0
MTEXT
  5
18D
330
17F
100
AcDbEntity
  8
koty
 62
     0
100
AcDbMText
 10
1978.427867034979
 20
1000.026146874798
 30
0.0
 40
20.0
 41
0.0
 71
     5
 72
     1
  1
\U+220510,5
 11
0.9356176420096071
 21
0.3530150534472756
 31
0.0
 73
     1
 44
1.0
  0
LINE
  5
18E
330
17F
100
AcDbEntity
  8
koty
 62
     0
370
    -2
100
AcDbLine
 10
2072.155001466974
 20
1016.240487031659
 30
0.0
 11
2062.331016225873
 21
1012.533828970462
 31
0.0
  0
SOLID
  5
18F
330
17F
100
AcDbEntity
  8
koty
 62
     0
100
AcDbTrace
 10
2089.690637462341
 20
1026.41951357397
 30
0.0
 11
2092.04407115199
 21
1020.182062627239
 31
0.0
 12
2072.155001466974
 22
1016.240487031659
 32
0.0
 13
2072.155001466974
 23
1016.240487031659
 33
0.0
  0
SOLID
  5
190
330
17F
100
AcDbEntity
  8
koty
 62
     0
100
AcDbTrace
 10
2042.441946540856
 20
1008.592253374882
 30
0.0
 11
2044.795380230504
 21
1002.354802428152
 31
0.0
 12
2062.331016225873
 22
1012.533828970462
 32
0.0
 13
2062.331016225873
 23
1012.533828970462
 33
0.0
  0
POINT
  5
191
330
17F
100
AcDbEntity
  8
Defpoints
 62
     0
100
AcDbPoint
 10
2062.331016225873
 20
1012.533828970462
 30
0.0
  0
POINT
  5
192
330
17F
100
AcDbEntity
  8
Defpoints
 62
     0
100
AcDbPoint
 10
2072.155001466974
 20
1016.240487031659
 30
0.0
  0
ENDBLK
  5
189
330
17F
100
AcDbEntity
  8
0
100
AcDbBlockEnd
  0
ENDSEC
  0
SECTION
  2
ENTITIES
  0
LWPOLYLINE
  5
34
102
{ACAD_REACTORS
330
11D
330
135
102
}
330
1F
100
AcDbEntity
  8
0
100
AcDbPolyline
 90
        4
 70
     1
 43
0.0
 10
139.9717650421748
 20
46.88715800106115
 10
1514.971765042175
 20
46.88715800106115
 10
1514.971765042175
 20
1421.887158001061
 10
139.9717650421748
 20
1421.887158001061
  0
LWPOLYLINE
  5
35
330
1F
100
AcDbEntity
  8
0
100
AcDbPolyline
 90
        4
 70
     1
 43
0.0
 10
169.9717650421748
 20
76.88715800106115
 10
1484.971765042175
 20
76.88715800106115
 10
1484.971765042175
 20
1391.887158001061
 10
169.9717650421748
 20
1391.887158001061
  0
ARC
  5
39
330
1F
100
AcDbEntity
  8
0
100
AcDbCircle
 10
827.4717650421749
 20
734.3871580010612
 30
0.0
 40
657.5
100
AcDbArc
 50
114.9428883201125
 51
126.0131020203385
  0
LINE
  5
3A
330
1F
100
AcDbEntity
  8
0
100
AcDbLine
 10
704.1432973295368
 20
787.4446077411684
 30
0.0
 11
842.521660009881
 21
749.2033769293757
 31
0.0
  0
ARC
  5
3B
330
1F
100
AcDbEntity
  8
0
100
AcDbCircle
 10
959.4257619429354
 20
872.7329635502336
 30
0.0
 40
269.1528197431801
100
AcDbArc
 50
119.3574609040525
 51
140.6953431525863
  0
ARC
  5
3C
330
1F
100
AcDbEntity
  8
0
100
AcDbCircle
 10
698.6238016464634
 20
1329.725667629962
 30
0.0
 40
257.0326615772538
100
AcDbArc
 50
300.0853980540505
 51
300.191619995118
  0
LINE
  5
43
330
1F
100
AcDbEntity
  8
0
100
AcDbLine
 10
955.3680806085058
 20
1317.553390203446
 30
0.0
 11
1034.759768396231
 21
1266.227442762901
 31
0.0
  0
ARC
  5
48
330
1F
100
AcDbEntity
  8
0
100
AcDbCircle
 10
921.2173188514146
 20
1268.211353514925
 30
0.0
 40
257.0326615772538
100
AcDbArc
 50
300.0853980540505
 51
321.3160898031572
  0
ARC
  5
49
330
1F
100
AcDbEntity
  8
0
100
AcDbCircle
 10
1182.019279147886
 20
811.2186494351963
 30
0.0
 40
269.1528197431801
100
AcDbArc
 50
119.3574609040525
 51
120.4590510420985
  0
ARC
  5
4A
330
1F
100
AcDbEntity
  8
0
100
AcDbCircle
 10
247.469510154524
 20
920.4708032889381
 30
0.0
 40
257.0326615772538
100
AcDbArc
 50
0.0853980540505983
 51
8.596866511667768
  0
LINE
  5
4B
330
1F
100
AcDbEntity
  8
0
100
AcDbLine
 10
386.3831511088197
 20
1136.731732433127
 30
0.0
 11
474.5700294008275
 21
1181.893674965286
 31
0.0
  0
ARC
  5
4C
330
1F
100
AcDbEntity
  8
0
100
AcDbCircle
 10
412.0392274769975
 20
1082.485286848636
 30
0.0
 40
257.0326615772538
100
AcDbArc
 50
0.0853980540505983
 51
5.59834878207393
  0
ARC
  5
4D
330
1F
100
AcDbEntity
  8
0
100
AcDbCircle
 10
938.2074987024232
 20
1079.850057782296
 30
0.0
 40
269.1528197431801
100
AcDbArc
 50
179.3574609040526
 51
187.8205605684458
  0
LINE
  5
4E
330
1F
100
AcDbEntity
  8
0
100
AcDbLine
 10
719.8584318509067
 20
654.1102968221614
 30
0.0
 11
727.4228868540141
 21
661.5573003819811
 31
0.0
  0
ARC
  5
4F
330
1F
100
AcDbEntity
  8
0
100
AcDbCircle
 10
773.6377813799496
 20
917.8355742225994
 30
0.0
 40
269.1528197431801
100
AcDbArc
 50
179.3574609040526
 51
184.9612716466923
  0
ARC
  5
50
330
1F
100
AcDbEntity
  8
0
100
AcDbCircle
 10
376.3174735502353
 20
325.1322936600373
 30
0.0
 40
257.0326615772538
100
AcDbArc
 50
60.08539805405055
 51
117.2856326340178
  0
LINE
  5
51
330
1F
100
AcDbEntity
  8
0
100
AcDbLine
 10
258.4868355424887
 20
553.5655002307423
 30
0.0
 11
260.1814370806559
 21
587.223532584366
 31
0.0
  0
ARC
  5
52
330
1F
100
AcDbEntity
  8
0
100
AcDbCircle
 10
318.2936736677576
 20
548.6610913347722
 30
0.0
 40
257.0326615772538
100
AcDbArc
 50
60.08539805405055
 51
100.6119305362982
  0
ARC
  5
53
330
1F
100
AcDbEntity
  8
0
100
AcDbCircle
 10
583.6599845967113
 20
1003.018566348161
 30
0.0
 40
269.1528197431801
100
AcDbArc
 50
239.3574609040525
 51
252.8083766125374
  0
LINE
  5
54
330
1F
100
AcDbEntity
  8
0
100
AcDbLine
 10
843.1868995635447
 20
601.0528470820539
 30
0.0
 11
827.4811009067549
 21
661.5573003819812
 31
0.0
  0
ARC
  5
55
330
1F
100
AcDbEntity
  8
0
100
AcDbCircle
 10
641.6837844791889
 20
779.489768673427
 30
0.0
 40
269.1528197431801
100
AcDbArc
 50
239.3574609040525
 51
252.4324476179514
  0
ARC
  5
56
330
1F
100
AcDbEntity
  8
0
100
AcDbCircle
 10
956.319728437886
 20
139.04864837216
 30
0.0
 40
257.0326615772538
100
AcDbArc
 50
120.0853980540505
 51
141.262278945338
  0
LINE
  5
57
330
1F
100
AcDbEntity
  8
0
100
AcDbLine
 10
699.5754494758438
 20
151.220925798676
 30
0.0
 11
600.0630846410246
 21
215.5546935962911
 31
0.0
  0
ARC
  5
58
330
1F
100
AcDbEntity
  8
0
100
AcDbCircle
 10
733.7262112329348
 20
200.5629624871973
 30
0.0
 40
257.0326615772538
100
AcDbArc
 50
120.0853980540505
 51
137.4968199992681
  0
ARC
  5
59
330
1F
100
AcDbEntity
  8
0
100
AcDbCircle
 10
472.9242509364628
 20
657.555666566926
 30
0.0
 40
269.1528197431801
100
AcDbArc
 50
299.3574609040526
 51
305.5446316893914
  0
LINE
  5
5A
330
1F
100
AcDbEntity
  8
0
100
AcDbLine
 10
950.8002327548128
 20
681.3297082609539
 30
0.0
 11
812.4218700744682
 21
719.5709390727465
 31
0.0
  0
ARC
  5
5B
330
1F
100
AcDbEntity
  8
0
100
AcDbCircle
 10
695.5177681414141
 20
596.0413524518887
 30
0.0
 40
269.1528197431801
100
AcDbArc
 50
299.3574609040526
 51
300.5380602150412
  0
ARC
  5
5C
330
1F
100
AcDbEntity
  8
0
100
AcDbCircle
 10
1407.474019929825
 20
548.3035127131837
 30
0.0
 40
257.0326615772538
100
AcDbArc
 50
180.0853980540505
 51
185.6743118089761
  0
LINE
  5
5D
330
1F
100
AcDbEntity
  8
0
100
AcDbLine
 10
1268.560378975529
 20
332.0425835689945
 30
0.0
 11
1205.773627568152
 21
299.8884613939061
 31
0.0
  0
ARC
  5
5E
330
1F
100
AcDbEntity
  8
0
100
AcDbCircle
 10
1242.904302607351
 20
386.2890291534862
 30
0.0
 40
257.0326615772538
100
AcDbArc
 50
180.0853980540505
 51
182.690828945211
  0
ARC
  5
5F
330
1F
100
AcDbEntity
  8
0
100
AcDbCircle
 10
716.7360313819263
 20
388.9242582198257
 30
0.0
 40
269.1528197431801
100
AcDbArc
 50
359.3574609040525
 51
10.62614418734498
  0
LINE
  5
60
330
1F
100
AcDbEntity
  8
0
100
AcDbLine
 10
930.5759018408254
 20
810.2248359772111
 30
0.0
 11
865.227485155338
 21
745.8910681795961
 31
0.0
  0
ARC
  5
61
330
1F
100
AcDbEntity
  8
0
100
AcDbCircle
 10
881.3057487044
 20
550.938741779523
 30
0.0
 40
269.1528197431801
100
AcDbArc
 50
359.3574609040525
 51
7.747697530096374
  0
ARC
  5
62
330
1F
100
AcDbEntity
  8
0
100
AcDbCircle
 10
1278.626056534114
 20
1143.642022342084
 30
0.0
 40
257.0326615772538
100
AcDbArc
 50
240.0853980540505
 51
255.7132960315697
  0
LINE
  5
63
330
1F
100
AcDbEntity
  8
0
100
AcDbLine
 10
1396.456694541861
 20
915.2088157713794
 30
0.0
 11
1395.417005690023
 21
894.5586037748261
 31
0.0
  0
ARC
  5
64
330
1F
100
AcDbEntity
  8
0
100
AcDbCircle
 10
1336.649856416592
 20
920.1132246673498
 30
0.0
 40
257.0326615772538
100
AcDbArc
 50
240.0853980540505
 51
255.2443387607504
  0
ARC
  5
65
330
1F
100
AcDbEntity
  8
0
100
AcDbCircle
 10
1071.283545487638
 20
465.7557496539603
 30
0.0
 40
269.1528197431801
100
AcDbArc
 50
59.35746090405253
 51
88.60304479557859
  0
LINE
  5
66
330
1F
100
AcDbEntity
  8
0
100
AcDbLine
 10
811.7566305208049
 20
867.7214689200681
 30
0.0
 11
824.0858478459839
 21
820.2248359772111
 31
0.0
  0
ARC
  5
67
330
1F
100
AcDbEntity
  8
0
100
AcDbCircle
 10
1013.259745605161
 20
689.2845473286953
 30
0.0
 40
269.1528197431801
100
AcDbArc
 50
59.35746090405253
 51
130.3000905158998
  0
LINE
  5
6C
330
1F
100
AcDbEntity
  8
0
100
AcDbLine
 10
814.8209743518235
 20
718.9079401859637
 30
0.0
 11
831.804102345456
 21
735.8910681795961
 31
0.0
  0
LINE
  5
6D
330
1F
100
AcDbEntity
  8
0
100
AcDbLine
 10
811.8871304946255
 20
721.6309505782578
 30
0.0
 11
826.1472480959636
 21
735.8910681795959
 31
0.0
  0
LINE
  5
6E
330
1F
100
AcDbEntity
  8
0
100
AcDbLine
 10
169.9717650421748
 20
151.2209257986761
 30
0.0
 11
1484.971765042175
 21
151.2209257986761
 31
0.0
  0
LINE
  5
70
330
1F
100
AcDbEntity
  8
0
100
AcDbLine
 10
169.9717650421748
 20
141.2209257986761
 30
0.0
 11
1484.971765042175
 21
141.2209257986761
 31
0.0
  0
LINE
  5
71
330
1F
100
AcDbEntity
  8
0
100
AcDbLine
 10
169.9717650421748
 20
215.5546935962911
 30
0.0
 11
1484.971765042175
 21
215.5546935962911
 31
0.0
  0
LINE
  5
72
330
1F
100
AcDbEntity
  8
0
100
AcDbLine
 10
169.9717650421748
 20
225.5546935962911
 30
0.0
 11
1484.971765042175
 21
225.5546935962911
 31
0.0
  0
LINE
  5
73
330
1F
100
AcDbEntity
  8
0
100
AcDbLine
 10
169.9717650421748
 20
289.8884613939061
 30
0.0
 11
1484.971765042175
 21
289.8884613939061
 31
0.0
  0
LINE
  5
74
330
1F
100
AcDbEntity
  8
0
100
AcDbLine
 10
169.9717650421748
 20
299.8884613939061
 30
0.0
 11
1484.971765042175
 21
299.8884613939061
 31
0.0
  0
LINE
  5
75
330
1F
100
AcDbEntity
  8
0
100
AcDbLine
 10
169.9717650421748
 20
364.2222291915211
 30
0.0
 11
1484.971765042175
 21
364.2222291915211
 31
0.0
  0
LINE
  5
76
330
1F
100
AcDbEntity
  8
0
100
AcDbLine
 10
169.9717650421748
 20
374.2222291915211
 30
0.0
 11
1484.971765042175
 21
374.2222291915211
 31
0.0
  0
LINE
  5
77
330
1F
100
AcDbEntity
  8
0
100
AcDbLine
 10
169.9717650421748
 20
438.5559969891361
 30
0.0
 11
1484.971765042175
 21
438.5559969891361
 31
0.0
  0
LINE
  5
78
330
1F
100
AcDbEntity
  8
0
100
AcDbLine
 10
169.9717650421748
 20
448.5559969891361
 30
0.0
 11
1484.971765042175
 21
448.5559969891361
 31
0.0
  0
LINE
  5
79
330
1F
100
AcDbEntity
  8
0
100
AcDbLine
 10
169.9717650421748
 20
512.8897647867511
 30
0.0
 11
1484.971765042175
 21
512.8897647867511
 31
0.0
  0
LINE
  5
7A
330
1F
100
AcDbEntity
  8
0
100
AcDbLine
 10
169.9717650421748
 20
522.8897647867511
 30
0.0
 11
1484.971765042175
 21
522.8897647867511
 31
0.0
  0
LINE
  5
7B
330
1F
100
AcDbEntity
  8
0
100
AcDbLine
 10
169.9717650421748
 20
597.2235325843661
 30
0.0
 11
1484.971765042175
 21
597.2235325843661
 31
0.0
  0
LINE
  5
7C
330
1F
100
AcDbEntity
  8
0
100
AcDbLine
 10
169.9717650421748
 20
587.2235325843661
 30
0.0
 11
1484.971765042175
 21
587.2235325843661
 31
0.0
  0
LINE
  5
7D
330
1F
100
AcDbEntity
  8
0
100
AcDbLine
 10
169.9717650421748
 20
661.5573003819811
 30
0.0
 11
1484.971765042175
 21
661.5573003819811
 31
0.0
  0
LINE
  5
7E
330
1F
100
AcDbEntity
  8
0
100
AcDbLine
 10
169.9717650421748
 20
671.5573003819811
 30
0.0
 11
1484.971765042175
 21
671.5573003819811
 31
0.0
  0
LINE
  5
7F
330
1F
100
AcDbEntity
  8
0
100
AcDbLine
 10
169.9717650421748
 20
735.8910681795961
 30
0.0
 11
1484.971765042175
 21
735.8910681795961
 31
0.0
  0
LINE
  5
80
330
1F
100
AcDbEntity
  8
0
100
AcDbLine
 10
169.9717650421748
 20
745.8910681795961
 30
0.0
 11
1484.971765042175
 21
745.8910681795961
 31
0.0
  0
LINE
  5
81
330
1F
100
AcDbEntity
  8
0
100
AcDbLine
 10
169.9717650421748
 20
810.2248359772111
 30
0.0
 11
1484.971765042175
 21
810.2248359772111
 31
0.0
  0
LINE
  5
82
330
1F
100
AcDbEntity
  8
0
100
AcDbLine
 10
169.9717650421748
 20
820.2248359772111
 30
0.0
 11
1484.971765042175
 21
820.2248359772111
 31
0.0
  0
LINE
  5
83
330
1F
100
AcDbEntity
  8
0
100
AcDbLine
 10
169.9717650421748
 20
884.558603774826
 30
0.0
 11
1484.971765042175
 21
884.558603774826
 31
0.0
  0
LINE
  5
84
330
1F
100
AcDbEntity
  8
0
100
AcDbLine
 10
169.9717650421748
 20
894.5586037748261
 30
0.0
 11
1484.971765042175
 21
894.5586037748261
 31
0.0
  0
LINE
  5
85
330
1F
100
AcDbEntity
  8
0
100
AcDbLine
 10
169.9717650421748
 20
968.8923715724412
 30
0.0
 11
1484.971765042175
 21
968.8923715724412
 31
0.0
  0
LINE
  5
86
330
1F
100
AcDbEntity
  8
0
100
AcDbLine
 10
169.9717650421748
 20
958.892371572441
 30
0.0
 11
1484.971765042175
 21
958.892371572441
 31
0.0
  0
LINE
  5
87
330
1F
100
AcDbEntity
  8
0
100
AcDbLine
 10
169.9717650421748
 20
1033.226139370056
 30
0.0
 11
1484.971765042175
 21
1033.226139370056
 31
0.0
  0
LINE
  5
88
330
1F
100
AcDbEntity
  8
0
100
AcDbLine
 10
169.9717650421748
 20
1043.226139370056
 30
0.0
 11
1484.971765042175
 21
1043.226139370056
 31
0.0
  0
LINE
  5
89
330
1F
100
AcDbEntity
  8
0
100
AcDbLine
 10
169.9717650421748
 20
1107.559907167671
 30
0.0
 11
1484.971765042175
 21
1107.559907167671
 31
0.0
  0
LINE
  5
8A
330
1F
100
AcDbEntity
  8
0
100
AcDbLine
 10
169.9717650421748
 20
1117.559907167671
 30
0.0
 11
1484.971765042175
 21
1117.559907167671
 31
0.0
  0
LINE
  5
8B
330
1F
100
AcDbEntity
  8
0
100
AcDbLine
 10
169.9717650421748
 20
1181.893674965286
 30
0.0
 11
1484.971765042175
 21
1181.893674965286
 31
0.0
  0
LINE
  5
8C
330
1F
100
AcDbEntity
  8
0
100
AcDbLine
 10
169.9717650421748
 20
1191.893674965286
 30
0.0
 11
1484.971765042175
 21
1191.893674965286
 31
0.0
  0
LINE
  5
8D
330
1F
100
AcDbEntity
  8
0
100
AcDbLine
 10
169.9717650421748
 20
1256.2274427629
 30
0.0
 11
1484.971765042175
 21
1256.2274427629
 31
0.0
  0
LINE
  5
8E
330
1F
100
AcDbEntity
  8
0
100
AcDbLine
 10
169.9717650421748
 20
1266.227442762901
 30
0.0
 11
1484.971765042175
 21
1266.227442762901
 31
0.0
  0
LINE
  5
8F
330
1F
100
AcDbEntity
  8
0
100
AcDbLine
 10
169.9717650421748
 20
1330.561210560516
 30
0.0
 11
1484.971765042175
 21
1330.561210560516
 31
0.0
  0
LINE
  5
90
330
1F
100
AcDbEntity
  8
0
100
AcDbLine
 10
169.9717650421748
 20
1340.561210560516
 30
0.0
 11
1484.971765042175
 21
1340.561210560516
 31
0.0
  0
ARC
  5
91
330
1F
100
AcDbEntity
  8
0
100
AcDbCircle
 10
827.4717650421749
 20
734.3871580010612
 30
0.0
 40
657.5
100
AcDbArc
 50
127.469862621253
 51
135.9068128056059
  0
ARC
  5
92
330
1F
100
AcDbEntity
  8
0
100
AcDbCircle
 10
827.4717650421749
 20
734.3871580010612
 30
0.0
 40
657.5
100
AcDbArc
 50
67.21102814558445
 51
112.7889718544155
  0
ARC
  5
93
330
1F
100
AcDbEntity
  8
0
100
AcDbCircle
 10
827.4717650421749
 20
734.3871580010612
 30
0.0
 40
657.5
100
AcDbArc
 50
53.98689797966145
 51
65.05711167988744
  0
LINE
  5
94
330
1F
100
AcDbEntity
  8
0
100
AcDbLine
 10
1050.227907173346
 20
1256.2274427629
 30
0.0
 11
1149.740272008165
 21
1191.893674965286
 31
0.0
  0
ARC
  5
95
330
1F
100
AcDbEntity
  8
0
100
AcDbCircle
 10
698.6238016464634
 20
1329.725667629962
 30
0.0
 40
257.0326615772538
100
AcDbArc
 50
345.6973749468257
 51
357.2856326340178
  0
ARC
  5
96
330
1F
100
AcDbEntity
  8
0
100
AcDbCircle
 10
827.4717650421749
 20
734.3871580010612
 30
0.0
 40
657.5
100
AcDbArc
 50
137.1080237185713
 51
144.3542354575728
  0
LINE
  5
97
330
1F
100
AcDbEntity
  8
0
100
AcDbLine
 10
494.0968418777735
 20
1191.893674965286
 30
0.0
 11
607.16191802849
 21
1249.796149465005
 31
0.0
  0
ARC
  5
98
330
1F
100
AcDbEntity
  8
0
100
AcDbCircle
 10
412.0392274769975
 20
1082.485286848636
 30
0.0
 40
257.0326615772538
100
AcDbArc
 50
25.19241325106124
 51
40.6119305362982
  0
ARC
  5
99
330
1F
100
AcDbEntity
  8
0
100
AcDbCircle
 10
698.6238016464634
 20
1329.725667629962
 30
0.0
 40
257.0326615772538
100
AcDbArc
 50
327.5717448986694
 51
343.3844185643003
  0
ARC
  5
9A
330
1F
100
AcDbEntity
  8
0
100
AcDbCircle
 10
827.4717650421749
 20
734.3871580010612
 30
0.0
 40
657.5
100
AcDbArc
 50
44.09318719439407
 51
52.53013737874688
  0
ARC
  5
9B
330
1F
100
AcDbEntity
  8
0
100
AcDbCircle
 10
827.4717650421749
 20
734.3871580010612
 30
0.0
 40
657.5
100
AcDbArc
 50
35.64576454242709
 51
42.89197628142867
  0
ARC
  5
9C
330
1F
100
AcDbEntity
  8
0
100
AcDbCircle
 10
827.4717650421749
 20
734.3871580010612
 30
0.0
 40
657.5
100
AcDbArc
 50
28.01593327976046
 51
34.58046868492358
  0
ARC
  5
9D
330
1F
100
AcDbEntity
  8
0
100
AcDbCircle
 10
921.2173188514146
 20
1268.211353514925
 30
0.0
 40
257.0326615772538
100
AcDbArc
 50
324.1179954701708
 51
340.3773609823876
  0
ARC
  5
9E
330
1F
100
AcDbEntity
  8
0
100
AcDbCircle
 10
1182.019279147886
 20
811.2186494351963
 30
0.0
 40
269.1528197431801
100
AcDbArc
 50
124.4279233706201
 51
144.1394227960894
  0
ARC
  5
9F
330
1F
100
AcDbEntity
  8
0
100
AcDbCircle
 10
698.6238016464634
 20
1329.725667629962
 30
0.0
 40
257.0326615772538
100
AcDbArc
 50
304.3665896047526
 51
324.8899559040953
  0
ARC
  5
A0
330
1F
100
AcDbEntity
  8
0
100
AcDbCircle
 10
959.4257619429354
 20
872.7329635502336
 30
0.0
 40
269.1528197431801
100
AcDbArc
 50
143.3953411370382
 51
159.0675551337233
  0
ARC
  5
A1
330
1F
100
AcDbEntity
  8
0
100
AcDbCircle
 10
938.2074987024232
 20
1079.850057782296
 30
0.0
 40
269.1528197431801
100
AcDbArc
 50
189.975363570072
 51
204.3461231474261
  0
ARC
  5
A2
330
1F
100
AcDbEntity
  8
0
100
AcDbCircle
 10
412.0392274769975
 20
1082.485286848636
 30
0.0
 40
257.0326615772538
100
AcDbArc
 50
7.843040337068835
 51
22.75266868456741
  0
ARC
  5
A3
330
1F
100
AcDbEntity
  8
0
100
AcDbCircle
 10
247.469510154524
 20
920.4708032889381
 30
0.0
 40
257.0326615772538
100
AcDbArc
 50
50.06616518104241
 51
57.2856326340178
  0
ARC
  5
A4
330
1F
100
AcDbEntity
  8
0
100
AcDbCircle
 10
247.469510154524
 20
920.4708032889381
 30
0.0
 40
257.0326615772538
100
AcDbArc
 50
28.52789254965376
 51
46.70901548174428
  0
ARC
  5
A5
330
1F
100
AcDbEntity
  8
0
100
AcDbCircle
 10
827.4717650421749
 20
734.3871580010612
 30
0.0
 40
657.5
100
AcDbArc
 50
145.4195313150764
 51
151.9840667202395
  0
ARC
  5
A6
330
1F
100
AcDbEntity
  8
0
100
AcDbCircle
 10
827.4717650421749
 20
734.3871580010612
 30
0.0
 40
657.5
100
AcDbArc
 50
152.9667202488431
 51
159.1046658458592
  0
ARC
  5
A7
330
1F
100
AcDbEntity
  8
0
100
AcDbCircle
 10
827.4717650421749
 20
734.3871580010612
 30
0.0
 40
657.5
100
AcDbArc
 50
160.0345889923031
 51
165.9004873822836
  0
ARC
  5
A8
330
1F
100
AcDbEntity
  8
0
100
AcDbCircle
 10
827.4717650421749
 20
734.3871580010612
 30
0.0
 40
657.5
100
AcDbArc
 50
166.7972477708642
 51
172.4985315914839
  0
ARC
  5
A9
330
1F
100
AcDbEntity
  8
0
100
AcDbCircle
 10
827.4717650421749
 20
734.3871580010612
 30
0.0
 40
657.5
100
AcDbArc
 50
173.3766210720738
 51
178.9974766008457
  0
ARC
  5
AA
330
1F
100
AcDbEntity
  8
0
100
AcDbCircle
 10
773.6377813799496
 20
917.8355742225994
 30
0.0
 40
269.1528197431801
100
AcDbArc
 50
203.5664752396106
 51
219.7050763085071
  0
ARC
  5
AB
330
1F
100
AcDbEntity
  8
0
100
AcDbCircle
 10
773.6377813799496
 20
917.8355742225994
 30
0.0
 40
269.1528197431801
100
AcDbArc
 50
187.1019917015244
 51
201.2635948487466
  0
ARC
  5
AC
330
1F
100
AcDbEntity
  8
0
100
AcDbCircle
 10
247.469510154524
 20
920.4708032889381
 30
0.0
 40
257.0326615772538
100
AcDbArc
 50
10.85865638304239
 51
26.01975178076193
  0
ARC
  5
AD
330
1F
100
AcDbEntity
  8
0
100
AcDbCircle
 10
938.2074987024232
 20
1079.850057782296
 30
0.0
 40
269.1528197431801
100
AcDbArc
 50
206.7052925543662
 51
208.6030447955786
  0
ARC
  5
AE
330
1F
100
AcDbEntity
  8
0
100
AcDbCircle
 10
959.4257619429354
 20
872.7329635502336
 30
0.0
 40
269.1528197431801
100
AcDbArc
 50
161.3302206730032
 51
175.3487701591909
  0
ARC
  5
AF
330
1F
100
AcDbEntity
  8
0
100
AcDbCircle
 10
959.4257619429354
 20
872.7329635502336
 30
0.0
 40
269.1528197431801
100
AcDbArc
 50
177.4818117802745
 51
191.2497867094879
  0
ARC
  5
B0
330
1F
100
AcDbEntity
  8
0
100
AcDbCircle
 10
959.4257619429354
 20
872.7329635502336
 30
0.0
 40
269.1528197431801
100
AcDbArc
 50
193.4290026579848
 51
198.4741678043397
  0
LINE
  5
B1
330
1F
100
AcDbEntity
  8
0
100
AcDbLine
 10
826.6816565509952
 20
810.2248359772111
 30
0.0
 11
843.3814719985175
 21
745.891068179596
 31
0.0
  0
ARC
  5
B2
330
1F
100
AcDbEntity
  8
0
100
AcDbCircle
 10
1013.259745605161
 20
689.2845473286953
 30
0.0
 40
269.1528197431801
100
AcDbArc
 50
133.48840211279
 51
138.4741678043397
  0
ARC
  5
B3
330
1F
100
AcDbEntity
  8
0
100
AcDbCircle
 10
1182.019279147886
 20
811.2186494351963
 30
0.0
 40
269.1528197431801
100
AcDbArc
 50
146.724782576783
 51
148.6030447955787
  0
ARC
  5
B4
330
1F
100
AcDbEntity
  8
0
100
AcDbCircle
 10
1278.626056534114
 20
1143.642022342084
 30
0.0
 40
257.0326615772538
100
AcDbArc
 50
284.2867039684302
 51
297.2856326340177
  0
LINE
  5
B5
330
1F
100
AcDbEntity
  8
0
100
AcDbLine
 10
1391.171001909179
 20
810.2248359772111
 30
0.0
 11
1387.931950359149
 21
745.891068179596
 31
0.0
  0
LINE
  5
B6
330
1F
100
AcDbEntity
  8
0
100
AcDbLine
 10
1394.913529574616
 20
884.558603774826
 30
0.0
 11
1391.674478024586
 21
820.2248359772111
 31
0.0
  0
ARC
  5
B7
330
1F
100
AcDbEntity
  8
0
100
AcDbCircle
 10
827.4717650421749
 20
734.3871580010612
 30
0.0
 40
657.5
100
AcDbArc
 50
20.89533415414076
 51
27.03327975115682
  0
ARC
  5
B8
330
1F
100
AcDbEntity
  8
0
100
AcDbCircle
 10
827.4717650421749
 20
734.3871580010612
 30
0.0
 40
657.5
100
AcDbArc
 50
14.09951261771636
 51
19.96541100769683
  0
ARC
  5
B9
330
1F
100
AcDbEntity
  8
0
100
AcDbCircle
 10
827.4717650421749
 20
734.3871580010612
 30
0.0
 40
657.5
100
AcDbArc
 50
7.501468408516005
 51
13.20275222913574
  0
LINE
  5
BA
330
1F
100
AcDbEntity
  8
0
100
AcDbLine
 10
1387.428474243742
 20
735.8910681795961
 30
0.0
 11
1384.189422693713
 21
671.5573003819812
 31
0.0
  0
ARC
  5
BB
330
1F
100
AcDbEntity
  8
0
100
AcDbCircle
 10
827.4717650421749
 20
734.3871580010612
 30
0.0
 40
657.5
100
AcDbArc
 50
354.5165216543787
 51
6.623378927926142
  0
ARC
  5
BC
330
1F
100
AcDbEntity
  8
0
100
AcDbCircle
 10
881.3057487044
 20
550.938741779523
 30
0.0
 40
269.1528197431801
100
AcDbArc
 50
46.41217212500119
 51
74.43817925331952
  0
ARC
  5
BD
330
1F
100
AcDbEntity
  8
0
100
AcDbCircle
 10
881.3057487044
 20
550.938741779523
 30
0.0
 40
269.1528197431801
100
AcDbArc
 50
26.62450933890424
 51
43.40609010590188
  0
ARC
  5
BE
330
1F
100
AcDbEntity
  8
0
100
AcDbCircle
 10
695.5177681414141
 20
596.0413524518887
 30
0.0
 40
269.1528197431801
100
AcDbArc
 50
16.29416964924144
 51
18.47416780433978
  0
LINE
  5
BF
330
1F
100
AcDbEntity
  8
0
100
AcDbLine
 10
855.069768776738
 20
735.8910681795961
 30
0.0
 11
832.7780395382742
 21
713.9454571705824
 31
0.0
  0
LINE
  5
C0
330
1F
100
AcDbEntity
  8
0
100
AcDbLine
 10
824.8852922017437
 20
671.5573003819812
 30
0.0
 11
808.1854767542216
 21
735.8910681795961
 31
0.0
  0
LINE
  5
C1
330
1F
100
AcDbEntity
  8
0
100
AcDbLine
 10
737.5806032326139
 20
671.5573003819811
 30
0.0
 11
802.9290199181012
 21
735.8910681795961
 31
0.0
  0
LINE
  5
C2
330
1F
100
AcDbEntity
  8
0
100
AcDbLine
 10
813.0867362967009
 20
745.8910681795961
 30
0.0
 11
822.1654905460756
 21
754.8288588315398
 31
0.0
  0
LINE
  5
C3
330
1F
100
AcDbEntity
  8
0
100
AcDbLine
 10
836.1472480959635
 20
745.8910681795961
 30
0.0
 11
840.1225557325259
 21
749.8663758161585
 31
0.0
  0
LINE
  5
C4
330
1F
100
AcDbEntity
  8
0
100
AcDbLine
 10
841.8041023454559
 20
745.8910681795961
 30
0.0
 11
843.0563995897239
 21
747.1433654238641
 31
0.0
  0
LINE
  5
C5
330
1F
100
AcDbEntity
  8
0
100
AcDbLine
 10
845.9772807035287
 20
735.8910681795959
 30
0.0
 11
847.8279345059803
 21
728.761676098897
 31
0.0
  0
ARC
  5
C6
330
1F
100
AcDbEntity
  8
0
100
AcDbCircle
 10
773.6377813799496
 20
917.8355742225994
 30
0.0
 40
269.1528197431801
100
AcDbArc
 50
222.5310452873863
 51
246.2075441556663
  0
ARC
  5
C7
330
1F
100
AcDbEntity
  8
0
100
AcDbCircle
 10
583.6599845967113
 20
1003.018566348161
 30
0.0
 40
269.1528197431801
100
AcDbArc
 50
262.96672067137
 51
268.6030447955786
  0
ARC
  5
C8
330
1F
100
AcDbEntity
  8
0
100
AcDbCircle
 10
773.6377813799496
 20
917.8355742225994
 30
0.0
 40
269.1528197431801
100
AcDbArc
 50
252.2069391777819
 51
258.4741678043398
  0
LINE
  5
C9
330
1F
100
AcDbEntity
  8
0
100
AcDbLine
 10
268.1699685269375
 20
745.8910681795961
 30
0.0
 11
270.9595615886401
 21
801.2977295153191
 31
0.0
  0
LINE
  5
CA
330
1F
100
AcDbEntity
  8
0
100
AcDbLine
 10
264.4274408615006
 20
671.5573003819811
 30
0.0
 11
267.6664924115297
 21
735.8910681795961
 31
0.0
  0
ARC
  5
CB
330
1F
100
AcDbEntity
  8
0
100
AcDbCircle
 10
827.4717650421749
 20
734.3871580010612
 30
0.0
 40
657.5
100
AcDbArc
 50
186.3595803083016
 51
192.0411343752492
  0
ARC
  5
CC
330
1F
100
AcDbEntity
  8
0
100
AcDbCircle
 10
827.4717650421749
 20
734.3871580010612
 30
0.0
 40
657.5
100
AcDbArc
 50
179.8689463404827
 51
185.4834783456212
  0
ARC
  5
CD
330
1F
100
AcDbEntity
  8
0
100
AcDbCircle
 10
827.4717650421749
 20
734.3871580010612
 30
0.0
 40
657.5
100
AcDbArc
 50
199.6867887025821
 51
205.7677455493539
  0
ARC
  5
CE
330
1F
100
AcDbEntity
  8
0
100
AcDbCircle
 10
827.4717650421749
 20
734.3871580010612
 30
0.0
 40
657.5
100
AcDbArc
 50
192.9336762485382
 51
198.7638913645165
  0
LINE
  5
CF
330
1F
100
AcDbEntity
  8
0
100
AcDbLine
 10
260.6849131960637
 20
597.2235325843661
 30
0.0
 11
263.9239647460928
 21
661.5573003819811
 31
0.0
  0
ARC
  5
D0
330
1F
100
AcDbEntity
  8
0
100
AcDbCircle
 10
827.4717650421749
 20
734.3871580010612
 30
0.0
 40
657.5
100
AcDbArc
 50
206.7394062153617
 51
213.2148007298478
  0
ARC
  5
D1
330
1F
100
AcDbEntity
  8
0
100
AcDbCircle
 10
827.4717650421749
 20
734.3871580010612
 30
0.0
 40
657.5
100
AcDbArc
 50
214.2627243864082
 51
221.3635490888059
  0
ARC
  5
D2
330
1F
100
AcDbEntity
  8
0
100
AcDbCircle
 10
641.6837844791889
 20
779.489768673427
 30
0.0
 40
269.1528197431801
100
AcDbArc
 50
262.1024612334778
 51
277.8975387665221
  0
ARC
  5
D3
330
1F
100
AcDbEntity
  8
0
100
AcDbCircle
 10
641.6837844791889
 20
779.489768673427
 30
0.0
 40
269.1528197431801
100
AcDbArc
 50
287.5675523820485
 51
314.4109825313734
  0
ARC
  5
D4
330
1F
100
AcDbEntity
  8
0
100
AcDbCircle
 10
641.6837844791889
 20
779.489768673427
 30
0.0
 40
269.1528197431801
100
AcDbArc
 50
317.3759459536063
 51
318.4741678043398
  0
ARC
  5
D5
330
1F
100
AcDbEntity
  8
0
100
AcDbCircle
 10
695.5177681414141
 20
596.0413524518887
 30
0.0
 40
269.1528197431801
100
AcDbArc
 50
0.251656847083915
 51
14.08820957674997
  0
ARC
  5
D6
330
1F
100
AcDbEntity
  8
0
100
AcDbCircle
 10
695.5177681414141
 20
596.0413524518887
 30
0.0
 40
269.1528197431801
100
AcDbArc
 50
344.2295122537483
 51
358.1225748111316
  0
ARC
  5
D7
330
1F
100
AcDbEntity
  8
0
100
AcDbCircle
 10
472.9242509364628
 20
657.555666566926
 30
0.0
 40
269.1528197431801
100
AcDbArc
 50
309.0579273357294
 51
327.4873291970747
  0
ARC
  5
D8
330
1F
100
AcDbEntity
  8
0
100
AcDbCircle
 10
695.5177681414141
 20
596.0413524518887
 30
0.0
 40
269.1528197431801
100
AcDbArc
 50
326.7727315212729
 51
342.0047468498818
  0
ARC
  5
D9
330
1F
100
AcDbEntity
  8
0
100
AcDbCircle
 10
716.7360313819263
 20
388.9242582198257
 30
0.0
 40
269.1528197431801
100
AcDbArc
 50
12.80029163184336
 51
27.42432453659529
  0
ARC
  5
DA
330
1F
100
AcDbEntity
  8
0
100
AcDbCircle
 10
733.7262112329348
 20
200.5629624871973
 30
0.0
 40
257.0326615772538
100
AcDbArc
 50
140.4519157785409
 51
157.2673660407437
  0
ARC
  5
DB
330
1F
100
AcDbEntity
  8
0
100
AcDbCircle
 10
695.5177681414141
 20
596.0413524518887
 30
0.0
 40
269.1528197431801
100
AcDbArc
 50
304.498783870488
 51
324.1888844742771
  0
ARC
  5
DC
330
1F
100
AcDbEntity
  8
0
100
AcDbCircle
 10
1242.904302607351
 20
386.2890291534862
 30
0.0
 40
257.0326615772538
100
AcDbArc
 50
184.9250271133194
 51
199.6422564691691
  0
ARC
  5
DD
330
1F
100
AcDbEntity
  8
0
100
AcDbCircle
 10
881.3057487044
 20
550.938741779523
 30
0.0
 40
269.1528197431801
100
AcDbArc
 50
9.902072043904297
 51
24.26690975757925
  0
ARC
  5
DE
330
1F
100
AcDbEntity
  8
0
100
AcDbCircle
 10
1407.474019929825
 20
548.3035127131837
 30
0.0
 40
257.0326615772538
100
AcDbArc
 50
187.9193569551384
 51
202.8346681224006
  0
ARC
  5
DF
330
1F
100
AcDbEntity
  8
0
100
AcDbCircle
 10
1407.474019929825
 20
548.3035127131837
 30
0.0
 40
257.0326615772538
100
AcDbArc
 50
205.2759839436494
 51
222.6309119409748
  0
ARC
  5
E0
330
1F
100
AcDbEntity
  8
0
100
AcDbCircle
 10
1407.474019929825
 20
548.3035127131837
 30
0.0
 40
257.0326615772538
100
AcDbArc
 50
225.739870534448
 51
237.2856326340178
  0
ARC
  5
E1
330
1F
100
AcDbEntity
  8
0
100
AcDbCircle
 10
827.4717650421749
 20
734.3871580010612
 30
0.0
 40
657.5
100
AcDbArc
 50
326.7851992701522
 51
333.2605937846382
  0
ARC
  5
E2
330
1F
100
AcDbEntity
  8
0
100
AcDbCircle
 10
827.4717650421749
 20
734.3871580010612
 30
0.0
 40
657.5
100
AcDbArc
 50
334.2322544506461
 51
340.3132112974178
  0
ARC
  5
E3
330
1F
100
AcDbEntity
  8
0
100
AcDbCircle
 10
827.4717650421749
 20
734.3871580010612
 30
0.0
 40
657.5
100
AcDbArc
 50
341.2361086354834
 51
347.0663237514617
  0
ARC
  5
E4
330
1F
100
AcDbEntity
  8
0
100
AcDbCircle
 10
827.4717650421749
 20
734.3871580010612
 30
0.0
 40
657.5
100
AcDbArc
 50
347.9588656247507
 51
353.6404196916983
  0
ARC
  5
E5
330
1F
100
AcDbEntity
  8
0
100
AcDbCircle
 10
827.4717650421749
 20
734.3871580010612
 30
0.0
 40
657.5
100
AcDbArc
 50
222.5352477625685
 51
230.7044752790078
  0
ARC
  5
E6
330
1F
100
AcDbEntity
  8
0
100
AcDbCircle
 10
733.7262112329348
 20
200.5629624871973
 30
0.0
 40
257.0326615772538
100
AcDbArc
 50
159.6639393666253
 51
160.6119305362981
  0
ARC
  5
E7
330
1F
100
AcDbEntity
  8
0
100
AcDbCircle
 10
827.4717650421749
 20
734.3871580010612
 30
0.0
 40
657.5
100
AcDbArc
 50
232.101373021109
 51
242.4918123842917
  0
LINE
  5
E8
330
1F
100
AcDbEntity
  8
0
100
AcDbLine
 10
584.59494586391
 20
225.5546935962911
 30
0.0
 11
491.2694086023245
 21
285.8887380513751
 31
0.0
  0
ARC
  5
E9
330
1F
100
AcDbEntity
  8
0
100
AcDbCircle
 10
956.319728437886
 20
139.04864837216
 30
0.0
 40
257.0326615772538
100
AcDbArc
 50
162.6834249215312
 51
177.2856326340178
  0
ARC
  5
EA
330
1F
100
AcDbEntity
  8
0
100
AcDbCircle
 10
956.319728437886
 20
139.04864837216
 30
0.0
 40
257.0326615772538
100
AcDbArc
 50
144.0661543292876
 51
160.332776632959
  0
ARC
  5
EB
330
1F
100
AcDbEntity
  8
0
100
AcDbCircle
 10
1242.904302607351
 20
386.2890291534862
 30
0.0
 40
257.0326615772538
100
AcDbArc
 50
202.0275157215249
 51
218.7075842335448
  0
LINE
  5
EC
330
1F
100
AcDbEntity
  8
0
100
AcDbLine
 10
1186.246815091207
 20
289.8884613939061
 30
0.0
 11
1060.623473119264
 21
225.5546935962911
 31
0.0
  0
ARC
  5
ED
330
1F
100
AcDbEntity
  8
0
100
AcDbCircle
 10
827.4717650421749
 20
734.3871580010612
 30
0.0
 40
657.5
100
AcDbArc
 50
318.636450911194
 51
325.7372756135917
  0
ARC
  5
EE
330
1F
100
AcDbEntity
  8
0
100
AcDbCircle
 10
827.4717650421749
 20
734.3871580010612
 30
0.0
 40
657.5
100
AcDbArc
 50
309.2955247209921
 51
317.4647522374314
  0
ARC
  5
EF
330
1F
100
AcDbEntity
  8
0
100
AcDbCircle
 10
827.4717650421749
 20
734.3871580010612
 30
0.0
 40
657.5
100
AcDbArc
 50
297.5081876157082
 51
307.8986269788909
  0
ARC
  5
F0
330
1F
100
AcDbEntity
  8
0
100
AcDbCircle
 10
827.4717650421749
 20
734.3871580010612
 30
0.0
 40
657.5
100
AcDbArc
 50
244.4426568466874
 51
295.5573431533125
  0
LINE
  5
F1
330
1F
100
AcDbEntity
  8
0
100
AcDbLine
 10
1767.243008846423
 20
1421.887158001061
 30
0.0
 11
2247.243008846423
 21
1421.887158001061
 31
0.0
  0
LINE
  5
F3
330
1F
100
AcDbEntity
  8
0
100
AcDbLine
 10
1767.243008846423
 20
734.3871580010612
 30
0.0
 11
1767.243008846423
 21
1421.887158001061
 31
0.0
  0
LINE
  5
F4
330
1F
100
AcDbEntity
  8
0
100
AcDbLine
 10
1767.243008846423
 20
1421.887158001061
 30
0.0
 11
2247.243008846423
 21
1421.887158001061
 31
0.0
  0
LINE
  5
F5
330
1F
100
AcDbEntity
  8
0
100
AcDbLine
 10
2247.243008846423
 20
1421.887158001061
 30
0.0
 11
2247.243008846423
 21
734.3871580010612
 31
0.0
  0
LINE
  5
F6
330
1F
100
AcDbEntity
  8
0
100
AcDbLine
 10
1767.243008846423
 20
1391.887158001061
 30
0.0
 11
2247.243008846423
 21
1391.887158001061
 31
0.0
  0
LINE
  5
F7
330
1F
100
AcDbEntity
  8
0
100
AcDbLine
 10
2247.243008846423
 20
734.3871580010612
 30
0.0
 11
2247.243008846423
 21
1014.387158001061
 31
0.0
  0
LINE
  5
F9
330
1F
100
AcDbEntity
  8
0
100
AcDbLine
 10
2247.243008846423
 20
1421.887158001061
 30
0.0
 11
2067.243008846423
 21
1421.887158001061
 31
0.0
  0
CIRCLE
  5
FB
102
{ACAD_REACTORS
330
165
330
193
102
}
330
1F
100
AcDbEntity
  8
0
100
AcDbCircle
 10
2067.243008846423
 20
1014.387158001061
 30
0.0
 40
5.25
  0
LINE
  5
FD
330
1F
100
AcDbEntity
  8
0
100
AcDbLine
 10
2247.243008846423
 20
46.88715800106115
 30
0.0
 11
2067.243008846423
 21
46.88715800106115
 31
0.0
  0
LINE
  5
FE
330
1F
100
AcDbEntity
  8
0
100
AcDbLine
 10
1767.243008846423
 20
76.88715800106115
 30
0.0
 11
2247.243008846423
 21
76.88715800106115
 31
0.0
  0
LINE
  5
FF
330
1F
100
AcDbEntity
  8
0
100
AcDbLine
 10
1767.243008846423
 20
46.88715800106115
 30
0.0
 11
2247.243008846423
 21
46.88715800106115
 31
0.0
  0
LINE
  5
100
330
1F
100
AcDbEntity
  8
0
100
AcDbLine
 10
1767.243008846423
 20
46.88715800106115
 30
0.0
 11
2247.243008846423
 21
46.88715800106115
 31
0.0
  0
LINE
  5
101
102
{ACAD_REACTORS
330
14D
102
}
330
1F
100
AcDbEntity
  8
0
100
AcDbLine
 10
1767.243008846423
 20
734.387158001061
 30
0.0
 11
1767.243008846423
 21
46.88715800106115
 31
0.0
  0
CIRCLE
  5
102
102
{ACAD_REACTORS
330
165
330
17D
102
}
330
1F
100
AcDbEntity
  8
0
100
AcDbCircle
 10
2067.243008846423
 20
454.3871580010611
 30
0.0
 40
5.25
  0
LINE
  5
103
102
{ACAD_REACTORS
330
14D
330
17D
102
}
330
1F
100
AcDbEntity
  8
0
100
AcDbLine
 10
2247.243008846423
 20
46.88715800106115
 30
0.0
 11
2247.243008846423
 21
734.3871580010612
 31
0.0
  0
LINE
  5
104
330
1F
100
AcDbEntity
  8
0
100
AcDbLine
 10
2247.243008846423
 20
734.3871580010612
 30
0.0
 11
2247.243008846423
 21
454.3871580010611
 31
0.0
  0
DIMENSION
  5
105
102
{ACAD_XDICTIONARY
360
113
102
}
102
{ACAD_REACTORS
330
11D
102
}
330
1F
100
AcDbEntity
  8
koty
100
AcDbDimension
  2
*D2
 10
1514.971765042175
 20
-75.089493031242
 30
0.0
 11
827.4717650421749
 21
-58.839493031242
 31
0.0
 70
    32
 71
     5
 42
1375.0
  3
ISO-25
100
AcDbAlignedDimension
 13
139.9717650421748
 23
46.88715800106115
 33
0.0
 14
1514.971765042175
 24
46.88715800106115
 34
0.0
100
AcDbRotatedDimension
  0
DIMENSION
  5
11E
102
{ACAD_XDICTIONARY
360
12B
102
}
102
{ACAD_REACTORS
330
135
102
}
330
1F
100
AcDbEntity
  8
koty
100
AcDbDimension
  2
*D3
 10
14.64178308314246
 20
1421.887158001061
 30
0.0
 11
-1.608216916857805
 21
734.3871580010612
 31
0.0
 70
    32
 71
     5
 42
1375.0
  3
ISO-25
100
AcDbAlignedDimension
 13
139.9717650421748
 23
46.88715800106115
 33
0.0
 14
139.9717650421748
 24
1421.887158001061
 34
0.0
 50
90.0
100
AcDbRotatedDimension
  0
DIMENSION
  5
136
102
{ACAD_XDICTIONARY
360
143
102
}
102
{ACAD_REACTORS
330
14D
102
}
330
1F
100
AcDbEntity
  8
koty
100
AcDbDimension
  2
*D4
 10
2247.243008846423
 20
-71.15791097624015
 30
0.0
 11
2007.243008846423
 21
-54.90791097624015
 31
0.0
 70
    32
 71
     5
 42
480.0
  3
ISO-25
100
AcDbAlignedDimension
 13
1767.243008846423
 23
46.88715800106115
 33
0.0
 14
2247.243008846423
 24
46.88715800106115
 34
0.0
100
AcDbRotatedDimension
  0
DIMENSION
  5
14E
102
{ACAD_XDICTIONARY
360
15B
102
}
102
{ACAD_REACTORS
330
165
102
}
330
1F
100
AcDbEntity
  8
koty
100
AcDbDimension
  2
*D5
 10
2413.035573942934
 20
1014.387158001061
 30
0.0
 11
2396.785573942934
 21
734.3871580010614
 31
0.0
 70
    32
 71
     5
 42
560.0
  3
ISO-25
100
AcDbAlignedDimension
 13
2067.243008846423
 23
454.3871580010611
 33
0.0
 14
2067.243008846423
 24
1014.387158001061
 34
0.0
 50
90.0
100
AcDbRotatedDimension
  0
DIMENSION
  5
166
102
{ACAD_XDICTIONARY
360
173
102
}
102
{ACAD_REACTORS
330
17D
102
}
330
1F
100
AcDbEntity
  8
koty
100
AcDbDimension
  2
*D6
 10
2247.243008846423
 20
-10.2364891195175
 30
0.0
 11
2157.243008846423
 21
6.013510880482499
 31
0.0
 70
    32
 71
     5
 42
180.0
  3
ISO-25
100
AcDbAlignedDimension
 13
2067.243008846423
 23
454.3871580010611
 33
0.0
 14
2247.243008846423
 24
46.88715800106115
 34
0.0
100
AcDbRotatedDimension
  0
DIMENSION
  5
17E
102
{ACAD_XDICTIONARY
360
18A
102
}
102
{ACAD_REACTORS
330
193
102
}
330
1F
100
AcDbEntity
  8
koty
100
AcDbDimension
  2
*D7
 10
2072.155001466974
 20
1016.240487031659
 30
0.0
 11
1978.427867034979
 21
1000.026146874798
 31
0.0
 70
    35
 71
     5
 42
10.5
  3
ISO-25
100
AcDbDiametricDimension
 15
2062.331016225873
 25
1012.533828970462
 35
0.0
 40
0.0
1001
ACAD
1000
DSTYLE
1002
{
1070
   288
1070
     1
1002
}
  0
TEXT
  5
194
330
1F
100
AcDbEntity
  8
popis
100
AcDbText
 10
321.1825300724476
 20
1487.618799117999
 30
0.0
 40
30.0
  1
HIB/HIT 1250 NP
100
AcDbText
  0
ENDSEC
  0
SECTION
  2
OBJECTS
  0
DICTIONARY
  5
C
330
0
100
AcDbDictionary
281
     1
  3
ACAD_GROUP
350
D
  3
ACAD_LAYOUT
350
1A
  3
ACAD_MLINESTYLE
350
17
  3
ACAD_PLOTSETTINGS
350
19
  3
ACAD_PLOTSTYLENAME
350
E
  3
AcDbVariableDictionary
350
2E
  0
DICTIONARY
  5
113
330
105
100
AcDbDictionary
280
     1
281
     1
  3
ACAD_DIMASSOC
360
11D
  0
DICTIONARY
  5
12B
330
11E
100
AcDbDictionary
280
     1
281
     1
  3
ACAD_DIMASSOC
360
135
  0
DICTIONARY
  5
143
330
136
100
AcDbDictionary
280
     1
281
     1
  3
ACAD_DIMASSOC
360
14D
  0
DICTIONARY
  5
15B
330
14E
100
AcDbDictionary
280
     1
281
     1
  3
ACAD_DIMASSOC
360
165
  0
DICTIONARY
  5
173
330
166
100
AcDbDictionary
280
     1
281
     1
  3
ACAD_DIMASSOC
360
17D
  0
DICTIONARY
  5
18A
330
17E
100
AcDbDictionary
280
     1
281
     1
  3
ACAD_DIMASSOC
360
193
  0
DICTIONARY
  5
D
102
{ACAD_REACTORS
330
C
102
}
330
C
100
AcDbDictionary
281
     1
  0
DICTIONARY
  5
1A
102
{ACAD_REACTORS
330
C
102
}
330
C
100
AcDbDictionary
281
     1
  3
Model
350
22
  3
Rozvržení1
350
1E
  3
Rozvržení2
350
26
  0
DICTIONARY
  5
17
102
{ACAD_REACTORS
330
C
102
}
330
C
100
AcDbDictionary
281
     1
  3
Standard
350
18
  0
DICTIONARY
  5
19
102
{ACAD_REACTORS
330
C
102
}
330
C
100
AcDbDictionary
281
     1
  0
ACDBDICTIONARYWDFLT
  5
E
102
{ACAD_REACTORS
330
C
102
}
330
C
100
AcDbDictionary
281
     1
  3
Normal
350
F
100
AcDbDictionaryWithDefault
340
F
  0
DICTIONARY
  5
2E
102
{ACAD_REACTORS
330
C
102
}
330
C
100
AcDbDictionary
281
     1
  3
DIMASSOC
350
30
  3
HIDETEXT
350
2F
  0
DIMASSOC
  5
11D
102
{ACAD_REACTORS
330
113
102
}
330
113
100
AcDbDimAssoc
330
105
 90
        3
 70
     0
 71
     0
  1
AcDbOsnapPointRef
 72
    13
331
34
 73
     2
 91
        1
 40
0.0
 10
139.9717650421748
 20
46.88715800106115
 30
0.0
 75
     0
  1
AcDbOsnapPointRef
 72
     1
331
34
 73
     2
 91
        1
 40
1.0
 10
1514.971765042175
 20
46.88715800106115
 30
0.0
 75
     0
  0
DIMASSOC
  5
135
102
{ACAD_REACTORS
330
12B
102
}
330
12B
100
AcDbDimAssoc
330
11E
 90
        3
 70
     0
 71
     0
  1
AcDbOsnapPointRef
 72
    13
331
34
 73
     2
 91
        1
 40
0.0
 10
139.9717650421748
 20
46.88715800106115
 30
0.0
 75
     0
  1
AcDbOsnapPointRef
 72
     1
331
34
 73
     2
 91
        3
 40
1.0
 10
139.9717650421748
 20
1421.887158001061
 30
0.0
 75
     0
  0
DIMASSOC
  5
14D
102
{ACAD_REACTORS
330
143
102
}
330
143
100
AcDbDimAssoc
330
136
 90
        3
 70
     0
 71
     0
  1
AcDbOsnapPointRef
 72
     1
331
101
 73
     2
 91
        0
 40
1.0
 10
1767.243008846423
 20
46.88715800106115
 30
0.0
 75
     0
  1
AcDbOsnapPointRef
 72
    13
331
103
 73
     2
 91
        0
 40
0.0
 10
2247.243008846423
 20
46.88715800106115
 30
0.0
 75
     0
  0
DIMASSOC
  5
165
102
{ACAD_REACTORS
330
15B
102
}
330
15B
100
AcDbDimAssoc
330
14E
 90
        3
 70
     0
 71
     0
  1
AcDbOsnapPointRef
 72
     3
331
102
 73
     2
 91
        0
 40
0.0
 10
2067.243008846423
 20
454.3871580010611
 30
0.0
 75
     0
  1
AcDbOsnapPointRef
 72
     3
331
FB
 73
     2
 91
        0
 40
0.0
 10
2067.243008846423
 20
1014.387158001061
 30
0.0
 75
     0
  0
DIMASSOC
  5
17D
102
{ACAD_REACTORS
330
173
102
}
330
173
100
AcDbDimAssoc
330
166
 90
        3
 70
     0
 71
     0
  1
AcDbOsnapPointRef
 72
     3
331
102
 73
     2
 91
        0
 40
0.0
 10
2067.243008846423
 20
454.3871580010611
 30
0.0
 75
     0
  1
AcDbOsnapPointRef
 72
    13
331
103
 73
     2
 91
        0
 40
0.0
 10
2247.243008846423
 20
46.88715800106115
 30
0.0
 75
     0
  0
DIMASSOC
  5
193
102
{ACAD_REACTORS
330
18A
102
}
330
18A
100
AcDbDimAssoc
330
17E
 90
        2
 70
     0
 71
     0
  1
AcDbOsnapPointRef
 72
     3
331
FB
 73
     2
 91
        0
 40
0.0
 10
0.0
 20
0.0
 30
0.0
 75
     0
  0
LAYOUT
  5
22
102
{ACAD_REACTORS
330
1A
102
}
330
1A
100
AcDbPlotSettings
  1

  2
D:\AutoCAD 2002Cz\plotters\PublishToWeb DWF.pc3
  4

  6

 40
0.0
 41
0.0
 42
0.0
 43
0.0
 44
0.0
 45
0.0
 46
0.0
 47
0.0
 48
0.0
 49
0.0
140
0.0
141
0.0
142
1.0
143
1.0
 70
  1712
 72
     0
 73
     0
 74
     0
  7

 75
     0
147
1.0
148
0.0
149
0.0
100
AcDbLayout
  1
Model
 70
     1
 71
     0
 10
0.0
 20
0.0
 11
12.0
 21
9.0
 12
0.0
 22
0.0
 32
0.0
 14
0.0
 24
0.0
 34
0.0
 15
0.0
 25
0.0
 35
0.0
146
0.0
 13
0.0
 23
0.0
 33
0.0
 16
1.0
 26
0.0
 36
0.0
 17
0.0
 27
1.0
 37
0.0
 76
     0
330
1F
  0
LAYOUT
  5
1E
102
{ACAD_REACTORS
330
1A
102
}
330
1A
100
AcDbPlotSettings
  1

  2
D:\AutoCAD 2002Cz\plotters\PublishToWeb DWF.pc3
  4

  6

 40
0.0
 41
0.0
 42
0.0
 43
0.0
 44
0.0
 45
0.0
 46
0.0
 47
0.0
 48
0.0
 49
0.0
140
0.0
141
0.0
142
1.0
143
1.0
 70
   688
 72
     0
 73
     0
 74
     5
  7

 75
    16
147
1.0
148
0.0
149
0.0
100
AcDbLayout
  1
Rozvržení1
 70
     1
 71
     1
 10
0.0
 20
0.0
 11
420.0
 21
297.0
 12
0.0
 22
0.0
 32
0.0
 14
1.000000000000000E+20
 24
1.000000000000000E+20
 34
1.000000000000000E+20
 15
-1.000000000000000E+20
 25
-1.000000000000000E+20
 35
-1.000000000000000E+20
146
0.0
 13
0.0
 23
0.0
 33
0.0
 16
1.0
 26
0.0
 36
0.0
 17
0.0
 27
1.0
 37
0.0
 76
     0
330
1B
  0
LAYOUT
  5
26
102
{ACAD_REACTORS
330
1A
102
}
330
1A
100
AcDbPlotSettings
  1

  2
D:\AutoCAD 2002Cz\plotters\PublishToWeb DWF.pc3
  4

  6

 40
0.0
 41
0.0
 42
0.0
 43
0.0
 44
0.0
 45
0.0
 46
0.0
 47
0.0
 48
0.0
 49
0.0
140
0.0
141
0.0
142
1.0
143
1.0
 70
   688
 72
     0
 73
     0
 74
     5
  7

 75
    16
147
1.0
148
0.0
149
0.0
100
AcDbLayout
  1
Rozvržení2
 70
     1
 71
     2
 10
0.0
 20
0.0
 11
12.0
 21
9.0
 12
0.0
 22
0.0
 32
0.0
 14
0.0
 24
0.0
 34
0.0
 15
0.0
 25
0.0
 35
0.0
146
0.0
 13
0.0
 23
0.0
 33
0.0
 16
1.0
 26
0.0
 36
0.0
 17
0.0
 27
1.0
 37
0.0
 76
     0
330
23
  0
MLINESTYLE
  5
18
102
{ACAD_REACTORS
330
17
102
}
330
17
100
AcDbMlineStyle
  2
STANDARD
 70
     0
  3

 62
   256
 51
90.0
 52
90.0
 71
     2
 49
0.5
 62
   256
  6
BYLAYER
 49
-0.5
 62
   256
  6
BYLAYER
  0
ACDBPLACEHOLDER
  5
F
102
{ACAD_REACTORS
330
E
102
}
330
E
  0
DICTIONARYVAR
  5
30
102
{ACAD_REACTORS
330
2E
102
}
330
2E
100
DictionaryVariables
280
     0
  1
2
  0
DICTIONARYVAR
  5
2F
102
{ACAD_REACTORS
330
2E
102
}
330
2E
100
DictionaryVariables
280
     0
  1
1
  0
ENDSEC
  0
EOF
