  0
SECTION
  2
HEADER
  9
$ACADVER
  1
AC1015
  9
$ACADMAINTVER
 70
    13
  9
$DWGCODEPAGE
  3
ANSI_1252
  9
$INSBASE
 10
0.0
 20
0.0
 30
0.0
  9
$EXTMIN
 10
-42.15544294099454
 20
-58.41100276469979
 30
0.0
  9
$EXTMAX
 10
2141.026567063186
 20
1307.738643330274
 30
0.0
  9
$LIMMIN
 10
0.0
 20
0.0
  9
$LIMMAX
 10
420.0
 20
297.0
  9
$ORTHOMODE
 70
     0
  9
$REGENMODE
 70
     1
  9
$FILLMODE
 70
     1
  9
$QTEXTMODE
 70
     0
  9
$MIRRTEXT
 70
     1
  9
$LTSCALE
 40
1.0
  9
$ATTMODE
 70
     1
  9
$TEXTSIZE
 40
30.0
  9
$TRACEWID
 40
1.0
  9
$TEXTSTYLE
  7
Standard
  9
$CLAYER
  8
koty
  9
$CELTYPE
  6
ByLayer
  9
$CECOLOR
 62
   256
  9
$CELTSCALE
 40
1.0
  9
$DISPSILH
 70
     0
  9
$DIMSCALE
 40
10.0
  9
$DIMASZ
 40
2.0
  9
$DIMEXO
 40
0.625
  9
$DIMDLI
 40
3.75
  9
$DIMRND
 40
0.0
  9
$DIMDLE
 40
0.0
  9
$DIMEXE
 40
1.25
  9
$DIMTP
 40
0.0
  9
$DIMTM
 40
0.0
  9
$DIMTXT
 40
2.0
  9
$DIMCEN
 40
2.5
  9
$DIMTSZ
 40
0.0
  9
$DIMTOL
 70
     0
  9
$DIMLIM
 70
     0
  9
$DIMTIH
 70
     0
  9
$DIMTOH
 70
     0
  9
$DIMSE1
 70
     0
  9
$DIMSE2
 70
     0
  9
$DIMTAD
 70
     1
  9
$DIMZIN
 70
     8
  9
$DIMBLK
  1

  9
$DIMASO
 70
     1
  9
$DIMSHO
 70
     1
  9
$DIMPOST
  1

  9
$DIMAPOST
  1

  9
$DIMALT
 70
     0
  9
$DIMALTD
 70
     3
  9
$DIMALTF
 40
0.03937007874016
  9
$DIMLFAC
 40
1.0
  9
$DIMTOFL
 70
     1
  9
$DIMTVP
 40
0.0
  9
$DIMTIX
 70
     0
  9
$DIMSOXD
 70
     0
  9
$DIMSAH
 70
     0
  9
$DIMBLK1
  1

  9
$DIMBLK2
  1

  9
$DIMSTYLE
  2
ISO-25
  9
$DIMCLRD
 70
     0
  9
$DIMCLRE
 70
     0
  9
$DIMCLRT
 70
     0
  9
$DIMTFAC
 40
1.0
  9
$DIMGAP
 40
0.625
  9
$DIMJUST
 70
     0
  9
$DIMSD1
 70
     0
  9
$DIMSD2
 70
     0
  9
$DIMTOLJ
 70
     0
  9
$DIMTZIN
 70
     8
  9
$DIMALTZ
 70
     0
  9
$DIMALTTZ
 70
     0
  9
$DIMUPT
 70
     0
  9
$DIMDEC
 70
     2
  9
$DIMTDEC
 70
     2
  9
$DIMALTU
 70
     2
  9
$DIMALTTD
 70
     3
  9
$DIMTXSTY
  7
Standard
  9
$DIMAUNIT
 70
     0
  9
$DIMADEC
 70
     0
  9
$DIMALTRND
 40
0.0
  9
$DIMAZIN
 70
     0
  9
$DIMDSEP
 70
    44
  9
$DIMATFIT
 70
     3
  9
$DIMFRAC
 70
     0
  9
$DIMLDRBLK
  1

  9
$DIMLUNIT
 70
     2
  9
$DIMLWD
 70
    -2
  9
$DIMLWE
 70
    -2
  9
$DIMTMOVE
 70
     0
  9
$LUNITS
 70
     2
  9
$LUPREC
 70
     4
  9
$SKETCHINC
 40
1.0
  9
$FILLETRAD
 40
10.0
  9
$AUNITS
 70
     0
  9
$AUPREC
 70
     0
  9
$MENU
  1
.
  9
$ELEVATION
 40
0.0
  9
$PELEVATION
 40
0.0
  9
$THICKNESS
 40
0.0
  9
$LIMCHECK
 70
     0
  9
$CHAMFERA
 40
10.0
  9
$CHAMFERB
 40
10.0
  9
$CHAMFERC
 40
20.0
  9
$CHAMFERD
 40
0.0
  9
$SKPOLY
 70
     0
  9
$TDCREATE
 40
2453639.734018240
  9
$TDUCREATE
 40
2453639.650684907
  9
$TDUPDATE
 40
2453664.066205868
  9
$TDUUPDATE
 40
2453663.982872534
  9
$TDINDWG
 40
0.0286898611
  9
$TDUSRTIMER
 40
0.0286892824
  9
$USRTIMER
 70
     1
  9
$ANGBASE
 50
0.0
  9
$ANGDIR
 70
     0
  9
$PDMODE
 70
     0
  9
$PDSIZE
 40
0.0
  9
$PLINEWID
 40
0.0
  9
$SPLFRAME
 70
     0
  9
$SPLINETYPE
 70
     6
  9
$SPLINESEGS
 70
     8
  9
$HANDSEED
  5
1D1
  9
$SURFTAB1
 70
     6
  9
$SURFTAB2
 70
     6
  9
$SURFTYPE
 70
     6
  9
$SURFU
 70
     6
  9
$SURFV
 70
     6
  9
$UCSBASE
  2

  9
$UCSNAME
  2

  9
$UCSORG
 10
0.0
 20
0.0
 30
0.0
  9
$UCSXDIR
 10
1.0
 20
0.0
 30
0.0
  9
$UCSYDIR
 10
0.0
 20
1.0
 30
0.0
  9
$UCSORTHOREF
  2

  9
$UCSORTHOVIEW
 70
     1
  9
$UCSORGTOP
 10
0.0
 20
0.0
 30
0.0
  9
$UCSORGBOTTOM
 10
0.0
 20
0.0
 30
0.0
  9
$UCSORGLEFT
 10
0.0
 20
0.0
 30
0.0
  9
$UCSORGRIGHT
 10
0.0
 20
0.0
 30
0.0
  9
$UCSORGFRONT
 10
0.0
 20
0.0
 30
0.0
  9
$UCSORGBACK
 10
0.0
 20
0.0
 30
0.0
  9
$PUCSBASE
  2

  9
$PUCSNAME
  2

  9
$PUCSORG
 10
0.0
 20
0.0
 30
0.0
  9
$PUCSXDIR
 10
1.0
 20
0.0
 30
0.0
  9
$PUCSYDIR
 10
0.0
 20
1.0
 30
0.0
  9
$PUCSORTHOREF
  2

  9
$PUCSORTHOVIEW
 70
     0
  9
$PUCSORGTOP
 10
0.0
 20
0.0
 30
0.0
  9
$PUCSORGBOTTOM
 10
0.0
 20
0.0
 30
0.0
  9
$PUCSORGLEFT
 10
0.0
 20
0.0
 30
0.0
  9
$PUCSORGRIGHT
 10
0.0
 20
0.0
 30
0.0
  9
$PUCSORGFRONT
 10
0.0
 20
0.0
 30
0.0
  9
$PUCSORGBACK
 10
0.0
 20
0.0
 30
0.0
  9
$USERI1
 70
     0
  9
$USERI2
 70
     0
  9
$USERI3
 70
     0
  9
$USERI4
 70
     0
  9
$USERI5
 70
     0
  9
$USERR1
 40
0.0
  9
$USERR2
 40
0.0
  9
$USERR3
 40
0.0
  9
$USERR4
 40
0.0
  9
$USERR5
 40
0.0
  9
$WORLDVIEW
 70
     1
  9
$SHADEDGE
 70
     3
  9
$SHADEDIF
 70
    70
  9
$TILEMODE
 70
     1
  9
$MAXACTVP
 70
    64
  9
$PINSBASE
 10
0.0
 20
0.0
 30
0.0
  9
$PLIMCHECK
 70
     0
  9
$PEXTMIN
 10
1.000000000000000E+20
 20
1.000000000000000E+20
 30
1.000000000000000E+20
  9
$PEXTMAX
 10
-1.000000000000000E+20
 20
-1.000000000000000E+20
 30
-1.000000000000000E+20
  9
$PLIMMIN
 10
0.0
 20
0.0
  9
$PLIMMAX
 10
420.0
 20
297.0
  9
$UNITMODE
 70
     0
  9
$VISRETAIN
 70
     1
  9
$PLINEGEN
 70
     0
  9
$PSLTSCALE
 70
     1
  9
$TREEDEPTH
 70
  3020
  9
$CMLSTYLE
  2
Standard
  9
$CMLJUST
 70
     0
  9
$CMLSCALE
 40
20.0
  9
$PROXYGRAPHICS
 70
     1
  9
$MEASUREMENT
 70
     1
  9
$CELWEIGHT
370
    -1
  9
$ENDCAPS
280
     0
  9
$JOINSTYLE
280
     0
  9
$LWDISPLAY
290
     0
  9
$INSUNITS
 70
     4
  9
$HYPERLINKBASE
  1

  9
$STYLESHEET
  1

  9
$XEDIT
290
     1
  9
$CEPSNTYPE
380
     0
  9
$PSTYLEMODE
290
     1
  9
$FINGERPRINTGUID
  2
{9B47308E-04D6-42FB-BD32-F27AC533D1CD}
  9
$VERSIONGUID
  2
{7457277F-53D9-45C4-9D73-E0B5AEFA0FEF}
  9
$EXTNAMES
290
     1
  9
$PSVPSCALE
 40
0.0
  9
$OLESTARTUP
290
     0
  0
ENDSEC
  0
SECTION
  2
CLASSES
  0
CLASS
  1
ACDBDICTIONARYWDFLT
  2
AcDbDictionaryWithDefault
  3
AutoCAD 2000
 90
        0
280
     0
281
     0
  0
CLASS
  1
ACDBPLACEHOLDER
  2
AcDbPlaceHolder
  3
AutoCAD 2000
 90
        0
280
     0
281
     0
  0
CLASS
  1
LAYOUT
  2
AcDbLayout
  3
AutoCAD 2000
 90
        0
280
     0
281
     0
  0
CLASS
  1
DICTIONARYVAR
  2
AcDbDictionaryVar
  3
AutoCAD 2000
 90
        0
280
     0
281
     0
  0
CLASS
  1
DIMASSOC
  2
AcDbDimAssoc
  3
"AcDbDimAssoc|Product Desc:     AcDim ARX App For Dimension|Company:          Autodesk, Inc.|WEB Address:      www.autodesk.com"
 90
        0
280
     0
281
     0
  0
ENDSEC
  0
SECTION
  2
TABLES
  0
TABLE
  2
VPORT
  5
8
330
0
100
AcDbSymbolTable
 70
     2
  0
VPORT
  5
1D0
330
8
100
AcDbSymbolTableRecord
100
AcDbViewportTableRecord
  2
*Active
 70
     0
 10
0.0
 20
0.0
 11
1.0
 21
1.0
 12
1049.435562061095
 22
624.6638202827873
 13
0.0
 23
0.0
 14
10.0
 24
10.0
 15
10.0
 25
10.0
 16
0.0
 26
0.0
 36
1.0
 17
0.0
 27
0.0
 37
0.0
 40
1381.973773269819
 41
1.83558994197292
 42
50.0
 43
0.0
 44
0.0
 50
0.0
 51
0.0
 71
     0
 72
   100
 73
     1
 74
     3
 75
     0
 76
     0
 77
     0
 78
     0
281
     0
 65
     1
110
0.0
120
0.0
130
0.0
111
1.0
121
0.0
131
0.0
112
0.0
122
1.0
132
0.0
 79
     1
146
0.0
  0
ENDTAB
  0
TABLE
  2
LTYPE
  5
5
330
0
100
AcDbSymbolTable
 70
     1
  0
LTYPE
  5
14
330
5
100
AcDbSymbolTableRecord
100
AcDbLinetypeTableRecord
  2
ByBlock
 70
     0
  3

 72
    65
 73
     0
 40
0.0
  0
LTYPE
  5
15
330
5
100
AcDbSymbolTableRecord
100
AcDbLinetypeTableRecord
  2
ByLayer
 70
     0
  3

 72
    65
 73
     0
 40
0.0
  0
LTYPE
  5
16
330
5
100
AcDbSymbolTableRecord
100
AcDbLinetypeTableRecord
  2
Continuous
 70
     0
  3
Solid line
 72
    65
 73
     0
 40
0.0
  0
ENDTAB
  0
TABLE
  2
LAYER
  5
2
330
0
100
AcDbSymbolTable
 70
     4
  0
LAYER
  5
10
330
2
100
AcDbSymbolTableRecord
100
AcDbLayerTableRecord
  2
0
 70
     0
 62
    90
  6
Continuous
370
    -3
390
F
  0
LAYER
  5
2B
330
2
100
AcDbSymbolTableRecord
100
AcDbLayerTableRecord
  2
koty
 70
     0
 62
    41
  6
Continuous
370
    -3
390
F
  0
LAYER
  5
2C
330
2
100
AcDbSymbolTableRecord
100
AcDbLayerTableRecord
  2
popis
 70
     0
 62
   210
  6
Continuous
370
    -3
390
F
  0
LAYER
  5
134
330
2
100
AcDbSymbolTableRecord
100
AcDbLayerTableRecord
  2
Defpoints
 70
     0
 62
     7
  6
Continuous
290
     0
370
    -3
390
F
  0
ENDTAB
  0
TABLE
  2
STYLE
  5
3
330
0
100
AcDbSymbolTable
 70
     1
  0
STYLE
  5
11
330
3
100
AcDbSymbolTableRecord
100
AcDbTextStyleTableRecord
  2
Standard
 70
     0
 40
0.0
 41
1.0
 50
0.0
 71
     0
 42
30.0
  3
txt
  4

  0
ENDTAB
  0
TABLE
  2
VIEW
  5
6
330
0
100
AcDbSymbolTable
 70
     0
  0
ENDTAB
  0
TABLE
  2
UCS
  5
7
330
0
100
AcDbSymbolTable
 70
     0
  0
ENDTAB
  0
TABLE
  2
APPID
  5
9
330
0
100
AcDbSymbolTable
 70
     1
  0
APPID
  5
12
330
9
100
AcDbSymbolTableRecord
100
AcDbRegAppTableRecord
  2
ACAD
 70
     0
  0
ENDTAB
  0
TABLE
  2
DIMSTYLE
  5
A
330
0
100
AcDbSymbolTable
 70
     1
100
AcDbDimStyleTable
 71
     1
340
27
  0
DIMSTYLE
105
27
102
{ACAD_REACTORS
330
133
330
14C
330
164
330
185
330
19D
330
1B6
102
}
330
A
100
AcDbSymbolTableRecord
100
AcDbDimStyleTableRecord
  2
ISO-25
 70
     0
 40
10.0
 41
2.0
 42
0.625
 43
3.75
 44
1.25
 73
     0
 74
     0
 77
     1
 78
     8
140
2.0
141
2.5
143
0.03937007874016
147
0.625
171
     3
172
     1
271
     2
272
     2
274
     3
278
    44
283
     0
284
     8
340
11
  0
ENDTAB
  0
TABLE
  2
BLOCK_RECORD
  5
1
330
0
100
AcDbSymbolTable
 70
     8
  0
BLOCK_RECORD
  5
1F
330
1
100
AcDbSymbolTableRecord
100
AcDbBlockTableRecord
  2
*Model_Space
340
22
  0
BLOCK_RECORD
  5
1B
330
1
100
AcDbSymbolTableRecord
100
AcDbBlockTableRecord
  2
*Paper_Space
340
1E
  0
BLOCK_RECORD
  5
23
330
1
100
AcDbSymbolTableRecord
100
AcDbBlockTableRecord
  2
*Paper_Space0
340
26
  0
BLOCK_RECORD
  5
4A
330
1
100
AcDbSymbolTableRecord
100
AcDbBlockTableRecord
  2
A$C5AB64F0D
340
0
  0
BLOCK_RECORD
  5
135
330
1
100
AcDbSymbolTableRecord
100
AcDbBlockTableRecord
  2
*D2
340
0
  0
BLOCK_RECORD
  5
14D
330
1
100
AcDbSymbolTableRecord
100
AcDbBlockTableRecord
  2
*D3
340
0
  0
BLOCK_RECORD
  5
165
330
1
100
AcDbSymbolTableRecord
100
AcDbBlockTableRecord
  2
*D4
340
0
  0
BLOCK_RECORD
  5
186
330
1
100
AcDbSymbolTableRecord
100
AcDbBlockTableRecord
  2
*D5
340
0
  0
BLOCK_RECORD
  5
19E
330
1
100
AcDbSymbolTableRecord
100
AcDbBlockTableRecord
  2
*D6
340
0
  0
BLOCK_RECORD
  5
1B7
330
1
100
AcDbSymbolTableRecord
100
AcDbBlockTableRecord
  2
*D7
340
0
  0
ENDTAB
  0
ENDSEC
  0
SECTION
  2
BLOCKS
  0
BLOCK
  5
20
330
1F
100
AcDbEntity
  8
0
100
AcDbBlockBegin
  2
*Model_Space
 70
     0
 10
0.0
 20
0.0
 30
0.0
  3
*Model_Space
  1

  0
ENDBLK
  5
21
330
1F
100
AcDbEntity
  8
0
100
AcDbBlockEnd
  0
BLOCK
  5
1C
330
1B
100
AcDbEntity
 67
     1
  8
0
100
AcDbBlockBegin
  2
*Paper_Space
 70
     0
 10
0.0
 20
0.0
 30
0.0
  3
*Paper_Space
  1

  0
ENDBLK
  5
1D
330
1B
100
AcDbEntity
 67
     1
  8
0
100
AcDbBlockEnd
  0
BLOCK
  5
24
330
23
100
AcDbEntity
  8
0
100
AcDbBlockBegin
  2
*Paper_Space0
 70
     0
 10
0.0
 20
0.0
 30
0.0
  3
*Paper_Space0
  1

  0
ENDBLK
  5
25
330
23
100
AcDbEntity
  8
0
100
AcDbBlockEnd
  0
BLOCK
  5
4C
330
4A
100
AcDbEntity
  8
0
100
AcDbBlockBegin
  2
A$C5AB64F0D
 70
     0
 10
0.0
 20
0.0
 30
0.0
  3
A$C5AB64F0D
  1

  0
LINE
  5
4B
330
4A
100
AcDbEntity
  8
0
100
AcDbLine
 10
0.0
 20
59.34533938084314
 30
0.0
 11
158.3934374355176
 21
0.0
 31
0.0
  0
ENDBLK
  5
4D
330
4A
100
AcDbEntity
  8
0
100
AcDbBlockEnd
  0
BLOCK
  5
13F
330
135
100
AcDbEntity
  8
0
100
AcDbBlockBegin
  2
*D2
 70
     1
 10
0.0
 20
0.0
 30
0.0
  3
*D2
  1

  0
LINE
  5
17C
330
135
100
AcDbEntity
  8
koty
 62
     0
370
    -2
100
AcDbLine
 10
139.2833183816053
 20
73.65354380631186
 30
0.0
 11
139.2833183816053
 21
-58.41100276469979
 31
0.0
  0
LINE
  5
17D
330
135
100
AcDbEntity
  8
koty
 62
     0
370
    -2
100
AcDbLine
 10
1264.283318381605
 20
73.65354380631186
 30
0.0
 11
1264.283318381605
 21
-58.41100276469979
 31
0.0
  0
LINE
  5
17E
330
135
100
AcDbEntity
  8
koty
 62
     0
370
    -2
100
AcDbLine
 10
159.2833183816053
 20
-45.91100276469979
 30
0.0
 11
1244.283318381605
 21
-45.91100276469979
 31
0.0
  0
SOLID
  5
17F
330
135
100
AcDbEntity
  8
koty
 62
     0
100
AcDbTrace
 10
159.2833183816053
 20
-42.57766943136645
 30
0.0
 11
159.2833183816053
 21
-49.24433609803312
 31
0.0
 12
139.2833183816053
 22
-45.91100276469979
 32
0.0
 13
139.2833183816053
 23
-45.91100276469979
 33
0.0
  0
SOLID
  5
180
330
135
100
AcDbEntity
  8
koty
 62
     0
100
AcDbTrace
 10
1244.283318381605
 20
-42.57766943136645
 30
0.0
 11
1244.283318381605
 21
-49.24433609803312
 31
0.0
 12
1264.283318381605
 22
-45.91100276469979
 32
0.0
 13
1264.283318381605
 23
-45.91100276469979
 33
0.0
  0
MTEXT
  5
181
330
135
100
AcDbEntity
  8
koty
 62
     0
100
AcDbMText
 10
719.0500891456604
 20
-29.66100276469978
 30
0.0
 40
20.0
 41
0.0
 71
     5
 72
     1
  1
1125
 73
     1
 44
1.0
  0
POINT
  5
182
330
135
100
AcDbEntity
  8
Defpoints
 62
     0
100
AcDbPoint
 10
139.2833183816053
 20
79.90354380631186
 30
0.0
  0
POINT
  5
183
330
135
100
AcDbEntity
  8
Defpoints
 62
     0
100
AcDbPoint
 10
1264.283318381605
 20
79.90354380631186
 30
0.0
  0
POINT
  5
184
330
135
100
AcDbEntity
  8
Defpoints
 62
     0
100
AcDbPoint
 10
1264.283318381605
 20
-45.91100276469979
 30
0.0
  0
ENDBLK
  5
140
330
135
100
AcDbEntity
  8
0
100
AcDbBlockEnd
  0
BLOCK
  5
157
330
14D
100
AcDbEntity
  8
0
100
AcDbBlockBegin
  2
*D3
 70
     1
 10
0.0
 20
0.0
 30
0.0
  3
*D3
  1

  0
LINE
  5
15A
330
14D
100
AcDbEntity
  8
koty
 62
     0
370
    -2
100
AcDbLine
 10
133.0333183816053
 20
79.90354380631186
 30
0.0
 11
-28.40544294099454
 21
79.9035438063119
 31
0.0
  0
LINE
  5
15B
330
14D
100
AcDbEntity
  8
koty
 62
     0
370
    -2
100
AcDbLine
 10
133.0333183816053
 20
1204.903543806312
 30
0.0
 11
-28.40544294099429
 21
1204.903543806312
 31
0.0
  0
LINE
  5
15C
330
14D
100
AcDbEntity
  8
koty
 62
     0
370
    -2
100
AcDbLine
 10
-15.90544294099455
 20
99.9035438063119
 30
0.0
 11
-15.90544294099431
 21
1184.903543806312
 31
0.0
  0
SOLID
  5
15D
330
14D
100
AcDbEntity
  8
koty
 62
     0
100
AcDbTrace
 10
-19.23877627432788
 20
99.9035438063119
 30
0.0
 11
-12.57210960766121
 21
99.9035438063119
 31
0.0
 12
-15.90544294099455
 22
79.9035438063119
 32
0.0
 13
-15.90544294099455
 23
79.9035438063119
 33
0.0
  0
SOLID
  5
15E
330
14D
100
AcDbEntity
  8
koty
 62
     0
100
AcDbTrace
 10
-19.23877627432764
 20
1184.903543806312
 30
0.0
 11
-12.57210960766097
 21
1184.903543806312
 31
0.0
 12
-15.9054429409943
 22
1204.903543806312
 32
0.0
 13
-15.9054429409943
 23
1204.903543806312
 33
0.0
  0
MTEXT
  5
15F
330
14D
100
AcDbEntity
  8
koty
 62
     0
100
AcDbMText
 10
-32.15544294099453
 20
642.4035438063119
 30
0.0
 40
20.0
 41
0.0
 71
     5
 72
     1
  1
1125
 11
0.0000000000000001
 21
1.0
 31
0.0
 73
     1
 44
1.0
  0
POINT
  5
160
330
14D
100
AcDbEntity
  8
Defpoints
 62
     0
100
AcDbPoint
 10
139.2833183816053
 20
79.90354380631186
 30
0.0
  0
POINT
  5
161
330
14D
100
AcDbEntity
  8
Defpoints
 62
     0
100
AcDbPoint
 10
139.2833183816053
 20
1204.903543806312
 30
0.0
  0
POINT
  5
162
330
14D
100
AcDbEntity
  8
Defpoints
 62
     0
100
AcDbPoint
 10
-15.9054429409943
 20
1204.903543806312
 30
0.0
  0
ENDBLK
  5
158
330
14D
100
AcDbEntity
  8
0
100
AcDbBlockEnd
  0
BLOCK
  5
16F
330
165
100
AcDbEntity
  8
0
100
AcDbBlockBegin
  2
*D4
 70
     1
 10
0.0
 20
0.0
 30
0.0
  3
*D4
  1

  0
LINE
  5
172
330
165
100
AcDbEntity
  8
koty
 62
     0
370
    -2
100
AcDbLine
 10
1543.215681360943
 20
73.65354380631197
 30
0.0
 11
1543.215681360943
 21
-58.41100276469979
 31
0.0
  0
LINE
  5
173
330
165
100
AcDbEntity
  8
koty
 62
     0
370
    -2
100
AcDbLine
 10
1990.215681360943
 20
73.65354380631197
 30
0.0
 11
1990.215681360943
 21
-58.41100276469979
 31
0.0
  0
LINE
  5
174
330
165
100
AcDbEntity
  8
koty
 62
     0
370
    -2
100
AcDbLine
 10
1563.215681360943
 20
-45.91100276469979
 30
0.0
 11
1970.215681360943
 21
-45.91100276469979
 31
0.0
  0
SOLID
  5
175
330
165
100
AcDbEntity
  8
koty
 62
     0
100
AcDbTrace
 10
1563.215681360943
 20
-42.57766943136645
 30
0.0
 11
1563.215681360943
 21
-49.24433609803312
 31
0.0
 12
1543.215681360943
 22
-45.91100276469979
 32
0.0
 13
1543.215681360943
 23
-45.91100276469979
 33
0.0
  0
SOLID
  5
176
330
165
100
AcDbEntity
  8
koty
 62
     0
100
AcDbTrace
 10
1970.215681360943
 20
-42.57766943136645
 30
0.0
 11
1970.215681360943
 21
-49.24433609803312
 31
0.0
 12
1990.215681360943
 22
-45.91100276469979
 32
0.0
 13
1990.215681360943
 23
-45.91100276469979
 33
0.0
  0
MTEXT
  5
177
330
165
100
AcDbEntity
  8
koty
 62
     0
100
AcDbMText
 10
1766.715681360943
 20
-29.66100276469978
 30
0.0
 40
20.0
 41
0.0
 71
     5
 72
     1
  1
447
 73
     1
 44
1.0
  0
POINT
  5
178
330
165
100
AcDbEntity
  8
Defpoints
 62
     0
100
AcDbPoint
 10
1543.215681360943
 20
79.90354380631197
 30
0.0
  0
POINT
  5
179
330
165
100
AcDbEntity
  8
Defpoints
 62
     0
100
AcDbPoint
 10
1990.215681360943
 20
79.90354380631197
 30
0.0
  0
POINT
  5
17A
330
165
100
AcDbEntity
  8
Defpoints
 62
     0
100
AcDbPoint
 10
1990.215681360943
 20
-45.91100276469979
 30
0.0
  0
ENDBLK
  5
170
330
165
100
AcDbEntity
  8
0
100
AcDbBlockEnd
  0
BLOCK
  5
190
330
186
100
AcDbEntity
  8
0
100
AcDbBlockBegin
  2
*D5
 70
     1
 10
0.0
 20
0.0
 30
0.0
  3
*D5
  1

  0
LINE
  5
193
330
186
100
AcDbEntity
  8
koty
 62
     0
370
    -2
100
AcDbLine
 10
1785.215681360943
 20
296.1535438063121
 30
0.0
 11
1785.215681360943
 21
12.03272162271196
 31
0.0
  0
LINE
  5
194
330
186
100
AcDbEntity
  8
koty
 62
     0
370
    -2
100
AcDbLine
 10
1990.215681360943
 20
73.65354380631197
 30
0.0
 11
1990.215681360943
 21
12.03272162271196
 31
0.0
  0
LINE
  5
195
330
186
100
AcDbEntity
  8
koty
 62
     0
370
    -2
100
AcDbLine
 10
1805.215681360943
 20
24.53272162271196
 30
0.0
 11
1970.215681360943
 21
24.53272162271196
 31
0.0
  0
SOLID
  5
196
330
186
100
AcDbEntity
  8
koty
 62
     0
100
AcDbTrace
 10
1805.215681360943
 20
27.86605495604529
 30
0.0
 11
1805.215681360943
 21
21.19938828937863
 31
0.0
 12
1785.215681360943
 22
24.53272162271196
 32
0.0
 13
1785.215681360943
 23
24.53272162271196
 33
0.0
  0
SOLID
  5
197
330
186
100
AcDbEntity
  8
koty
 62
     0
100
AcDbTrace
 10
1970.215681360943
 20
27.86605495604529
 30
0.0
 11
1970.215681360943
 21
21.19938828937863
 31
0.0
 12
1990.215681360943
 22
24.53272162271196
 32
0.0
 13
1990.215681360943
 23
24.53272162271196
 33
0.0
  0
MTEXT
  5
198
330
186
100
AcDbEntity
  8
koty
 62
     0
100
AcDbMText
 10
1887.715681360943
 20
40.78272162271196
 30
0.0
 40
20.0
 41
0.0
 71
     5
 72
     1
  1
205
 73
     1
 44
1.0
  0
POINT
  5
199
330
186
100
AcDbEntity
  8
Defpoints
 62
     0
100
AcDbPoint
 10
1785.215681360943
 20
302.403543806312
 30
0.0
  0
POINT
  5
19A
330
186
100
AcDbEntity
  8
Defpoints
 62
     0
100
AcDbPoint
 10
1990.215681360943
 20
79.90354380631197
 30
0.0
  0
POINT
  5
19B
330
186
100
AcDbEntity
  8
Defpoints
 62
     0
100
AcDbPoint
 10
1990.215681360943
 20
24.53272162271196
 30
0.0
  0
ENDBLK
  5
191
330
186
100
AcDbEntity
  8
0
100
AcDbBlockEnd
  0
BLOCK
  5
1A8
330
19E
100
AcDbEntity
  8
0
100
AcDbBlockBegin
  2
*D6
 70
     1
 10
0.0
 20
0.0
 30
0.0
  3
*D6
  1

  0
LINE
  5
1AB
330
19E
100
AcDbEntity
  8
koty
 62
     0
370
    -2
100
AcDbLine
 10
1791.465681360943
 20
302.403543806312
 30
0.0
 11
2141.026567063186
 21
302.403543806312
 31
0.0
  0
LINE
  5
1AC
330
19E
100
AcDbEntity
  8
koty
 62
     0
370
    -2
100
AcDbLine
 10
1791.465681360943
 20
982.4035438063118
 30
0.0
 11
2141.026567063186
 21
982.4035438063118
 31
0.0
  0
LINE
  5
1AD
330
19E
100
AcDbEntity
  8
koty
 62
     0
370
    -2
100
AcDbLine
 10
2128.526567063186
 20
322.403543806312
 30
0.0
 11
2128.526567063186
 21
962.4035438063117
 31
0.0
  0
SOLID
  5
1AE
330
19E
100
AcDbEntity
  8
koty
 62
     0
100
AcDbTrace
 10
2125.193233729852
 20
322.403543806312
 30
0.0
 11
2131.859900396519
 21
322.403543806312
 31
0.0
 12
2128.526567063186
 22
302.403543806312
 32
0.0
 13
2128.526567063186
 23
302.403543806312
 33
0.0
  0
SOLID
  5
1AF
330
19E
100
AcDbEntity
  8
koty
 62
     0
100
AcDbTrace
 10
2125.193233729852
 20
962.4035438063117
 30
0.0
 11
2131.859900396519
 21
962.4035438063117
 31
0.0
 12
2128.526567063186
 22
982.4035438063118
 32
0.0
 13
2128.526567063186
 23
982.4035438063118
 33
0.0
  0
MTEXT
  5
1B0
330
19E
100
AcDbEntity
  8
koty
 62
     0
100
AcDbMText
 10
2112.276567063186
 20
642.4035438063121
 30
0.0
 40
20.0
 41
0.0
 71
     5
 72
     1
  1
680
 11
0.0000000000000001
 21
1.0
 31
0.0
 73
     1
 44
1.0
  0
POINT
  5
1B1
330
19E
100
AcDbEntity
  8
Defpoints
 62
     0
100
AcDbPoint
 10
1785.215681360943
 20
302.403543806312
 30
0.0
  0
POINT
  5
1B2
330
19E
100
AcDbEntity
  8
Defpoints
 62
     0
100
AcDbPoint
 10
1785.215681360943
 20
982.4035438063118
 30
0.0
  0
POINT
  5
1B3
330
19E
100
AcDbEntity
  8
Defpoints
 62
     0
100
AcDbPoint
 10
2128.526567063186
 20
982.4035438063118
 30
0.0
  0
ENDBLK
  5
1A9
330
19E
100
AcDbEntity
  8
0
100
AcDbBlockEnd
  0
BLOCK
  5
1C0
330
1B7
100
AcDbEntity
  8
0
100
AcDbBlockBegin
  2
*D7
 70
     1
 10
0.0
 20
0.0
 30
0.0
  3
*D7
  1

  0
LINE
  5
1C3
330
1B7
100
AcDbEntity
  8
koty
 62
     0
370
    -2
100
AcDbLine
 10
1666.402518677592
 20
927.0296090449345
 30
0.0
 11
1762.329229807825
 21
971.7371088204902
 31
0.0
  0
LINE
  5
1C4
330
1B7
100
AcDbEntity
  8
koty
 62
     0
370
    -2
100
AcDbLine
 10
1808.102132914062
 20
993.0699787921335
 30
0.0
 11
1826.230015332374
 21
1001.518640167041
 31
0.0
  0
MTEXT
  5
1C5
330
1B7
100
AcDbEntity
  8
koty
 62
     0
100
AcDbMText
 10
1697.733340551864
 20
961.3985895783292
 30
0.0
 40
20.0
 41
0.0
 71
     5
 72
     1
  1
\U+220510,5
 11
0.9063941209155856
 21
0.4224330687454082
 31
0.0
 73
     1
 44
1.0
  0
LINE
  5
1C6
330
1B7
100
AcDbEntity
  8
koty
 62
     0
370
    -2
100
AcDbLine
 10
1789.97425049575
 20
984.6213174172254
 30
0.0
 11
1780.457112226137
 21
980.1857701953984
 31
0.0
  0
SOLID
  5
1C7
330
1B7
100
AcDbEntity
  8
koty
 62
     0
100
AcDbTrace
 10
1806.694022684911
 20
996.0912925285187
 30
0.0
 11
1809.510243143213
 21
990.0486650557482
 31
0.0
 12
1789.97425049575
 22
984.6213174172254
 32
0.0
 13
1789.97425049575
 23
984.6213174172254
 33
0.0
  0
SOLID
  5
1C8
330
1B7
100
AcDbEntity
  8
koty
 62
     0
100
AcDbTrace
 10
1760.921119578673
 20
974.7584225568756
 30
0.0
 11
1763.737340036976
 21
968.7157950841051
 31
0.0
 12
1780.457112226137
 22
980.1857701953984
 32
0.0
 13
1780.457112226137
 23
980.1857701953984
 33
0.0
  0
POINT
  5
1C9
330
1B7
100
AcDbEntity
  8
Defpoints
 62
     0
100
AcDbPoint
 10
1780.457112226137
 20
980.1857701953984
 30
0.0
  0
POINT
  5
1CA
330
1B7
100
AcDbEntity
  8
Defpoints
 62
     0
100
AcDbPoint
 10
1789.97425049575
 20
984.6213174172254
 30
0.0
  0
ENDBLK
  5
1C1
330
1B7
100
AcDbEntity
  8
0
100
AcDbBlockEnd
  0
ENDSEC
  0
SECTION
  2
ENTITIES
  0
LINE
  5
34
102
{ACAD_REACTORS
330
14B
330
163
102
}
330
1F
100
AcDbEntity
  8
0
100
AcDbLine
 10
139.2833183816053
 20
79.90354380631186
 30
0.0
 11
1264.283318381605
 21
79.90354380631186
 31
0.0
  0
LINE
  5
35
330
1F
100
AcDbEntity
  8
0
100
AcDbLine
 10
1264.283318381605
 20
79.90354380631186
 30
0.0
 11
1264.283318381605
 21
1204.903543806312
 31
0.0
  0
LINE
  5
36
102
{ACAD_REACTORS
330
163
102
}
330
1F
100
AcDbEntity
  8
0
100
AcDbLine
 10
1264.283318381605
 20
1204.903543806312
 30
0.0
 11
139.2833183816053
 21
1204.903543806312
 31
0.0
  0
LINE
  5
37
330
1F
100
AcDbEntity
  8
0
100
AcDbLine
 10
139.2833183816053
 20
1204.903543806312
 30
0.0
 11
139.2833183816053
 21
79.90354380631186
 31
0.0
  0
LINE
  5
38
330
1F
100
AcDbEntity
  8
0
100
AcDbLine
 10
169.2833183816053
 20
1174.903543806312
 30
0.0
 11
169.2833183816053
 21
109.9035438063118
 31
0.0
  0
LINE
  5
39
330
1F
100
AcDbEntity
  8
0
100
AcDbLine
 10
1234.283318381605
 20
1174.903543806312
 30
0.0
 11
169.2833183816053
 21
1174.903543806312
 31
0.0
  0
LINE
  5
3A
330
1F
100
AcDbEntity
  8
0
100
AcDbLine
 10
1234.283318381605
 20
109.9035438063118
 30
0.0
 11
1234.283318381605
 21
1174.903543806312
 31
0.0
  0
LINE
  5
3B
330
1F
100
AcDbEntity
  8
0
100
AcDbLine
 10
169.2833183816053
 20
109.9035438063118
 30
0.0
 11
1234.283318381605
 21
109.9035438063118
 31
0.0
  0
ARC
  5
3F
330
1F
100
AcDbEntity
  8
0
100
AcDbCircle
 10
701.7833183816053
 20
642.4035438063119
 30
0.0
 40
532.5
100
AcDbArc
 50
111.9626108433346
 51
120.93584279539
  0
LINE
  5
40
330
1F
100
AcDbEntity
  8
0
100
AcDbLine
 10
627.5854073480322
 20
697.857867656849
 30
0.0
 11
688.0906398452152
 21
675.188345390032
 31
0.0
  0
ARC
  5
41
330
1F
100
AcDbEntity
  8
0
100
AcDbCircle
 10
799.9811238448533
 20
788.7853180040264
 30
0.0
 40
194.905321356526
100
AcDbArc
 50
125.3122740898276
 51
141.2716532913819
  0
ARC
  5
42
330
1F
100
AcDbEntity
  8
0
100
AcDbCircle
 10
463.1355514555287
 20
1199.193042528404
 30
0.0
 40
339.9111510919487
100
AcDbArc
 50
314.5948191663687
 51
332.4630019964653
  0
LINE
  5
49
330
1F
100
AcDbEntity
  8
0
100
AcDbLine
 10
795.4501384475791
 20
1127.732522596371
 30
0.0
 11
834.3632003548441
 21
1099.151946577822
 31
0.0
  0
ARC
  5
55
330
1F
100
AcDbEntity
  8
0
100
AcDbCircle
 10
621.5289888910464
 20
1139.84770314756
 30
0.0
 40
339.9111510919487
100
AcDbArc
 50
314.5948191663676
 51
315.2923348776173
  0
ARC
  5
56
330
1F
100
AcDbEntity
  8
0
100
AcDbCircle
 10
958.374561280371
 20
729.4399786231829
 30
0.0
 40
194.905321356526
100
AcDbArc
 50
120.2532590074603
 51
136.4948674615011
  0
ARC
  5
57
330
1F
100
AcDbEntity
  8
0
100
AcDbCircle
 10
100.2655844648316
 20
714.1232644529481
 30
0.0
 40
339.9111510919487
100
AcDbArc
 50
14.59481916636874
 51
15.77113054232708
  0
LINE
  5
58
330
1F
100
AcDbEntity
  8
0
100
AcDbLine
 10
328.3095035896419
 20
966.1858788701808
 30
0.0
 11
393.7966252175677
 21
994.9378129805358
 31
0.0
  0
ARC
  5
59
330
1F
100
AcDbEntity
  8
0
100
AcDbCircle
 10
230.8568746826101
 20
821.6233353744259
 30
0.0
 40
339.9111510919487
100
AcDbArc
 50
15.1963875575066
 51
30.65595056016665
  0
ARC
  5
5A
330
1F
100
AcDbEntity
  8
0
100
AcDbCircle
 10
754.7031762247495
 20
908.1362959537022
 30
0.0
 40
194.905321356526
100
AcDbArc
 50
182.1795920907224
 51
193.2038901835707
  0
ARC
  5
5B
330
1F
100
AcDbEntity
  8
0
100
AcDbCircle
 10
624.111886006971
 20
800.6362250322242
 30
0.0
 40
194.905321356526
100
AcDbArc
 50
180.2532590074605
 51
189.2214575295134
  0
LINE
  5
5C
330
1F
100
AcDbEntity
  8
0
100
AcDbLine
 10
616.6595096605642
 20
605.8734298687686
 30
0.0
 11
631.4896274623926
 21
618.0812785913888
 31
0.0
  0
ARC
  5
5D
330
1F
100
AcDbEntity
  8
0
100
AcDbCircle
 10
338.9133513909083
 20
157.3337657308558
 30
0.0
 40
339.9111510919487
100
AcDbArc
 50
75.73215068097701
 51
104.2678493190229
  0
LINE
  5
5E
330
1F
100
AcDbEntity
  8
0
100
AcDbLine
 10
235.2940105075313
 20
486.7600781954587
 30
0.0
 11
239.3882176321945
 21
523.8671449941021
 31
0.0
  0
ARC
  5
5F
330
1F
100
AcDbEntity
  8
0
100
AcDbCircle
 10
311.1112041731692
 20
324.179176033177
 30
0.0
 40
339.9111510919487
100
AcDbArc
 50
74.59481916636765
 51
99.61569920160966
  0
ARC
  5
60
330
1F
100
AcDbEntity
  8
0
100
AcDbCircle
 10
498.1119333259839
 20
821.0998611368312
 30
0.0
 40
194.905321356526
100
AcDbArc
 50
240.2532590074603
 51
262.0212907720937
  0
ARC
  5
61
330
1F
100
AcDbEntity
  8
0
100
AcDbCircle
 10
525.9140805437232
 20
654.2544508345099
 30
0.0
 40
194.905321356526
100
AcDbArc
 50
245.5980652713171
 51
294.4019347286829
  0
LINE
  5
62
330
1F
100
AcDbEntity
  8
0
100
AcDbLine
 10
690.8574206941373
 20
550.4191060182315
 30
0.0
 11
687.4322376112838
 21
570.9742117927454
 31
0.0
  0
ARC
  5
63
330
1F
100
AcDbEntity
  8
0
100
AcDbCircle
 10
940.4310853076818
 20
85.61404508421958
 30
0.0
 40
339.9111510919487
100
AcDbArc
 50
134.5948191663687
 51
141.2587750131053
  0
LINE
  5
64
330
1F
100
AcDbEntity
  8
0
100
AcDbLine
 10
608.1164983156314
 20
157.0745650162527
 30
0.0
 11
557.6815132183733
 21
194.1176774035985
 31
0.0
  0
ARC
  5
65
330
1F
100
AcDbEntity
  8
0
100
AcDbCircle
 10
782.037647872164
 20
144.9593844650631
 30
0.0
 40
339.9111510919487
100
AcDbArc
 50
135.6558427648069
 51
143.8572047409113
  0
ARC
  5
66
330
1F
100
AcDbEntity
  8
0
100
AcDbCircle
 10
445.1920754828394
 20
555.3671089894412
 30
0.0
 40
194.905321356526
100
AcDbArc
 50
303.3439540619699
 51
319.8342609359183
  0
ARC
  5
67
330
1F
100
AcDbEntity
  8
0
100
AcDbCircle
 10
603.5855129183572
 20
496.0217696085977
 30
0.0
 40
194.905321356526
100
AcDbArc
 50
300.2532590074606
 51
304.5226676417637
  0
LINE
  5
68
330
1F
100
AcDbEntity
  8
0
100
AcDbLine
 10
775.9812294151783
 20
586.949219955775
 30
0.0
 11
692.8893837338522
 21
618.0812785913888
 31
0.0
  0
ARC
  5
69
330
1F
100
AcDbEntity
  8
0
100
AcDbCircle
 10
1303.301052298379
 20
570.6838231596755
 30
0.0
 40
339.9111510919487
100
AcDbArc
 50
196.0406045446291
 51
202.6738824895488
  0
LINE
  5
6A
330
1F
100
AcDbEntity
  8
0
100
AcDbLine
 10
1075.257133173568
 20
318.6212087424428
 30
0.0
 11
1029.044789594907
 21
298.3318110008853
 31
0.0
  0
ARC
  5
6B
330
1F
100
AcDbEntity
  8
0
100
AcDbCircle
 10
1172.7097620806
 20
463.1837522381978
 30
0.0
 40
339.9111510919487
100
AcDbArc
 50
194.5948191663676
 51
200.2672178324466
  0
ARC
  5
6C
330
1F
100
AcDbEntity
  8
0
100
AcDbCircle
 10
648.8634605384609
 20
376.6707916589218
 30
0.0
 40
194.905321356526
100
AcDbArc
 50
0.2532590074603301
 51
1.727364156994551
  0
ARC
  5
6D
330
1F
100
AcDbEntity
  8
0
100
AcDbCircle
 10
779.4547507562395
 20
484.1708625803994
 30
0.0
 40
194.905321356526
100
AcDbArc
 50
0.2532590074605592
 51
11.7516278489509
  0
LINE
  5
6E
330
1F
100
AcDbEntity
  8
0
100
AcDbLine
 10
786.9071271026463
 20
678.9336577438553
 30
0.0
 11
782.3573145456703
 21
675.1883453900322
 31
0.0
  0
ARC
  5
6F
330
1F
100
AcDbEntity
  8
0
100
AcDbCircle
 10
1064.653285372302
 20
1127.473321881768
 30
0.0
 40
339.9111510919487
100
AcDbArc
 50
254.5948191663686
 51
287.863996652146
  0
LINE
  5
70
330
1F
100
AcDbEntity
  8
0
100
AcDbLine
 10
1168.923953239542
 20
803.950187532502
 30
0.0
 11
1165.112132832555
 21
769.4024789873187
 31
0.0
  0
ARC
  5
71
330
1F
100
AcDbEntity
  8
0
100
AcDbCircle
 10
1092.455432590041
 20
960.6279115794469
 30
0.0
 40
339.9111510919487
100
AcDbArc
 50
254.5948191663676
 51
258.051473708585
  0
ARC
  5
72
330
1F
100
AcDbEntity
  8
0
100
AcDbCircle
 10
905.4547034372266
 20
463.7072264757928
 30
0.0
 40
194.905321356526
100
AcDbArc
 50
60.2532590074603
 51
99.89036833661735
  0
ARC
  5
73
330
1F
100
AcDbEntity
  8
0
100
AcDbCircle
 10
877.6525562194875
 20
630.5526367781141
 30
0.0
 40
194.905321356526
100
AcDbArc
 50
60.25325900746053
 51
64.5261200003567
  0
LINE
  5
74
330
1F
100
AcDbEntity
  8
0
100
AcDbLine
 10
712.7092160690733
 20
734.3879815943926
 30
0.0
 11
714.724251389789
 21
722.2954121886755
 31
0.0
  0
LINE
  5
79
330
1F
100
AcDbEntity
  8
0
100
AcDbLine
 10
684.6326260419361
 20
628.0812785913887
 30
0.0
 11
719.8430159990125
 21
663.2916685484652
 31
0.0
  0
LINE
  5
7A
330
1F
100
AcDbEntity
  8
0
100
AcDbLine
 10
690.2894802914282
 20
628.0812785913886
 30
0.0
 11
723.9580781057701
 21
661.7498764057306
 31
0.0
  0
LINE
  5
7B
330
1F
100
AcDbEntity
  8
0
100
AcDbLine
 10
169.2833183816053
 20
157.0106106049552
 30
0.0
 11
1234.283318381605
 21
157.0106106049552
 31
0.0
  0
LINE
  5
7C
330
1F
100
AcDbEntity
  8
0
100
AcDbLine
 10
169.2833183816053
 20
147.0106106049552
 30
0.0
 11
1234.283318381605
 21
147.0106106049551
 31
0.0
  0
LINE
  5
7D
330
1F
100
AcDbEntity
  8
0
100
AcDbLine
 10
169.2833183816053
 20
194.1176774035985
 30
0.0
 11
1234.283318381605
 21
194.1176774035985
 31
0.0
  0
LINE
  5
7E
330
1F
100
AcDbEntity
  8
0
100
AcDbLine
 10
169.2833183816053
 20
204.1176774035985
 30
0.0
 11
1234.283318381605
 21
204.1176774035985
 31
0.0
  0
LINE
  5
7F
330
1F
100
AcDbEntity
  8
0
100
AcDbLine
 10
169.2833183816053
 20
241.2247442022419
 30
0.0
 11
1234.283318381605
 21
241.2247442022418
 31
0.0
  0
LINE
  5
80
330
1F
100
AcDbEntity
  8
0
100
AcDbLine
 10
169.2833183816053
 20
251.2247442022419
 30
0.0
 11
1234.283318381605
 21
251.2247442022419
 31
0.0
  0
LINE
  5
81
330
1F
100
AcDbEntity
  8
0
100
AcDbLine
 10
169.2833183816053
 20
288.3318110008853
 30
0.0
 11
1234.283318381605
 21
288.3318110008853
 31
0.0
  0
LINE
  5
82
330
1F
100
AcDbEntity
  8
0
100
AcDbLine
 10
169.2833183816053
 20
298.3318110008852
 30
0.0
 11
1234.283318381605
 21
298.3318110008852
 31
0.0
  0
LINE
  5
83
330
1F
100
AcDbEntity
  8
0
100
AcDbLine
 10
169.2833183816053
 20
335.4388777995286
 30
0.0
 11
1234.283318381605
 21
335.4388777995286
 31
0.0
  0
LINE
  5
84
330
1F
100
AcDbEntity
  8
0
100
AcDbLine
 10
169.2833183816053
 20
345.4388777995286
 30
0.0
 11
1234.283318381605
 21
345.4388777995286
 31
0.0
  0
LINE
  5
85
330
1F
100
AcDbEntity
  8
0
100
AcDbLine
 10
169.2833183816053
 20
382.545944598172
 30
0.0
 11
1234.283318381605
 21
382.545944598172
 31
0.0
  0
LINE
  5
86
330
1F
100
AcDbEntity
  8
0
100
AcDbLine
 10
169.2833183816053
 20
392.545944598172
 30
0.0
 11
1234.283318381605
 21
392.545944598172
 31
0.0
  0
LINE
  5
87
330
1F
100
AcDbEntity
  8
0
100
AcDbLine
 10
169.2833183816053
 20
429.6530113968153
 30
0.0
 11
1234.283318381605
 21
429.6530113968153
 31
0.0
  0
LINE
  5
88
330
1F
100
AcDbEntity
  8
0
100
AcDbLine
 10
169.2833183816053
 20
439.6530113968153
 30
0.0
 11
1234.283318381605
 21
439.6530113968153
 31
0.0
  0
LINE
  5
89
330
1F
100
AcDbEntity
  8
0
100
AcDbLine
 10
169.2833183816053
 20
476.7600781954587
 30
0.0
 11
1234.283318381605
 21
476.7600781954587
 31
0.0
  0
LINE
  5
8A
330
1F
100
AcDbEntity
  8
0
100
AcDbLine
 10
169.2833183816053
 20
486.7600781954587
 30
0.0
 11
1234.283318381605
 21
486.7600781954587
 31
0.0
  0
LINE
  5
8B
330
1F
100
AcDbEntity
  8
0
100
AcDbLine
 10
169.2833183816053
 20
523.8671449941021
 30
0.0
 11
1234.283318381605
 21
523.8671449941021
 31
0.0
  0
LINE
  5
8C
330
1F
100
AcDbEntity
  8
0
100
AcDbLine
 10
169.2833183816053
 20
533.8671449941021
 30
0.0
 11
1234.283318381605
 21
533.8671449941021
 31
0.0
  0
LINE
  5
8D
330
1F
100
AcDbEntity
  8
0
100
AcDbLine
 10
169.2833183816053
 20
570.9742117927454
 30
0.0
 11
1234.283318381605
 21
570.9742117927454
 31
0.0
  0
LINE
  5
8E
330
1F
100
AcDbEntity
  8
0
100
AcDbLine
 10
169.2833183816053
 20
580.9742117927454
 30
0.0
 11
1234.283318381605
 21
580.9742117927454
 31
0.0
  0
LINE
  5
8F
330
1F
100
AcDbEntity
  8
0
100
AcDbLine
 10
169.2833183816053
 20
628.0812785913887
 30
0.0
 11
1234.283318381605
 21
628.0812785913887
 31
0.0
  0
LINE
  5
90
330
1F
100
AcDbEntity
  8
0
100
AcDbLine
 10
169.2833183816053
 20
618.0812785913888
 30
0.0
 11
1234.283318381605
 21
618.0812785913888
 31
0.0
  0
LINE
  5
91
330
1F
100
AcDbEntity
  8
0
100
AcDbLine
 10
169.2833183816053
 20
665.1883453900321
 30
0.0
 11
1234.283318381605
 21
665.1883453900321
 31
0.0
  0
LINE
  5
92
330
1F
100
AcDbEntity
  8
0
100
AcDbLine
 10
169.2833183816053
 20
675.1883453900322
 30
0.0
 11
1234.283318381605
 21
675.1883453900322
 31
0.0
  0
LINE
  5
93
330
1F
100
AcDbEntity
  8
0
100
AcDbLine
 10
169.2833183816053
 20
712.2954121886755
 30
0.0
 11
1234.283318381605
 21
712.2954121886755
 31
0.0
  0
LINE
  5
94
330
1F
100
AcDbEntity
  8
0
100
AcDbLine
 10
169.2833183816053
 20
722.2954121886755
 30
0.0
 11
1234.283318381605
 21
722.2954121886755
 31
0.0
  0
LINE
  5
95
330
1F
100
AcDbEntity
  8
0
100
AcDbLine
 10
169.2833183816053
 20
759.4024789873189
 30
0.0
 11
1234.283318381605
 21
759.4024789873189
 31
0.0
  0
LINE
  5
96
330
1F
100
AcDbEntity
  8
0
100
AcDbLine
 10
169.2833183816053
 20
769.4024789873188
 30
0.0
 11
1234.283318381605
 21
769.4024789873188
 31
0.0
  0
LINE
  5
97
330
1F
100
AcDbEntity
  8
0
100
AcDbLine
 10
169.2833183816053
 20
806.5095457859623
 30
0.0
 11
1234.283318381605
 21
806.5095457859623
 31
0.0
  0
LINE
  5
98
330
1F
100
AcDbEntity
  8
0
100
AcDbLine
 10
169.2833183816053
 20
816.5095457859623
 30
0.0
 11
1234.283318381605
 21
816.5095457859623
 31
0.0
  0
LINE
  5
99
330
1F
100
AcDbEntity
  8
0
100
AcDbLine
 10
169.2833183816053
 20
853.6166125846056
 30
0.0
 11
1234.283318381605
 21
853.6166125846056
 31
0.0
  0
LINE
  5
9A
330
1F
100
AcDbEntity
  8
0
100
AcDbLine
 10
169.2833183816053
 20
863.6166125846056
 30
0.0
 11
1234.283318381605
 21
863.6166125846056
 31
0.0
  0
LINE
  5
9B
330
1F
100
AcDbEntity
  8
0
100
AcDbLine
 10
169.2833183816053
 20
900.723679383249
 30
0.0
 11
1234.283318381605
 21
900.723679383249
 31
0.0
  0
LINE
  5
9C
330
1F
100
AcDbEntity
  8
0
100
AcDbLine
 10
169.2833183816053
 20
910.7236793832489
 30
0.0
 11
1234.283318381605
 21
910.7236793832489
 31
0.0
  0
LINE
  5
9D
330
1F
100
AcDbEntity
  8
0
100
AcDbLine
 10
169.2833183816053
 20
947.8307461818923
 30
0.0
 11
1234.283318381605
 21
947.8307461818923
 31
0.0
  0
LINE
  5
9E
330
1F
100
AcDbEntity
  8
0
100
AcDbLine
 10
169.2833183816053
 20
957.8307461818923
 30
0.0
 11
1234.283318381605
 21
957.8307461818923
 31
0.0
  0
LINE
  5
9F
330
1F
100
AcDbEntity
  8
0
100
AcDbLine
 10
169.2833183816053
 20
1004.937812980535
 30
0.0
 11
1234.283318381605
 21
1004.937812980535
 31
0.0
  0
LINE
  5
A0
330
1F
100
AcDbEntity
  8
0
100
AcDbLine
 10
169.2833183816053
 20
994.9378129805356
 30
0.0
 11
1234.283318381605
 21
994.9378129805356
 31
0.0
  0
LINE
  5
A1
330
1F
100
AcDbEntity
  8
0
100
AcDbLine
 10
169.2833183816053
 20
1042.044879779179
 30
0.0
 11
1234.283318381605
 21
1042.044879779179
 31
0.0
  0
LINE
  5
A2
330
1F
100
AcDbEntity
  8
0
100
AcDbLine
 10
169.2833183816053
 20
1052.044879779179
 30
0.0
 11
1234.283318381605
 21
1052.044879779179
 31
0.0
  0
LINE
  5
A3
330
1F
100
AcDbEntity
  8
0
100
AcDbLine
 10
169.2833183816053
 20
1089.151946577822
 30
0.0
 11
1234.283318381605
 21
1089.151946577822
 31
0.0
  0
LINE
  5
A4
330
1F
100
AcDbEntity
  8
0
100
AcDbLine
 10
169.2833183816053
 20
1099.151946577822
 30
0.0
 11
1234.283318381605
 21
1099.151946577822
 31
0.0
  0
LINE
  5
A5
330
1F
100
AcDbEntity
  8
0
100
AcDbLine
 10
169.2833183816053
 20
1136.259013376465
 30
0.0
 11
1234.283318381605
 21
1136.259013376465
 31
0.0
  0
LINE
  5
A6
330
1F
100
AcDbEntity
  8
0
100
AcDbLine
 10
169.2833183816053
 20
1146.259013376465
 30
0.0
 11
1234.283318381605
 21
1146.259013376465
 31
0.0
  0
ARC
  5
A9
330
1F
100
AcDbEntity
  8
0
100
AcDbCircle
 10
701.7833183816053
 20
642.4035438063119
 30
0.0
 40
532.5
100
AcDbArc
 50
71.1216086781669
 51
108.878391321833
  0
LINE
  5
AA
330
1F
100
AcDbEntity
  8
0
100
AcDbLine
 10
847.9784129670774
 20
1089.151946577822
 30
0.0
 11
898.5004733550665
 21
1052.044879779179
 31
0.0
  0
ARC
  5
AB
330
1F
100
AcDbEntity
  8
0
100
AcDbCircle
 10
463.1355514555287
 20
1199.193042528404
 30
0.0
 40
339.9111510919487
100
AcDbArc
 50
342.8835080071695
 51
347.8639966521461
  0
ARC
  5
AC
330
1F
100
AcDbEntity
  8
0
100
AcDbCircle
 10
701.7833183816053
 20
642.4035438063119
 30
0.0
 40
532.5
100
AcDbArc
 50
59.06415720461
 51
68.03738915666534
  0
ARC
  5
AD
330
1F
100
AcDbEntity
  8
0
100
AcDbCircle
 10
701.7833183816053
 20
642.4035438063119
 30
0.0
 40
532.5
100
AcDbArc
 50
122.9691038754566
 51
129.7107670264441
  0
ARC
  5
AE
330
1F
100
AcDbEntity
  8
0
100
AcDbCircle
 10
701.7833183816053
 20
642.4035438063119
 30
0.0
 40
532.5
100
AcDbArc
 50
131.3662779914787
 51
137.0925957311545
  0
ARC
  5
AF
330
1F
100
AcDbEntity
  8
0
100
AcDbCircle
 10
463.1355514555287
 20
1199.193042528404
 30
0.0
 40
339.9111510919487
100
AcDbArc
 50
334.3481403385804
 51
341.1110542693153
  0
LINE
  5
B0
330
1F
100
AcDbEntity
  8
0
100
AcDbLine
 10
912.1156859673002
 20
1042.044879779179
 30
0.0
 11
940.1540416898725
 21
1021.451477001628
 31
0.0
  0
ARC
  5
B1
330
1F
100
AcDbEntity
  8
0
100
AcDbCircle
 10
701.7833183816053
 20
642.4035438063119
 30
0.0
 40
532.5
100
AcDbArc
 50
50.28923297355588
 51
57.03089612454337
  0
ARC
  5
B2
330
1F
100
AcDbEntity
  8
0
100
AcDbCircle
 10
701.7833183816053
 20
642.4035438063119
 30
0.0
 40
532.5
100
AcDbArc
 50
138.5446505728071
 51
143.6759402311705
  0
ARC
  5
B3
330
1F
100
AcDbEntity
  8
0
100
AcDbCircle
 10
701.7833183816053
 20
642.4035438063119
 30
0.0
 40
532.5
100
AcDbArc
 50
145.0002955402491
 51
149.7424648428495
  0
ARC
  5
B4
330
1F
100
AcDbEntity
  8
0
100
AcDbCircle
 10
701.7833183816053
 20
642.4035438063119
 30
0.0
 40
532.5
100
AcDbArc
 50
150.980436031935
 51
155.4540043663308
  0
ARC
  5
B5
330
1F
100
AcDbEntity
  8
0
100
AcDbCircle
 10
701.7833183816053
 20
642.4035438063119
 30
0.0
 40
532.5
100
AcDbArc
 50
156.6314380878271
 51
160.9156591847157
  0
ARC
  5
B6
330
1F
100
AcDbEntity
  8
0
100
AcDbCircle
 10
230.8568746826101
 20
821.6233353744259
 30
0.0
 40
339.9111510919487
100
AcDbArc
 50
32.63607834777291
 51
39.61569920160962
  0
LINE
  5
B7
330
1F
100
AcDbEntity
  8
0
100
AcDbLine
 10
416.5732222202512
 20
1004.937812980535
 30
0.0
 11
492.7035406366084
 21
1038.362612307401
 31
0.0
  0
ARC
  5
B8
330
1F
100
AcDbEntity
  8
0
100
AcDbCircle
 10
100.2655844648316
 20
714.1232644529481
 30
0.0
 40
339.9111510919487
100
AcDbArc
 50
45.80521590112232
 51
47.86399665214606
  0
ARC
  5
B9
330
1F
100
AcDbEntity
  8
0
100
AcDbCircle
 10
100.2655844648316
 20
714.1232644529481
 30
0.0
 40
339.9111510919487
100
AcDbArc
 50
35.33721888501427
 51
43.43684607876306
  0
ARC
  5
BA
330
1F
100
AcDbEntity
  8
0
100
AcDbCircle
 10
100.2655844648316
 20
714.1232644529481
 30
0.0
 40
339.9111510919487
100
AcDbArc
 50
26.09120060623761
 51
33.29625637382719
  0
ARC
  5
BB
330
1F
100
AcDbEntity
  8
0
100
AcDbCircle
 10
754.7031762247495
 20
908.1362959537022
 30
0.0
 40
194.905321356526
100
AcDbArc
 50
196.2437289605757
 51
208.0413736746735
  0
ARC
  5
BC
330
1F
100
AcDbEntity
  8
0
100
AcDbCircle
 10
799.9811238448533
 20
788.7853180040264
 30
0.0
 40
194.905321356526
100
AcDbArc
 50
144.9478536287027
 51
157.4222584512895
  0
ARC
  5
BD
330
1F
100
AcDbEntity
  8
0
100
AcDbCircle
 10
100.2655844648316
 20
714.1232644529481
 30
0.0
 40
339.9111510919487
100
AcDbArc
 50
17.53058354841272
 51
24.22882078525614
  0
ARC
  5
BE
330
1F
100
AcDbEntity
  8
0
100
AcDbCircle
 10
754.7031762247495
 20
908.1362959537022
 30
0.0
 40
194.905321356526
100
AcDbArc
 50
211.4272810016816
 51
219.8903683366173
  0
ARC
  5
BF
330
1F
100
AcDbEntity
  8
0
100
AcDbCircle
 10
799.9811238448533
 20
788.7853180040264
 30
0.0
 40
194.905321356526
100
AcDbArc
 50
174.7824495228095
 51
185.7073536260643
  0
ARC
  5
C0
330
1F
100
AcDbEntity
  8
0
100
AcDbCircle
 10
799.9811238448533
 20
788.7853180040264
 30
0.0
 40
194.905321356526
100
AcDbArc
 50
160.5715357219533
 51
171.8222480400249
  0
ARC
  5
C1
330
1F
100
AcDbEntity
  8
0
100
AcDbCircle
 10
958.374561280371
 20
729.4399786231829
 30
0.0
 40
194.905321356526
100
AcDbArc
 50
140.4231520345759
 51
153.4660831349825
  0
ARC
  5
C2
330
1F
100
AcDbEntity
  8
0
100
AcDbCircle
 10
958.374561280371
 20
729.4399786231829
 30
0.0
 40
194.905321356526
100
AcDbArc
 50
156.7077954395369
 51
159.8903683366173
  0
ARC
  5
C3
330
1F
100
AcDbEntity
  8
0
100
AcDbCircle
 10
877.6525562194875
 20
630.5526367781141
 30
0.0
 40
194.905321356526
100
AcDbArc
 50
115.4738799996432
 51
134.5697739371898
  0
ARC
  5
C4
330
1F
100
AcDbEntity
  8
0
100
AcDbCircle
 10
621.5289888910464
 20
1139.84770314756
 30
0.0
 40
339.9111510919487
100
AcDbArc
 50
317.6180020096123
 51
325.6044181284037
  0
ARC
  5
C5
330
1F
100
AcDbEntity
  8
0
100
AcDbCircle
 10
621.5289888910464
 20
1139.84770314756
 30
0.0
 40
339.9111510919487
100
AcDbArc
 50
336.6156303139508
 51
339.6156992016096
  0
ARC
  5
C6
330
1F
100
AcDbEntity
  8
0
100
AcDbCircle
 10
621.5289888910464
 20
1139.84770314756
 30
0.0
 40
339.9111510919487
100
AcDbArc
 50
327.623264107108
 51
334.7659485139852
  0
ARC
  5
C7
330
1F
100
AcDbEntity
  8
0
100
AcDbCircle
 10
701.7833183816053
 20
642.4035438063119
 30
0.0
 40
532.5
100
AcDbArc
 50
42.90740426884543
 51
48.6337220085212
  0
ARC
  5
C8
330
1F
100
AcDbEntity
  8
0
100
AcDbCircle
 10
701.7833183816053
 20
642.4035438063119
 30
0.0
 40
532.5
100
AcDbArc
 50
36.32405976882945
 51
41.45534942719281
  0
ARC
  5
C9
330
1F
100
AcDbEntity
  8
0
100
AcDbCircle
 10
701.7833183816053
 20
642.4035438063119
 30
0.0
 40
532.5
100
AcDbArc
 50
30.2575351571504
 51
34.99970445975081
  0
ARC
  5
CA
330
1F
100
AcDbEntity
  8
0
100
AcDbCircle
 10
701.7833183816053
 20
642.4035438063119
 30
0.0
 40
532.5
100
AcDbArc
 50
24.54599563366913
 51
29.01956396806491
  0
ARC
  5
CB
330
1F
100
AcDbEntity
  8
0
100
AcDbCircle
 10
701.7833183816053
 20
642.4035438063119
 30
0.0
 40
532.5
100
AcDbArc
 50
19.08434081528429
 51
23.36856191217285
  0
ARC
  5
CC
330
1F
100
AcDbEntity
  8
0
100
AcDbCircle
 10
877.6525562194875
 20
630.5526367781141
 30
0.0
 40
194.905321356526
100
AcDbArc
 50
72.5709170257712
 51
107.4290829742287
  0
ARC
  5
CD
330
1F
100
AcDbEntity
  8
0
100
AcDbCircle
 10
701.7833183816053
 20
642.4035438063119
 30
0.0
 40
532.5
100
AcDbArc
 50
162.0503997900363
 51
166.2022304195757
  0
ARC
  5
CE
330
1F
100
AcDbEntity
  8
0
100
AcDbCircle
 10
701.7833183816053
 20
642.4035438063119
 30
0.0
 40
532.5
100
AcDbArc
 50
167.3076289201685
 51
171.3712376676804
  0
ARC
  5
CF
330
1F
100
AcDbEntity
  8
0
100
AcDbCircle
 10
701.7833183816053
 20
642.4035438063119
 30
0.0
 40
532.5
100
AcDbArc
 50
172.4580340496568
 51
176.4701980918816
  0
ARC
  5
D0
330
1F
100
AcDbEntity
  8
0
100
AcDbCircle
 10
701.7833183816053
 20
642.4035438063119
 30
0.0
 40
532.5
100
AcDbArc
 50
177.5476588747856
 51
181.5412287719304
  0
ARC
  5
D1
330
1F
100
AcDbEntity
  8
0
100
AcDbCircle
 10
624.111886006971
 20
800.6362250322242
 30
0.0
 40
194.905321356526
100
AcDbArc
 50
192.2136604578631
 51
203.6996957367679
  0
ARC
  5
D2
330
1F
100
AcDbEntity
  8
0
100
AcDbCircle
 10
624.111886006971
 20
800.6362250322242
 30
0.0
 40
194.905321356526
100
AcDbArc
 50
206.9523846296824
 51
220.0634068058268
  0
ARC
  5
D3
330
1F
100
AcDbEntity
  8
0
100
AcDbCircle
 10
624.111886006971
 20
800.6362250322242
 30
0.0
 40
194.905321356526
100
AcDbArc
 50
224.0225897378727
 51
242.2917908203013
  0
ARC
  5
D4
330
1F
100
AcDbEntity
  8
0
100
AcDbCircle
 10
799.9811238448533
 20
788.7853180040264
 30
0.0
 40
194.905321356526
100
AcDbArc
 50
188.6706489223116
 51
199.946314380524
  0
ARC
  5
D5
330
1F
100
AcDbEntity
  8
0
100
AcDbCircle
 10
799.9811238448533
 20
788.7853180040264
 30
0.0
 40
194.905321356526
100
AcDbArc
 50
203.106811956041
 51
207.8087113299945
  0
LINE
  5
D6
330
1F
100
AcDbEntity
  8
0
100
AcDbLine
 10
716.3905931349627
 20
712.2954121886755
 30
0.0
 11
722.5738985797157
 21
675.1883453900322
 31
0.0
  0
LINE
  5
D7
330
1F
100
AcDbEntity
  8
0
100
AcDbLine
 10
714.7807622858405
 20
665.188345390032
 30
0.0
 11
724.8701500629845
 21
661.4081500014241
 31
0.0
  0
LINE
  5
D8
330
1F
100
AcDbEntity
  8
0
100
AcDbLine
 10
724.2402403248895
 20
665.1883453900321
 30
0.0
 11
729.7852059761811
 21
631.9120641748984
 31
0.0
  0
ARC
  5
D9
330
1F
100
AcDbEntity
  8
0
100
AcDbCircle
 10
877.6525562194875
 20
630.5526367781141
 30
0.0
 40
194.905321356526
100
AcDbArc
 50
138.6169902610735
 51
147.8087113299944
  0
LINE
  5
DA
330
1F
100
AcDbEntity
  8
0
100
AcDbLine
 10
770.2092955631371
 20
665.1883453900321
 30
0.0
 11
725.1315603775321
 21
628.0812785913887
 31
0.0
  0
ARC
  5
DB
330
1F
100
AcDbEntity
  8
0
100
AcDbCircle
 10
779.4547507562395
 20
484.1708625803994
 30
0.0
 40
194.905321356526
100
AcDbArc
 50
78.53683707946567
 51
87.80871132999454
  0
ARC
  5
DC
330
1F
100
AcDbEntity
  8
0
100
AcDbCircle
 10
701.7833183816053
 20
642.4035438063119
 30
0.0
 40
532.5
100
AcDbArc
 50
13.79776958042425
 51
17.94960020996368
  0
ARC
  5
DD
330
1F
100
AcDbEntity
  8
0
100
AcDbCircle
 10
701.7833183816053
 20
642.4035438063119
 30
0.0
 40
532.5
100
AcDbArc
 50
8.628762332319531
 51
12.69237107983149
  0
ARC
  5
DE
330
1F
100
AcDbEntity
  8
0
100
AcDbCircle
 10
701.7833183816053
 20
642.4035438063119
 30
0.0
 40
532.5
100
AcDbArc
 50
3.529801908118344
 51
7.541965950343164
  0
LINE
  5
DF
330
1F
100
AcDbEntity
  8
0
100
AcDbLine
 10
1153.61366946492
 20
665.188345390032
 30
0.0
 11
1149.519462340257
 21
628.0812785913889
 31
0.0
  0
LINE
  5
E0
330
1F
100
AcDbEntity
  8
0
100
AcDbLine
 10
1158.811226295686
 20
712.2954121886756
 30
0.0
 11
1154.717019171023
 21
675.1883453900322
 31
0.0
  0
ARC
  5
E1
330
1F
100
AcDbEntity
  8
0
100
AcDbCircle
 10
779.4547507562395
 20
484.1708625803994
 30
0.0
 40
194.905321356526
100
AcDbArc
 50
47.59195307670514
 51
68.24013209576546
  0
ARC
  5
E2
330
1F
100
AcDbEntity
  8
0
100
AcDbCircle
 10
779.4547507562395
 20
484.1708625803994
 30
0.0
 40
194.905321356526
100
AcDbArc
 50
29.77983870451691
 51
43.39733132805323
  0
LINE
  5
E3
330
1F
100
AcDbEntity
  8
0
100
AcDbLine
 10
677.9162486761834
 20
628.0812785913887
 30
0.0
 11
673.7814307870295
 21
652.8950234377257
 31
0.0
  0
LINE
  5
E4
330
1F
100
AcDbEntity
  8
0
100
AcDbLine
 10
712.9835413949989
 20
618.0812785913888
 30
0.0
 11
706.6983742948021
 21
612.9074579797864
 31
0.0
  0
LINE
  5
E6
330
1F
100
AcDbEntity
  8
0
100
AcDbLine
 10
643.6376464449259
 20
628.0812785913887
 30
0.0
 11
688.7153816305306
 21
665.1883453900321
 31
0.0
  0
ARC
  5
E7
330
1F
100
AcDbEntity
  8
0
100
AcDbCircle
 10
624.111886006971
 20
800.6362250322242
 30
0.0
 40
194.905321356526
100
AcDbArc
 50
249.4937493204956
 51
267.8087113299945
  0
ARC
  5
E8
330
1F
100
AcDbEntity
  8
0
100
AcDbCircle
 10
701.7833183816053
 20
642.4035438063119
 30
0.0
 40
532.5
100
AcDbArc
 50
182.6179308108137
 51
186.6244040257697
  0
ARC
  5
E9
330
1F
100
AcDbEntity
  8
0
100
AcDbCircle
 10
701.7833183816053
 20
642.4035438063119
 30
0.0
 40
532.5
100
AcDbArc
 50
187.7088695383936
 51
191.7606788473286
  0
ARC
  5
EA
330
1F
100
AcDbEntity
  8
0
100
AcDbCircle
 10
701.7833183816053
 20
642.4035438063119
 30
0.0
 40
532.5
100
AcDbArc
 50
192.8619991179901
 51
196.9949968877979
  0
LINE
  5
EB
330
1F
100
AcDbEntity
  8
0
100
AcDbLine
 10
240.4915673382976
 20
533.8671449941021
 30
0.0
 11
244.5857744629608
 21
570.9742117927454
 31
0.0
  0
LINE
  5
EC
330
1F
100
AcDbEntity
  8
0
100
AcDbLine
 10
245.6891241690639
 20
580.9742117927454
 30
0.0
 11
249.783331293727
 21
618.0812785913888
 31
0.0
  0
LINE
  5
ED
330
1F
100
AcDbEntity
  8
0
100
AcDbLine
 10
250.8866809998302
 20
628.0812785913887
 30
0.0
 11
254.3328173283412
 21
659.3146791120849
 31
0.0
  0
ARC
  5
EE
330
1F
100
AcDbEntity
  8
0
100
AcDbCircle
 10
701.7833183816053
 20
642.4035438063119
 30
0.0
 40
532.5
100
AcDbArc
 50
198.1235772442423
 51
202.3802817979329
  0
ARC
  5
EF
330
1F
100
AcDbEntity
  8
0
100
AcDbCircle
 10
701.7833183816053
 20
642.4035438063119
 30
0.0
 40
532.5
100
AcDbArc
 50
203.5488945661515
 51
207.98342707826
  0
ARC
  5
F0
330
1F
100
AcDbEntity
  8
0
100
AcDbCircle
 10
701.7833183816053
 20
642.4035438063119
 30
0.0
 40
532.5
100
AcDbArc
 50
209.208915982326
 51
213.8955141993726
  0
ARC
  5
F1
330
1F
100
AcDbEntity
  8
0
100
AcDbCircle
 10
701.7833183816053
 20
642.4035438063119
 30
0.0
 40
532.5
100
AcDbArc
 50
215.2019037356125
 51
220.2515103872202
  0
ARC
  5
F2
330
1F
100
AcDbEntity
  8
0
100
AcDbCircle
 10
701.7833183816053
 20
642.4035438063119
 30
0.0
 40
532.5
100
AcDbArc
 50
221.6764523324164
 51
227.274109270826
  0
ARC
  5
F3
330
1F
100
AcDbEntity
  8
0
100
AcDbCircle
 10
701.7833183816053
 20
642.4035438063119
 30
0.0
 40
532.5
100
AcDbArc
 50
228.8846646337861
 51
235.3935107112936
  0
ARC
  5
F4
330
1F
100
AcDbEntity
  8
0
100
AcDbCircle
 10
701.7833183816053
 20
642.4035438063119
 30
0.0
 40
532.5
100
AcDbArc
 50
237.3361415631436
 51
245.7184893381898
  0
ARC
  5
F5
330
1F
100
AcDbEntity
  8
0
100
AcDbCircle
 10
701.7833183816053
 20
642.4035438063119
 30
0.0
 40
532.5
100
AcDbArc
 50
248.4840284726675
 51
291.5159715273324
  0
LINE
  5
F6
330
1F
100
AcDbEntity
  8
0
100
AcDbLine
 10
544.0663006061396
 20
204.1176774035985
 30
0.0
 11
493.5442402181509
 21
241.2247442022418
 31
0.0
  0
ARC
  5
F7
330
1F
100
AcDbEntity
  8
0
100
AcDbCircle
 10
940.4310853076818
 20
85.61404508421958
 30
0.0
 40
339.9111510919487
100
AcDbArc
 50
161.3847386180451
 51
167.8639966521461
  0
ARC
  5
F8
330
1F
100
AcDbEntity
  8
0
100
AcDbCircle
 10
940.4310853076818
 20
85.61404508421958
 30
0.0
 40
339.9111510919487
100
AcDbArc
 50
152.7548822717239
 51
159.5963840035158
  0
ARC
  5
F9
330
1F
100
AcDbEntity
  8
0
100
AcDbCircle
 10
940.4310853076818
 20
85.61404508421958
 30
0.0
 40
339.9111510919487
100
AcDbArc
 50
143.3886019334326
 51
150.842133282079
  0
ARC
  5
FA
330
1F
100
AcDbEntity
  8
0
100
AcDbCircle
 10
603.5855129183572
 20
496.0217696085977
 30
0.0
 40
194.905321356526
100
AcDbArc
 50
309.4125001034595
 51
324.3938679117404
  0
ARC
  5
FB
330
1F
100
AcDbEntity
  8
0
100
AcDbCircle
 10
782.037647872164
 20
144.9593844650631
 30
0.0
 40
339.9111510919487
100
AcDbArc
 50
145.9179018644268
 51
153.1784463677122
  0
ARC
  5
FC
330
1F
100
AcDbEntity
  8
0
100
AcDbCircle
 10
782.037647872164
 20
144.9593844650631
 30
0.0
 40
339.9111510919487
100
AcDbArc
 50
155.0521085760813
 51
159.6156992016096
  0
LINE
  5
FD
330
1F
100
AcDbEntity
  8
0
100
AcDbLine
 10
479.9290276059172
 20
251.2247442022419
 30
0.0
 11
463.412595073338
 21
263.3556106109961
 31
0.0
  0
ARC
  5
FE
330
1F
100
AcDbEntity
  8
0
100
AcDbCircle
 10
603.5855129183572
 20
496.0217696085977
 30
0.0
 40
194.905321356526
100
AcDbArc
 50
327.9335109781157
 51
340.0915671907828
  0
ARC
  5
FF
330
1F
100
AcDbEntity
  8
0
100
AcDbCircle
 10
648.8634605384609
 20
376.6707916589218
 30
0.0
 40
194.905321356526
100
AcDbArc
 50
4.671950422420196
 51
15.77352949652
  0
ARC
  5
100
330
1F
100
AcDbEntity
  8
0
100
AcDbCircle
 10
1303.301052298379
 20
570.6838231596755
 30
0.0
 40
339.9111510919487
100
AcDbArc
 50
213.6068647875334
 51
221.5029263226266
  0
ARC
  5
101
330
1F
100
AcDbEntity
  8
0
100
AcDbCircle
 10
1303.301052298379
 20
570.6838231596755
 30
0.0
 40
339.9111510919487
100
AcDbArc
 50
223.7948068229392
 51
227.863996652146
  0
ARC
  5
102
330
1F
100
AcDbEntity
  8
0
100
AcDbCircle
 10
1172.7097620806
 20
463.1837522381978
 30
0.0
 40
339.9111510919487
100
AcDbArc
 50
202.0749057101434
 51
209.0115150247688
  0
ARC
  5
103
330
1F
100
AcDbEntity
  8
0
100
AcDbCircle
 10
1172.7097620806
 20
463.1837522381978
 30
0.0
 40
339.9111510919487
100
AcDbArc
 50
210.9576819469324
 51
218.5774379162188
  0
LINE
  5
104
330
1F
100
AcDbEntity
  8
0
100
AcDbLine
 10
1006.268192592223
 20
288.3318110008853
 30
0.0
 11
921.7509219497882
 21
251.2247442022419
 31
0.0
  0
ARC
  5
105
330
1F
100
AcDbEntity
  8
0
100
AcDbCircle
 10
701.7833183816053
 20
642.4035438063119
 30
0.0
 40
532.5
100
AcDbArc
 50
312.7258907291739
 51
318.3235476675835
  0
ARC
  5
106
330
1F
100
AcDbEntity
  8
0
100
AcDbCircle
 10
701.7833183816053
 20
642.4035438063119
 30
0.0
 40
532.5
100
AcDbArc
 50
304.6064892887063
 51
311.1153353662139
  0
ARC
  5
107
330
1F
100
AcDbEntity
  8
0
100
AcDbCircle
 10
701.7833183816053
 20
642.4035438063119
 30
0.0
 40
532.5
100
AcDbArc
 50
319.7484896127797
 51
324.7980962643874
  0
ARC
  5
108
330
1F
100
AcDbEntity
  8
0
100
AcDbCircle
 10
701.7833183816053
 20
642.4035438063119
 30
0.0
 40
532.5
100
AcDbArc
 50
294.2815106618102
 51
302.6638584368563
  0
ARC
  5
109
330
1F
100
AcDbEntity
  8
0
100
AcDbCircle
 10
701.7833183816053
 20
642.4035438063119
 30
0.0
 40
532.5
100
AcDbArc
 50
326.1044858006273
 51
330.7910840176739
  0
ARC
  5
10A
330
1F
100
AcDbEntity
  8
0
100
AcDbCircle
 10
701.7833183816053
 20
642.4035438063119
 30
0.0
 40
532.5
100
AcDbArc
 50
332.0165729217398
 51
336.4511054338484
  0
ARC
  5
10B
330
1F
100
AcDbEntity
  8
0
100
AcDbCircle
 10
701.7833183816053
 20
642.4035438063119
 30
0.0
 40
532.5
100
AcDbArc
 50
337.619718202067
 51
341.8764227557576
  0
ARC
  5
10C
330
1F
100
AcDbEntity
  8
0
100
AcDbCircle
 10
701.7833183816053
 20
642.4035438063119
 30
0.0
 40
532.5
100
AcDbArc
 50
343.005003112202
 51
347.1380008820099
  0
ARC
  5
10D
330
1F
100
AcDbEntity
  8
0
100
AcDbCircle
 10
701.7833183816053
 20
642.4035438063119
 30
0.0
 40
532.5
100
AcDbArc
 50
348.2393211526713
 51
352.2911304616063
  0
ARC
  5
10E
330
1F
100
AcDbEntity
  8
0
100
AcDbCircle
 10
701.7833183816053
 20
642.4035438063119
 30
0.0
 40
532.5
100
AcDbArc
 50
353.3755959742302
 51
357.3820691891862
  0
ARC
  5
10F
330
1F
100
AcDbEntity
  8
0
100
AcDbCircle
 10
701.7833183816053
 20
642.4035438063119
 30
0.0
 40
532.5
100
AcDbArc
 50
358.4587712280694
 51
2.452341125214357
  0
ARC
  5
110
330
1F
100
AcDbEntity
  8
0
100
AcDbCircle
 10
525.9140805437232
 20
654.2544508345099
 30
0.0
 40
194.905321356526
100
AcDbArc
 50
321.8537647063198
 51
327.8087113299945
  0
ARC
  5
111
330
1F
100
AcDbEntity
  8
0
100
AcDbCircle
 10
603.5855129183572
 20
496.0217696085977
 30
0.0
 40
194.905321356526
100
AcDbArc
 50
11.19642392918109
 51
22.61631635875756
  0
ARC
  5
112
330
1F
100
AcDbEntity
  8
0
100
AcDbCircle
 10
603.5855129183572
 20
496.0217696085977
 30
0.0
 40
194.905321356526
100
AcDbArc
 50
357.2763404489063
 51
8.213732866527728
  0
ARC
  5
113
330
1F
100
AcDbEntity
  8
0
100
AcDbCircle
 10
648.8634605384609
 20
376.6707916589218
 30
0.0
 40
194.905321356526
100
AcDbArc
 50
34.39081259404044
 51
39.8903683366173
  0
ARC
  5
114
330
1F
100
AcDbEntity
  8
0
100
AcDbCircle
 10
445.1920754828394
 20
555.3671089894412
 30
0.0
 40
194.905321356526
100
AcDbArc
 50
339.3901947278437
 51
339.8903683366173
  0
ARC
  5
115
330
1F
100
AcDbEntity
  8
0
100
AcDbCircle
 10
525.9140805437232
 20
654.2544508345099
 30
0.0
 40
194.905321356526
100
AcDbArc
 50
300.7548925594498
 51
318.0117909157198
  0
LINE
  5
116
330
1F
100
AcDbEntity
  8
0
100
AcDbLine
 10
685.7658958661102
 20
580.9742117927454
 30
0.0
 11
679.5825904213573
 21
618.0812785913888
 31
0.0
  0
ARC
  5
117
330
1F
100
AcDbEntity
  8
0
100
AcDbCircle
 10
603.5855129183572
 20
496.0217696085977
 30
0.0
 40
194.905321356526
100
AcDbArc
 50
25.84035915033735
 51
27.80871132999458
  0
ARC
  5
118
330
1F
100
AcDbEntity
  8
0
100
AcDbCircle
 10
445.1920754828394
 20
555.3671089894412
 30
0.0
 40
194.905321356526
100
AcDbArc
 50
323.5804219181773
 51
336.2148089703751
  0
ARC
  5
119
330
1F
100
AcDbEntity
  8
0
100
AcDbCircle
 10
603.5855129183572
 20
496.0217696085977
 30
0.0
 40
194.905321356526
100
AcDbArc
 50
343.1892757932314
 51
354.32843610771
  0
ARC
  5
11A
330
1F
100
AcDbEntity
  8
0
100
AcDbCircle
 10
648.8634605384609
 20
376.6707916589218
 30
0.0
 40
194.905321356526
100
AcDbArc
 50
18.85308519657892
 51
30.89909685114454
  0
ARC
  5
11B
330
1F
100
AcDbEntity
  8
0
100
AcDbCircle
 10
779.4547507562395
 20
484.1708625803994
 30
0.0
 40
194.905321356526
100
AcDbArc
 50
14.77219441638075
 51
26.44647727934742
  0
ARC
  5
11C
330
1F
100
AcDbEntity
  8
0
100
AcDbCircle
 10
1303.301052298379
 20
570.6838231596755
 30
0.0
 40
339.9111510919487
100
AcDbArc
 50
204.5133295074042
 51
211.605784173348
  0
LINE
  5
11D
330
1F
100
AcDbEntity
  8
0
100
AcDbLine
 10
1164.008783126452
 20
759.4024789873189
 30
0.0
 11
1159.914576001789
 21
722.2954121886755
 31
0.0
  0
ARC
  5
11E
330
1F
100
AcDbEntity
  8
0
100
AcDbCircle
 10
498.1119333259839
 20
821.0998611368312
 30
0.0
 40
194.905321356526
100
AcDbArc
 50
277.9787092279062
 51
279.8903683366172
  0
LINE
  5
11F
330
1F
100
AcDbEntity
  8
0
100
AcDbLine
 10
1543.215681360943
 20
1204.903543806312
 30
0.0
 11
1990.215681360943
 21
1204.903543806312
 31
0.0
  0
LINE
  5
121
330
1F
100
AcDbEntity
  8
0
100
AcDbLine
 10
1543.215681360943
 20
1204.903543806312
 30
0.0
 11
1543.215681360943
 21
642.4035438063119
 31
0.0
  0
LINE
  5
122
330
1F
100
AcDbEntity
  8
0
100
AcDbLine
 10
1543.215681360943
 20
1204.903543806312
 30
0.0
 11
1990.215681360943
 21
1204.903543806312
 31
0.0
  0
LINE
  5
123
330
1F
100
AcDbEntity
  8
0
100
AcDbLine
 10
1990.215681360943
 20
1204.903543806312
 30
0.0
 11
1990.215681360943
 21
642.4035438063119
 31
0.0
  0
LINE
  5
124
330
1F
100
AcDbEntity
  8
0
100
AcDbLine
 10
1543.215681360943
 20
1174.903543806312
 30
0.0
 11
1990.215681360943
 21
1174.903543806312
 31
0.0
  0
LINE
  5
125
330
1F
100
AcDbEntity
  8
0
100
AcDbLine
 10
1990.215681360943
 20
642.4035438063119
 30
0.0
 11
1990.215681360943
 21
982.403543806312
 31
0.0
  0
LINE
  5
127
330
1F
100
AcDbEntity
  8
0
100
AcDbLine
 10
1990.215681360943
 20
1204.903543806312
 30
0.0
 11
1785.215681360943
 21
1204.903543806312
 31
0.0
  0
CIRCLE
  5
129
102
{ACAD_REACTORS
330
1B4
330
1CB
102
}
330
1F
100
AcDbEntity
  8
0
100
AcDbCircle
 10
1785.215681360943
 20
982.4035438063118
 30
0.0
 40
5.25
  0
LINE
  5
12B
330
1F
100
AcDbEntity
  8
0
100
AcDbLine
 10
1543.215681360943
 20
109.9035438063119
 30
0.0
 11
1990.215681360943
 21
109.9035438063119
 31
0.0
  0
LINE
  5
12C
330
1F
100
AcDbEntity
  8
0
100
AcDbLine
 10
1543.215681360943
 20
79.90354380631197
 30
0.0
 11
1990.215681360943
 21
79.90354380631197
 31
0.0
  0
LINE
  5
12D
330
1F
100
AcDbEntity
  8
0
100
AcDbLine
 10
1543.215681360943
 20
79.90354380631197
 30
0.0
 11
1990.215681360943
 21
79.90354380631197
 31
0.0
  0
LINE
  5
12E
102
{ACAD_REACTORS
330
17B
102
}
330
1F
100
AcDbEntity
  8
0
100
AcDbLine
 10
1543.215681360943
 20
79.90354380631197
 30
0.0
 11
1543.215681360943
 21
642.4035438063119
 31
0.0
  0
LINE
  5
12F
330
1F
100
AcDbEntity
  8
0
100
AcDbLine
 10
1990.215681360943
 20
79.90354380631197
 30
0.0
 11
1785.215681360943
 21
79.90354380631197
 31
0.0
  0
CIRCLE
  5
130
102
{ACAD_REACTORS
330
19C
330
1B4
102
}
330
1F
100
AcDbEntity
  8
0
100
AcDbCircle
 10
1785.215681360943
 20
302.403543806312
 30
0.0
 40
5.25
  0
LINE
  5
131
330
1F
100
AcDbEntity
  8
0
100
AcDbLine
 10
1990.215681360943
 20
642.4035438063119
 30
0.0
 11
1990.215681360943
 21
302.4035438063119
 31
0.0
  0
LINE
  5
132
102
{ACAD_REACTORS
330
17B
330
19C
102
}
330
1F
100
AcDbEntity
  8
0
100
AcDbLine
 10
1990.215681360943
 20
79.90354380631197
 30
0.0
 11
1990.215681360943
 21
642.4035438063119
 31
0.0
  0
DIMENSION
  5
133
102
{ACAD_XDICTIONARY
360
141
102
}
102
{ACAD_REACTORS
330
14B
102
}
330
1F
100
AcDbEntity
  8
koty
100
AcDbDimension
  2
*D2
 10
1264.283318381605
 20
-45.91100276469979
 30
0.0
 11
719.0500891456604
 21
-45.91100276469979
 31
0.0
 70
   160
 71
     5
 42
1125.0
  3
ISO-25
100
AcDbAlignedDimension
 13
139.2833183816053
 23
79.90354380631186
 33
0.0
 14
1264.283318381605
 24
79.90354380631186
 34
0.0
100
AcDbRotatedDimension
  0
DIMENSION
  5
14C
102
{ACAD_XDICTIONARY
360
159
102
}
102
{ACAD_REACTORS
330
163
102
}
330
1F
100
AcDbEntity
  8
koty
100
AcDbDimension
  2
*D3
 10
-15.9054429409943
 20
1204.903543806312
 30
0.0
 11
-32.15544294099453
 21
642.4035438063119
 31
0.0
 70
    32
 71
     5
 42
1125.0
  3
ISO-25
100
AcDbAlignedDimension
 13
139.2833183816053
 23
79.90354380631186
 33
0.0
 14
139.2833183816053
 24
1204.903543806312
 34
0.0
 50
90.0
100
AcDbRotatedDimension
  0
DIMENSION
  5
164
102
{ACAD_XDICTIONARY
360
171
102
}
102
{ACAD_REACTORS
330
17B
102
}
330
1F
100
AcDbEntity
  8
koty
100
AcDbDimension
  2
*D4
 10
1990.215681360943
 20
-45.91100276469979
 30
0.0
 11
1766.715681360943
 21
-29.66100276469978
 31
0.0
 70
    32
 71
     5
 42
447.0
  3
ISO-25
100
AcDbAlignedDimension
 13
1543.215681360943
 23
79.90354380631197
 33
0.0
 14
1990.215681360943
 24
79.90354380631197
 34
0.0
100
AcDbRotatedDimension
  0
DIMENSION
  5
185
102
{ACAD_XDICTIONARY
360
192
102
}
102
{ACAD_REACTORS
330
19C
102
}
330
1F
100
AcDbEntity
  8
koty
100
AcDbDimension
  2
*D5
 10
1990.215681360943
 20
24.53272162271196
 30
0.0
 11
1887.715681360943
 21
40.78272162271196
 31
0.0
 70
    32
 71
     5
 42
205.0
  3
ISO-25
100
AcDbAlignedDimension
 13
1785.215681360943
 23
302.403543806312
 33
0.0
 14
1990.215681360943
 24
79.90354380631197
 34
0.0
100
AcDbRotatedDimension
  0
DIMENSION
  5
19D
102
{ACAD_XDICTIONARY
360
1AA
102
}
102
{ACAD_REACTORS
330
1B4
102
}
330
1F
100
AcDbEntity
  8
koty
100
AcDbDimension
  2
*D6
 10
2128.526567063186
 20
982.4035438063118
 30
0.0
 11
2112.276567063186
 21
642.4035438063121
 31
0.0
 70
    32
 71
     5
 42
679.9999999999998
  3
ISO-25
100
AcDbAlignedDimension
 13
1785.215681360943
 23
302.403543806312
 33
0.0
 14
1785.215681360943
 24
982.4035438063118
 34
0.0
 50
90.0
100
AcDbRotatedDimension
  0
TEXT
  5
1B5
330
1F
100
AcDbEntity
  8
popis
100
AcDbText
 10
176.0784225126299
 20
1277.738643330274
 30
0.0
 40
30.0
  1
HIB/HIT 1000 NP
100
AcDbText
  0
DIMENSION
  5
1B6
102
{ACAD_XDICTIONARY
360
1C2
102
}
102
{ACAD_REACTORS
330
1CB
102
}
330
1F
100
AcDbEntity
  8
koty
100
AcDbDimension
  2
*D7
 10
1789.97425049575
 20
984.6213174172254
 30
0.0
 11
1697.733340551864
 21
961.3985895783292
 31
0.0
 70
    35
 71
     5
 42
10.5
  3
ISO-25
100
AcDbDiametricDimension
 15
1780.457112226137
 25
980.1857701953984
 35
0.0
 40
0.0
1001
ACAD
1000
DSTYLE
1002
{
1070
   288
1070
     1
1002
}
  0
ENDSEC
  0
SECTION
  2
OBJECTS
  0
DICTIONARY
  5
C
330
0
100
AcDbDictionary
281
     1
  3
ACAD_GROUP
350
D
  3
ACAD_LAYOUT
350
1A
  3
ACAD_MLINESTYLE
350
17
  3
ACAD_PLOTSETTINGS
350
19
  3
ACAD_PLOTSTYLENAME
350
E
  3
AcDbVariableDictionary
350
2E
  0
DICTIONARY
  5
141
330
133
100
AcDbDictionary
280
     1
281
     1
  3
ACAD_DIMASSOC
360
14B
  0
DICTIONARY
  5
159
330
14C
100
AcDbDictionary
280
     1
281
     1
  3
ACAD_DIMASSOC
360
163
  0
DICTIONARY
  5
171
330
164
100
AcDbDictionary
280
     1
281
     1
  3
ACAD_DIMASSOC
360
17B
  0
DICTIONARY
  5
192
330
185
100
AcDbDictionary
280
     1
281
     1
  3
ACAD_DIMASSOC
360
19C
  0
DICTIONARY
  5
1AA
330
19D
100
AcDbDictionary
280
     1
281
     1
  3
ACAD_DIMASSOC
360
1B4
  0
DICTIONARY
  5
1C2
330
1B6
100
AcDbDictionary
280
     1
281
     1
  3
ACAD_DIMASSOC
360
1CB
  0
DICTIONARY
  5
D
102
{ACAD_REACTORS
330
C
102
}
330
C
100
AcDbDictionary
281
     1
  0
DICTIONARY
  5
1A
102
{ACAD_REACTORS
330
C
102
}
330
C
100
AcDbDictionary
281
     1
  3
Model
350
22
  3
Rozvržení1
350
1E
  3
Rozvržení2
350
26
  0
DICTIONARY
  5
17
102
{ACAD_REACTORS
330
C
102
}
330
C
100
AcDbDictionary
281
     1
  3
Standard
350
18
  0
DICTIONARY
  5
19
102
{ACAD_REACTORS
330
C
102
}
330
C
100
AcDbDictionary
281
     1
  0
ACDBDICTIONARYWDFLT
  5
E
102
{ACAD_REACTORS
330
C
102
}
330
C
100
AcDbDictionary
281
     1
  3
Normal
350
F
100
AcDbDictionaryWithDefault
340
F
  0
DICTIONARY
  5
2E
102
{ACAD_REACTORS
330
C
102
}
330
C
100
AcDbDictionary
281
     1
  3
DIMASSOC
350
30
  3
HIDETEXT
350
2F
  0
DIMASSOC
  5
14B
102
{ACAD_REACTORS
330
141
102
}
330
141
100
AcDbDimAssoc
330
133
 90
        3
 70
     0
 71
     0
  1
AcDbOsnapPointRef
 72
    13
331
34
 73
     2
 91
        0
 40
0.0
 10
139.2833183816053
 20
79.90354380631186
 30
0.0
 75
     0
  1
AcDbOsnapPointRef
 72
     1
331
34
 73
     2
 91
        0
 40
1.0
 10
1264.283318381605
 20
79.90354380631186
 30
0.0
 75
     0
  0
DIMASSOC
  5
163
102
{ACAD_REACTORS
330
159
102
}
330
159
100
AcDbDimAssoc
330
14C
 90
        3
 70
     0
 71
     0
  1
AcDbOsnapPointRef
 72
    13
331
34
 73
     2
 91
        0
 40
0.0
 10
139.2833183816053
 20
79.90354380631186
 30
0.0
 75
     0
  1
AcDbOsnapPointRef
 72
     1
331
36
 73
     2
 91
        0
 40
1.0
 10
139.2833183816053
 20
1204.903543806312
 30
0.0
 75
     0
  0
DIMASSOC
  5
17B
102
{ACAD_REACTORS
330
171
102
}
330
171
100
AcDbDimAssoc
330
164
 90
        3
 70
     0
 71
     0
  1
AcDbOsnapPointRef
 72
    13
331
12E
 73
     2
 91
        0
 40
0.0
 10
1543.215681360943
 20
79.90354380631197
 30
0.0
 75
     0
  1
AcDbOsnapPointRef
 72
    13
331
132
 73
     2
 91
        0
 40
0.0
 10
1990.215681360943
 20
79.90354380631197
 30
0.0
 75
     0
  0
DIMASSOC
  5
19C
102
{ACAD_REACTORS
330
192
102
}
330
192
100
AcDbDimAssoc
330
185
 90
        3
 70
     0
 71
     0
  1
AcDbOsnapPointRef
 72
     3
331
130
 73
     2
 91
        0
 40
0.0
 10
1785.215681360943
 20
302.403543806312
 30
0.0
 75
     0
  1
AcDbOsnapPointRef
 72
    13
331
132
 73
     2
 91
        0
 40
0.0
 10
1990.215681360943
 20
79.90354380631197
 30
0.0
 75
     0
  0
DIMASSOC
  5
1B4
102
{ACAD_REACTORS
330
1AA
102
}
330
1AA
100
AcDbDimAssoc
330
19D
 90
        3
 70
     0
 71
     0
  1
AcDbOsnapPointRef
 72
     3
331
130
 73
     2
 91
        0
 40
0.0
 10
1785.215681360943
 20
302.403543806312
 30
0.0
 75
     0
  1
AcDbOsnapPointRef
 72
     3
331
129
 73
     2
 91
        0
 40
0.0
 10
1785.215681360943
 20
982.4035438063118
 30
0.0
 75
     0
  0
DIMASSOC
  5
1CB
102
{ACAD_REACTORS
330
1C2
102
}
330
1C2
100
AcDbDimAssoc
330
1B6
 90
        2
 70
     0
 71
     0
  1
AcDbOsnapPointRef
 72
     3
331
129
 73
     2
 91
        0
 40
0.0
 10
0.0
 20
0.0
 30
0.0
 75
     0
  0
LAYOUT
  5
22
102
{ACAD_REACTORS
330
1A
102
}
330
1A
100
AcDbPlotSettings
  1

  2
D:\AutoCAD 2002Cz\plotters\PublishToWeb DWF.pc3
  4

  6

 40
0.0
 41
0.0
 42
0.0
 43
0.0
 44
0.0
 45
0.0
 46
0.0
 47
0.0
 48
0.0
 49
0.0
140
0.0
141
0.0
142
1.0
143
1.0
 70
  1712
 72
     0
 73
     0
 74
     0
  7

 75
     0
147
1.0
148
0.0
149
0.0
100
AcDbLayout
  1
Model
 70
     1
 71
     0
 10
0.0
 20
0.0
 11
12.0
 21
9.0
 12
0.0
 22
0.0
 32
0.0
 14
0.0
 24
0.0
 34
0.0
 15
0.0
 25
0.0
 35
0.0
146
0.0
 13
0.0
 23
0.0
 33
0.0
 16
1.0
 26
0.0
 36
0.0
 17
0.0
 27
1.0
 37
0.0
 76
     0
330
1F
  0
LAYOUT
  5
1E
102
{ACAD_REACTORS
330
1A
102
}
330
1A
100
AcDbPlotSettings
  1

  2
D:\AutoCAD 2002Cz\plotters\PublishToWeb DWF.pc3
  4

  6

 40
0.0
 41
0.0
 42
0.0
 43
0.0
 44
0.0
 45
0.0
 46
0.0
 47
0.0
 48
0.0
 49
0.0
140
0.0
141
0.0
142
1.0
143
1.0
 70
   688
 72
     0
 73
     0
 74
     5
  7

 75
    16
147
1.0
148
0.0
149
0.0
100
AcDbLayout
  1
Rozvržení1
 70
     1
 71
     1
 10
0.0
 20
0.0
 11
420.0
 21
297.0
 12
0.0
 22
0.0
 32
0.0
 14
1.000000000000000E+20
 24
1.000000000000000E+20
 34
1.000000000000000E+20
 15
-1.000000000000000E+20
 25
-1.000000000000000E+20
 35
-1.000000000000000E+20
146
0.0
 13
0.0
 23
0.0
 33
0.0
 16
1.0
 26
0.0
 36
0.0
 17
0.0
 27
1.0
 37
0.0
 76
     0
330
1B
  0
LAYOUT
  5
26
102
{ACAD_REACTORS
330
1A
102
}
330
1A
100
AcDbPlotSettings
  1

  2
D:\AutoCAD 2002Cz\plotters\PublishToWeb DWF.pc3
  4

  6

 40
0.0
 41
0.0
 42
0.0
 43
0.0
 44
0.0
 45
0.0
 46
0.0
 47
0.0
 48
0.0
 49
0.0
140
0.0
141
0.0
142
1.0
143
1.0
 70
   688
 72
     0
 73
     0
 74
     5
  7

 75
    16
147
1.0
148
0.0
149
0.0
100
AcDbLayout
  1
Rozvržení2
 70
     1
 71
     2
 10
0.0
 20
0.0
 11
12.0
 21
9.0
 12
0.0
 22
0.0
 32
0.0
 14
0.0
 24
0.0
 34
0.0
 15
0.0
 25
0.0
 35
0.0
146
0.0
 13
0.0
 23
0.0
 33
0.0
 16
1.0
 26
0.0
 36
0.0
 17
0.0
 27
1.0
 37
0.0
 76
     0
330
23
  0
MLINESTYLE
  5
18
102
{ACAD_REACTORS
330
17
102
}
330
17
100
AcDbMlineStyle
  2
STANDARD
 70
     0
  3

 62
   256
 51
90.0
 52
90.0
 71
     2
 49
0.5
 62
   256
  6
BYLAYER
 49
-0.5
 62
   256
  6
BYLAYER
  0
ACDBPLACEHOLDER
  5
F
102
{ACAD_REACTORS
330
E
102
}
330
E
  0
DICTIONARYVAR
  5
30
102
{ACAD_REACTORS
330
2E
102
}
330
2E
100
DictionaryVariables
280
     0
  1
2
  0
DICTIONARYVAR
  5
2F
102
{ACAD_REACTORS
330
2E
102
}
330
2E
100
DictionaryVariables
280
     0
  1
1
  0
ENDSEC
  0
EOF
