  0
SECTION
  2
HEADER
  9
$ACADVER
  1
AC1014
  9
$ACADMAINTVER
 70
     9
  9
$DWGCODEPAGE
  3
ANSI_1250
  9
$INSBASE
 10
0.0
 20
0.0
 30
0.0
  9
$EXTMIN
 10
-76.99083169230775
 20
-396.346558
 30
0.0
  9
$EXTMAX
 10
425.9410069999999
 20
140.516788
 30
5.0
  9
$LIMMIN
 10
0.0
 20
0.0
  9
$LIMMAX
 10
0.0
 20
0.0
  9
$ORTHOMODE
 70
     0
  9
$REGENMODE
 70
     1
  9
$FILLMODE
 70
     1
  9
$QTEXTMODE
 70
     0
  9
$MIRRTEXT
 70
     1
  9
$DRAGMODE
 70
     2
  9
$LTSCALE
 40
15.0
  9
$OSMODE
 70
    37
  9
$ATTMODE
 70
     1
  9
$TEXTSIZE
 40
0.2
  9
$TRACEWID
 40
0.05
  9
$TEXTSTYLE
  7
ED10
  9
$CLAYER
  8
V0-ZBYTEK
  9
$CELTYPE
  6
CONTINUOUS
  9
$CECOLOR
 62
    41
  9
$CELTSCALE
 40
1.0
  9
$DELOBJ
 70
     1
  9
$DISPSILH
 70
     0
  9
$DIMSCALE
 40
1.0
  9
$DIMASZ
 40
12.0
  9
$DIMEXO
 40
1.0
  9
$DIMDLI
 40
0.38
  9
$DIMRND
 40
0.0
  9
$DIMDLE
 40
0.0
  9
$DIMEXE
 40
1.25
  9
$DIMTP
 40
0.0
  9
$DIMTM
 40
0.0
  9
$DIMTXT
 40
10.0
  9
$DIMCEN
 40
0.09
  9
$DIMTSZ
 40
0.0
  9
$DIMTOL
 70
     0
  9
$DIMLIM
 70
     0
  9
$DIMTIH
 70
     0
  9
$DIMTOH
 70
     0
  9
$DIMSE1
 70
     0
  9
$DIMSE2
 70
     0
  9
$DIMTAD
 70
     1
  9
$DIMZIN
 70
     0
  9
$DIMBLK
  1
OPEN
  9
$DIMASO
 70
     1
  9
$DIMSHO
 70
     1
  9
$DIMPOST
  1

  9
$DIMAPOST
  1

  9
$DIMALT
 70
     0
  9
$DIMALTD
 70
     2
  9
$DIMALTF
 40
25.4
  9
$DIMLFAC
 40
1.0
  9
$DIMTOFL
 70
     1
  9
$DIMTVP
 40
0.0
  9
$DIMTIX
 70
     1
  9
$DIMSOXD
 70
     0
  9
$DIMSAH
 70
     0
  9
$DIMBLK1
  1

  9
$DIMBLK2
  1

  9
$DIMSTYLE
  2
ED5
  9
$DIMCLRD
 70
     0
  9
$DIMCLRE
 70
     0
  9
$DIMCLRT
 70
     0
  9
$DIMTFAC
 40
1.0
  9
$DIMGAP
 40
1.5
  9
$DIMJUST
 70
     0
  9
$DIMSD1
 70
     0
  9
$DIMSD2
 70
     0
  9
$DIMTOLJ
 70
     1
  9
$DIMTZIN
 70
     0
  9
$DIMALTZ
 70
     0
  9
$DIMALTTZ
 70
     0
  9
$DIMFIT
 70
     3
  9
$DIMUPT
 70
     1
  9
$DIMUNIT
 70
     2
  9
$DIMDEC
 70
     0
  9
$DIMTDEC
 70
     4
  9
$DIMALTU
 70
     2
  9
$DIMALTTD
 70
     2
  9
$DIMTXSTY
  7
ED5
  9
$DIMAUNIT
 70
     0
  9
$LUNITS
 70
     2
  9
$LUPREC
 70
     1
  9
$SKETCHINC
 40
0.1
  9
$FILLETRAD
 40
0.5
  9
$AUNITS
 70
     0
  9
$AUPREC
 70
     0
  9
$MENU
  1
.
  9
$ELEVATION
 40
0.0
  9
$PELEVATION
 40
0.0
  9
$THICKNESS
 40
0.0
  9
$LIMCHECK
 70
     0
  9
$BLIPMODE
 70
     0
  9
$CHAMFERA
 40
0.5
  9
$CHAMFERB
 40
0.5
  9
$CHAMFERC
 40
1.0
  9
$CHAMFERD
 40
0.0
  9
$SKPOLY
 70
     0
  9
$TDCREATE
 40
2455593.618728831
  9
$TDUPDATE
 40
2455593.618728843
  9
$TDINDWG
 40
0.0000000116
  9
$TDUSRTIMER
 40
0.0000000116
  9
$USRTIMER
 70
     1
  9
$ANGBASE
 50
0.0
  9
$ANGDIR
 70
     0
  9
$PDMODE
 70
     3
  9
$PDSIZE
 40
15.0
  9
$PLINEWID
 40
0.0
  9
$COORDS
 70
     1
  9
$SPLFRAME
 70
     0
  9
$SPLINETYPE
 70
     6
  9
$SPLINESEGS
 70
     8
  9
$ATTDIA
 70
     0
  9
$ATTREQ
 70
     1
  9
$HANDLING
 70
     1
  9
$HANDSEED
  5
B9A
  9
$SURFTAB1
 70
     6
  9
$SURFTAB2
 70
     6
  9
$SURFTYPE
 70
     6
  9
$SURFU
 70
     6
  9
$SURFV
 70
     6
  9
$UCSNAME
  2

  9
$UCSORG
 10
0.0
 20
0.0
 30
0.0
  9
$UCSXDIR
 10
1.0
 20
0.0
 30
0.0
  9
$UCSYDIR
 10
0.0
 20
1.0
 30
0.0
  9
$PUCSNAME
  2

  9
$PUCSORG
 10
0.0
 20
0.0
 30
0.0
  9
$PUCSXDIR
 10
1.0
 20
0.0
 30
0.0
  9
$PUCSYDIR
 10
0.0
 20
1.0
 30
0.0
  9
$USERI1
 70
     0
  9
$USERI2
 70
     0
  9
$USERI3
 70
     0
  9
$USERI4
 70
     0
  9
$USERI5
 70
     0
  9
$USERR1
 40
0.0
  9
$USERR2
 40
0.0
  9
$USERR3
 40
0.0
  9
$USERR4
 40
0.0
  9
$USERR5
 40
0.0
  9
$WORLDVIEW
 70
     1
  9
$SHADEDGE
 70
     3
  9
$SHADEDIF
 70
    70
  9
$TILEMODE
 70
     1
  9
$MAXACTVP
 70
    64
  9
$PINSBASE
 10
0.0
 20
0.0
 30
0.0
  9
$PLIMCHECK
 70
     0
  9
$PEXTMIN
 10
1.000000000000000E+20
 20
1.000000000000000E+20
 30
1.000000000000000E+20
  9
$PEXTMAX
 10
-1.000000000000000E+20
 20
-1.000000000000000E+20
 30
-1.000000000000000E+20
  9
$PLIMMIN
 10
0.0
 20
0.0
  9
$PLIMMAX
 10
12.0
 20
9.0
  9
$UNITMODE
 70
     0
  9
$VISRETAIN
 70
     1
  9
$PLINEGEN
 70
     0
  9
$PSLTSCALE
 70
     1
  9
$TREEDEPTH
 70
  3020
  9
$PICKSTYLE
 70
     1
  9
$CMLSTYLE
  2
STANDARD
  9
$CMLJUST
 70
     0
  9
$CMLSCALE
 40
1.0
  9
$PROXYGRAPHICS
 70
     1
  9
$MEASUREMENT
 70
     0
  0
ENDSEC
  0
SECTION
  2
CLASSES
  0
CLASS
  1
ACDBDICTIONARYWDFLT
  2
AcDbDictionaryWithDefault
  3
ObjectDBX Classes
 90
        0
280
     0
281
     0
  0
CLASS
  1
XRECORD
  2
AcDbXrecord
  3
AutoCAD 2000
 90
        0
280
     0
281
     0
  0
CLASS
  1
LWPOLYLINE
  2
AcDbPolyline
  3
AutoCAD 2000
 90
        0
280
     0
281
     1
  0
CLASS
  1
HATCH
  2
AcDbHatch
  3
AutoCAD 2000
 90
        0
280
     0
281
     1
  0
CLASS
  1
ACDBPLACEHOLDER
  2
AcDbPlaceHolder
  3
ObjectDBX Classes
 90
        0
280
     0
281
     0
  0
CLASS
  1
LAYOUT
  2
AcDbLayout
  3
ObjectDBX Classes
 90
        0
280
     0
281
     0
  0
ENDSEC
  0
SECTION
  2
TABLES
  0
TABLE
  2
VPORT
  5
ACA
330
0
100
AcDbSymbolTable
 70
     2
  0
VPORT
  5
AEB
102
{ACAD_XDICTIONARY
360
B98
102
}
330
ACA
100
AcDbSymbolTableRecord
100
AcDbViewportTableRecord
  2
*ACTIVE
 70
     0
 10
0.0
 20
0.0
 11
1.0
 21
1.0
 12
166.929979
 22
-104.50542
 13
0.0
 23
0.0
 14
1.0
 24
1.0
 15
5.0
 25
5.0
 16
0.0
 26
0.0
 36
1.0
 17
0.0
 27
0.0
 37
0.0
 40
640.0030860000001
 41
0.0277447986487568
 42
50.0
 43
0.0
 44
0.0
 50
0.0
 51
0.0000000000007958
 71
     0
 72
   100
 73
     1
 74
     3
 75
     0
 76
     0
 77
     0
 78
     0
  0
ENDTAB
  0
TABLE
  2
LTYPE
  5
AC7
330
0
100
AcDbSymbolTable
 70
    25
  0
LTYPE
  5
AD6
330
AC7
100
AcDbSymbolTableRecord
100
AcDbLinetypeTableRecord
  2
BYBLOCK
 70
     0
  3

 72
    65
 73
     0
 40
0.0
  0
LTYPE
  5
AD7
330
AC7
100
AcDbSymbolTableRecord
100
AcDbLinetypeTableRecord
  2
BYLAYER
 70
     0
  3

 72
    65
 73
     0
 40
0.0
  0
LTYPE
  5
AD8
330
AC7
100
AcDbSymbolTableRecord
100
AcDbLinetypeTableRecord
  2
CONTINUOUS
 70
     0
  3
Solid line
 72
    65
 73
     0
 40
0.0
  0
LTYPE
  5
AF3
330
AC7
100
AcDbSymbolTableRecord
100
AcDbLinetypeTableRecord
  2
CENTER
 70
     0
  3
Center ____ _ ____ _ ____ _ ____ _ ____ _ ____
 72
    65
 73
     4
 40
2.0
 49
1.25
 74
     0
 49
-0.25
 74
     0
 49
0.25
 74
     0
 49
-0.25
 74
     0
  0
LTYPE
  5
AF4
330
AC7
100
AcDbSymbolTableRecord
100
AcDbLinetypeTableRecord
  2
DASHDOT
 70
     0
  3
Dashdot __ . __ . __ . __ . __ . __ . __ . __
 72
    65
 73
     4
 40
1.0
 49
0.5
 74
     0
 49
-0.25
 74
     0
 49
0.0
 74
     0
 49
-0.25
 74
     0
  0
LTYPE
  5
AF5
330
AC7
100
AcDbSymbolTableRecord
100
AcDbLinetypeTableRecord
  2
DASHED
 70
     0
  3
Dashed __ __ __ __ __ __ __ __ __ __ __ __ __ _
 72
    65
 73
     2
 40
0.75
 49
0.5
 74
     0
 49
-0.25
 74
     0
  0
LTYPE
  5
AF6
330
AC7
100
AcDbSymbolTableRecord
100
AcDbLinetypeTableRecord
  2
HIDDEN
 70
     0
  3
Hidden __ __ __ __ __ __ __ __ __ __ __ __ __ __
 72
    65
 73
     2
 40
0.375
 49
0.25
 74
     0
 49
-0.125
 74
     0
  0
LTYPE
  5
AF7
330
AC7
100
AcDbSymbolTableRecord
100
AcDbLinetypeTableRecord
  2
HIDDEN2
 70
     0
  3
Hidden2 _ _ _ _ _ _ _ _ _ _ _ _ _ _ _ _ _ 
 72
    65
 73
     2
 40
0.1875
 49
0.125
 74
     0
 49
-0.0625
 74
     0
  0
LTYPE
  5
AF8
330
AC7
100
AcDbSymbolTableRecord
100
AcDbLinetypeTableRecord
  2
BORDER
 70
     0
  3
Border __ __ . __ __ . __ __ . __ __ . __ __ .
 72
    65
 73
     6
 40
1.75
 49
0.5
 74
     0
 49
-0.25
 74
     0
 49
0.5
 74
     0
 49
-0.25
 74
     0
 49
0.0
 74
     0
 49
-0.25
 74
     0
  0
LTYPE
  5
AF9
330
AC7
100
AcDbSymbolTableRecord
100
AcDbLinetypeTableRecord
  2
BORDER2
 70
     0
  3
Border2 __.__.__.__.__.__.__.__.__.__.__.
 72
    65
 73
     6
 40
0.875
 49
0.25
 74
     0
 49
-0.125
 74
     0
 49
0.25
 74
     0
 49
-0.125
 74
     0
 49
0.0
 74
     0
 49
-0.125
 74
     0
  0
LTYPE
  5
AFA
330
AC7
100
AcDbSymbolTableRecord
100
AcDbLinetypeTableRecord
  2
BORDERX2
 70
     0
  3
Borderx2  ____  ____  .  ____  ____  .  ___
 72
    65
 73
     6
 40
3.5
 49
1.0
 74
     0
 49
-0.5
 74
     0
 49
1.0
 74
     0
 49
-0.5
 74
     0
 49
0.0
 74
     0
 49
-0.5
 74
     0
  0
LTYPE
  5
AFB
330
AC7
100
AcDbSymbolTableRecord
100
AcDbLinetypeTableRecord
  2
CENTER2
 70
     0
  3
Center2  ___ _ ___ _ ___ _ ___ _ ___ _ ___
 72
    65
 73
     4
 40
1.125
 49
0.75
 74
     0
 49
-0.125
 74
     0
 49
0.125
 74
     0
 49
-0.125
 74
     0
  0
LTYPE
  5
AFC
330
AC7
100
AcDbSymbolTableRecord
100
AcDbLinetypeTableRecord
  2
CENTERX2
 70
     0
  3
Centerx2  ________  __  ________  __  _____
 72
    65
 73
     4
 40
4.0
 49
2.5
 74
     0
 49
-0.5
 74
     0
 49
0.5
 74
     0
 49
-0.5
 74
     0
  0
LTYPE
  5
AFD
330
AC7
100
AcDbSymbolTableRecord
100
AcDbLinetypeTableRecord
  2
DASHDOT2
 70
     0
  3
Dashdot2  _._._._._._._._._._._._._._._.
 72
    65
 73
     4
 40
0.5
 49
0.25
 74
     0
 49
-0.125
 74
     0
 49
0.0
 74
     0
 49
-0.125
 74
     0
  0
LTYPE
  5
AFE
330
AC7
100
AcDbSymbolTableRecord
100
AcDbLinetypeTableRecord
  2
DASHDOTX2
 70
     0
  3
Dashdotx2 ____  .  ____  .  ____  .  ___
 72
    65
 73
     4
 40
2.0
 49
1.0
 74
     0
 49
-0.5
 74
     0
 49
0.0
 74
     0
 49
-0.5
 74
     0
  0
LTYPE
  5
AFF
330
AC7
100
AcDbSymbolTableRecord
100
AcDbLinetypeTableRecord
  2
DASHED2
 70
     0
  3
Dashed2 _ _ _ _ _ _ _ _ _ _ _ _ _ _ _ _ _ 
 72
    65
 73
     2
 40
0.375
 49
0.25
 74
     0
 49
-0.125
 74
     0
  0
LTYPE
  5
B00
330
AC7
100
AcDbSymbolTableRecord
100
AcDbLinetypeTableRecord
  2
DASHEDX2
 70
     0
  3
Dashedx2 ____  ____  ____  ____  ____  ___
 72
    65
 73
     2
 40
1.5
 49
1.0
 74
     0
 49
-0.5
 74
     0
  0
LTYPE
  5
B01
330
AC7
100
AcDbSymbolTableRecord
100
AcDbLinetypeTableRecord
  2
DIVIDE
 70
     0
  3
Divide ____ . . ____ . . ____ . . ____ . . ____
 72
    65
 73
     6
 40
1.25
 49
0.5
 74
     0
 49
-0.25
 74
     0
 49
0.0
 74
     0
 49
-0.25
 74
     0
 49
0.0
 74
     0
 49
-0.25
 74
     0
  0
LTYPE
  5
B02
330
AC7
100
AcDbSymbolTableRecord
100
AcDbLinetypeTableRecord
  2
DIVIDE2
 70
     0
  3
Divide2 __..__..__..__..__..__..__..__.._
 72
    65
 73
     6
 40
0.625
 49
0.25
 74
     0
 49
-0.125
 74
     0
 49
0.0
 74
     0
 49
-0.125
 74
     0
 49
0.0
 74
     0
 49
-0.125
 74
     0
  0
LTYPE
  5
B03
330
AC7
100
AcDbSymbolTableRecord
100
AcDbLinetypeTableRecord
  2
DIVIDEX2
 70
     0
  3
Dividex2 ________  .  .  ________  .  .  _
 72
    65
 73
     6
 40
2.5
 49
1.0
 74
     0
 49
-0.5
 74
     0
 49
0.0
 74
     0
 49
-0.5
 74
     0
 49
0.0
 74
     0
 49
-0.5
 74
     0
  0
LTYPE
  5
B04
330
AC7
100
AcDbSymbolTableRecord
100
AcDbLinetypeTableRecord
  2
DOT
 70
     0
  3
Dot . . . . . . . . . . . . . . . . . . . . . . . .
 72
    65
 73
     2
 40
0.25
 49
0.0
 74
     0
 49
-0.25
 74
     0
  0
LTYPE
  5
B05
330
AC7
100
AcDbSymbolTableRecord
100
AcDbLinetypeTableRecord
  2
DOT2
 70
     0
  3
Dot2 ........................................
 72
    65
 73
     2
 40
0.125
 49
0.0
 74
     0
 49
-0.125
 74
     0
  0
LTYPE
  5
B06
330
AC7
100
AcDbSymbolTableRecord
100
AcDbLinetypeTableRecord
  2
DOTX2
 70
     0
  3
Dotx2 .  .  .  .  .  .  .  .  .  .  .  .  .  .
 72
    65
 73
     2
 40
0.5
 49
0.0
 74
     0
 49
-0.5
 74
     0
  0
LTYPE
  5
B07
330
AC7
100
AcDbSymbolTableRecord
100
AcDbLinetypeTableRecord
  2
HIDDENX2
 70
     0
  3
Hiddenx2 ____ ____ ____ ____ ____ ____ ____ 
 72
    65
 73
     2
 40
0.75
 49
0.5
 74
     0
 49
-0.25
 74
     0
  0
LTYPE
  5
B08
330
AC7
100
AcDbSymbolTableRecord
100
AcDbLinetypeTableRecord
  2
PHANTOM
 70
     0
  3
Phantom ______  __  __  ______  __  __  ______ 
 72
    65
 73
     6
 40
2.5
 49
1.25
 74
     0
 49
-0.25
 74
     0
 49
0.25
 74
     0
 49
-0.25
 74
     0
 49
0.25
 74
     0
 49
-0.25
 74
     0
  0
LTYPE
  5
B09
330
AC7
100
AcDbSymbolTableRecord
100
AcDbLinetypeTableRecord
  2
PHANTOM2
 70
     0
  3
Phantom2 ___ _ _ ___ _ _ ___ _ _ ___ _ _
 72
    65
 73
     6
 40
1.25
 49
0.625
 74
     0
 49
-0.125
 74
     0
 49
0.125
 74
     0
 49
-0.125
 74
     0
 49
0.125
 74
     0
 49
-0.125
 74
     0
  0
LTYPE
  5
B0A
330
AC7
100
AcDbSymbolTableRecord
100
AcDbLinetypeTableRecord
  2
PHANTOMX2
 70
     0
  3
Phantomx2 ____________    ____    ____   _
 72
    65
 73
     6
 40
5.0
 49
2.5
 74
     0
 49
-0.5
 74
     0
 49
0.5
 74
     0
 49
-0.5
 74
     0
 49
0.5
 74
     0
 49
-0.5
 74
     0
  0
ENDTAB
  0
TABLE
  2
LAYER
  5
AC4
330
0
100
AcDbSymbolTable
 70
     6
  0
LAYER
  5
AD2
330
AC4
100
AcDbSymbolTableRecord
100
AcDbLayerTableRecord
  2
0
 70
     0
 62
     7
  6
CONTINUOUS
  0
LAYER
  5
2E
330
AC4
100
AcDbSymbolTableRecord
100
AcDbLayerTableRecord
  2
DEFPOINTS
 70
     0
 62
     7
  6
CONTINUOUS
  0
LAYER
  5
4E
330
AC4
100
AcDbSymbolTableRecord
100
AcDbLayerTableRecord
  2
V0-OBRYS
 70
     0
 62
    90
  6
CONTINUOUS
  0
LAYER
  5
24
330
AC4
100
AcDbSymbolTableRecord
100
AcDbLayerTableRecord
  2
V0-VYPLNE
 70
     0
 62
    52
  6
CONTINUOUS
  0
LAYER
  5
91
330
AC4
100
AcDbSymbolTableRecord
100
AcDbLayerTableRecord
  2
V0-NAZVY
 70
     0
 62
   210
  6
CONTINUOUS
  0
LAYER
  5
FE
330
AC4
100
AcDbSymbolTableRecord
100
AcDbLayerTableRecord
  2
V0-ZBYTEK
 70
     0
 62
    51
  6
CONTINUOUS
  0
ENDTAB
  0
TABLE
  2
STYLE
  5
AC5
330
0
100
AcDbSymbolTable
 70
     7
  0
STYLE
  5
AD3
330
AC5
100
AcDbSymbolTableRecord
100
AcDbTextStyleTableRecord
  2
STANDARD
 70
     0
 40
0.0
 41
1.0
 50
0.0
 71
     0
 42
0.2
  3
ISOCP.shx
  4

1001
ACAD
1000
ISOCP.shx
1071
        0
  0
STYLE
  5
2F3
330
AC5
100
AcDbSymbolTableRecord
100
AcDbTextStyleTableRecord
  2
ED30
 70
     0
 40
30.0
 41
1.0
 50
0.0
 71
     0
 42
0.2
  3
ISOCP.shx
  4

1001
ACAD
1000
ISOCP.shx
1071
        0
  0
STYLE
  5
2F4
330
AC5
100
AcDbSymbolTableRecord
100
AcDbTextStyleTableRecord
  2
ED20
 70
     0
 40
20.0
 41
1.0
 50
0.0
 71
     0
 42
0.2
  3
isocp.shx
  4

1001
ACAD
1000
isocp.shx
1071
        0
  0
STYLE
  5
2F5
330
AC5
100
AcDbSymbolTableRecord
100
AcDbTextStyleTableRecord
  2
ED40
 70
     0
 40
40.0
 41
1.0
 50
0.0
 71
     0
 42
0.2
  3
isocp.shx
  4

1001
ACAD
1000
isocp.shx
1071
        0
  0
STYLE
  5
2F6
330
AC5
100
AcDbSymbolTableRecord
100
AcDbTextStyleTableRecord
  2
ED10
 70
     0
 40
10.0
 41
1.0
 50
0.0
 71
     0
 42
0.2
  3
isocp.shx
  4

1001
ACAD
1000
isocp.shx
1071
        0
  0
STYLE
  5
2F7
330
AC5
100
AcDbSymbolTableRecord
100
AcDbTextStyleTableRecord
  2
VD_RECOV_1_2F7_
 70
     0
 40
0.0
 41
1.0
 50
0.0
 71
     0
 42
0.2
  3
ltypeshp.shx
  4

1001
ACAD
1000
ltypeshp.shx
1071
        0
  0
STYLE
  5
415
330
AC5
100
AcDbSymbolTableRecord
100
AcDbTextStyleTableRecord
  2
ED5
 70
     0
 40
10.0
 41
1.0
 50
0.0
 71
     0
 42
0.2
  3
ISOCP.shx
  4

1001
ACAD
1000
ISOCP.shx
1071
        0
  0
ENDTAB
  0
TABLE
  2
VIEW
  5
AC8
330
0
100
AcDbSymbolTable
 70
     0
  0
ENDTAB
  0
TABLE
  2
UCS
  5
AC9
330
0
100
AcDbSymbolTable
 70
     0
  0
ENDTAB
  0
TABLE
  2
APPID
  5
ACB
330
0
100
AcDbSymbolTable
 70
     6
  0
APPID
  5
AD4
330
ACB
100
AcDbSymbolTableRecord
100
AcDbRegAppTableRecord
  2
ACAD
 70
     0
  0
APPID
  5
AEC
330
ACB
100
AcDbSymbolTableRecord
100
AcDbRegAppTableRecord
  2
VD_INVISIBLE_NOT_FOR_READ
 70
     0
  0
APPID
  5
AED
330
ACB
100
AcDbSymbolTableRecord
100
AcDbRegAppTableRecord
  2
VD_TEMPHATCH
 70
     0
  0
APPID
  5
AEE
330
ACB
100
AcDbSymbolTableRecord
100
AcDbRegAppTableRecord
  2
VDEXTRAPARAM
 70
     0
  0
APPID
  5
AEF
330
ACB
100
AcDbSymbolTableRecord
100
AcDbRegAppTableRecord
  2
PE_URL
 70
     0
  0
APPID
  5
AF0
330
ACB
100
AcDbSymbolTableRecord
100
AcDbRegAppTableRecord
  2
VD_UNKNOWN
 70
     0
  0
ENDTAB
  0
TABLE
  2
DIMSTYLE
  5
ACC
330
0
100
AcDbSymbolTable
 70
     6
  0
DIMSTYLE
105
AE9
330
ACC
100
AcDbSymbolTableRecord
100
AcDbDimStyleTableRecord
  2
STANDARD
 70
     0
  3

  4

  5
OPEN
  6

  7

 40
5.0
 41
3.5
 42
0.0625
 43
0.38
 44
0.18
 45
0.0
 46
0.0
 47
0.0
 48
0.0
140
3.5
141
0.09
142
0.0
143
25.4
144
1.0
145
0.0
146
1.0
147
0.625
 71
     0
 72
     0
 73
     0
 74
     0
 75
     0
 76
     0
 77
     1
 78
     0
170
     0
171
     2
172
     1
173
     0
174
     1
175
     0
176
     0
177
     0
178
     0
270
     2
271
     0
272
     4
273
     2
274
     2
340
AD3
275
     0
280
     0
281
     0
282
     0
283
     1
284
     0
285
     0
286
     0
287
     3
288
     1
  0
DIMSTYLE
105
2F8
330
ACC
100
AcDbSymbolTableRecord
100
AcDbDimStyleTableRecord
  2
ED30
 70
     0
  3

  4

  5
OPEN
  6

  7

 40
1.0
 41
25.0
 42
1.0
 43
0.38
 44
1.25
 45
0.0
 46
0.0
 47
0.0
 48
0.0
140
30.0
141
0.09
142
0.0
143
25.4
144
1.0
145
0.0
146
1.0
147
2.0
 71
     0
 72
     0
 73
     0
 74
     0
 75
     0
 76
     0
 77
     1
 78
     0
170
     0
171
     2
172
     1
173
     0
174
     1
175
     0
176
     0
177
     0
178
     0
270
     2
271
     0
272
     4
273
     2
274
     2
340
2F3
275
     0
280
     0
281
     0
282
     0
283
     1
284
     0
285
     0
286
     0
287
     3
288
     1
  0
DIMSTYLE
105
2F9
330
ACC
100
AcDbSymbolTableRecord
100
AcDbDimStyleTableRecord
  2
ED40
 70
     0
  3

  4

  5
OPEN
  6

  7

 40
1.0
 41
35.0
 42
1.0
 43
0.38
 44
1.25
 45
0.0
 46
0.0
 47
0.0
 48
0.0
140
40.0
141
0.09
142
0.0
143
25.4
144
1.0
145
0.0
146
1.0
147
3.0
 71
     0
 72
     0
 73
     0
 74
     0
 75
     0
 76
     0
 77
     1
 78
     0
170
     0
171
     2
172
     1
173
     0
174
     1
175
     0
176
     0
177
     0
178
     0
270
     2
271
     0
272
     4
273
     2
274
     2
340
2F5
275
     0
280
     0
281
     0
282
     0
283
     1
284
     0
285
     0
286
     0
287
     3
288
     1
  0
DIMSTYLE
105
2FA
330
ACC
100
AcDbSymbolTableRecord
100
AcDbDimStyleTableRecord
  2
ED20
 70
     0
  3

  4

  5
OPEN
  6

  7

 40
1.0
 41
20.0
 42
1.0
 43
0.38
 44
1.25
 45
0.0
 46
0.0
 47
0.0
 48
0.0
140
20.0
141
0.09
142
0.0
143
25.4
144
1.0
145
0.0
146
1.0
147
1.5
 71
     0
 72
     0
 73
     0
 74
     0
 75
     0
 76
     0
 77
     1
 78
     0
170
     0
171
     2
172
     1
173
     0
174
     1
175
     0
176
     0
177
     0
178
     0
270
     2
271
     0
272
     4
273
     2
274
     2
340
2F4
275
     0
280
     0
281
     0
282
     0
283
     1
284
     0
285
     0
286
     0
287
     3
288
     1
  0
DIMSTYLE
105
2FB
330
ACC
100
AcDbSymbolTableRecord
100
AcDbDimStyleTableRecord
  2
ED10
 70
     0
  3

  4

  5
OPEN
  6

  7

 40
1.0
 41
15.0
 42
1.0
 43
0.38
 44
1.25
 45
0.0
 46
0.0
 47
0.0
 48
0.0
140
10.0
141
0.09
142
0.0
143
25.4
144
1.0
145
0.0
146
1.0
147
1.5
 71
     0
 72
     0
 73
     0
 74
     0
 75
     0
 76
     0
 77
     1
 78
     0
170
     0
171
     2
172
     1
173
     0
174
     1
175
     0
176
     0
177
     0
178
     0
270
     2
271
     0
272
     4
273
     2
274
     2
340
2F4
275
     0
280
     0
281
     0
282
     0
283
     1
284
     0
285
     0
286
     0
287
     3
288
     1
  0
DIMSTYLE
105
417
102
{ACAD_REACTORS
330
8DF
330
8EC
330
91C
330
983
330
9F2
330
A36
330
A6B
330
AAB
102
}
330
ACC
100
AcDbSymbolTableRecord
100
AcDbDimStyleTableRecord
  2
ED5
 70
     0
  3

  4

  5
OPEN
  6

  7

 40
1.0
 41
12.0
 42
1.0
 43
0.38
 44
1.25
 45
0.0
 46
0.0
 47
0.0
 48
0.0
140
10.0
141
0.09
142
0.0
143
25.4
144
1.0
145
0.0
146
1.0
147
1.5
 71
     0
 72
     0
 73
     0
 74
     0
 75
     0
 76
     0
 77
     1
 78
     0
170
     0
171
     2
172
     1
173
     0
174
     1
175
     0
176
     0
177
     0
178
     0
270
     2
271
     0
272
     4
273
     2
274
     2
340
415
275
     0
280
     0
281
     0
282
     0
283
     1
284
     0
285
     0
286
     0
287
     3
288
     1
  0
ENDTAB
  0
TABLE
  2
BLOCK_RECORD
  5
AC3
330
0
100
AcDbSymbolTable
 70
    13
  0
BLOCK_RECORD
  5
AE1
330
AC3
100
AcDbSymbolTableRecord
100
AcDbBlockTableRecord
  2
*MODEL_SPACE
  0
BLOCK_RECORD
  5
ADD
330
AC3
100
AcDbSymbolTableRecord
100
AcDbBlockTableRecord
  2
*PAPER_SPACE
  0
BLOCK_RECORD
  5
1D
330
AC3
100
AcDbSymbolTableRecord
100
AcDbBlockTableRecord
  2
_OPEN
  0
BLOCK_RECORD
  5
213
330
AC3
100
AcDbSymbolTableRecord
100
AcDbBlockTableRecord
  2
A20_350
  0
BLOCK_RECORD
  5
ABF
330
AC3
100
AcDbSymbolTableRecord
100
AcDbBlockTableRecord
  2
VDDIM_DEFAULT
  0
BLOCK_RECORD
  5
AC1
330
AC3
100
AcDbSymbolTableRecord
100
AcDbBlockTableRecord
  2
VDDIM_NONE
  0
BLOCK_RECORD
  5
B14
330
AC3
100
AcDbSymbolTableRecord
100
AcDbBlockTableRecord
  2
*D5
  0
BLOCK_RECORD
  5
B20
330
AC3
100
AcDbSymbolTableRecord
100
AcDbBlockTableRecord
  2
*D6
  0
BLOCK_RECORD
  5
B2C
330
AC3
100
AcDbSymbolTableRecord
100
AcDbBlockTableRecord
  2
*D7
  0
BLOCK_RECORD
  5
B38
330
AC3
100
AcDbSymbolTableRecord
100
AcDbBlockTableRecord
  2
*D8
  0
BLOCK_RECORD
  5
B45
330
AC3
100
AcDbSymbolTableRecord
100
AcDbBlockTableRecord
  2
*D9
  0
BLOCK_RECORD
  5
B52
330
AC3
100
AcDbSymbolTableRecord
100
AcDbBlockTableRecord
  2
*D10
  0
BLOCK_RECORD
  5
B5E
330
AC3
100
AcDbSymbolTableRecord
100
AcDbBlockTableRecord
  2
*D11
  0
BLOCK_RECORD
  5
B6A
330
AC3
100
AcDbSymbolTableRecord
100
AcDbBlockTableRecord
  2
*D12
  0
ENDTAB
  0
ENDSEC
  0
SECTION
  2
BLOCKS
  0
BLOCK
  5
AE2
330
AE1
100
AcDbEntity
  8
0
100
AcDbBlockBegin
  2
*MODEL_SPACE
 70
     0
 71
     0
 10
0.0
 20
0.0
 30
0.0
  3
*MODEL_SPACE
  1

  0
ENDBLK
  5
AE3
330
AE1
100
AcDbEntity
  8
0
100
AcDbBlockEnd
  0
BLOCK
  5
ADE
330
ADD
100
AcDbEntity
 67
     1
  8
0
100
AcDbBlockBegin
  2
*PAPER_SPACE
 70
     0
 71
     0
 10
0.0
 20
0.0
 30
0.0
  3
*PAPER_SPACE
  1

  0
ENDBLK
  5
ADF
330
ADD
100
AcDbEntity
 67
     1
  8
0
100
AcDbBlockEnd
  0
BLOCK
  5
B0B
330
1D
100
AcDbEntity
  8
0
100
AcDbBlockBegin
  2
_OPEN
 70
     0
 71
     0
 10
0.0
 20
0.0
 30
0.0
  3
_OPEN
  1

  0
LINE
  5
1E
330
1D
100
AcDbEntity
  8
0
  6
BYBLOCK
 62
     0
100
AcDbLine
 10
-1.0
 20
0.166667
 30
0.0
 11
0.0
 21
0.0
 31
0.0
  0
LINE
  5
1F
330
1D
100
AcDbEntity
  8
0
  6
BYBLOCK
 62
     0
100
AcDbLine
 10
0.0
 20
0.0
 30
0.0
 11
-1.0
 21
-0.166667
 31
0.0
  0
LINE
  5
20
330
1D
100
AcDbEntity
  8
0
  6
BYBLOCK
 62
     0
100
AcDbLine
 10
0.0
 20
0.0
 30
0.0
 11
-1.0
 21
0.0
 31
0.0
  0
ENDBLK
  5
B0C
330
1D
100
AcDbEntity
  8
0
100
AcDbBlockEnd
  0
BLOCK
  5
B0D
330
213
100
AcDbEntity
  8
0
100
AcDbBlockBegin
  2
A20_350
 70
     0
 71
     0
 10
0.0
 20
0.0
 30
0.0
  3
A20_350
  1

  0
ENDBLK
  5
B0E
330
213
100
AcDbEntity
  8
0
100
AcDbBlockEnd
  0
BLOCK
  5
B0F
330
ABF
100
AcDbEntity
  8
0
100
AcDbBlockBegin
  2
VDDIM_DEFAULT
 70
     0
 71
     0
 10
0.0
 20
0.0
 30
0.0
  3
VDDIM_DEFAULT
  1

  0
LWPOLYLINE
  5
AC0
330
ABF
100
AcDbEntity
  8
0
  6
CONTINUOUS
 62
     0
100
AcDbPolyline
 90
        4
 70
     0
 43
0.0
 10
0.0
 20
0.0
 10
-1.0
 20
-0.1665
 10
-1.0
 20
0.1665
 10
0.0
 20
0.0
1001
VDEXTRAPARAM
1071
        1
1071
        0
1071
        0
1040
1.0
1000

1000

1040
0.0
1040
0.0
  0
HATCH
  5
B13
330
ABF
100
AcDbEntity
  8
0
  6
CONTINUOUS
 62
     0
100
AcDbHatch
 10
0.0
 20
0.0
 30
0.0
210
0.0
220
0.0
230
1.0
  2
SOLID
 70
     1
 71
     0
 91
        1
 92
        2
 72
     0
 73
     1
 93
        3
 10
0.0
 20
0.0
 10
-1.0
 20
-0.1665
 10
-1.0
 20
0.1665
 97
        0
 75
     0
 76
     1
 98
        1
 10
0.0
 20
0.0
1001
VDEXTRAPARAM
1071
        1
1071
        0
1071
        0
1040
1.0
1000

1000

1040
0.0
1040
0.0
1001
VD_TEMPHATCH
1000
VD_TEMPHATCH
  0
ENDBLK
  5
B10
330
ABF
100
AcDbEntity
  8
0
100
AcDbBlockEnd
  0
BLOCK
  5
B11
330
AC1
100
AcDbEntity
  8
0
100
AcDbBlockBegin
  2
VDDIM_NONE
 70
     0
 71
     0
 10
0.0
 20
0.0
 30
0.0
  3
VDDIM_NONE
  1

  0
ENDBLK
  5
B12
330
AC1
100
AcDbEntity
  8
0
100
AcDbBlockEnd
  0
BLOCK
  5
B1E
330
B14
100
AcDbEntity
  8
0
100
AcDbBlockBegin
  2
*D5
 70
     1
 71
     0
 10
0.0
 20
0.0
 30
0.0
  3
*D5
  1

  0
LINE
  5
B15
330
B14
100
AcDbEntity
  8
V0-ZBYTEK
 62
     0
100
AcDbLine
 10
183.182429
 20
24.769753
 30
0.0
 11
183.182429
 21
-103.0318719999995
 31
0.0
  0
LINE
  5
B16
330
B14
100
AcDbEntity
  8
V0-ZBYTEK
 62
     0
100
AcDbLine
 10
383.585701
 20
24.769753
 30
0.0
 11
383.585701
 21
-103.0318719999996
 31
0.0
  0
LINE
  5
B17
330
B14
100
AcDbEntity
  8
V0-ZBYTEK
 62
     0
100
AcDbLine
 10
195.182429
 20
-101.7818719999996
 30
0.0
 11
371.585701
 21
-101.7818719999996
 31
0.0
  0
INSERT
  5
B18
330
B14
100
AcDbEntity
  8
V0-ZBYTEK
 62
     0
100
AcDbBlockReference
  2
_OPEN
 10
183.182429
 20
-101.7818719999996
 30
0.0
 41
12.0
 42
12.0
 43
12.0
 50
180.0
  0
INSERT
  5
B19
330
B14
100
AcDbEntity
  8
V0-ZBYTEK
 62
     0
100
AcDbBlockReference
  2
_OPEN
 10
383.585701
 20
-101.7818719999996
 30
0.0
 41
12.0
 42
12.0
 43
12.0
 50
360.0
  0
MTEXT
  5
B1A
330
B14
100
AcDbEntity
  8
V0-ZBYTEK
 62
     0
100
AcDbMText
 10
283.384065
 20
-95.28187199999957
 30
0.0
 40
10.0
 41
0.0
 71
     5
 72
     1
  1
\A1;200
  7
ED5
  0
POINT
  5
B1B
330
B14
100
AcDbEntity
  8
DEFPOINTS
 62
     0
100
AcDbPoint
 10
183.182429
 20
25.769753
 30
0.0
  0
POINT
  5
B1C
330
B14
100
AcDbEntity
  8
DEFPOINTS
 62
     0
100
AcDbPoint
 10
383.585701
 20
25.769753
 30
0.0
  0
POINT
  5
B1D
330
B14
100
AcDbEntity
  8
DEFPOINTS
 62
     0
100
AcDbPoint
 10
383.585701
 20
-101.7818719999996
 30
0.0
  0
ENDBLK
  5
B1F
330
B14
100
AcDbEntity
  8
0
100
AcDbBlockEnd
  0
BLOCK
  5
B2A
330
B20
100
AcDbEntity
  8
0
100
AcDbBlockBegin
  2
*D6
 70
     1
 71
     0
 10
0.0
 20
0.0
 30
0.0
  3
*D6
  1

  0
LINE
  5
B21
330
B20
100
AcDbEntity
  8
V0-ZBYTEK
 62
     0
100
AcDbLine
 10
284.384065
 20
125.971389
 30
0.0
 11
425.191003
 21
125.971389
 31
0.0
  0
LINE
  5
B22
330
B20
100
AcDbEntity
  8
V0-ZBYTEK
 62
     0
100
AcDbLine
 10
284.384065
 20
-74.431883
 30
0.0
 11
425.1910029999999
 21
-74.43188300000001
 31
0.0
  0
LINE
  5
B23
330
B20
100
AcDbEntity
  8
V0-ZBYTEK
 62
     0
100
AcDbLine
 10
423.941003
 20
113.971389
 30
0.0
 11
423.9410029999999
 21
-62.43188300000003
 31
0.0
  0
INSERT
  5
B24
330
B20
100
AcDbEntity
  8
V0-ZBYTEK
 62
     0
100
AcDbBlockReference
  2
_OPEN
 10
423.941003
 20
125.971389
 30
0.0
 41
12.0
 42
12.0
 43
12.0
 50
89.99999999999999
  0
INSERT
  5
B25
330
B20
100
AcDbEntity
  8
V0-ZBYTEK
 62
     0
100
AcDbBlockReference
  2
_OPEN
 10
423.9410029999999
 20
-74.43188300000003
 30
0.0
 41
12.0
 42
12.0
 43
12.0
 50
270.0
  0
MTEXT
  5
B26
330
B20
100
AcDbEntity
  8
V0-ZBYTEK
 62
     0
100
AcDbMText
 10
417.4410029999999
 20
25.76975299999998
 30
0.0
 40
10.0
 41
0.0
 71
     5
 72
     1
  1
\A1;200
  7
ED5
 11
2.836451635420804E-16
 21
1.0
 31
0.0
  0
POINT
  5
B27
330
B20
100
AcDbEntity
  8
DEFPOINTS
 62
     0
100
AcDbPoint
 10
283.384065
 20
125.971389
 30
0.0
  0
POINT
  5
B28
330
B20
100
AcDbEntity
  8
DEFPOINTS
 62
     0
100
AcDbPoint
 10
283.384065
 20
-74.431883
 30
0.0
  0
POINT
  5
B29
330
B20
100
AcDbEntity
  8
DEFPOINTS
 62
     0
100
AcDbPoint
 10
423.9410029999999
 20
-74.43188300000001
 30
0.0
  0
ENDBLK
  5
B2B
330
B20
100
AcDbEntity
  8
0
100
AcDbBlockEnd
  0
BLOCK
  5
B36
330
B2C
100
AcDbEntity
  8
0
100
AcDbBlockBegin
  2
*D7
 70
     1
 71
     0
 10
0.0
 20
0.0
 30
0.0
  3
*D7
  1

  0
LINE
  5
B2D
330
B2C
100
AcDbEntity
  8
V0-ZBYTEK
 62
     0
100
AcDbLine
 10
86.69738700000001
 20
99.76975299999999
 30
0.0
 11
116.8774669999994
 21
99.76975299999999
 31
0.0
  0
LINE
  5
B2E
330
B2C
100
AcDbEntity
  8
V0-ZBYTEK
 62
     0
100
AcDbLine
 10
86.69738700000001
 20
-48.08359
 30
0.0
 11
116.8774669999993
 21
-48.08359
 31
0.0
  0
LINE
  5
B2F
330
B2C
100
AcDbEntity
  8
V0-ZBYTEK
 62
     0
100
AcDbLine
 10
115.6274669999994
 20
87.76975299999999
 30
0.0
 11
115.6274669999993
 21
-36.08359
 31
0.0
  0
INSERT
  5
B30
330
B2C
100
AcDbEntity
  8
V0-ZBYTEK
 62
     0
100
AcDbBlockReference
  2
_OPEN
 10
115.6274669999994
 20
99.76975299999999
 30
0.0
 41
12.0
 42
12.0
 43
12.0
 50
89.99999999999999
  0
INSERT
  5
B31
330
B2C
100
AcDbEntity
  8
V0-ZBYTEK
 62
     0
100
AcDbBlockReference
  2
_OPEN
 10
115.6274669999993
 20
-48.08359000000001
 30
0.0
 41
12.0
 42
12.0
 43
12.0
 50
270.0
  0
MTEXT
  5
B32
330
B2C
100
AcDbEntity
  8
V0-ZBYTEK
 62
     0
100
AcDbMText
 10
109.1274669999993
 20
25.84308150000001
 30
0.0
 40
10.0
 41
0.0
 71
     5
 72
     1
  1
%%c\A1;148
  7
ED5
 11
9.611453097277620E-17
 21
1.0
 31
0.0
  0
POINT
  5
B33
330
B2C
100
AcDbEntity
  8
DEFPOINTS
 62
     0
100
AcDbPoint
 10
85.69738700000001
 20
99.76975299999999
 30
0.0
  0
POINT
  5
B34
330
B2C
100
AcDbEntity
  8
DEFPOINTS
 62
     0
100
AcDbPoint
 10
85.69738700000001
 20
-48.08359
 30
0.0
  0
POINT
  5
B35
330
B2C
100
AcDbEntity
  8
DEFPOINTS
 62
     0
100
AcDbPoint
 10
115.6274669999993
 20
-48.08359
 30
0.0
  0
ENDBLK
  5
B37
330
B2C
100
AcDbEntity
  8
0
100
AcDbBlockEnd
  0
BLOCK
  5
B43
330
B38
100
AcDbEntity
  8
0
100
AcDbBlockBegin
  2
*D8
 70
     1
 71
     0
 10
0.0
 20
0.0
 30
0.0
  3
*D8
  1

  0
LINE
  5
B39
330
B38
100
AcDbEntity
  8
V0-ZBYTEK
 62
     0
100
AcDbLine
 10
-18.447894
 20
124.996445
 30
0.0
 11
-71.7985239999998
 21
124.996445
 31
0.0
  0
LINE
  5
B3A
330
B38
100
AcDbEntity
  8
V0-ZBYTEK
 62
     0
100
AcDbLine
 10
-18.447894
 20
-74.45694
 30
0.0
 11
-71.79852399999982
 21
-74.45694
 31
0.0
  0
LINE
  5
B3B
330
B38
100
AcDbEntity
  8
V0-ZBYTEK
 62
     0
100
AcDbLine
 10
-70.5485239999998
 20
112.996445
 30
0.0
 11
-70.5485239999998
 21
43.19832442857143
 31
0.0
  0
LINE
  5
B3C
330
B38
100
AcDbEntity
  8
V0-ZBYTEK
 62
     0
100
AcDbLine
 10
-70.54852399999982
 20
-62.45694
 30
0.0
 11
-70.5485239999998
 21
7.341181571428564
 31
0.0
  0
INSERT
  5
B3D
330
B38
100
AcDbEntity
  8
V0-ZBYTEK
 62
     0
100
AcDbBlockReference
  2
_OPEN
 10
-70.5485239999998
 20
124.996445
 30
0.0
 41
12.0
 42
12.0
 43
12.0
 50
90.0
  0
INSERT
  5
B3E
330
B38
100
AcDbEntity
  8
V0-ZBYTEK
 62
     0
100
AcDbBlockReference
  2
_OPEN
 10
-70.54852399999982
 20
-74.45694
 30
0.0
 41
12.0
 42
12.0
 43
12.0
 50
270.0
  0
MTEXT
  5
B3F
330
B38
100
AcDbEntity
  8
V0-ZBYTEK
 62
     0
100
AcDbMText
 10
-70.548524
 20
25.269753
 30
0.0
 40
10.0
 41
0.0
 71
     5
 72
     1
  1
%%c\A1;199
  7
ED5
 11
7.124900244336291E-17
 21
1.0
 31
0.0
  0
POINT
  5
B40
330
B38
100
AcDbEntity
  8
DEFPOINTS
 62
     0
100
AcDbPoint
 10
-17.447894
 20
124.996445
 30
0.0
  0
POINT
  5
B41
330
B38
100
AcDbEntity
  8
DEFPOINTS
 62
     0
100
AcDbPoint
 10
-17.447894
 20
-74.45694
 30
0.0
  0
POINT
  5
B42
330
B38
100
AcDbEntity
  8
DEFPOINTS
 62
     0
100
AcDbPoint
 10
-70.54852399999982
 20
-74.45694
 30
0.0
  0
ENDBLK
  5
B44
330
B38
100
AcDbEntity
  8
0
100
AcDbBlockEnd
  0
BLOCK
  5
B50
330
B45
100
AcDbEntity
  8
0
100
AcDbBlockBegin
  2
*D9
 70
     1
 71
     0
 10
0.0
 20
0.0
 30
0.0
  3
*D9
  1

  0
LINE
  5
B46
330
B45
100
AcDbEntity
  8
V0-ZBYTEK
 62
     0
100
AcDbLine
 10
33.697387
 20
-50.09034
 30
0.0
 11
11.19234299999993
 21
-50.09034000000001
 31
0.0
  0
LINE
  5
B47
330
B45
100
AcDbEntity
  8
V0-ZBYTEK
 62
     0
100
AcDbLine
 10
33.697387
 20
102.276503
 30
0.0
 11
11.19234299999994
 21
102.276503
 31
0.0
  0
LINE
  5
B48
330
B45
100
AcDbEntity
  8
V0-ZBYTEK
 62
     0
100
AcDbLine
 10
12.44234299999993
 20
-38.09034000000001
 30
0.0
 11
12.44234299999993
 21
25.25613533333333
 31
0.0
  0
LINE
  5
B49
330
B45
100
AcDbEntity
  8
V0-ZBYTEK
 62
     0
100
AcDbLine
 10
12.44234299999994
 20
90.27650300000001
 30
0.0
 11
12.44234299999993
 21
61.58946866666666
 31
0.0
  0
INSERT
  5
B4A
330
B45
100
AcDbEntity
  8
V0-ZBYTEK
 62
     0
100
AcDbBlockReference
  2
_OPEN
 10
12.44234299999992
 20
-50.09034000000001
 30
0.0
 41
12.0
 42
12.0
 43
12.0
 50
270.0
  0
INSERT
  5
B4B
330
B45
100
AcDbEntity
  8
V0-ZBYTEK
 62
     0
100
AcDbBlockReference
  2
_OPEN
 10
12.44234299999994
 20
102.276503
 30
0.0
 41
12.0
 42
12.0
 43
12.0
 50
90.0
  0
MTEXT
  5
B4C
330
B45
100
AcDbEntity
  8
V0-ZBYTEK
 62
     0
100
AcDbMText
 10
12.442343
 20
43.422802
 30
0.0
 40
10.0
 41
0.0
 71
     5
 72
     1
  1
%%c\A1;152
  7
ED5
 11
5.829210622288244E-17
 21
1.0
 31
0.0
  0
POINT
  5
B4D
330
B45
100
AcDbEntity
  8
DEFPOINTS
 62
     0
100
AcDbPoint
 10
34.697387
 20
-50.09034
 30
0.0
  0
POINT
  5
B4E
330
B45
100
AcDbEntity
  8
DEFPOINTS
 62
     0
100
AcDbPoint
 10
34.697387
 20
102.276503
 30
0.0
  0
POINT
  5
B4F
330
B45
100
AcDbEntity
  8
DEFPOINTS
 62
     0
100
AcDbPoint
 10
12.44234299999994
 20
102.276503
 30
0.0
  0
ENDBLK
  5
B51
330
B45
100
AcDbEntity
  8
0
100
AcDbBlockEnd
  0
BLOCK
  5
B5C
330
B52
100
AcDbEntity
  8
0
100
AcDbBlockBegin
  2
*D10
 70
     1
 71
     0
 10
0.0
 20
0.0
 30
0.0
  3
*D10
  1

  0
LINE
  5
B53
330
B52
100
AcDbEntity
  8
V0-ZBYTEK
 62
     0
100
AcDbLine
 10
-42.829531
 20
24.28258
 30
0.0
 11
-42.82953100000002
 21
-127.7755960000013
 31
0.0
  0
LINE
  5
B54
330
B52
100
AcDbEntity
  8
V0-ZBYTEK
 62
     0
100
AcDbLine
 10
85.69738700000001
 20
24.198774
 30
0.0
 11
85.69738700000001
 21
-127.7755960000013
 31
0.0
  0
LINE
  5
B55
330
B52
100
AcDbEntity
  8
V0-ZBYTEK
 62
     0
100
AcDbLine
 10
-30.82953100000002
 20
-126.5255960000013
 30
0.0
 11
73.69738700000001
 21
-126.5255960000013
 31
0.0
  0
INSERT
  5
B56
330
B52
100
AcDbEntity
  8
V0-ZBYTEK
 62
     0
100
AcDbBlockReference
  2
_OPEN
 10
-42.82953100000002
 20
-126.5255960000013
 30
0.0
 41
12.0
 42
12.0
 43
12.0
 50
180.0
  0
INSERT
  5
B57
330
B52
100
AcDbEntity
  8
V0-ZBYTEK
 62
     0
100
AcDbBlockReference
  2
_OPEN
 10
85.69738700000001
 20
-126.5255960000013
 30
0.0
 41
12.0
 42
12.0
 43
12.0
 50
360.0
  0
MTEXT
  5
B58
330
B52
100
AcDbEntity
  8
V0-ZBYTEK
 62
     0
100
AcDbMText
 10
21.433928
 20
-120.0255960000013
 30
0.0
 40
10.0
 41
0.0
 71
     5
 72
     1
  1
\A1;129
  7
ED5
  0
POINT
  5
B59
330
B52
100
AcDbEntity
  8
DEFPOINTS
 62
     0
100
AcDbPoint
 10
-42.829531
 20
25.28258
 30
0.0
  0
POINT
  5
B5A
330
B52
100
AcDbEntity
  8
DEFPOINTS
 62
     0
100
AcDbPoint
 10
85.69738700000001
 20
25.198774
 30
0.0
  0
POINT
  5
B5B
330
B52
100
AcDbEntity
  8
DEFPOINTS
 62
     0
100
AcDbPoint
 10
85.69738700000001
 20
-126.5255960000013
 30
0.0
  0
ENDBLK
  5
B5D
330
B52
100
AcDbEntity
  8
0
100
AcDbBlockEnd
  0
BLOCK
  5
B68
330
B5E
100
AcDbEntity
  8
0
100
AcDbBlockBegin
  2
*D11
 70
     1
 71
     0
 10
0.0
 20
0.0
 30
0.0
  3
*D11
  1

  0
LINE
  5
B5F
330
B5E
100
AcDbEntity
  8
V0-ZBYTEK
 62
     0
100
AcDbLine
 10
34.697387
 20
-48.58359
 30
0.0
 11
34.697387
 21
-78.62129100000038
 31
0.0
  0
LINE
  5
B60
330
B5E
100
AcDbEntity
  8
V0-ZBYTEK
 62
     0
100
AcDbLine
 10
85.69738700000001
 20
-48.58359
 30
0.0
 11
85.69738700000001
 21
-78.62129100000038
 31
0.0
  0
LINE
  5
B61
330
B5E
100
AcDbEntity
  8
V0-ZBYTEK
 62
     0
100
AcDbLine
 10
46.697387
 20
-77.37129100000038
 30
0.0
 11
73.69738700000001
 21
-77.37129100000038
 31
0.0
  0
INSERT
  5
B62
330
B5E
100
AcDbEntity
  8
V0-ZBYTEK
 62
     0
100
AcDbBlockReference
  2
_OPEN
 10
34.697387
 20
-77.37129100000038
 30
0.0
 41
12.0
 42
12.0
 43
12.0
 50
180.0
  0
INSERT
  5
B63
330
B5E
100
AcDbEntity
  8
V0-ZBYTEK
 62
     0
100
AcDbBlockReference
  2
_OPEN
 10
85.69738700000001
 20
-77.37129100000038
 30
0.0
 41
12.0
 42
12.0
 43
12.0
  0
MTEXT
  5
B64
330
B5E
100
AcDbEntity
  8
V0-ZBYTEK
 62
     0
100
AcDbMText
 10
60.19738700000001
 20
-70.87129100000038
 30
0.0
 40
10.0
 41
0.0
 71
     5
 72
     1
  1
\A1;51
  7
ED5
  0
POINT
  5
B65
330
B5E
100
AcDbEntity
  8
DEFPOINTS
 62
     0
100
AcDbPoint
 10
34.697387
 20
-47.58359
 30
0.0
  0
POINT
  5
B66
330
B5E
100
AcDbEntity
  8
DEFPOINTS
 62
     0
100
AcDbPoint
 10
85.69738700000001
 20
-47.58359
 30
0.0
  0
POINT
  5
B67
330
B5E
100
AcDbEntity
  8
DEFPOINTS
 62
     0
100
AcDbPoint
 10
85.69738700000001
 20
-77.37129100000038
 30
0.0
  0
ENDBLK
  5
B69
330
B5E
100
AcDbEntity
  8
0
100
AcDbBlockEnd
  0
BLOCK
  5
B74
330
B6A
100
AcDbEntity
  8
0
100
AcDbBlockBegin
  2
*D12
 70
     1
 71
     0
 10
0.0
 20
0.0
 30
0.0
  3
*D12
  1

  0
LINE
  5
B6B
330
B6A
100
AcDbEntity
  8
V0-ZBYTEK
 62
     0
100
AcDbLine
 10
-18.447894
 20
-75.45694
 30
0.0
 11
-18.44789400000001
 21
-106.2001309999995
 31
0.0
  0
LINE
  5
B6C
330
B6A
100
AcDbEntity
  8
V0-ZBYTEK
 62
     0
100
AcDbLine
 10
85.69738700000001
 20
-48.58359
 30
0.0
 11
85.69738700000001
 21
-106.2001309999995
 31
0.0
  0
LINE
  5
B6D
330
B6A
100
AcDbEntity
  8
V0-ZBYTEK
 62
     0
100
AcDbLine
 10
-6.447894000000005
 20
-104.9501309999995
 30
0.0
 11
73.69738700000001
 21
-104.9501309999995
 31
0.0
  0
INSERT
  5
B6E
330
B6A
100
AcDbEntity
  8
V0-ZBYTEK
 62
     0
100
AcDbBlockReference
  2
_OPEN
 10
-18.44789400000001
 20
-104.9501309999995
 30
0.0
 41
12.0
 42
12.0
 43
12.0
 50
180.0
  0
INSERT
  5
B6F
330
B6A
100
AcDbEntity
  8
V0-ZBYTEK
 62
     0
100
AcDbBlockReference
  2
_OPEN
 10
85.69738700000001
 20
-104.9501309999995
 30
0.0
 41
12.0
 42
12.0
 43
12.0
  0
MTEXT
  5
B70
330
B6A
100
AcDbEntity
  8
V0-ZBYTEK
 62
     0
100
AcDbMText
 10
33.6247465
 20
-98.45013099999952
 30
0.0
 40
10.0
 41
0.0
 71
     5
 72
     1
  1
\A1;104
  7
ED5
  0
POINT
  5
B71
330
B6A
100
AcDbEntity
  8
DEFPOINTS
 62
     0
100
AcDbPoint
 10
-18.447894
 20
-74.45694
 30
0.0
  0
POINT
  5
B72
330
B6A
100
AcDbEntity
  8
DEFPOINTS
 62
     0
100
AcDbPoint
 10
85.69738700000001
 20
-47.58359
 30
0.0
  0
POINT
  5
B73
330
B6A
100
AcDbEntity
  8
DEFPOINTS
 62
     0
100
AcDbPoint
 10
85.69738700000001
 20
-104.9501309999995
 30
0.0
  0
ENDBLK
  5
B75
330
B6A
100
AcDbEntity
  8
0
100
AcDbBlockEnd
  0
ENDSEC
  0
SECTION
  2
ENTITIES
  0
LINE
  5
197
330
AE1
100
AcDbEntity
  8
V0-VYPLNE
  6
DASHDOT
 62
    63
100
AcDbLine
 10
-62.874982
 20
25.769753
 30
0.0
 11
93.214388
 21
25.769753
 31
0.0
  0
LINE
  5
199
330
AE1
100
AcDbEntity
  8
V0-OBRYS
  6
CONTINUOUS
 62
    90
 48
5.0
100
AcDbLine
 10
-32.24297
 20
-73.45694
 30
0.0
 11
-17.447894
 21
-73.45694
 31
0.0
  0
LINE
  5
19A
330
AE1
100
AcDbEntity
  8
V0-OBRYS
  6
CONTINUOUS
 62
    90
 48
5.0
100
AcDbLine
 10
-17.447894
 20
-73.45694
 30
0.0
 11
-17.447894
 21
124.996445
 31
0.0
  0
LINE
  5
19B
330
AE1
100
AcDbEntity
  8
V0-OBRYS
  6
CONTINUOUS
 62
    90
 48
5.0
100
AcDbLine
 10
-17.447894
 20
124.996445
 30
0.0
 11
-32.24297
 21
124.996445
 31
0.0
  0
LINE
  5
1AC
330
AE1
100
AcDbEntity
  8
V0-OBRYS
  6
CONTINUOUS
 62
    90
 48
5.0
100
AcDbLine
 10
-17.447894
 20
102.276503
 30
0.0
 11
34.69738699999999
 21
102.276503
 31
0.0
  0
LINE
  5
1AD
330
AE1
100
AcDbEntity
  8
V0-OBRYS
  6
CONTINUOUS
 62
    90
 48
5.0
100
AcDbLine
 10
85.69738700000001
 20
99.76975299999999
 30
5.0
 11
85.69738700000001
 21
-48.08359
 31
0.0
  0
LINE
  5
1AE
330
AE1
100
AcDbEntity
  8
V0-OBRYS
  6
CONTINUOUS
 62
    90
 48
5.0
100
AcDbLine
 10
34.697387
 20
-50.09034
 30
0.0
 11
-17.447894
 21
-50.09034
 31
0.0
  0
CIRCLE
  5
1B3
330
AE1
100
AcDbEntity
  8
V0-OBRYS
  6
CONTINUOUS
 62
    90
100
AcDbCircle
 10
283.384065
 20
25.769753
 30
0.0
 40
72.72699400000001
  0
CIRCLE
  5
1B4
330
AE1
100
AcDbEntity
  8
V0-OBRYS
  6
CONTINUOUS
 62
    90
100
AcDbCircle
 10
283.384065
 20
25.769753
 30
0.0
 40
66.262372
  0
ARC
  5
1B7
330
AE1
100
AcDbEntity
  8
V0-OBRYS
  6
CONTINUOUS
 62
    90
100
AcDbCircle
 10
283.384065
 20
-1236.447631
 30
0.0
 40
1362.419019
100
AcDbArc
 50
86.526445
 51
93.47355500000001
  0
ARC
  5
1B8
330
AE1
100
AcDbEntity
  8
V0-OBRYS
  6
CONTINUOUS
 62
    90
100
AcDbCircle
 10
1545.601449
 20
25.769753
 30
0.0
 40
1362.419019
100
AcDbArc
 50
176.526445
 51
183.473555
  0
ARC
  5
1B9
330
AE1
100
AcDbEntity
  8
V0-OBRYS
  6
CONTINUOUS
 62
    90
100
AcDbCircle
 10
283.384065
 20
1287.987136
 30
0.0
 40
1362.419019
100
AcDbArc
 50
266.526445
 51
273.473555
  0
ARC
  5
1BA
330
AE1
100
AcDbEntity
  8
V0-OBRYS
  6
CONTINUOUS
 62
    90
100
AcDbCircle
 10
-978.833318
 20
25.769753
 30
0.0
 40
1362.419019
100
AcDbArc
 50
356.526445
 51
3.473555
  0
ARC
  5
1BC
330
AE1
100
AcDbEntity
  8
V0-OBRYS
  6
CONTINUOUS
 62
    90
100
AcDbCircle
 10
201.817234
 20
107.336584
 30
0.0
 40
16.161554
100
AcDbArc
 50
93.47355500000001
 51
176.526445
  0
ARC
  5
1BD
330
AE1
100
AcDbEntity
  8
V0-OBRYS
  6
CONTINUOUS
 62
    90
100
AcDbCircle
 10
201.817234
 20
-55.797078
 30
0.0
 40
16.161554
100
AcDbArc
 50
183.473555
 51
266.526445
  0
ARC
  5
1BE
330
AE1
100
AcDbEntity
  8
V0-OBRYS
  6
CONTINUOUS
 62
    90
100
AcDbCircle
 10
364.950896
 20
-55.797078
 30
0.0
 40
16.161554
100
AcDbArc
 50
273.473555
 51
356.526445
  0
ARC
  5
1BF
330
AE1
100
AcDbEntity
  8
V0-OBRYS
  6
CONTINUOUS
 62
    90
100
AcDbCircle
 10
364.950896
 20
107.336584
 30
0.0
 40
16.161554
100
AcDbArc
 50
3.473555
 51
86.526445
  0
LINE
  5
1C0
330
AE1
100
AcDbEntity
  8
V0-OBRYS
  6
CONTINUOUS
 62
    90
100
AcDbLine
 10
248.87243
 20
82.33519200000001
 30
0.0
 11
317.895701
 21
82.33519200000001
 31
0.0
  0
LINE
  5
1C1
330
AE1
100
AcDbEntity
  8
V0-OBRYS
  6
CONTINUOUS
 62
    90
100
AcDbLine
 10
238.131714
 20
74.254415
 30
0.0
 11
238.218376
 21
74.254415
 31
0.0
  0
LINE
  5
1C2
330
AE1
100
AcDbEntity
  8
V0-OBRYS
  6
CONTINUOUS
 62
    90
100
AcDbLine
 10
230.865231
 20
66.173638
 30
0.0
 11
335.9029
 21
66.173638
 31
0.0
  0
LINE
  5
1C3
330
AE1
100
AcDbEntity
  8
V0-OBRYS
  6
CONTINUOUS
 62
    90
100
AcDbLine
 10
225.540149
 20
58.092861
 30
0.0
 11
341.227982
 21
58.092861
 31
0.0
  0
LINE
  5
1C4
330
AE1
100
AcDbEntity
  8
V0-OBRYS
  6
CONTINUOUS
 62
    90
100
AcDbLine
 10
222.375536
 20
51.628239
 30
0.0
 11
344.797971
 21
51.628239
 31
0.0
  0
LINE
  5
1C5
330
AE1
100
AcDbEntity
  8
V0-OBRYS
  6
CONTINUOUS
 62
    90
100
AcDbLine
 10
220.023352
 20
45.163618
 30
0.0
 11
346.744779
 21
45.163618
 31
0.0
  0
LINE
  5
1C6
330
AE1
100
AcDbEntity
  8
V0-OBRYS
  6
CONTINUOUS
 62
    90
100
AcDbLine
 10
218.395323
 20
38.698996
 30
0.0
 11
348.372808
 21
38.698996
 31
0.0
  0
LINE
  5
1C7
330
AE1
100
AcDbEntity
  8
V0-OBRYS
  6
CONTINUOUS
 62
    90
100
AcDbLine
 10
217.121693
 20
32.234374
 30
0.0
 11
349.646438
 21
32.234374
 31
0.0
  0
LINE
  5
1C8
330
AE1
100
AcDbEntity
  8
V0-OBRYS
  6
CONTINUOUS
 62
    90
100
AcDbLine
 10
217.121693
 20
25.769753
 30
0.0
 11
349.646438
 21
25.769753
 31
0.0
  0
LINE
  5
1C9
330
AE1
100
AcDbEntity
  8
V0-OBRYS
  6
CONTINUOUS
 62
    90
100
AcDbLine
 10
238.131714
 20
74.254415
 30
0.0
 11
328.636417
 21
74.254415
 31
0.0
  0
LINE
  5
1D2
330
AE1
100
AcDbEntity
  8
V0-OBRYS
  6
CONTINUOUS
 62
    90
100
AcDbLine
 10
262.374045
 20
88.799814
 30
0.0
 11
302.77793
 21
88.799814
 31
0.0
  0
LINE
  5
1D3
330
AE1
100
AcDbEntity
  8
V0-OBRYS
  6
CONTINUOUS
 62
    90
100
AcDbLine
 10
262.374045
 20
-37.260309
 30
0.0
 11
302.77793
 21
-37.260309
 31
0.0
  0
LINE
  5
1D4
330
AE1
100
AcDbEntity
  8
V0-OBRYS
  6
CONTINUOUS
 62
    90
100
AcDbLine
 10
238.131714
 20
-22.71491
 30
0.0
 11
328.636417
 21
-22.71491
 31
0.0
  0
LINE
  5
1D5
330
AE1
100
AcDbEntity
  8
V0-OBRYS
  6
CONTINUOUS
 62
    90
100
AcDbLine
 10
225.540149
 20
-6.553356
 30
0.0
 11
341.227982
 21
-6.553356
 31
0.0
  0
LINE
  5
1D6
330
AE1
100
AcDbEntity
  8
V0-OBRYS
  6
CONTINUOUS
 62
    90
100
AcDbLine
 10
222.375536
 20
-0.088734
 30
0.0
 11
344.797971
 21
-0.088734
 31
0.0
  0
LINE
  5
1D7
330
AE1
100
AcDbEntity
  8
V0-OBRYS
  6
CONTINUOUS
 62
    90
100
AcDbLine
 10
230.865231
 20
-14.634133
 30
0.0
 11
335.9029
 21
-14.634133
 31
0.0
  0
LINE
  5
1D8
330
AE1
100
AcDbEntity
  8
V0-OBRYS
  6
CONTINUOUS
 62
    90
100
AcDbLine
 10
218.395323
 20
12.840509
 30
0.0
 11
348.372808
 21
12.840509
 31
0.0
  0
LINE
  5
1D9
330
AE1
100
AcDbEntity
  8
V0-OBRYS
  6
CONTINUOUS
 62
    90
100
AcDbLine
 10
220.023352
 20
6.375888
 30
0.0
 11
346.744779
 21
6.375888
 31
0.0
  0
LINE
  5
1DA
330
AE1
100
AcDbEntity
  8
V0-OBRYS
  6
CONTINUOUS
 62
    90
100
AcDbLine
 10
248.87243
 20
-30.795687
 30
0.0
 11
317.895701
 21
-30.795687
 31
0.0
  0
LINE
  5
1DB
330
AE1
100
AcDbEntity
  8
V0-OBRYS
  6
CONTINUOUS
 62
    90
100
AcDbLine
 10
217.121693
 20
19.305131
 30
0.0
 11
349.646438
 21
19.305131
 31
0.0
  0
LINE
  5
1DC
330
AE1
100
AcDbEntity
  8
V0-VYPLNE
  6
DASHDOT
 62
    63
100
AcDbLine
 10
283.384065
 20
140.516788
 30
0.0
 11
283.384065
 21
-80.52033299999999
 31
0.0
  0
LINE
  5
1DD
330
AE1
100
AcDbEntity
  8
V0-VYPLNE
  6
DASHDOT
 62
    63
100
AcDbLine
 10
165.40472
 20
25.769753
 30
0.0
 11
408.685571
 21
25.769753
 31
0.0
  0
POINT
  5
59B
330
AE1
100
AcDbEntity
  8
V0-VYPLNE
  6
CONTINUOUS
 62
    52
100
AcDbPoint
 10
-17.447894
 20
25.769753
 30
0.0
  0
POINT
  5
59D
330
AE1
100
AcDbEntity
  8
V0-VYPLNE
  6
CONTINUOUS
 62
    52
100
AcDbPoint
 10
283.384065
 20
25.769753
 30
0.0
  0
LINE
  5
5A3
330
AE1
100
AcDbEntity
  8
V0-OBRYS
  6
CONTINUOUS
 62
    90
100
AcDbLine
 10
256.198159
 20
86.198459
 30
0.0
 11
256.198159
 21
-34.30870800000001
 31
0.0
  0
LINE
  5
5A4
330
AE1
100
AcDbEntity
  8
V0-OBRYS
  6
CONTINUOUS
 62
    90
100
AcDbLine
 10
310.569971
 20
86.198459
 30
0.0
 11
310.569971
 21
-34.30870800000001
 31
0.0
  0
ARC
  5
6E0
330
AE1
100
AcDbEntity
  8
V0-OBRYS
  6
CONTINUOUS
 62
    90
100
AcDbCircle
 10
1009.898813
 20
25.769753
 30
0.0
 40
1052.728456
100
AcDbArc
 50
174.91389
 51
185.08611
  0
ARC
  5
6E1
330
AE1
100
AcDbEntity
  8
V0-OBRYS
  6
CONTINUOUS
 62
    90
100
AcDbCircle
 10
-32.24297
 20
118.529873
 30
0.0
 40
6.466572
100
AcDbArc
 50
90.0
 51
174.967741
  0
ARC
  5
6E2
330
AE1
100
AcDbEntity
  8
V0-OBRYS
  6
CONTINUOUS
 62
    90
100
AcDbCircle
 10
-32.24297
 20
-66.990368
 30
0.0
 40
6.466572
100
AcDbArc
 50
185.032259
 51
270.0
  0
LINE
  5
6EF
330
AE1
100
AcDbEntity
  8
V0-OBRYS
  6
CONTINUOUS
 62
    90
100
AcDbLine
 10
-40.375064
 20
98.463692
 30
0.0
 11
-38.184553
 21
98.463692
 31
0.0
  0
LINE
  5
6F0
330
AE1
100
AcDbEntity
  8
V0-OBRYS
  6
CONTINUOUS
 62
    90
100
AcDbLine
 10
-38.184553
 20
98.463692
 30
0.0
 11
-38.184553
 21
-47.151414
 31
0.0
  0
LINE
  5
6F1
330
AE1
100
AcDbEntity
  8
V0-OBRYS
  6
CONTINUOUS
 62
    90
100
AcDbLine
 10
-38.184553
 20
-47.151414
 30
0.0
 11
-39.829501
 21
-47.151414
 31
0.0
  0
DIMENSION
  5
8DF
330
AE1
100
AcDbEntity
  8
V0-ZBYTEK
  6
CONTINUOUS
 62
    41
100
AcDbDimension
  2
*D5
 10
383.585701
 20
-101.7818719999996
 30
0.0
 11
283.384065
 21
-95.28187199999957
 31
0.0
 70
    32
  3
ED5
100
AcDbAlignedDimension
 13
183.182429
 23
25.769753
 33
0.0
 14
383.585701
 24
25.769753
 34
0.0
100
AcDbRotatedDimension
1001
ACAD
1000
DSTYLE
1002
{
1070
    40
1040
1.0
1002
}
  0
DIMENSION
  5
8EC
330
AE1
100
AcDbEntity
  8
V0-ZBYTEK
  6
CONTINUOUS
 62
    41
100
AcDbDimension
  2
*D6
 10
423.9410029999999
 20
-74.43188300000001
 30
0.0
 11
417.4410029999999
 21
25.76975299999998
 31
0.0
 70
    32
  3
ED5
100
AcDbAlignedDimension
 13
283.384065
 23
125.971389
 33
0.0
 14
283.384065
 24
-74.431883
 34
0.0
 50
90.0
100
AcDbRotatedDimension
1001
ACAD
1000
DSTYLE
1002
{
1070
    40
1040
1.0
1002
}
  0
DIMENSION
  5
91C
330
AE1
100
AcDbEntity
  8
V0-ZBYTEK
  6
CONTINUOUS
 62
    41
100
AcDbDimension
  2
*D7
 10
115.6274669999993
 20
-48.08359
 30
0.0
 11
109.1274669999993
 21
25.84308150000001
 31
5.0
 70
    32
  1
%%c<>
  3
ED5
100
AcDbAlignedDimension
 13
85.69738700000001
 23
99.76975299999999
 33
5.0
 14
85.69738700000001
 24
-48.08359
 34
0.0
 50
90.0
100
AcDbRotatedDimension
1001
ACAD
1000
DSTYLE
1002
{
1070
    40
1040
1.0
1002
}
  0
DIMENSION
  5
983
330
AE1
100
AcDbEntity
  8
V0-ZBYTEK
  6
CONTINUOUS
 62
    41
100
AcDbDimension
  2
*D8
 10
-70.54852399999982
 20
-74.45694
 30
0.0
 11
-70.548524
 21
25.269753
 31
0.0
 70
   160
  1
%%c<>
  3
ED5
100
AcDbAlignedDimension
 13
-17.447894
 23
124.996445
 33
0.0
 14
-17.447894
 24
-74.45694
 34
0.0
 50
90.0
100
AcDbRotatedDimension
1001
ACAD
1000
DSTYLE
1002
{
1070
    40
1040
1.0
1002
}
  0
LINE
  5
9B6
330
AE1
100
AcDbEntity
  8
V0-OBRYS
  6
CONTINUOUS
100
AcDbLine
 10
34.697387
 20
-50.09034
 30
0.0
 11
34.697387
 21
102.276503
 31
0.0
  0
LINE
  5
9B7
330
AE1
100
AcDbEntity
  8
V0-OBRYS
  6
CONTINUOUS
100
AcDbLine
 10
34.697387
 20
25.769753
 30
0.0
 11
34.697387
 21
99.76975300000001
 31
0.0
  0
LINE
  5
9B8
330
AE1
100
AcDbEntity
  8
V0-OBRYS
  6
CONTINUOUS
100
AcDbLine
 10
34.697387
 20
99.76975299999999
 30
0.0
 11
85.69738700000001
 21
99.76975299999999
 31
5.0
  0
DIMENSION
  5
9F2
330
AE1
100
AcDbEntity
  8
V0-ZBYTEK
  6
CONTINUOUS
 62
    41
100
AcDbDimension
  2
*D9
 10
12.44234299999994
 20
102.276503
 30
0.0
 11
12.442343
 21
43.422802
 31
0.0
 70
   160
  1
%%c<>
  3
ED5
100
AcDbAlignedDimension
 13
34.697387
 23
-50.09034
 33
0.0
 14
34.697387
 24
102.276503
 34
0.0
 50
90.0
100
AcDbRotatedDimension
1001
ACAD
1000
DSTYLE
1002
{
1070
    40
1040
1.0
1002
}
  0
DIMENSION
  5
A36
330
AE1
100
AcDbEntity
  8
V0-ZBYTEK
  6
CONTINUOUS
 62
    41
100
AcDbDimension
  2
*D10
 10
85.69738700000001
 20
-126.5255960000013
 30
2.478211
 11
21.433928
 21
-120.0255960000013
 31
0.0
 70
    32
  3
ED5
100
AcDbAlignedDimension
 13
-42.829531
 23
25.28258
 33
0.0
 14
85.69738700000001
 24
25.198774
 34
2.478211
100
AcDbRotatedDimension
1001
ACAD
1000
DSTYLE
1002
{
1070
    40
1040
1.0
1002
}
  0
LINE
  5
A51
330
AE1
100
AcDbEntity
  8
V0-OBRYS
  6
CONTINUOUS
100
AcDbLine
 10
34.697387
 20
-47.58359
 30
0.0
 11
85.69738700000001
 21
-47.58359
 31
5.0
  0
DIMENSION
  5
A6B
330
AE1
100
AcDbEntity
  8
V0-ZBYTEK
  6
CONTINUOUS
 62
    41
100
AcDbDimension
  2
*D11
 10
85.69738700000001
 20
-77.37129100000038
 30
0.0
 11
60.19738700000001
 21
-70.87129100000038
 31
0.0
 70
    32
  3
ED5
100
AcDbAlignedDimension
 13
34.697387
 23
-47.58359
 33
0.0
 14
85.69738700000001
 24
-47.58359
 34
0.0
100
AcDbRotatedDimension
1001
ACAD
1000
DSTYLE
1002
{
1070
    40
1040
1.0
1002
}
  0
LINE
  5
A6D
330
AE1
100
AcDbEntity
  8
V0-OBRYS
  6
CONTINUOUS
 62
    90
 48
5.0
100
AcDbLine
 10
85.69738700000001
 20
-223.119865
 30
5.0
 11
85.69738700000001
 21
-370.973208
 31
0.0
  0
LINE
  5
A6E
330
AE1
100
AcDbEntity
  8
V0-OBRYS
  6
CONTINUOUS
100
AcDbLine
 10
34.697387
 20
-297.119865
 30
0.0
 11
34.697387
 21
-223.119865
 31
0.0
  0
LINE
  5
A6F
330
AE1
100
AcDbEntity
  8
V0-OBRYS
  6
CONTINUOUS
100
AcDbLine
 10
34.697387
 20
-372.979958
 30
0.0
 11
34.697387
 21
-220.613115
 31
0.0
  0
LINE
  5
A70
330
AE1
100
AcDbEntity
  8
V0-OBRYS
  6
CONTINUOUS
 62
    90
100
AcDbLine
 10
-38.184553
 20
-224.425926
 30
0.0
 11
-38.184553
 21
-370.041032
 31
0.0
  0
ARC
  5
A71
330
AE1
100
AcDbEntity
  8
V0-OBRYS
  6
CONTINUOUS
 62
    90
100
AcDbCircle
 10
1009.898813
 20
-297.119865
 30
0.0
 40
1052.728456
100
AcDbArc
 50
174.91389
 51
185.08611
  0
LINE
  5
A72
330
AE1
100
AcDbEntity
  8
V0-OBRYS
  6
CONTINUOUS
 62
    90
 48
5.0
100
AcDbLine
 10
-17.447894
 20
-396.346558
 30
0.0
 11
-17.447894
 21
-197.893173
 31
0.0
  0
LINE
  5
A73
330
AE1
100
AcDbEntity
  8
V0-OBRYS
  6
CONTINUOUS
100
AcDbLine
 10
34.697387
 20
-370.473208
 30
0.0
 11
85.69738700000001
 21
-370.473208
 31
5.0
  0
ARC
  5
A75
330
AE1
100
AcDbEntity
  8
V0-OBRYS
  6
CONTINUOUS
 62
    90
100
AcDbCircle
 10
-32.24297
 20
-389.879986
 30
0.0
 40
6.466572
100
AcDbArc
 50
185.032259
 51
270.0
  0
LINE
  5
A76
330
AE1
100
AcDbEntity
  8
V0-OBRYS
  6
CONTINUOUS
 62
    90
 48
5.0
100
AcDbLine
 10
-32.24297
 20
-396.346558
 30
0.0
 11
-17.447894
 21
-396.346558
 31
0.0
  0
LINE
  5
A77
330
AE1
100
AcDbEntity
  8
V0-OBRYS
  6
CONTINUOUS
 62
    90
 48
5.0
100
AcDbLine
 10
34.697387
 20
-372.979958
 30
0.0
 11
-17.447894
 21
-372.979958
 31
0.0
  0
LINE
  5
A78
330
AE1
100
AcDbEntity
  8
V0-OBRYS
  6
CONTINUOUS
 62
    90
100
AcDbLine
 10
-38.184553
 20
-370.041032
 30
0.0
 11
-39.829501
 21
-370.041032
 31
0.0
  0
POINT
  5
A79
330
AE1
100
AcDbEntity
  8
V0-VYPLNE
  6
CONTINUOUS
 62
    52
100
AcDbPoint
 10
-17.447894
 20
-297.119865
 30
0.0
  0
LINE
  5
A7A
330
AE1
100
AcDbEntity
  8
V0-OBRYS
  6
CONTINUOUS
100
AcDbLine
 10
34.697387
 20
-223.119865
 30
0.0
 11
85.69738700000001
 21
-223.119865
 31
5.0
  0
LINE
  5
A7B
330
AE1
100
AcDbEntity
  8
V0-OBRYS
  6
CONTINUOUS
 62
    90
 48
5.0
100
AcDbLine
 10
-17.447894
 20
-220.613115
 30
0.0
 11
34.69738699999999
 21
-220.613115
 31
0.0
  0
LINE
  5
A7C
330
AE1
100
AcDbEntity
  8
V0-OBRYS
  6
CONTINUOUS
 62
    90
100
AcDbLine
 10
-40.375064
 20
-224.425926
 30
0.0
 11
-38.184553
 21
-224.425926
 31
0.0
  0
ARC
  5
A7D
330
AE1
100
AcDbEntity
  8
V0-OBRYS
  6
CONTINUOUS
 62
    90
100
AcDbCircle
 10
-32.24297
 20
-204.359745
 30
0.0
 40
6.466572
100
AcDbArc
 50
90.0
 51
174.967741
  0
LINE
  5
A7E
330
AE1
100
AcDbEntity
  8
V0-OBRYS
  6
CONTINUOUS
 62
    90
 48
5.0
100
AcDbLine
 10
-17.447894
 20
-197.893173
 30
0.0
 11
-32.24297
 21
-197.893173
 31
0.0
  0
DIMENSION
  5
AAB
330
AE1
100
AcDbEntity
  8
V0-ZBYTEK
  6
CONTINUOUS
 62
    41
100
AcDbDimension
  2
*D12
 10
85.69738700000001
 20
-104.9501309999995
 30
0.0
 11
33.6247465
 21
-98.45013099999952
 31
0.0
 70
    32
  3
ED5
100
AcDbAlignedDimension
 13
-18.447894
 23
-74.45694
 33
0.0
 14
85.69738700000001
 24
-47.58359
 34
0.0
100
AcDbRotatedDimension
1001
ACAD
1000
DSTYLE
1002
{
1070
    40
1040
1.0
1002
}
  0
TEXT
  5
AB8
330
AE1
100
AcDbEntity
  8
V0-ZBYTEK
 62
    51
100
AcDbText
 10
196.6443163571429
 20
-242.874934
 30
0.0
 40
17.539671
  1
MALY AXIALNI
  7
ED5
100
AcDbText
  0
TEXT
  5
AB9
330
AE1
100
AcDbEntity
  8
V0-ZBYTEK
 62
    51
100
AcDbText
 10
197.2753737857143
 20
-272.107719
 30
0.0
 40
17.539671
  1
VENTILATOR
  7
ED5
100
AcDbText
  0
TEXT
  5
ABA
330
AE1
100
AcDbEntity
  8
V0-NAZVY
100
AcDbText
 10
183.1846029761905
 20
-207.1311645
 30
0.0
 40
31.320841
  1
HEF 150
  7
ED5
100
AcDbText
  0
VIEWPORT
  5
B76
330
ADD
100
AcDbEntity
 67
     1
  8
0
 60
     1
100
AcDbViewport
 10
0.0
 20
0.0
 30
0.0
 40
10.0
 41
10.0
 68
     0
 69
     1
1001
VD_INVISIBLE_NOT_FOR_READ
1000
VD_INVISIBLE_NOT_FOR_READ
1001
ACAD
1000
MVIEW
1002
{
1070
    16
1010
0.0
1020
0.0
1030
0.0
1010
0.0
1020
0.0
1030
1.0
1040
6.2831853071796
1040
10.0
1040
0.0
1040
0.0
1040
0.0
1040
0.0
1040
0.0
1070
     0
1070
   100
1070
     0
1070
     1
1070
     0
1070
     0
1070
     0
1070
     0
1040
0.0
1040
0.0
1040
0.0
1040
1.0
1040
1.0
1040
0.0
1040
0.0
1070
     0
1002
{
1002
}
1002
}
  0
VIEWPORT
  5
B77
330
ADD
100
AcDbEntity
 67
     1
  8
0
 60
     1
100
AcDbViewport
 10
0.0
 20
0.0
 30
0.0
 40
10.0
 41
10.0
 68
     0
 69
     2
1001
VD_INVISIBLE_NOT_FOR_READ
1000
VD_INVISIBLE_NOT_FOR_READ
1001
ACAD
1000
MVIEW
1002
{
1070
    16
1010
0.0
1020
0.0
1030
0.0
1010
0.0
1020
0.0
1030
1.0
1040
6.2831853071796
1040
10.0
1040
0.0
1040
0.0
1040
0.0
1040
0.0
1040
0.0
1070
     0
1070
   100
1070
     0
1070
     1
1070
     0
1070
     0
1070
     0
1070
     0
1040
0.0
1040
0.0
1040
0.0
1040
1.0
1040
1.0
1040
0.0
1040
0.0
1070
     0
1002
{
1002
}
1002
}
  0
ENDSEC
  0
SECTION
  2
OBJECTS
  0
DICTIONARY
  5
ACE
330
0
100
AcDbDictionary
  3
ACAD_GROUP
350
ACF
  3
ACAD_LAYOUT
350
ADC
  3
ACAD_MLINESTYLE
350
AD9
  3
ACAD_PLOTSETTINGS
350
ADB
  3
ACDBHEADERROUNDTRIPXREC
350
B78
  3
VECTORDRAW_OBJECTS
350
AF1
  0
DICTIONARY
  5
B98
330
AEB
100
AcDbDictionary
280
     1
  3
ACAD_XREC_ROUNDTRIP
360
B99
  0
DICTIONARY
  5
ACF
102
{ACAD_REACTORS
330
ACE
102
}
330
ACE
100
AcDbDictionary
  0
DICTIONARY
  5
ADC
102
{ACAD_REACTORS
330
ACE
102
}
330
ACE
100
AcDbDictionary
  0
DICTIONARY
  5
AD9
102
{ACAD_REACTORS
330
ACE
102
}
330
ACE
100
AcDbDictionary
  3
STANDARD
350
ADA
  0
DICTIONARY
  5
ADB
102
{ACAD_REACTORS
330
ACE
102
}
330
ACE
100
AcDbDictionary
  0
DICTIONARY
  5
B78
102
{ACAD_REACTORS
330
ACE
102
}
330
ACE
100
AcDbDictionary
  3
CEPSNTYPE
350
B81
  3
DIMSTYLEDATA
350
B97
  3
FINGERPRINTGUID
350
B82
  3
HYPERLINKBASE
350
B7B
  3
INSUNITS
350
B80
  3
LAYOUTDICT
350
B7D
  3
LWETCUNION
350
B7F
  3
PLOTSETDICT
350
B7E
  3
PSVPSCALE
350
B84
  3
PUCSBASE
350
B87
  3
PUCSORGBACK
350
B8D
  3
PUCSORGBOTTOM
350
B89
  3
PUCSORGFRONT
350
B8C
  3
PUCSORGLEFT
350
B8A
  3
PUCSORGRIGHT
350
B8B
  3
PUCSORGTOP
350
B88
  3
PUCSORTHOREF
350
B85
  3
PUCSORTHOVIEW
350
B86
  3
STYLESHEET
350
B7C
  3
TSTACKALIGN
350
B79
  3
TSTACKSIZE
350
B7A
  3
UCSBASE
350
B90
  3
UCSORGBACK
350
B96
  3
UCSORGBOTTOM
350
B92
  3
UCSORGFRONT
350
B95
  3
UCSORGLEFT
350
B93
  3
UCSORGRIGHT
350
B94
  3
UCSORGTOP
350
B91
  3
UCSORTHOREF
350
B8E
  3
UCSORTHOVIEW
350
B8F
  3
VERSIONGUID
350
B83
  0
DICTIONARY
  5
AF1
102
{ACAD_REACTORS
330
ACE
102
}
330
ACE
100
AcDbDictionary
  3
SERIALNO
350
AF2
  0
XRECORD
  5
B99
102
{ACAD_REACTORS
330
B98
102
}
330
B98
100
AcDbXrecord
102
UCS
 74
     0
 71
     1
 10
0.0
 20
0.0
 30
0.0
 10
1.0
 20
0.0
 30
0.0
 10
0.0
 20
1.0
 30
0.0
146
0.0
 79
     0
102
VIEW
281
     0
  0
MLINESTYLE
  5
ADA
102
{ACAD_REACTORS
330
AD9
102
}
330
AD9
100
AcDbMlineStyle
  2
Standard
 70
     0
  3

 62
   256
 51
90.0
 52
90.0
 71
     2
 49
0.5
 62
   256
  6
BYLAYER
 49
-0.5
 62
   256
  6
BYLAYER
  0
XRECORD
  5
B81
102
{ACAD_REACTORS
330
B78
102
}
330
B78
100
AcDbXrecord
 90
        0
  0
XRECORD
  5
B97
102
{ACAD_REACTORS
330
B78
102
}
330
B78
100
AcDbXrecord
1000
DSTYLE
1002
{
1070
    41
 40
12.0
1070
   342
340
1D
1070
   271
 70
     0
1070
    44
 40
1.25
1070
    42
 40
1.0
1070
   147
 40
1.5
1070
    77
 70
     1
1070
    73
 70
     0
1070
   174
 70
     1
1070
   172
 70
     1
1070
    74
 70
     0
1070
   340
340
415
1070
   140
 40
10.0
1070
   288
 70
     1
1002
}
  0
XRECORD
  5
B82
102
{ACAD_REACTORS
330
B78
102
}
330
B78
100
AcDbXrecord
  1
{FAEB1C30-E019-11D5-929B-00C0DF256EC4}
  0
XRECORD
  5
B7B
102
{ACAD_REACTORS
330
B78
102
}
330
B78
100
AcDbXrecord
  1

  0
XRECORD
  5
B80
102
{ACAD_REACTORS
330
B78
102
}
330
B78
100
AcDbXrecord
 90
        1
  0
XRECORD
  5
B7D
102
{ACAD_REACTORS
330
B78
102
}
330
B78
100
AcDbXrecord
340
ADC
  0
XRECORD
  5
B7F
102
{ACAD_REACTORS
330
B78
102
}
330
B78
100
AcDbXrecord
 90
     2560
  0
XRECORD
  5
B7E
102
{ACAD_REACTORS
330
B78
102
}
330
B78
100
AcDbXrecord
340
ADB
  0
XRECORD
  5
B84
102
{ACAD_REACTORS
330
B78
102
}
330
B78
100
AcDbXrecord
 40
0.0
  0
XRECORD
  5
B87
102
{ACAD_REACTORS
330
B78
102
}
330
B78
100
AcDbXrecord
340
0
  0
XRECORD
  5
B8D
102
{ACAD_REACTORS
330
B78
102
}
330
B78
100
AcDbXrecord
 10
0.0
 20
0.0
 30
0.0
  0
XRECORD
  5
B89
102
{ACAD_REACTORS
330
B78
102
}
330
B78
100
AcDbXrecord
 10
0.0
 20
0.0
 30
0.0
  0
XRECORD
  5
B8C
102
{ACAD_REACTORS
330
B78
102
}
330
B78
100
AcDbXrecord
 10
0.0
 20
0.0
 30
0.0
  0
XRECORD
  5
B8A
102
{ACAD_REACTORS
330
B78
102
}
330
B78
100
AcDbXrecord
 10
0.0
 20
0.0
 30
0.0
  0
XRECORD
  5
B8B
102
{ACAD_REACTORS
330
B78
102
}
330
B78
100
AcDbXrecord
 10
0.0
 20
0.0
 30
0.0
  0
XRECORD
  5
B88
102
{ACAD_REACTORS
330
B78
102
}
330
B78
100
AcDbXrecord
 10
0.0
 20
0.0
 30
0.0
  0
XRECORD
  5
B85
102
{ACAD_REACTORS
330
B78
102
}
330
B78
100
AcDbXrecord
340
0
  0
XRECORD
  5
B86
102
{ACAD_REACTORS
330
B78
102
}
330
B78
100
AcDbXrecord
 70
     0
  0
XRECORD
  5
B7C
102
{ACAD_REACTORS
330
B78
102
}
330
B78
100
AcDbXrecord
  1

  0
XRECORD
  5
B79
102
{ACAD_REACTORS
330
B78
102
}
330
B78
100
AcDbXrecord
 90
        1
  0
XRECORD
  5
B7A
102
{ACAD_REACTORS
330
B78
102
}
330
B78
100
AcDbXrecord
 90
       70
  0
XRECORD
  5
B90
102
{ACAD_REACTORS
330
B78
102
}
330
B78
100
AcDbXrecord
340
0
  0
XRECORD
  5
B96
102
{ACAD_REACTORS
330
B78
102
}
330
B78
100
AcDbXrecord
 10
0.0
 20
0.0
 30
0.0
  0
XRECORD
  5
B92
102
{ACAD_REACTORS
330
B78
102
}
330
B78
100
AcDbXrecord
 10
0.0
 20
0.0
 30
0.0
  0
XRECORD
  5
B95
102
{ACAD_REACTORS
330
B78
102
}
330
B78
100
AcDbXrecord
 10
0.0
 20
0.0
 30
0.0
  0
XRECORD
  5
B93
102
{ACAD_REACTORS
330
B78
102
}
330
B78
100
AcDbXrecord
 10
0.0
 20
0.0
 30
0.0
  0
XRECORD
  5
B94
102
{ACAD_REACTORS
330
B78
102
}
330
B78
100
AcDbXrecord
 10
0.0
 20
0.0
 30
0.0
  0
XRECORD
  5
B91
102
{ACAD_REACTORS
330
B78
102
}
330
B78
100
AcDbXrecord
 10
0.0
 20
0.0
 30
0.0
  0
XRECORD
  5
B8E
102
{ACAD_REACTORS
330
B78
102
}
330
B78
100
AcDbXrecord
340
0
  0
XRECORD
  5
B8F
102
{ACAD_REACTORS
330
B78
102
}
330
B78
100
AcDbXrecord
 70
     0
  0
XRECORD
  5
B83
102
{ACAD_REACTORS
330
B78
102
}
330
B78
100
AcDbXrecord
  1
{FAEB1C32-E019-11D5-929B-00C0DF256EC4}
  0
XRECORD
  5
AF2
102
{ACAD_REACTORS
330
AF1
102
}
330
AF1
100
AcDbXrecord
1000
rInJVR9YY4Q8hfPWdUq5j5319
1070
     4
1070
     6
  0
ENDSEC
  0
EOF
