  0
SECTION
  2
HEADER
  9
$ACADVER
  1
AC1014
  9
$ACADMAINTVER
 70
     9
  9
$DWGCODEPAGE
  3
ANSI_1250
  9
$INSBASE
 10
0.0
 20
0.0
 30
0.0
  9
$EXTMIN
 10
-41.061026
 20
-305.199324
 30
0.0
  9
$EXTMAX
 10
389.053
 20
161.6211956923066
 30
0.0
  9
$LIMMIN
 10
0.0
 20
0.0
  9
$LIMMAX
 10
0.0
 20
0.0
  9
$ORTHOMODE
 70
     1
  9
$REGENMODE
 70
     1
  9
$FILLMODE
 70
     1
  9
$QTEXTMODE
 70
     0
  9
$MIRRTEXT
 70
     1
  9
$DRAGMODE
 70
     2
  9
$LTSCALE
 40
15.0
  9
$OSMODE
 70
    37
  9
$ATTMODE
 70
     1
  9
$TEXTSIZE
 40
0.2
  9
$TRACEWID
 40
0.05
  9
$TEXTSTYLE
  7
ED10
  9
$CLAYER
  8
V0-OBRYS
  9
$CELTYPE
  6
CONTINUOUS
  9
$CECOLOR
 62
    90
  9
$CELTSCALE
 40
1.0
  9
$DELOBJ
 70
     1
  9
$DISPSILH
 70
     0
  9
$DIMSCALE
 40
1.0
  9
$DIMASZ
 40
12.0
  9
$DIMEXO
 40
1.0
  9
$DIMDLI
 40
0.38
  9
$DIMRND
 40
0.0
  9
$DIMDLE
 40
0.0
  9
$DIMEXE
 40
1.25
  9
$DIMTP
 40
0.0
  9
$DIMTM
 40
0.0
  9
$DIMTXT
 40
10.0
  9
$DIMCEN
 40
0.09
  9
$DIMTSZ
 40
0.0
  9
$DIMTOL
 70
     0
  9
$DIMLIM
 70
     0
  9
$DIMTIH
 70
     0
  9
$DIMTOH
 70
     0
  9
$DIMSE1
 70
     0
  9
$DIMSE2
 70
     0
  9
$DIMTAD
 70
     1
  9
$DIMZIN
 70
     0
  9
$DIMBLK
  1
OPEN
  9
$DIMASO
 70
     1
  9
$DIMSHO
 70
     1
  9
$DIMPOST
  1

  9
$DIMAPOST
  1

  9
$DIMALT
 70
     0
  9
$DIMALTD
 70
     2
  9
$DIMALTF
 40
25.4
  9
$DIMLFAC
 40
1.0
  9
$DIMTOFL
 70
     1
  9
$DIMTVP
 40
0.0
  9
$DIMTIX
 70
     1
  9
$DIMSOXD
 70
     0
  9
$DIMSAH
 70
     0
  9
$DIMBLK1
  1

  9
$DIMBLK2
  1

  9
$DIMSTYLE
  2
ED5
  9
$DIMCLRD
 70
     0
  9
$DIMCLRE
 70
     0
  9
$DIMCLRT
 70
     0
  9
$DIMTFAC
 40
1.0
  9
$DIMGAP
 40
1.5
  9
$DIMJUST
 70
     0
  9
$DIMSD1
 70
     0
  9
$DIMSD2
 70
     0
  9
$DIMTOLJ
 70
     1
  9
$DIMTZIN
 70
     0
  9
$DIMALTZ
 70
     0
  9
$DIMALTTZ
 70
     0
  9
$DIMFIT
 70
     3
  9
$DIMUPT
 70
     1
  9
$DIMUNIT
 70
     2
  9
$DIMDEC
 70
     0
  9
$DIMTDEC
 70
     4
  9
$DIMALTU
 70
     2
  9
$DIMALTTD
 70
     2
  9
$DIMTXSTY
  7
ED5
  9
$DIMAUNIT
 70
     0
  9
$LUNITS
 70
     2
  9
$LUPREC
 70
     1
  9
$SKETCHINC
 40
0.1
  9
$FILLETRAD
 40
0.5
  9
$AUNITS
 70
     0
  9
$AUPREC
 70
     0
  9
$MENU
  1
.
  9
$ELEVATION
 40
0.0
  9
$PELEVATION
 40
0.0
  9
$THICKNESS
 40
0.0
  9
$LIMCHECK
 70
     0
  9
$BLIPMODE
 70
     0
  9
$CHAMFERA
 40
0.5
  9
$CHAMFERB
 40
0.5
  9
$CHAMFERC
 40
1.0
  9
$CHAMFERD
 40
0.0
  9
$SKPOLY
 70
     0
  9
$TDCREATE
 40
2455593.614976123
  9
$TDUPDATE
 40
2455593.614976134
  9
$TDINDWG
 40
0.0000000116
  9
$TDUSRTIMER
 40
0.0000000116
  9
$USRTIMER
 70
     1
  9
$ANGBASE
 50
0.0
  9
$ANGDIR
 70
     0
  9
$PDMODE
 70
     3
  9
$PDSIZE
 40
15.0
  9
$PLINEWID
 40
0.0
  9
$COORDS
 70
     1
  9
$SPLFRAME
 70
     0
  9
$SPLINETYPE
 70
     6
  9
$SPLINESEGS
 70
     8
  9
$ATTDIA
 70
     0
  9
$ATTREQ
 70
     1
  9
$HANDLING
 70
     1
  9
$HANDSEED
  5
951
  9
$SURFTAB1
 70
     6
  9
$SURFTAB2
 70
     6
  9
$SURFTYPE
 70
     6
  9
$SURFU
 70
     6
  9
$SURFV
 70
     6
  9
$UCSNAME
  2

  9
$UCSORG
 10
0.0
 20
0.0
 30
0.0
  9
$UCSXDIR
 10
1.0
 20
0.0
 30
0.0
  9
$UCSYDIR
 10
0.0
 20
1.0
 30
0.0
  9
$PUCSNAME
  2

  9
$PUCSORG
 10
0.0
 20
0.0
 30
0.0
  9
$PUCSXDIR
 10
1.0
 20
0.0
 30
0.0
  9
$PUCSYDIR
 10
0.0
 20
1.0
 30
0.0
  9
$USERI1
 70
     0
  9
$USERI2
 70
     0
  9
$USERI3
 70
     0
  9
$USERI4
 70
     0
  9
$USERI5
 70
     0
  9
$USERR1
 40
0.0
  9
$USERR2
 40
0.0
  9
$USERR3
 40
0.0
  9
$USERR4
 40
0.0
  9
$USERR5
 40
0.0
  9
$WORLDVIEW
 70
     1
  9
$SHADEDGE
 70
     3
  9
$SHADEDIF
 70
    70
  9
$TILEMODE
 70
     1
  9
$MAXACTVP
 70
    64
  9
$PINSBASE
 10
0.0
 20
0.0
 30
0.0
  9
$PLIMCHECK
 70
     0
  9
$PEXTMIN
 10
1.000000000000000E+20
 20
1.000000000000000E+20
 30
1.000000000000000E+20
  9
$PEXTMAX
 10
-1.000000000000000E+20
 20
-1.000000000000000E+20
 30
-1.000000000000000E+20
  9
$PLIMMIN
 10
0.0
 20
0.0
  9
$PLIMMAX
 10
12.0
 20
9.0
  9
$UNITMODE
 70
     0
  9
$VISRETAIN
 70
     1
  9
$PLINEGEN
 70
     0
  9
$PSLTSCALE
 70
     1
  9
$TREEDEPTH
 70
  3020
  9
$PICKSTYLE
 70
     1
  9
$CMLSTYLE
  2
STANDARD
  9
$CMLJUST
 70
     0
  9
$CMLSCALE
 40
1.0
  9
$PROXYGRAPHICS
 70
     1
  9
$MEASUREMENT
 70
     0
  0
ENDSEC
  0
SECTION
  2
CLASSES
  0
CLASS
  1
ACDBDICTIONARYWDFLT
  2
AcDbDictionaryWithDefault
  3
ObjectDBX Classes
 90
        0
280
     0
281
     0
  0
CLASS
  1
XRECORD
  2
AcDbXrecord
  3
AutoCAD 2000
 90
        0
280
     0
281
     0
  0
CLASS
  1
LWPOLYLINE
  2
AcDbPolyline
  3
AutoCAD 2000
 90
        0
280
     0
281
     1
  0
CLASS
  1
HATCH
  2
AcDbHatch
  3
AutoCAD 2000
 90
        0
280
     0
281
     1
  0
CLASS
  1
ACDBPLACEHOLDER
  2
AcDbPlaceHolder
  3
ObjectDBX Classes
 90
        0
280
     0
281
     0
  0
CLASS
  1
LAYOUT
  2
AcDbLayout
  3
ObjectDBX Classes
 90
        0
280
     0
281
     0
  0
ENDSEC
  0
SECTION
  2
TABLES
  0
TABLE
  2
VPORT
  5
8A6
330
0
100
AcDbSymbolTable
 70
     2
  0
VPORT
  5
8C7
102
{ACAD_XDICTIONARY
360
94F
102
}
330
8A6
100
AcDbSymbolTableRecord
100
AcDbViewportTableRecord
  2
*ACTIVE
 70
     0
 10
0.0
 20
0.0
 11
1.0
 21
1.0
 12
245.739759
 22
-72.094673
 13
0.0
 23
0.0
 14
1.0
 24
1.0
 15
5.0
 25
5.0
 16
0.0
 26
0.0
 36
1.0
 17
0.0
 27
0.0
 37
0.0
 40
490.443191
 41
0.0362055322237167
 42
50.0
 43
0.0
 44
0.0
 50
0.0
 51
0.0000000000007958
 71
     0
 72
   100
 73
     1
 74
     3
 75
     0
 76
     0
 77
     0
 78
     0
  0
ENDTAB
  0
TABLE
  2
LTYPE
  5
8A3
330
0
100
AcDbSymbolTable
 70
    25
  0
LTYPE
  5
8B2
330
8A3
100
AcDbSymbolTableRecord
100
AcDbLinetypeTableRecord
  2
BYBLOCK
 70
     0
  3

 72
    65
 73
     0
 40
0.0
  0
LTYPE
  5
8B3
330
8A3
100
AcDbSymbolTableRecord
100
AcDbLinetypeTableRecord
  2
BYLAYER
 70
     0
  3

 72
    65
 73
     0
 40
0.0
  0
LTYPE
  5
8B4
330
8A3
100
AcDbSymbolTableRecord
100
AcDbLinetypeTableRecord
  2
CONTINUOUS
 70
     0
  3
Solid line
 72
    65
 73
     0
 40
0.0
  0
LTYPE
  5
8CF
330
8A3
100
AcDbSymbolTableRecord
100
AcDbLinetypeTableRecord
  2
CENTER
 70
     0
  3
Center ____ _ ____ _ ____ _ ____ _ ____ _ ____
 72
    65
 73
     4
 40
2.0
 49
1.25
 74
     0
 49
-0.25
 74
     0
 49
0.25
 74
     0
 49
-0.25
 74
     0
  0
LTYPE
  5
8D0
330
8A3
100
AcDbSymbolTableRecord
100
AcDbLinetypeTableRecord
  2
DASHDOT
 70
     0
  3
Dashdot __ . __ . __ . __ . __ . __ . __ . __
 72
    65
 73
     4
 40
1.0
 49
0.5
 74
     0
 49
-0.25
 74
     0
 49
0.0
 74
     0
 49
-0.25
 74
     0
  0
LTYPE
  5
8D1
330
8A3
100
AcDbSymbolTableRecord
100
AcDbLinetypeTableRecord
  2
DASHED
 70
     0
  3
Dashed __ __ __ __ __ __ __ __ __ __ __ __ __ _
 72
    65
 73
     2
 40
0.75
 49
0.5
 74
     0
 49
-0.25
 74
     0
  0
LTYPE
  5
8D2
330
8A3
100
AcDbSymbolTableRecord
100
AcDbLinetypeTableRecord
  2
HIDDEN
 70
     0
  3
Hidden __ __ __ __ __ __ __ __ __ __ __ __ __ __
 72
    65
 73
     2
 40
0.375
 49
0.25
 74
     0
 49
-0.125
 74
     0
  0
LTYPE
  5
8D3
330
8A3
100
AcDbSymbolTableRecord
100
AcDbLinetypeTableRecord
  2
HIDDEN2
 70
     0
  3
Hidden2 _ _ _ _ _ _ _ _ _ _ _ _ _ _ _ _ _ 
 72
    65
 73
     2
 40
0.1875
 49
0.125
 74
     0
 49
-0.0625
 74
     0
  0
LTYPE
  5
8D4
330
8A3
100
AcDbSymbolTableRecord
100
AcDbLinetypeTableRecord
  2
BORDER
 70
     0
  3
Border __ __ . __ __ . __ __ . __ __ . __ __ .
 72
    65
 73
     6
 40
1.75
 49
0.5
 74
     0
 49
-0.25
 74
     0
 49
0.5
 74
     0
 49
-0.25
 74
     0
 49
0.0
 74
     0
 49
-0.25
 74
     0
  0
LTYPE
  5
8D5
330
8A3
100
AcDbSymbolTableRecord
100
AcDbLinetypeTableRecord
  2
BORDER2
 70
     0
  3
Border2 __.__.__.__.__.__.__.__.__.__.__.
 72
    65
 73
     6
 40
0.875
 49
0.25
 74
     0
 49
-0.125
 74
     0
 49
0.25
 74
     0
 49
-0.125
 74
     0
 49
0.0
 74
     0
 49
-0.125
 74
     0
  0
LTYPE
  5
8D6
330
8A3
100
AcDbSymbolTableRecord
100
AcDbLinetypeTableRecord
  2
BORDERX2
 70
     0
  3
Borderx2  ____  ____  .  ____  ____  .  ___
 72
    65
 73
     6
 40
3.5
 49
1.0
 74
     0
 49
-0.5
 74
     0
 49
1.0
 74
     0
 49
-0.5
 74
     0
 49
0.0
 74
     0
 49
-0.5
 74
     0
  0
LTYPE
  5
8D7
330
8A3
100
AcDbSymbolTableRecord
100
AcDbLinetypeTableRecord
  2
CENTER2
 70
     0
  3
Center2  ___ _ ___ _ ___ _ ___ _ ___ _ ___
 72
    65
 73
     4
 40
1.125
 49
0.75
 74
     0
 49
-0.125
 74
     0
 49
0.125
 74
     0
 49
-0.125
 74
     0
  0
LTYPE
  5
8D8
330
8A3
100
AcDbSymbolTableRecord
100
AcDbLinetypeTableRecord
  2
CENTERX2
 70
     0
  3
Centerx2  ________  __  ________  __  _____
 72
    65
 73
     4
 40
4.0
 49
2.5
 74
     0
 49
-0.5
 74
     0
 49
0.5
 74
     0
 49
-0.5
 74
     0
  0
LTYPE
  5
8D9
330
8A3
100
AcDbSymbolTableRecord
100
AcDbLinetypeTableRecord
  2
DASHDOT2
 70
     0
  3
Dashdot2  _._._._._._._._._._._._._._._.
 72
    65
 73
     4
 40
0.5
 49
0.25
 74
     0
 49
-0.125
 74
     0
 49
0.0
 74
     0
 49
-0.125
 74
     0
  0
LTYPE
  5
8DA
330
8A3
100
AcDbSymbolTableRecord
100
AcDbLinetypeTableRecord
  2
DASHDOTX2
 70
     0
  3
Dashdotx2 ____  .  ____  .  ____  .  ___
 72
    65
 73
     4
 40
2.0
 49
1.0
 74
     0
 49
-0.5
 74
     0
 49
0.0
 74
     0
 49
-0.5
 74
     0
  0
LTYPE
  5
8DB
330
8A3
100
AcDbSymbolTableRecord
100
AcDbLinetypeTableRecord
  2
DASHED2
 70
     0
  3
Dashed2 _ _ _ _ _ _ _ _ _ _ _ _ _ _ _ _ _ 
 72
    65
 73
     2
 40
0.375
 49
0.25
 74
     0
 49
-0.125
 74
     0
  0
LTYPE
  5
8DC
330
8A3
100
AcDbSymbolTableRecord
100
AcDbLinetypeTableRecord
  2
DASHEDX2
 70
     0
  3
Dashedx2 ____  ____  ____  ____  ____  ___
 72
    65
 73
     2
 40
1.5
 49
1.0
 74
     0
 49
-0.5
 74
     0
  0
LTYPE
  5
8DD
330
8A3
100
AcDbSymbolTableRecord
100
AcDbLinetypeTableRecord
  2
DIVIDE
 70
     0
  3
Divide ____ . . ____ . . ____ . . ____ . . ____
 72
    65
 73
     6
 40
1.25
 49
0.5
 74
     0
 49
-0.25
 74
     0
 49
0.0
 74
     0
 49
-0.25
 74
     0
 49
0.0
 74
     0
 49
-0.25
 74
     0
  0
LTYPE
  5
8DE
330
8A3
100
AcDbSymbolTableRecord
100
AcDbLinetypeTableRecord
  2
DIVIDE2
 70
     0
  3
Divide2 __..__..__..__..__..__..__..__.._
 72
    65
 73
     6
 40
0.625
 49
0.25
 74
     0
 49
-0.125
 74
     0
 49
0.0
 74
     0
 49
-0.125
 74
     0
 49
0.0
 74
     0
 49
-0.125
 74
     0
  0
LTYPE
  5
8DF
330
8A3
100
AcDbSymbolTableRecord
100
AcDbLinetypeTableRecord
  2
DIVIDEX2
 70
     0
  3
Dividex2 ________  .  .  ________  .  .  _
 72
    65
 73
     6
 40
2.5
 49
1.0
 74
     0
 49
-0.5
 74
     0
 49
0.0
 74
     0
 49
-0.5
 74
     0
 49
0.0
 74
     0
 49
-0.5
 74
     0
  0
LTYPE
  5
8E0
330
8A3
100
AcDbSymbolTableRecord
100
AcDbLinetypeTableRecord
  2
DOT
 70
     0
  3
Dot . . . . . . . . . . . . . . . . . . . . . . . .
 72
    65
 73
     2
 40
0.25
 49
0.0
 74
     0
 49
-0.25
 74
     0
  0
LTYPE
  5
8E1
330
8A3
100
AcDbSymbolTableRecord
100
AcDbLinetypeTableRecord
  2
DOT2
 70
     0
  3
Dot2 ........................................
 72
    65
 73
     2
 40
0.125
 49
0.0
 74
     0
 49
-0.125
 74
     0
  0
LTYPE
  5
8E2
330
8A3
100
AcDbSymbolTableRecord
100
AcDbLinetypeTableRecord
  2
DOTX2
 70
     0
  3
Dotx2 .  .  .  .  .  .  .  .  .  .  .  .  .  .
 72
    65
 73
     2
 40
0.5
 49
0.0
 74
     0
 49
-0.5
 74
     0
  0
LTYPE
  5
8E3
330
8A3
100
AcDbSymbolTableRecord
100
AcDbLinetypeTableRecord
  2
HIDDENX2
 70
     0
  3
Hiddenx2 ____ ____ ____ ____ ____ ____ ____ 
 72
    65
 73
     2
 40
0.75
 49
0.5
 74
     0
 49
-0.25
 74
     0
  0
LTYPE
  5
8E4
330
8A3
100
AcDbSymbolTableRecord
100
AcDbLinetypeTableRecord
  2
PHANTOM
 70
     0
  3
Phantom ______  __  __  ______  __  __  ______ 
 72
    65
 73
     6
 40
2.5
 49
1.25
 74
     0
 49
-0.25
 74
     0
 49
0.25
 74
     0
 49
-0.25
 74
     0
 49
0.25
 74
     0
 49
-0.25
 74
     0
  0
LTYPE
  5
8E5
330
8A3
100
AcDbSymbolTableRecord
100
AcDbLinetypeTableRecord
  2
PHANTOM2
 70
     0
  3
Phantom2 ___ _ _ ___ _ _ ___ _ _ ___ _ _
 72
    65
 73
     6
 40
1.25
 49
0.625
 74
     0
 49
-0.125
 74
     0
 49
0.125
 74
     0
 49
-0.125
 74
     0
 49
0.125
 74
     0
 49
-0.125
 74
     0
  0
LTYPE
  5
8E6
330
8A3
100
AcDbSymbolTableRecord
100
AcDbLinetypeTableRecord
  2
PHANTOMX2
 70
     0
  3
Phantomx2 ____________    ____    ____   _
 72
    65
 73
     6
 40
5.0
 49
2.5
 74
     0
 49
-0.5
 74
     0
 49
0.5
 74
     0
 49
-0.5
 74
     0
 49
0.5
 74
     0
 49
-0.5
 74
     0
  0
ENDTAB
  0
TABLE
  2
LAYER
  5
8A0
330
0
100
AcDbSymbolTable
 70
     6
  0
LAYER
  5
8AE
330
8A0
100
AcDbSymbolTableRecord
100
AcDbLayerTableRecord
  2
0
 70
     0
 62
     7
  6
CONTINUOUS
  0
LAYER
  5
2E
330
8A0
100
AcDbSymbolTableRecord
100
AcDbLayerTableRecord
  2
DEFPOINTS
 70
     0
 62
     7
  6
CONTINUOUS
  0
LAYER
  5
4E
330
8A0
100
AcDbSymbolTableRecord
100
AcDbLayerTableRecord
  2
V0-OBRYS
 70
     0
 62
    90
  6
CONTINUOUS
  0
LAYER
  5
24
330
8A0
100
AcDbSymbolTableRecord
100
AcDbLayerTableRecord
  2
V0-VYPLNE
 70
     0
 62
    52
  6
CONTINUOUS
  0
LAYER
  5
91
330
8A0
100
AcDbSymbolTableRecord
100
AcDbLayerTableRecord
  2
V0-NAZVY
 70
     0
 62
   210
  6
CONTINUOUS
  0
LAYER
  5
FE
330
8A0
100
AcDbSymbolTableRecord
100
AcDbLayerTableRecord
  2
V0-ZBYTEK
 70
     0
 62
    51
  6
CONTINUOUS
  0
ENDTAB
  0
TABLE
  2
STYLE
  5
8A1
330
0
100
AcDbSymbolTable
 70
     7
  0
STYLE
  5
8AF
330
8A1
100
AcDbSymbolTableRecord
100
AcDbTextStyleTableRecord
  2
STANDARD
 70
     0
 40
0.0
 41
1.0
 50
0.0
 71
     0
 42
0.2
  3
ISOCP.shx
  4

1001
ACAD
1000
ISOCP.shx
1071
        0
  0
STYLE
  5
2F3
330
8A1
100
AcDbSymbolTableRecord
100
AcDbTextStyleTableRecord
  2
ED30
 70
     0
 40
30.0
 41
1.0
 50
0.0
 71
     0
 42
0.2
  3
ISOCP.shx
  4

1001
ACAD
1000
ISOCP.shx
1071
        0
  0
STYLE
  5
2F4
330
8A1
100
AcDbSymbolTableRecord
100
AcDbTextStyleTableRecord
  2
ED20
 70
     0
 40
20.0
 41
1.0
 50
0.0
 71
     0
 42
0.2
  3
isocp.shx
  4

1001
ACAD
1000
isocp.shx
1071
        0
  0
STYLE
  5
2F5
330
8A1
100
AcDbSymbolTableRecord
100
AcDbTextStyleTableRecord
  2
ED40
 70
     0
 40
40.0
 41
1.0
 50
0.0
 71
     0
 42
0.2
  3
isocp.shx
  4

1001
ACAD
1000
isocp.shx
1071
        0
  0
STYLE
  5
2F6
330
8A1
100
AcDbSymbolTableRecord
100
AcDbTextStyleTableRecord
  2
ED10
 70
     0
 40
10.0
 41
1.0
 50
0.0
 71
     0
 42
0.2
  3
isocp.shx
  4

1001
ACAD
1000
isocp.shx
1071
        0
  0
STYLE
  5
2F7
330
8A1
100
AcDbSymbolTableRecord
100
AcDbTextStyleTableRecord
  2
VD_RECOV_1_2F7_
 70
     0
 40
0.0
 41
1.0
 50
0.0
 71
     0
 42
0.2
  3
ltypeshp.shx
  4

1001
ACAD
1000
ltypeshp.shx
1071
        0
  0
STYLE
  5
415
330
8A1
100
AcDbSymbolTableRecord
100
AcDbTextStyleTableRecord
  2
ED5
 70
     0
 40
10.0
 41
1.0
 50
0.0
 71
     0
 42
0.2
  3
ISOCP.shx
  4

1001
ACAD
1000
ISOCP.shx
1071
        0
  0
ENDTAB
  0
TABLE
  2
VIEW
  5
8A4
330
0
100
AcDbSymbolTable
 70
     0
  0
ENDTAB
  0
TABLE
  2
UCS
  5
8A5
330
0
100
AcDbSymbolTable
 70
     0
  0
ENDTAB
  0
TABLE
  2
APPID
  5
8A7
330
0
100
AcDbSymbolTable
 70
     6
  0
APPID
  5
8B0
330
8A7
100
AcDbSymbolTableRecord
100
AcDbRegAppTableRecord
  2
ACAD
 70
     0
  0
APPID
  5
8C8
330
8A7
100
AcDbSymbolTableRecord
100
AcDbRegAppTableRecord
  2
VD_INVISIBLE_NOT_FOR_READ
 70
     0
  0
APPID
  5
8C9
330
8A7
100
AcDbSymbolTableRecord
100
AcDbRegAppTableRecord
  2
VD_TEMPHATCH
 70
     0
  0
APPID
  5
8CA
330
8A7
100
AcDbSymbolTableRecord
100
AcDbRegAppTableRecord
  2
VDEXTRAPARAM
 70
     0
  0
APPID
  5
8CB
330
8A7
100
AcDbSymbolTableRecord
100
AcDbRegAppTableRecord
  2
PE_URL
 70
     0
  0
APPID
  5
8CC
330
8A7
100
AcDbSymbolTableRecord
100
AcDbRegAppTableRecord
  2
VD_UNKNOWN
 70
     0
  0
ENDTAB
  0
TABLE
  2
DIMSTYLE
  5
8A8
330
0
100
AcDbSymbolTable
 70
     6
  0
DIMSTYLE
105
8C5
330
8A8
100
AcDbSymbolTableRecord
100
AcDbDimStyleTableRecord
  2
STANDARD
 70
     0
  3

  4

  5
OPEN
  6

  7

 40
5.0
 41
3.5
 42
0.0625
 43
0.38
 44
0.18
 45
0.0
 46
0.0
 47
0.0
 48
0.0
140
3.5
141
0.09
142
0.0
143
25.4
144
1.0
145
0.0
146
1.0
147
0.625
 71
     0
 72
     0
 73
     0
 74
     0
 75
     0
 76
     0
 77
     1
 78
     0
170
     0
171
     2
172
     1
173
     0
174
     1
175
     0
176
     0
177
     0
178
     0
270
     2
271
     0
272
     4
273
     2
274
     2
340
8AF
275
     0
280
     0
281
     0
282
     0
283
     1
284
     0
285
     0
286
     0
287
     3
288
     1
  0
DIMSTYLE
105
2F8
330
8A8
100
AcDbSymbolTableRecord
100
AcDbDimStyleTableRecord
  2
ED30
 70
     0
  3

  4

  5
OPEN
  6

  7

 40
1.0
 41
25.0
 42
1.0
 43
0.38
 44
1.25
 45
0.0
 46
0.0
 47
0.0
 48
0.0
140
30.0
141
0.09
142
0.0
143
25.4
144
1.0
145
0.0
146
1.0
147
2.0
 71
     0
 72
     0
 73
     0
 74
     0
 75
     0
 76
     0
 77
     1
 78
     0
170
     0
171
     2
172
     1
173
     0
174
     1
175
     0
176
     0
177
     0
178
     0
270
     2
271
     0
272
     4
273
     2
274
     2
340
2F3
275
     0
280
     0
281
     0
282
     0
283
     1
284
     0
285
     0
286
     0
287
     3
288
     1
  0
DIMSTYLE
105
2F9
330
8A8
100
AcDbSymbolTableRecord
100
AcDbDimStyleTableRecord
  2
ED40
 70
     0
  3

  4

  5
OPEN
  6

  7

 40
1.0
 41
35.0
 42
1.0
 43
0.38
 44
1.25
 45
0.0
 46
0.0
 47
0.0
 48
0.0
140
40.0
141
0.09
142
0.0
143
25.4
144
1.0
145
0.0
146
1.0
147
3.0
 71
     0
 72
     0
 73
     0
 74
     0
 75
     0
 76
     0
 77
     1
 78
     0
170
     0
171
     2
172
     1
173
     0
174
     1
175
     0
176
     0
177
     0
178
     0
270
     2
271
     0
272
     4
273
     2
274
     2
340
2F5
275
     0
280
     0
281
     0
282
     0
283
     1
284
     0
285
     0
286
     0
287
     3
288
     1
  0
DIMSTYLE
105
2FA
330
8A8
100
AcDbSymbolTableRecord
100
AcDbDimStyleTableRecord
  2
ED20
 70
     0
  3

  4

  5
OPEN
  6

  7

 40
1.0
 41
20.0
 42
1.0
 43
0.38
 44
1.25
 45
0.0
 46
0.0
 47
0.0
 48
0.0
140
20.0
141
0.09
142
0.0
143
25.4
144
1.0
145
0.0
146
1.0
147
1.5
 71
     0
 72
     0
 73
     0
 74
     0
 75
     0
 76
     0
 77
     1
 78
     0
170
     0
171
     2
172
     1
173
     0
174
     1
175
     0
176
     0
177
     0
178
     0
270
     2
271
     0
272
     4
273
     2
274
     2
340
2F4
275
     0
280
     0
281
     0
282
     0
283
     1
284
     0
285
     0
286
     0
287
     3
288
     1
  0
DIMSTYLE
105
2FB
330
8A8
100
AcDbSymbolTableRecord
100
AcDbDimStyleTableRecord
  2
ED10
 70
     0
  3

  4

  5
OPEN
  6

  7

 40
1.0
 41
15.0
 42
1.0
 43
0.38
 44
1.25
 45
0.0
 46
0.0
 47
0.0
 48
0.0
140
10.0
141
0.09
142
0.0
143
25.4
144
1.0
145
0.0
146
1.0
147
1.5
 71
     0
 72
     0
 73
     0
 74
     0
 75
     0
 76
     0
 77
     1
 78
     0
170
     0
171
     2
172
     1
173
     0
174
     1
175
     0
176
     0
177
     0
178
     0
270
     2
271
     0
272
     4
273
     2
274
     2
340
2F4
275
     0
280
     0
281
     0
282
     0
283
     1
284
     0
285
     0
286
     0
287
     3
288
     1
  0
DIMSTYLE
105
417
102
{ACAD_REACTORS
330
3EF
330
3FC
330
409
330
5FF
330
6A4
102
}
330
8A8
100
AcDbSymbolTableRecord
100
AcDbDimStyleTableRecord
  2
ED5
 70
     0
  3

  4

  5
OPEN
  6

  7

 40
1.0
 41
12.0
 42
1.0
 43
0.38
 44
1.25
 45
0.0
 46
0.0
 47
0.0
 48
0.0
140
10.0
141
0.09
142
0.0
143
25.4
144
1.0
145
0.0
146
1.0
147
1.5
 71
     0
 72
     0
 73
     0
 74
     0
 75
     0
 76
     0
 77
     1
 78
     0
170
     0
171
     2
172
     1
173
     0
174
     1
175
     0
176
     0
177
     0
178
     0
270
     2
271
     0
272
     4
273
     2
274
     2
340
415
275
     0
280
     0
281
     0
282
     0
283
     1
284
     0
285
     0
286
     0
287
     3
288
     1
  0
ENDTAB
  0
TABLE
  2
BLOCK_RECORD
  5
89F
330
0
100
AcDbSymbolTable
 70
    10
  0
BLOCK_RECORD
  5
8BD
330
89F
100
AcDbSymbolTableRecord
100
AcDbBlockTableRecord
  2
*MODEL_SPACE
  0
BLOCK_RECORD
  5
8B9
330
89F
100
AcDbSymbolTableRecord
100
AcDbBlockTableRecord
  2
*PAPER_SPACE
  0
BLOCK_RECORD
  5
1D
330
89F
100
AcDbSymbolTableRecord
100
AcDbBlockTableRecord
  2
_OPEN
  0
BLOCK_RECORD
  5
213
330
89F
100
AcDbSymbolTableRecord
100
AcDbBlockTableRecord
  2
A20_350
  0
BLOCK_RECORD
  5
89B
330
89F
100
AcDbSymbolTableRecord
100
AcDbBlockTableRecord
  2
VDDIM_DEFAULT
  0
BLOCK_RECORD
  5
89D
330
89F
100
AcDbSymbolTableRecord
100
AcDbBlockTableRecord
  2
VDDIM_NONE
  0
BLOCK_RECORD
  5
8F0
330
89F
100
AcDbSymbolTableRecord
100
AcDbBlockTableRecord
  2
*D5
  0
BLOCK_RECORD
  5
8FC
330
89F
100
AcDbSymbolTableRecord
100
AcDbBlockTableRecord
  2
*D6
  0
BLOCK_RECORD
  5
908
330
89F
100
AcDbSymbolTableRecord
100
AcDbBlockTableRecord
  2
*D7
  0
BLOCK_RECORD
  5
915
330
89F
100
AcDbSymbolTableRecord
100
AcDbBlockTableRecord
  2
*D8
  0
BLOCK_RECORD
  5
921
330
89F
100
AcDbSymbolTableRecord
100
AcDbBlockTableRecord
  2
*D9
  0
ENDTAB
  0
ENDSEC
  0
SECTION
  2
BLOCKS
  0
BLOCK
  5
8BE
330
8BD
100
AcDbEntity
  8
0
100
AcDbBlockBegin
  2
*MODEL_SPACE
 70
     0
 71
     0
 10
0.0
 20
0.0
 30
0.0
  3
*MODEL_SPACE
  1

  0
ENDBLK
  5
8BF
330
8BD
100
AcDbEntity
  8
0
100
AcDbBlockEnd
  0
BLOCK
  5
8BA
330
8B9
100
AcDbEntity
 67
     1
  8
0
100
AcDbBlockBegin
  2
*PAPER_SPACE
 70
     0
 71
     0
 10
0.0
 20
0.0
 30
0.0
  3
*PAPER_SPACE
  1

  0
ENDBLK
  5
8BB
330
8B9
100
AcDbEntity
 67
     1
  8
0
100
AcDbBlockEnd
  0
BLOCK
  5
8E7
330
1D
100
AcDbEntity
  8
0
100
AcDbBlockBegin
  2
_OPEN
 70
     0
 71
     0
 10
0.0
 20
0.0
 30
0.0
  3
_OPEN
  1

  0
LINE
  5
1E
330
1D
100
AcDbEntity
  8
0
  6
BYBLOCK
 62
     0
100
AcDbLine
 10
-1.0
 20
0.166667
 30
0.0
 11
0.0
 21
0.0
 31
0.0
  0
LINE
  5
1F
330
1D
100
AcDbEntity
  8
0
  6
BYBLOCK
 62
     0
100
AcDbLine
 10
0.0
 20
0.0
 30
0.0
 11
-1.0
 21
-0.166667
 31
0.0
  0
LINE
  5
20
330
1D
100
AcDbEntity
  8
0
  6
BYBLOCK
 62
     0
100
AcDbLine
 10
0.0
 20
0.0
 30
0.0
 11
-1.0
 21
0.0
 31
0.0
  0
ENDBLK
  5
8E8
330
1D
100
AcDbEntity
  8
0
100
AcDbBlockEnd
  0
BLOCK
  5
8E9
330
213
100
AcDbEntity
  8
0
100
AcDbBlockBegin
  2
A20_350
 70
     0
 71
     0
 10
0.0
 20
0.0
 30
0.0
  3
A20_350
  1

  0
ENDBLK
  5
8EA
330
213
100
AcDbEntity
  8
0
100
AcDbBlockEnd
  0
BLOCK
  5
8EB
330
89B
100
AcDbEntity
  8
0
100
AcDbBlockBegin
  2
VDDIM_DEFAULT
 70
     0
 71
     0
 10
0.0
 20
0.0
 30
0.0
  3
VDDIM_DEFAULT
  1

  0
LWPOLYLINE
  5
89C
330
89B
100
AcDbEntity
  8
0
  6
CONTINUOUS
 62
     0
100
AcDbPolyline
 90
        4
 70
     0
 43
0.0
 10
0.0
 20
0.0
 10
-1.0
 20
-0.1665
 10
-1.0
 20
0.1665
 10
0.0
 20
0.0
1001
VDEXTRAPARAM
1071
        1
1071
        0
1071
        0
1040
1.0
1000

1000

1040
0.0
1040
0.0
  0
HATCH
  5
8EF
330
89B
100
AcDbEntity
  8
0
  6
CONTINUOUS
 62
     0
100
AcDbHatch
 10
0.0
 20
0.0
 30
0.0
210
0.0
220
0.0
230
1.0
  2
SOLID
 70
     1
 71
     0
 91
        1
 92
        2
 72
     0
 73
     1
 93
        3
 10
0.0
 20
0.0
 10
-1.0
 20
-0.1665
 10
-1.0
 20
0.1665
 97
        0
 75
     0
 76
     1
 98
        1
 10
0.0
 20
0.0
1001
VDEXTRAPARAM
1071
        1
1071
        0
1071
        0
1040
1.0
1000

1000

1040
0.0
1040
0.0
1001
VD_TEMPHATCH
1000
VD_TEMPHATCH
  0
ENDBLK
  5
8EC
330
89B
100
AcDbEntity
  8
0
100
AcDbBlockEnd
  0
BLOCK
  5
8ED
330
89D
100
AcDbEntity
  8
0
100
AcDbBlockBegin
  2
VDDIM_NONE
 70
     0
 71
     0
 10
0.0
 20
0.0
 30
0.0
  3
VDDIM_NONE
  1

  0
ENDBLK
  5
8EE
330
89D
100
AcDbEntity
  8
0
100
AcDbBlockEnd
  0
BLOCK
  5
8FA
330
8F0
100
AcDbEntity
  8
0
100
AcDbBlockBegin
  2
*D5
 70
     1
 71
     0
 10
0.0
 20
0.0
 30
0.0
  3
*D5
  1

  0
LINE
  5
8F1
330
8F0
100
AcDbEntity
  8
V0-VYPLNE
 62
     0
100
AcDbLine
 10
28.923894
 20
109.262837
 30
0.0
 11
28.923894
 21
127.6759619999995
 31
0.0
  0
LINE
  5
8F2
330
8F0
100
AcDbEntity
  8
V0-VYPLNE
 62
     0
100
AcDbLine
 10
89.368854
 20
77.282577
 30
0.0
 11
89.368854
 21
127.6759619999995
 31
0.0
  0
LINE
  5
8F3
330
8F0
100
AcDbEntity
  8
V0-VYPLNE
 62
     0
100
AcDbLine
 10
40.923894
 20
126.4259619999995
 30
0.0
 11
77.368854
 21
126.4259619999995
 31
0.0
  0
INSERT
  5
8F4
330
8F0
100
AcDbEntity
  8
V0-VYPLNE
 62
     0
100
AcDbBlockReference
  2
_OPEN
 10
28.923894
 20
126.4259619999995
 30
0.0
 41
12.0
 42
12.0
 43
12.0
 50
180.0
  0
INSERT
  5
8F5
330
8F0
100
AcDbEntity
  8
V0-VYPLNE
 62
     0
100
AcDbBlockReference
  2
_OPEN
 10
89.368854
 20
126.4259619999995
 30
0.0
 41
12.0
 42
12.0
 43
12.0
  0
MTEXT
  5
8F6
330
8F0
100
AcDbEntity
  8
V0-VYPLNE
 62
     0
100
AcDbMText
 10
59.146374
 20
132.9259619999995
 30
0.0
 40
10.0
 41
0.0
 71
     5
 72
     1
  1
\A1;60
  7
ED5
  0
POINT
  5
8F7
330
8F0
100
AcDbEntity
  8
DEFPOINTS
 62
     0
100
AcDbPoint
 10
28.923894
 20
108.262837
 30
0.0
  0
POINT
  5
8F8
330
8F0
100
AcDbEntity
  8
DEFPOINTS
 62
     0
100
AcDbPoint
 10
89.368854
 20
76.282577
 30
0.0
  0
POINT
  5
8F9
330
8F0
100
AcDbEntity
  8
DEFPOINTS
 62
     0
100
AcDbPoint
 10
89.368854
 20
126.4259619999995
 30
0.0
  0
ENDBLK
  5
8FB
330
8F0
100
AcDbEntity
  8
0
100
AcDbBlockEnd
  0
BLOCK
  5
906
330
8FC
100
AcDbEntity
  8
0
100
AcDbBlockBegin
  2
*D6
 70
     1
 71
     0
 10
0.0
 20
0.0
 30
0.0
  3
*D6
  1

  0
LINE
  5
8FD
330
8FC
100
AcDbEntity
  8
V0-VYPLNE
 62
     0
100
AcDbLine
 10
179.820218
 20
14.267637
 30
0.0
 11
179.820218
 21
-103.5929190000024
 31
0.0
  0
LINE
  5
8FE
330
8FC
100
AcDbEntity
  8
V0-VYPLNE
 62
     0
100
AcDbLine
 10
365.76412
 20
14.267637
 30
0.0
 11
365.76412
 21
-103.5929190000025
 31
0.0
  0
LINE
  5
8FF
330
8FC
100
AcDbEntity
  8
V0-VYPLNE
 62
     0
100
AcDbLine
 10
191.820218
 20
-102.3429190000025
 30
0.0
 11
353.76412
 21
-102.3429190000025
 31
0.0
  0
INSERT
  5
900
330
8FC
100
AcDbEntity
  8
V0-VYPLNE
 62
     0
100
AcDbBlockReference
  2
_OPEN
 10
179.820218
 20
-102.3429190000025
 30
0.0
 41
12.0
 42
12.0
 43
12.0
 50
180.0
  0
INSERT
  5
901
330
8FC
100
AcDbEntity
  8
V0-VYPLNE
 62
     0
100
AcDbBlockReference
  2
_OPEN
 10
365.76412
 20
-102.3429190000025
 30
0.0
 41
12.0
 42
12.0
 43
12.0
 50
360.0
  0
MTEXT
  5
902
330
8FC
100
AcDbEntity
  8
V0-VYPLNE
 62
     0
100
AcDbMText
 10
272.792169
 20
-94.89053804762152
 30
0.0
 40
10.0
 41
0.0
 71
     5
 72
     1
  1
186,5
  7
ED5
  0
POINT
  5
903
330
8FC
100
AcDbEntity
  8
DEFPOINTS
 62
     0
100
AcDbPoint
 10
179.820218
 20
15.267637
 30
0.0
  0
POINT
  5
904
330
8FC
100
AcDbEntity
  8
DEFPOINTS
 62
     0
100
AcDbPoint
 10
365.76412
 20
15.267637
 30
0.0
  0
POINT
  5
905
330
8FC
100
AcDbEntity
  8
DEFPOINTS
 62
     0
100
AcDbPoint
 10
365.76412
 20
-102.3429190000025
 30
0.0
  0
ENDBLK
  5
907
330
8FC
100
AcDbEntity
  8
0
100
AcDbBlockEnd
  0
BLOCK
  5
913
330
908
100
AcDbEntity
  8
0
100
AcDbBlockBegin
  2
*D7
 70
     1
 71
     0
 10
0.0
 20
0.0
 30
0.0
  3
*D7
  1

  0
LINE
  5
909
330
908
100
AcDbEntity
  8
V0-VYPLNE
 62
     0
100
AcDbLine
 10
90.368854
 20
75.120137
 30
0.0
 11
116.9204639999998
 21
75.12013699999997
 31
0.0
  0
LINE
  5
90A
330
908
100
AcDbEntity
  8
V0-VYPLNE
 62
     0
100
AcDbLine
 10
90.368854
 20
-43.984863
 30
0.0
 11
116.9204639999998
 21
-43.984863
 31
0.0
  0
LINE
  5
90B
330
908
100
AcDbEntity
  8
V0-VYPLNE
 62
     0
100
AcDbLine
 10
115.6704639999998
 20
63.12013699999996
 30
0.0
 11
115.6704639999998
 21
36.10825142857144
 31
0.0
  0
LINE
  5
90C
330
908
100
AcDbEntity
  8
V0-VYPLNE
 62
     0
100
AcDbLine
 10
115.6704639999998
 20
-31.984863
 30
0.0
 11
115.6704639999998
 21
0.2511085714285741
 31
0.0
  0
INSERT
  5
90D
330
908
100
AcDbEntity
  8
V0-VYPLNE
 62
     0
100
AcDbBlockReference
  2
_OPEN
 10
115.6704639999998
 20
75.12013699999996
 30
0.0
 41
12.0
 42
12.0
 43
12.0
 50
89.99999999999999
  0
INSERT
  5
90E
330
908
100
AcDbEntity
  8
V0-VYPLNE
 62
     0
100
AcDbBlockReference
  2
_OPEN
 10
115.6704639999998
 20
-43.984863
 30
0.0
 41
12.0
 42
12.0
 43
12.0
 50
270.0
  0
MTEXT
  5
90F
330
908
100
AcDbEntity
  8
V0-VYPLNE
 62
     0
100
AcDbMText
 10
115.670464
 20
18.17968
 30
0.0
 40
10.0
 41
0.0
 71
     5
 72
     1
  1
%%c\A1;119
  7
ED5
 11
1.193136704185551E-16
 21
1.0
 31
0.0
  0
POINT
  5
910
330
908
100
AcDbEntity
  8
DEFPOINTS
 62
     0
100
AcDbPoint
 10
89.368854
 20
75.120137
 30
0.0
  0
POINT
  5
911
330
908
100
AcDbEntity
  8
DEFPOINTS
 62
     0
100
AcDbPoint
 10
89.368854
 20
-43.984863
 30
0.0
  0
POINT
  5
912
330
908
100
AcDbEntity
  8
DEFPOINTS
 62
     0
100
AcDbPoint
 10
115.6704639999998
 20
-43.984863
 30
0.0
  0
ENDBLK
  5
914
330
908
100
AcDbEntity
  8
0
100
AcDbBlockEnd
  0
BLOCK
  5
91F
330
915
100
AcDbEntity
  8
0
100
AcDbBlockBegin
  2
*D8
 70
     1
 71
     0
 10
0.0
 20
0.0
 30
0.0
  3
*D8
  1

  0
LINE
  5
916
330
915
100
AcDbEntity
  8
V0-VYPLNE
 62
     0
100
AcDbLine
 10
271.792169
 20
108.239588
 30
0.0
 11
158.2122879999988
 21
108.239588
 31
0.0
  0
LINE
  5
917
330
915
100
AcDbEntity
  8
V0-VYPLNE
 62
     0
100
AcDbLine
 10
271.792169
 20
-77.70431499999999
 30
0.0
 11
158.2122879999988
 21
-77.70431499999999
 31
0.0
  0
LINE
  5
918
330
915
100
AcDbEntity
  8
V0-VYPLNE
 62
     0
100
AcDbLine
 10
159.4622879999988
 20
96.239588
 30
0.0
 11
159.4622879999988
 21
-65.70431499999998
 31
0.0
  0
INSERT
  5
919
330
915
100
AcDbEntity
  8
V0-VYPLNE
 62
     0
100
AcDbBlockReference
  2
_OPEN
 10
159.4622879999988
 20
108.239588
 30
0.0
 41
12.0
 42
12.0
 43
12.0
 50
90.0
  0
INSERT
  5
91A
330
915
100
AcDbEntity
  8
V0-VYPLNE
 62
     0
100
AcDbBlockReference
  2
_OPEN
 10
159.4622879999988
 20
-77.70431499999998
 30
0.0
 41
12.0
 42
12.0
 43
12.0
 50
270.0
  0
MTEXT
  5
91B
330
915
100
AcDbEntity
  8
V0-VYPLNE
 62
     0
100
AcDbMText
 10
152.0099070476178
 20
15.2676365
 30
0.0
 40
10.0
 41
0.0
 71
     5
 72
     1
  1
186,5
  7
ED5
 11
0.0
 21
1.0
 31
0.0
  0
POINT
  5
91C
330
915
100
AcDbEntity
  8
DEFPOINTS
 62
     0
100
AcDbPoint
 10
272.792169
 20
108.239588
 30
0.0
  0
POINT
  5
91D
330
915
100
AcDbEntity
  8
DEFPOINTS
 62
     0
100
AcDbPoint
 10
272.792169
 20
-77.70431499999999
 30
0.0
  0
POINT
  5
91E
330
915
100
AcDbEntity
  8
DEFPOINTS
 62
     0
100
AcDbPoint
 10
159.4622879999988
 20
-77.70431499999999
 30
0.0
  0
ENDBLK
  5
920
330
915
100
AcDbEntity
  8
0
100
AcDbBlockEnd
  0
BLOCK
  5
92B
330
921
100
AcDbEntity
  8
0
100
AcDbBlockBegin
  2
*D9
 70
     1
 71
     0
 10
0.0
 20
0.0
 30
0.0
  3
*D9
  1

  0
LINE
  5
922
330
921
100
AcDbEntity
  8
V0-VYPLNE
 62
     0
100
AcDbLine
 10
-22.426695
 20
109.262837
 30
0.0
 11
-22.426695
 21
148.2788879999987
 31
0.0
  0
LINE
  5
923
330
921
100
AcDbEntity
  8
V0-VYPLNE
 62
     0
100
AcDbLine
 10
89.368854
 20
76.120137
 30
0.0
 11
89.368854
 21
148.2788879999987
 31
0.0
  0
LINE
  5
924
330
921
100
AcDbEntity
  8
V0-VYPLNE
 62
     0
100
AcDbLine
 10
-10.426695
 20
147.0288879999987
 30
0.0
 11
77.368854
 21
147.0288879999987
 31
0.0
  0
INSERT
  5
925
330
921
100
AcDbEntity
  8
V0-VYPLNE
 62
     0
100
AcDbBlockReference
  2
_OPEN
 10
-22.426695
 20
147.0288879999987
 30
0.0
 41
12.0
 42
12.0
 43
12.0
 50
180.0
  0
INSERT
  5
926
330
921
100
AcDbEntity
  8
V0-VYPLNE
 62
     0
100
AcDbBlockReference
  2
_OPEN
 10
89.368854
 20
147.0288879999987
 30
0.0
 41
12.0
 42
12.0
 43
12.0
  0
MTEXT
  5
927
330
921
100
AcDbEntity
  8
V0-VYPLNE
 62
     0
100
AcDbMText
 10
33.47107950000001
 20
153.5288879999987
 30
0.0
 40
10.0
 41
0.0
 71
     5
 72
     1
  1
\A1;112
  7
ED5
  0
POINT
  5
928
330
921
100
AcDbEntity
  8
DEFPOINTS
 62
     0
100
AcDbPoint
 10
-22.426695
 20
108.262837
 30
0.0
  0
POINT
  5
929
330
921
100
AcDbEntity
  8
DEFPOINTS
 62
     0
100
AcDbPoint
 10
89.368854
 20
75.120137
 30
0.0
  0
POINT
  5
92A
330
921
100
AcDbEntity
  8
DEFPOINTS
 62
     0
100
AcDbPoint
 10
89.368854
 20
147.0288879999987
 30
0.0
  0
ENDBLK
  5
92C
330
921
100
AcDbEntity
  8
0
100
AcDbBlockEnd
  0
ENDSEC
  0
SECTION
  2
ENTITIES
  0
LINE
  5
197
330
8BD
100
AcDbEntity
  8
V0-VYPLNE
  6
DASHDOT
 62
    63
100
AcDbLine
 10
-41.061026
 20
15.267637
 30
0.0
 11
96.34349399999999
 21
15.267637
 31
0.0
  0
LINE
  5
199
330
8BD
100
AcDbEntity
  8
V0-OBRYS
  6
CONTINUOUS
 62
    90
 48
5.0
100
AcDbLine
 10
-12.639156
 20
-77.727563
 30
0.0
 11
28.923894
 21
-77.727563
 31
0.0
  0
LINE
  5
19A
330
8BD
100
AcDbEntity
  8
V0-OBRYS
  6
CONTINUOUS
 62
    90
 48
5.0
100
AcDbLine
 10
28.923894
 20
-77.727563
 30
0.0
 11
28.923894
 21
108.262837
 31
0.0
  0
LINE
  5
19B
330
8BD
100
AcDbEntity
  8
V0-OBRYS
  6
CONTINUOUS
 62
    90
 48
5.0
100
AcDbLine
 10
28.923894
 20
108.262837
 30
0.0
 11
-12.639156
 21
108.262837
 31
0.0
  0
LINE
  5
1AC
330
8BD
100
AcDbEntity
  8
V0-OBRYS
  6
CONTINUOUS
 62
    90
 48
5.0
100
AcDbLine
 10
28.923894
 20
75.120137
 30
0.0
 11
89.368854
 21
75.120137
 31
0.0
  0
LINE
  5
1AD
330
8BD
100
AcDbEntity
  8
V0-OBRYS
  6
CONTINUOUS
 62
    90
 48
5.0
100
AcDbLine
 10
89.368854
 20
75.120137
 30
0.0
 11
89.368854
 21
-43.98486299999999
 31
0.0
  0
LINE
  5
1AE
330
8BD
100
AcDbEntity
  8
V0-OBRYS
  6
CONTINUOUS
 62
    90
 48
5.0
100
AcDbLine
 10
89.368854
 20
-43.984863
 30
0.0
 11
28.923894
 21
-43.984863
 31
0.0
  0
CIRCLE
  5
1B3
330
8BD
100
AcDbEntity
  8
V0-OBRYS
  6
CONTINUOUS
 62
    90
100
AcDbCircle
 10
272.792169
 20
15.267637
 30
0.0
 40
67.479642
  0
CIRCLE
  5
1B4
330
8BD
100
AcDbEntity
  8
V0-OBRYS
  6
CONTINUOUS
 62
    90
100
AcDbCircle
 10
272.792169
 20
15.267637
 30
0.0
 40
61.481452
  0
ARC
  5
1B7
330
8BD
100
AcDbEntity
  8
V0-OBRYS
  6
CONTINUOUS
 62
    90
100
AcDbCircle
 10
272.792169
 20
-1155.879039
 30
0.0
 40
1264.118627
100
AcDbArc
 50
86.526445
 51
93.47355500000001
  0
ARC
  5
1B8
330
8BD
100
AcDbEntity
  8
V0-OBRYS
  6
CONTINUOUS
 62
    90
100
AcDbCircle
 10
1443.938844
 20
15.267637
 30
0.0
 40
1264.118627
100
AcDbArc
 50
176.526445
 51
183.473555
  0
ARC
  5
1B9
330
8BD
100
AcDbEntity
  8
V0-OBRYS
  6
CONTINUOUS
 62
    90
100
AcDbCircle
 10
272.792169
 20
1186.414312
 30
0.0
 40
1264.118627
100
AcDbArc
 50
266.526445
 51
273.473555
  0
ARC
  5
1BA
330
8BD
100
AcDbEntity
  8
V0-OBRYS
  6
CONTINUOUS
 62
    90
100
AcDbCircle
 10
-898.354507
 20
15.267637
 30
0.0
 40
1264.118627
100
AcDbArc
 50
356.526445
 51
3.473555
  0
ARC
  5
1BC
330
8BD
100
AcDbEntity
  8
V0-OBRYS
  6
CONTINUOUS
 62
    90
100
AcDbCircle
 10
197.110496
 20
90.949309
 30
0.0
 40
14.995476
100
AcDbArc
 50
93.47355500000001
 51
176.526445
  0
ARC
  5
1BD
330
8BD
100
AcDbEntity
  8
V0-OBRYS
  6
CONTINUOUS
 62
    90
100
AcDbCircle
 10
197.110496
 20
-60.414036
 30
0.0
 40
14.995476
100
AcDbArc
 50
183.473555
 51
266.526445
  0
ARC
  5
1BE
330
8BD
100
AcDbEntity
  8
V0-OBRYS
  6
CONTINUOUS
 62
    90
100
AcDbCircle
 10
348.473842
 20
-60.414036
 30
0.0
 40
14.995476
100
AcDbArc
 50
273.473555
 51
356.526445
  0
ARC
  5
1BF
330
8BD
100
AcDbEntity
  8
V0-OBRYS
  6
CONTINUOUS
 62
    90
100
AcDbCircle
 10
348.473842
 20
90.949309
 30
0.0
 40
14.995476
100
AcDbArc
 50
3.473555
 51
86.526445
  0
LINE
  5
1C0
330
8BD
100
AcDbEntity
  8
V0-OBRYS
  6
CONTINUOUS
 62
    90
100
AcDbLine
 10
240.770595
 20
67.751803
 30
0.0
 11
304.813743
 21
67.751803
 31
0.0
  0
LINE
  5
1C1
330
8BD
100
AcDbEntity
  8
V0-OBRYS
  6
CONTINUOUS
 62
    90
100
AcDbLine
 10
230.804836
 20
60.254065
 30
0.0
 11
230.885246
 21
60.254065
 31
0.0
  0
LINE
  5
1C2
330
8BD
100
AcDbEntity
  8
V0-OBRYS
  6
CONTINUOUS
 62
    90
100
AcDbLine
 10
224.06264
 20
52.756327
 30
0.0
 11
321.521698
 21
52.756327
 31
0.0
  0
LINE
  5
1C3
330
8BD
100
AcDbEntity
  8
V0-OBRYS
  6
CONTINUOUS
 62
    90
100
AcDbLine
 10
219.12177
 20
45.258589
 30
0.0
 11
326.462568
 21
45.258589
 31
0.0
  0
LINE
  5
1C4
330
8BD
100
AcDbEntity
  8
V0-OBRYS
  6
CONTINUOUS
 62
    90
100
AcDbLine
 10
216.185488
 20
39.260398
 30
0.0
 11
329.774978
 21
39.260398
 31
0.0
  0
LINE
  5
1C5
330
8BD
100
AcDbEntity
  8
V0-OBRYS
  6
CONTINUOUS
 62
    90
100
AcDbLine
 10
214.003018
 20
33.262208
 30
0.0
 11
331.58132
 21
33.262208
 31
0.0
  0
LINE
  5
1C6
330
8BD
100
AcDbEntity
  8
V0-OBRYS
  6
CONTINUOUS
 62
    90
100
AcDbLine
 10
212.492453
 20
27.264017
 30
0.0
 11
333.091885
 21
27.264017
 31
0.0
  0
LINE
  5
1C7
330
8BD
100
AcDbEntity
  8
V0-OBRYS
  6
CONTINUOUS
 62
    90
100
AcDbLine
 10
211.310717
 20
21.265827
 30
0.0
 11
334.27362
 21
21.265827
 31
0.0
  0
LINE
  5
1C8
330
8BD
100
AcDbEntity
  8
V0-OBRYS
  6
CONTINUOUS
 62
    90
100
AcDbLine
 10
211.310717
 20
15.267637
 30
0.0
 11
334.27362
 21
15.267637
 31
0.0
  0
LINE
  5
1C9
330
8BD
100
AcDbEntity
  8
V0-OBRYS
  6
CONTINUOUS
 62
    90
100
AcDbLine
 10
230.804836
 20
60.254065
 30
0.0
 11
314.779502
 21
60.254065
 31
0.0
  0
LINE
  5
1D2
330
8BD
100
AcDbEntity
  8
V0-OBRYS
  6
CONTINUOUS
 62
    90
100
AcDbLine
 10
253.29805
 20
73.749993
 30
0.0
 11
290.78674
 21
73.749993
 31
0.0
  0
LINE
  5
1D3
330
8BD
100
AcDbEntity
  8
V0-OBRYS
  6
CONTINUOUS
 62
    90
100
AcDbLine
 10
253.29805
 20
-43.21472
 30
0.0
 11
290.78674
 21
-43.21472
 31
0.0
  0
LINE
  5
1D4
330
8BD
100
AcDbEntity
  8
V0-OBRYS
  6
CONTINUOUS
 62
    90
100
AcDbLine
 10
230.804836
 20
-29.718791
 30
0.0
 11
314.779502
 21
-29.718791
 31
0.0
  0
LINE
  5
1D5
330
8BD
100
AcDbEntity
  8
V0-OBRYS
  6
CONTINUOUS
 62
    90
100
AcDbLine
 10
219.12177
 20
-14.723315
 30
0.0
 11
326.462568
 21
-14.723315
 31
0.0
  0
LINE
  5
1D6
330
8BD
100
AcDbEntity
  8
V0-OBRYS
  6
CONTINUOUS
 62
    90
100
AcDbLine
 10
216.185488
 20
-8.725125
 30
0.0
 11
329.774978
 21
-8.725125
 31
0.0
  0
LINE
  5
1D7
330
8BD
100
AcDbEntity
  8
V0-OBRYS
  6
CONTINUOUS
 62
    90
100
AcDbLine
 10
224.06264
 20
-22.221053
 30
0.0
 11
321.521698
 21
-22.221053
 31
0.0
  0
LINE
  5
1D8
330
8BD
100
AcDbEntity
  8
V0-OBRYS
  6
CONTINUOUS
 62
    90
100
AcDbLine
 10
212.492453
 20
3.271256
 30
0.0
 11
333.091885
 21
3.271256
 31
0.0
  0
LINE
  5
1D9
330
8BD
100
AcDbEntity
  8
V0-OBRYS
  6
CONTINUOUS
 62
    90
100
AcDbLine
 10
214.003018
 20
-2.726935
 30
0.0
 11
331.58132
 21
-2.726935
 31
0.0
  0
LINE
  5
1DA
330
8BD
100
AcDbEntity
  8
V0-OBRYS
  6
CONTINUOUS
 62
    90
100
AcDbLine
 10
240.770595
 20
-37.216529
 30
0.0
 11
304.813743
 21
-37.216529
 31
0.0
  0
LINE
  5
1DB
330
8BD
100
AcDbEntity
  8
V0-OBRYS
  6
CONTINUOUS
 62
    90
100
AcDbLine
 10
211.310717
 20
9.269446
 30
0.0
 11
334.27362
 21
9.269446
 31
0.0
  0
LINE
  5
1DC
330
8BD
100
AcDbEntity
  8
V0-VYPLNE
  6
DASHDOT
 62
    63
100
AcDbLine
 10
272.792169
 20
121.735516
 30
0.0
 11
272.792169
 21
-83.35347400000002
 31
0.0
  0
LINE
  5
1DD
330
8BD
100
AcDbEntity
  8
V0-VYPLNE
  6
DASHDOT
 62
    63
100
AcDbLine
 10
163.325194
 20
15.267637
 30
0.0
 11
389.053
 21
15.267637
 31
0.0
  0
DIMENSION
  5
3EF
330
8BD
100
AcDbEntity
  8
V0-VYPLNE
  6
CONTINUOUS
 62
    41
100
AcDbDimension
  2
*D5
 10
89.368854
 20
126.4259619999995
 30
0.0
 11
59.146374
 21
132.9259619999995
 31
0.0
 70
    32
  3
ED5
100
AcDbAlignedDimension
 13
28.923894
 23
108.262837
 33
0.0
 14
89.368854
 24
76.282577
 34
0.0
100
AcDbRotatedDimension
1001
ACAD
1000
DSTYLE
1002
{
1070
    40
1040
1.0
1002
}
  0
DIMENSION
  5
3FC
330
8BD
100
AcDbEntity
  8
V0-VYPLNE
  6
CONTINUOUS
 62
    41
100
AcDbDimension
  2
*D6
 10
365.76412
 20
-102.3429190000025
 30
0.0
 11
272.792169
 21
-94.89053804762152
 31
0.0
 70
    32
  1
186,5
  3
ED5
100
AcDbAlignedDimension
 13
179.820218
 23
15.267637
 33
0.0
 14
365.76412
 24
15.267637
 34
0.0
100
AcDbRotatedDimension
1001
ACAD
1000
DSTYLE
1002
{
1070
    40
1040
1.0
1002
}
  0
DIMENSION
  5
409
330
8BD
100
AcDbEntity
  8
V0-VYPLNE
  6
CONTINUOUS
 62
    41
100
AcDbDimension
  2
*D7
 10
115.6704639999998
 20
-43.984863
 30
0.0
 11
115.670464
 21
18.17968
 31
0.0
 70
   160
  1
%%c<>
  3
ED5
100
AcDbAlignedDimension
 13
89.368854
 23
75.120137
 33
0.0
 14
89.368854
 24
-43.984863
 34
0.0
 50
90.0
100
AcDbRotatedDimension
1001
ACAD
1000
DSTYLE
1002
{
1070
    40
1040
1.0
1002
}
  0
POINT
  5
59B
330
8BD
100
AcDbEntity
  8
V0-VYPLNE
  6
CONTINUOUS
 62
    52
100
AcDbPoint
 10
28.923894
 20
15.267637
 30
0.0
  0
POINT
  5
59D
330
8BD
100
AcDbEntity
  8
V0-VYPLNE
  6
CONTINUOUS
 62
    52
100
AcDbPoint
 10
272.792169
 20
15.267637
 30
0.0
  0
LINE
  5
5A3
330
8BD
100
AcDbEntity
  8
V0-OBRYS
  6
CONTINUOUS
 62
    90
100
AcDbLine
 10
247.567763
 20
71.33632900000001
 30
0.0
 11
247.567763
 21
-40.47608099999999
 31
0.0
  0
LINE
  5
5A4
330
8BD
100
AcDbEntity
  8
V0-OBRYS
  6
CONTINUOUS
 62
    90
100
AcDbLine
 10
298.016575
 20
71.33632900000001
 30
0.0
 11
298.016575
 21
-40.47608099999999
 31
0.0
  0
DIMENSION
  5
5FF
330
8BD
100
AcDbEntity
  8
V0-VYPLNE
  6
CONTINUOUS
 62
    41
100
AcDbDimension
  2
*D8
 10
159.4622879999988
 20
-77.70431499999999
 30
0.0
 11
152.0099070476178
 21
15.2676365
 31
0.0
 70
    32
  1
186,5
  3
ED5
100
AcDbAlignedDimension
 13
272.792169
 23
108.239588
 33
0.0
 14
272.792169
 24
-77.70431499999999
 34
0.0
 50
90.0
100
AcDbRotatedDimension
1001
ACAD
1000
DSTYLE
1002
{
1070
    40
1040
1.0
1002
}
  0
DIMENSION
  5
6A4
330
8BD
100
AcDbEntity
  8
V0-VYPLNE
  6
CONTINUOUS
 62
    41
100
AcDbDimension
  2
*D9
 10
89.368854
 20
147.0288879999987
 30
0.0
 11
33.47107950000001
 21
153.5288879999987
 31
0.0
 70
    32
  3
ED5
100
AcDbAlignedDimension
 13
-22.426695
 23
108.262837
 33
0.0
 14
89.368854
 24
75.120137
 34
0.0
100
AcDbRotatedDimension
1001
ACAD
1000
DSTYLE
1002
{
1070
    40
1040
1.0
1002
}
  0
ARC
  5
6E0
330
8BD
100
AcDbEntity
  8
V0-OBRYS
  6
CONTINUOUS
 62
    90
100
AcDbCircle
 10
975.313574
 20
15.267637
 30
0.0
 40
997.77556
100
AcDbArc
 50
174.967741
 51
185.032259
  0
ARC
  5
6E1
330
8BD
100
AcDbEntity
  8
V0-OBRYS
  6
CONTINUOUS
 62
    90
100
AcDbCircle
 10
-12.639156
 20
102.262837
 30
0.0
 40
6.0
100
AcDbArc
 50
90.0
 51
174.967741
  0
ARC
  5
6E2
330
8BD
100
AcDbEntity
  8
V0-OBRYS
  6
CONTINUOUS
 62
    90
100
AcDbCircle
 10
-12.639156
 20
-71.727563
 30
0.0
 40
6.0
100
AcDbArc
 50
185.032259
 51
270.0
  0
LINE
  5
6EF
330
8BD
100
AcDbEntity
  8
V0-OBRYS
  6
CONTINUOUS
 62
    90
100
AcDbLine
 10
-20.184509
 20
83.644458
 30
0.0
 11
-18.152046
 21
83.644458
 31
0.0
  0
LINE
  5
6F0
330
8BD
100
AcDbEntity
  8
V0-OBRYS
  6
CONTINUOUS
 62
    90
100
AcDbLine
 10
-18.152046
 20
83.644458
 30
0.0
 11
-18.152046
 21
-53.32001699999999
 31
0.0
  0
LINE
  5
6F1
330
8BD
100
AcDbEntity
  8
V0-OBRYS
  6
CONTINUOUS
 62
    90
100
AcDbLine
 10
-18.152046
 20
-53.320017
 30
0.0
 11
-19.678309
 21
-53.320017
 31
0.0
  0
LINE
  5
77D
330
8BD
100
AcDbEntity
  8
V0-OBRYS
  6
CONTINUOUS
 62
    90
 48
5.0
100
AcDbLine
 10
89.368854
 20
-152.351624
 30
0.0
 11
89.368854
 21
-271.456624
 31
0.0
  0
LINE
  5
77E
330
8BD
100
AcDbEntity
  8
V0-OBRYS
  6
CONTINUOUS
 62
    90
100
AcDbLine
 10
-18.152046
 20
-143.827303
 30
0.0
 11
-18.152046
 21
-280.791777
 31
0.0
  0
LINE
  5
77F
330
8BD
100
AcDbEntity
  8
V0-OBRYS
  6
CONTINUOUS
 62
    90
 48
5.0
100
AcDbLine
 10
28.923894
 20
-305.199324
 30
0.0
 11
28.923894
 21
-119.208924
 31
0.0
  0
ARC
  5
780
330
8BD
100
AcDbEntity
  8
V0-OBRYS
  6
CONTINUOUS
 62
    90
100
AcDbCircle
 10
975.313574
 20
-212.204124
 30
0.0
 40
997.77556
100
AcDbArc
 50
174.967741
 51
185.032259
  0
LINE
  5
781
330
8BD
100
AcDbEntity
  8
V0-OBRYS
  6
CONTINUOUS
 62
    90
 48
5.0
100
AcDbLine
 10
-12.639156
 20
-305.199324
 30
0.0
 11
28.923894
 21
-305.199324
 31
0.0
  0
ARC
  5
782
330
8BD
100
AcDbEntity
  8
V0-OBRYS
  6
CONTINUOUS
 62
    90
100
AcDbCircle
 10
-12.639156
 20
-299.199324
 30
0.0
 40
6.0
100
AcDbArc
 50
185.032259
 51
270.0
  0
LINE
  5
783
330
8BD
100
AcDbEntity
  8
V0-OBRYS
  6
CONTINUOUS
 62
    90
100
AcDbLine
 10
-18.152046
 20
-280.791777
 30
0.0
 11
-19.678309
 21
-280.791777
 31
0.0
  0
LINE
  5
785
330
8BD
100
AcDbEntity
  8
V0-OBRYS
  6
CONTINUOUS
 62
    90
 48
5.0
100
AcDbLine
 10
89.368854
 20
-271.456624
 30
0.0
 11
28.923894
 21
-271.456624
 31
0.0
  0
LINE
  5
786
330
8BD
100
AcDbEntity
  8
V0-OBRYS
  6
CONTINUOUS
 62
    90
 48
5.0
100
AcDbLine
 10
28.923894
 20
-119.208924
 30
0.0
 11
-12.639156
 21
-119.208924
 31
0.0
  0
LINE
  5
787
330
8BD
100
AcDbEntity
  8
V0-OBRYS
  6
CONTINUOUS
 62
    90
100
AcDbLine
 10
-20.184509
 20
-143.827303
 30
0.0
 11
-18.152046
 21
-143.827303
 31
0.0
  0
ARC
  5
788
330
8BD
100
AcDbEntity
  8
V0-OBRYS
  6
CONTINUOUS
 62
    90
100
AcDbCircle
 10
-12.639156
 20
-125.208924
 30
0.0
 40
6.0
100
AcDbArc
 50
90.0
 51
174.967741
  0
POINT
  5
789
330
8BD
100
AcDbEntity
  8
V0-VYPLNE
  6
CONTINUOUS
 62
    52
100
AcDbPoint
 10
28.923894
 20
-212.204124
 30
0.0
  0
LINE
  5
78A
330
8BD
100
AcDbEntity
  8
V0-OBRYS
  6
CONTINUOUS
 62
    90
 48
5.0
100
AcDbLine
 10
28.923894
 20
-152.351624
 30
0.0
 11
89.368854
 21
-152.351624
 31
0.0
  0
LINE
  5
863
330
8BD
100
AcDbEntity
  8
V0-VYPLNE
  6
DASHDOT
 62
    63
100
AcDbLine
 10
-41.061026
 20
-212.204124
 30
0.0
 11
96.34349399999999
 21
-212.204124
 31
0.0
  0
TEXT
  5
894
330
8BD
100
AcDbEntity
  8
V0-ZBYTEK
 62
    51
100
AcDbText
 10
192.31081
 20
-233.993969
 30
0.0
 40
16.27416
  1
MALY AXIALNI
  7
ED5
100
AcDbText
  0
TEXT
  5
895
330
8BD
100
AcDbEntity
  8
V0-ZBYTEK
 62
    51
100
AcDbText
 10
195.9416921083367
 20
-261.1175690000005
 30
0.0
 40
16.27416
  1
VENTILATOR
  7
ED5
100
AcDbText
  0
TEXT
  5
896
330
8BD
100
AcDbEntity
  8
V0-NAZVY
100
AcDbText
 10
179.8222335714286
 20
-200.829161
 30
0.0
 40
29.061
  1
HEF 120
  7
ED5
100
AcDbText
  0
VIEWPORT
  5
92D
330
8B9
100
AcDbEntity
 67
     1
  8
0
 60
     1
100
AcDbViewport
 10
0.0
 20
0.0
 30
0.0
 40
10.0
 41
10.0
 68
     0
 69
     1
1001
VD_INVISIBLE_NOT_FOR_READ
1000
VD_INVISIBLE_NOT_FOR_READ
1001
ACAD
1000
MVIEW
1002
{
1070
    16
1010
0.0
1020
0.0
1030
0.0
1010
0.0
1020
0.0
1030
1.0
1040
6.2831853071796
1040
10.0
1040
0.0
1040
0.0
1040
0.0
1040
0.0
1040
0.0
1070
     0
1070
   100
1070
     0
1070
     1
1070
     0
1070
     0
1070
     0
1070
     0
1040
0.0
1040
0.0
1040
0.0
1040
1.0
1040
1.0
1040
0.0
1040
0.0
1070
     0
1002
{
1002
}
1002
}
  0
VIEWPORT
  5
92E
330
8B9
100
AcDbEntity
 67
     1
  8
0
 60
     1
100
AcDbViewport
 10
0.0
 20
0.0
 30
0.0
 40
10.0
 41
10.0
 68
     0
 69
     2
1001
VD_INVISIBLE_NOT_FOR_READ
1000
VD_INVISIBLE_NOT_FOR_READ
1001
ACAD
1000
MVIEW
1002
{
1070
    16
1010
0.0
1020
0.0
1030
0.0
1010
0.0
1020
0.0
1030
1.0
1040
6.2831853071796
1040
10.0
1040
0.0
1040
0.0
1040
0.0
1040
0.0
1040
0.0
1070
     0
1070
   100
1070
     0
1070
     1
1070
     0
1070
     0
1070
     0
1070
     0
1040
0.0
1040
0.0
1040
0.0
1040
1.0
1040
1.0
1040
0.0
1040
0.0
1070
     0
1002
{
1002
}
1002
}
  0
ENDSEC
  0
SECTION
  2
OBJECTS
  0
DICTIONARY
  5
8AA
330
0
100
AcDbDictionary
  3
ACAD_GROUP
350
8AB
  3
ACAD_LAYOUT
350
8B8
  3
ACAD_MLINESTYLE
350
8B5
  3
ACAD_PLOTSETTINGS
350
8B7
  3
ACDBHEADERROUNDTRIPXREC
350
92F
  3
VECTORDRAW_OBJECTS
350
8CD
  0
DICTIONARY
  5
94F
330
8C7
100
AcDbDictionary
280
     1
  3
ACAD_XREC_ROUNDTRIP
360
950
  0
DICTIONARY
  5
8AB
102
{ACAD_REACTORS
330
8AA
102
}
330
8AA
100
AcDbDictionary
  0
DICTIONARY
  5
8B8
102
{ACAD_REACTORS
330
8AA
102
}
330
8AA
100
AcDbDictionary
  0
DICTIONARY
  5
8B5
102
{ACAD_REACTORS
330
8AA
102
}
330
8AA
100
AcDbDictionary
  3
STANDARD
350
8B6
  0
DICTIONARY
  5
8B7
102
{ACAD_REACTORS
330
8AA
102
}
330
8AA
100
AcDbDictionary
  0
DICTIONARY
  5
92F
102
{ACAD_REACTORS
330
8AA
102
}
330
8AA
100
AcDbDictionary
  3
CEPSNTYPE
350
938
  3
DIMSTYLEDATA
350
94E
  3
FINGERPRINTGUID
350
939
  3
HYPERLINKBASE
350
932
  3
INSUNITS
350
937
  3
LAYOUTDICT
350
934
  3
LWETCUNION
350
936
  3
PLOTSETDICT
350
935
  3
PSVPSCALE
350
93B
  3
PUCSBASE
350
93E
  3
PUCSORGBACK
350
944
  3
PUCSORGBOTTOM
350
940
  3
PUCSORGFRONT
350
943
  3
PUCSORGLEFT
350
941
  3
PUCSORGRIGHT
350
942
  3
PUCSORGTOP
350
93F
  3
PUCSORTHOREF
350
93C
  3
PUCSORTHOVIEW
350
93D
  3
STYLESHEET
350
933
  3
TSTACKALIGN
350
930
  3
TSTACKSIZE
350
931
  3
UCSBASE
350
947
  3
UCSORGBACK
350
94D
  3
UCSORGBOTTOM
350
949
  3
UCSORGFRONT
350
94C
  3
UCSORGLEFT
350
94A
  3
UCSORGRIGHT
350
94B
  3
UCSORGTOP
350
948
  3
UCSORTHOREF
350
945
  3
UCSORTHOVIEW
350
946
  3
VERSIONGUID
350
93A
  0
DICTIONARY
  5
8CD
102
{ACAD_REACTORS
330
8AA
102
}
330
8AA
100
AcDbDictionary
  3
SERIALNO
350
8CE
  0
XRECORD
  5
950
102
{ACAD_REACTORS
330
94F
102
}
330
94F
100
AcDbXrecord
102
UCS
 74
     0
 71
     1
 10
0.0
 20
0.0
 30
0.0
 10
1.0
 20
0.0
 30
0.0
 10
0.0
 20
1.0
 30
0.0
146
0.0
 79
     0
102
VIEW
281
     0
  0
MLINESTYLE
  5
8B6
102
{ACAD_REACTORS
330
8B5
102
}
330
8B5
100
AcDbMlineStyle
  2
Standard
 70
     0
  3

 62
   256
 51
90.0
 52
90.0
 71
     2
 49
0.5
 62
   256
  6
BYLAYER
 49
-0.5
 62
   256
  6
BYLAYER
  0
XRECORD
  5
938
102
{ACAD_REACTORS
330
92F
102
}
330
92F
100
AcDbXrecord
 90
        0
  0
XRECORD
  5
94E
102
{ACAD_REACTORS
330
92F
102
}
330
92F
100
AcDbXrecord
1000
DSTYLE
1002
{
1070
    41
 40
12.0
1070
   342
340
1D
1070
   271
 70
     0
1070
    44
 40
1.25
1070
    42
 40
1.0
1070
   147
 40
1.5
1070
    77
 70
     1
1070
    73
 70
     0
1070
   174
 70
     1
1070
   172
 70
     1
1070
    74
 70
     0
1070
   340
340
415
1070
   140
 40
10.0
1070
   288
 70
     1
1002
}
  0
XRECORD
  5
939
102
{ACAD_REACTORS
330
92F
102
}
330
92F
100
AcDbXrecord
  1
{FAEB1C30-E019-11D5-929B-00C0DF256EC4}
  0
XRECORD
  5
932
102
{ACAD_REACTORS
330
92F
102
}
330
92F
100
AcDbXrecord
  1

  0
XRECORD
  5
937
102
{ACAD_REACTORS
330
92F
102
}
330
92F
100
AcDbXrecord
 90
        1
  0
XRECORD
  5
934
102
{ACAD_REACTORS
330
92F
102
}
330
92F
100
AcDbXrecord
340
8B8
  0
XRECORD
  5
936
102
{ACAD_REACTORS
330
92F
102
}
330
92F
100
AcDbXrecord
 90
     2560
  0
XRECORD
  5
935
102
{ACAD_REACTORS
330
92F
102
}
330
92F
100
AcDbXrecord
340
8B7
  0
XRECORD
  5
93B
102
{ACAD_REACTORS
330
92F
102
}
330
92F
100
AcDbXrecord
 40
0.0
  0
XRECORD
  5
93E
102
{ACAD_REACTORS
330
92F
102
}
330
92F
100
AcDbXrecord
340
0
  0
XRECORD
  5
944
102
{ACAD_REACTORS
330
92F
102
}
330
92F
100
AcDbXrecord
 10
0.0
 20
0.0
 30
0.0
  0
XRECORD
  5
940
102
{ACAD_REACTORS
330
92F
102
}
330
92F
100
AcDbXrecord
 10
0.0
 20
0.0
 30
0.0
  0
XRECORD
  5
943
102
{ACAD_REACTORS
330
92F
102
}
330
92F
100
AcDbXrecord
 10
0.0
 20
0.0
 30
0.0
  0
XRECORD
  5
941
102
{ACAD_REACTORS
330
92F
102
}
330
92F
100
AcDbXrecord
 10
0.0
 20
0.0
 30
0.0
  0
XRECORD
  5
942
102
{ACAD_REACTORS
330
92F
102
}
330
92F
100
AcDbXrecord
 10
0.0
 20
0.0
 30
0.0
  0
XRECORD
  5
93F
102
{ACAD_REACTORS
330
92F
102
}
330
92F
100
AcDbXrecord
 10
0.0
 20
0.0
 30
0.0
  0
XRECORD
  5
93C
102
{ACAD_REACTORS
330
92F
102
}
330
92F
100
AcDbXrecord
340
0
  0
XRECORD
  5
93D
102
{ACAD_REACTORS
330
92F
102
}
330
92F
100
AcDbXrecord
 70
     0
  0
XRECORD
  5
933
102
{ACAD_REACTORS
330
92F
102
}
330
92F
100
AcDbXrecord
  1

  0
XRECORD
  5
930
102
{ACAD_REACTORS
330
92F
102
}
330
92F
100
AcDbXrecord
 90
        1
  0
XRECORD
  5
931
102
{ACAD_REACTORS
330
92F
102
}
330
92F
100
AcDbXrecord
 90
       70
  0
XRECORD
  5
947
102
{ACAD_REACTORS
330
92F
102
}
330
92F
100
AcDbXrecord
340
0
  0
XRECORD
  5
94D
102
{ACAD_REACTORS
330
92F
102
}
330
92F
100
AcDbXrecord
 10
0.0
 20
0.0
 30
0.0
  0
XRECORD
  5
949
102
{ACAD_REACTORS
330
92F
102
}
330
92F
100
AcDbXrecord
 10
0.0
 20
0.0
 30
0.0
  0
XRECORD
  5
94C
102
{ACAD_REACTORS
330
92F
102
}
330
92F
100
AcDbXrecord
 10
0.0
 20
0.0
 30
0.0
  0
XRECORD
  5
94A
102
{ACAD_REACTORS
330
92F
102
}
330
92F
100
AcDbXrecord
 10
0.0
 20
0.0
 30
0.0
  0
XRECORD
  5
94B
102
{ACAD_REACTORS
330
92F
102
}
330
92F
100
AcDbXrecord
 10
0.0
 20
0.0
 30
0.0
  0
XRECORD
  5
948
102
{ACAD_REACTORS
330
92F
102
}
330
92F
100
AcDbXrecord
 10
0.0
 20
0.0
 30
0.0
  0
XRECORD
  5
945
102
{ACAD_REACTORS
330
92F
102
}
330
92F
100
AcDbXrecord
340
0
  0
XRECORD
  5
946
102
{ACAD_REACTORS
330
92F
102
}
330
92F
100
AcDbXrecord
 70
     0
  0
XRECORD
  5
93A
102
{ACAD_REACTORS
330
92F
102
}
330
92F
100
AcDbXrecord
  1
{FAEB1C32-E019-11D5-929B-00C0DF256EC4}
  0
XRECORD
  5
8CE
102
{ACAD_REACTORS
330
8CD
102
}
330
8CD
100
AcDbXrecord
1000
rInJVR9YY4Q8hfPWdUq5j5319
1070
     4
1070
     6
  0
ENDSEC
  0
EOF
