  0
SECTION
  2
HEADER
  9
$ACADVER
  1
AC1014
  9
$ACADMAINTVER
 70
     9
  9
$DWGCODEPAGE
  3
ANSI_1250
  9
$INSBASE
 10
0.0
 20
0.0
 30
0.0
  9
$EXTMIN
 10
-11.167696
 20
-261.780728
 30
0.0
  9
$EXTMAX
 10
347.260659
 20
121.2007986923067
 30
0.0
  9
$LIMMIN
 10
0.0
 20
0.0
  9
$LIMMAX
 10
0.0
 20
0.0
  9
$ORTHOMODE
 70
     1
  9
$REGENMODE
 70
     1
  9
$FILLMODE
 70
     1
  9
$QTEXTMODE
 70
     0
  9
$MIRRTEXT
 70
     1
  9
$DRAGMODE
 70
     2
  9
$LTSCALE
 40
15.0
  9
$OSMODE
 70
    37
  9
$ATTMODE
 70
     1
  9
$TEXTSIZE
 40
0.2
  9
$TRACEWID
 40
0.05
  9
$TEXTSTYLE
  7
ED10
  9
$CLAYER
  8
V0-OBRYS
  9
$CELTYPE
  6
CONTINUOUS
  9
$CECOLOR
 62
    90
  9
$CELTSCALE
 40
1.0
  9
$DELOBJ
 70
     1
  9
$DISPSILH
 70
     0
  9
$DIMSCALE
 40
1.0
  9
$DIMASZ
 40
12.0
  9
$DIMEXO
 40
1.0
  9
$DIMDLI
 40
0.38
  9
$DIMRND
 40
0.0
  9
$DIMDLE
 40
0.0
  9
$DIMEXE
 40
1.25
  9
$DIMTP
 40
0.0
  9
$DIMTM
 40
0.0
  9
$DIMTXT
 40
10.0
  9
$DIMCEN
 40
0.09
  9
$DIMTSZ
 40
0.0
  9
$DIMTOL
 70
     0
  9
$DIMLIM
 70
     0
  9
$DIMTIH
 70
     0
  9
$DIMTOH
 70
     0
  9
$DIMSE1
 70
     0
  9
$DIMSE2
 70
     0
  9
$DIMTAD
 70
     1
  9
$DIMZIN
 70
     0
  9
$DIMBLK
  1
OPEN
  9
$DIMASO
 70
     1
  9
$DIMSHO
 70
     1
  9
$DIMPOST
  1

  9
$DIMAPOST
  1

  9
$DIMALT
 70
     0
  9
$DIMALTD
 70
     2
  9
$DIMALTF
 40
25.4
  9
$DIMLFAC
 40
1.0
  9
$DIMTOFL
 70
     1
  9
$DIMTVP
 40
0.0
  9
$DIMTIX
 70
     1
  9
$DIMSOXD
 70
     0
  9
$DIMSAH
 70
     0
  9
$DIMBLK1
  1

  9
$DIMBLK2
  1

  9
$DIMSTYLE
  2
ED5
  9
$DIMCLRD
 70
     0
  9
$DIMCLRE
 70
     0
  9
$DIMCLRT
 70
     0
  9
$DIMTFAC
 40
1.0
  9
$DIMGAP
 40
1.5
  9
$DIMJUST
 70
     0
  9
$DIMSD1
 70
     0
  9
$DIMSD2
 70
     0
  9
$DIMTOLJ
 70
     1
  9
$DIMTZIN
 70
     0
  9
$DIMALTZ
 70
     0
  9
$DIMALTTZ
 70
     0
  9
$DIMFIT
 70
     3
  9
$DIMUPT
 70
     1
  9
$DIMUNIT
 70
     2
  9
$DIMDEC
 70
     0
  9
$DIMTDEC
 70
     4
  9
$DIMALTU
 70
     2
  9
$DIMALTTD
 70
     2
  9
$DIMTXSTY
  7
ED5
  9
$DIMAUNIT
 70
     0
  9
$LUNITS
 70
     2
  9
$LUPREC
 70
     4
  9
$SKETCHINC
 40
0.1
  9
$FILLETRAD
 40
0.5
  9
$AUNITS
 70
     0
  9
$AUPREC
 70
     0
  9
$MENU
  1
.
  9
$ELEVATION
 40
0.0
  9
$PELEVATION
 40
0.0
  9
$THICKNESS
 40
0.0
  9
$LIMCHECK
 70
     0
  9
$BLIPMODE
 70
     0
  9
$CHAMFERA
 40
0.5
  9
$CHAMFERB
 40
0.5
  9
$CHAMFERC
 40
1.0
  9
$CHAMFERD
 40
0.0
  9
$SKPOLY
 70
     0
  9
$TDCREATE
 40
2455593.612721528
  9
$TDUPDATE
 40
2455593.61272154
  9
$TDINDWG
 40
0.0000000116
  9
$TDUSRTIMER
 40
0.0000000116
  9
$USRTIMER
 70
     1
  9
$ANGBASE
 50
0.0
  9
$ANGDIR
 70
     0
  9
$PDMODE
 70
     3
  9
$PDSIZE
 40
15.0
  9
$PLINEWID
 40
0.0
  9
$COORDS
 70
     1
  9
$SPLFRAME
 70
     0
  9
$SPLINETYPE
 70
     6
  9
$SPLINESEGS
 70
     8
  9
$ATTDIA
 70
     0
  9
$ATTREQ
 70
     1
  9
$HANDLING
 70
     1
  9
$HANDSEED
  5
861
  9
$SURFTAB1
 70
     6
  9
$SURFTAB2
 70
     6
  9
$SURFTYPE
 70
     6
  9
$SURFU
 70
     6
  9
$SURFV
 70
     6
  9
$UCSNAME
  2

  9
$UCSORG
 10
0.0
 20
0.0
 30
0.0
  9
$UCSXDIR
 10
1.0
 20
0.0
 30
0.0
  9
$UCSYDIR
 10
0.0
 20
1.0
 30
0.0
  9
$PUCSNAME
  2

  9
$PUCSORG
 10
0.0
 20
0.0
 30
0.0
  9
$PUCSXDIR
 10
1.0
 20
0.0
 30
0.0
  9
$PUCSYDIR
 10
0.0
 20
1.0
 30
0.0
  9
$USERI1
 70
     0
  9
$USERI2
 70
     0
  9
$USERI3
 70
     0
  9
$USERI4
 70
     0
  9
$USERI5
 70
     0
  9
$USERR1
 40
0.0
  9
$USERR2
 40
0.0
  9
$USERR3
 40
0.0
  9
$USERR4
 40
0.0
  9
$USERR5
 40
0.0
  9
$WORLDVIEW
 70
     1
  9
$SHADEDGE
 70
     3
  9
$SHADEDIF
 70
    70
  9
$TILEMODE
 70
     1
  9
$MAXACTVP
 70
    64
  9
$PINSBASE
 10
0.0
 20
0.0
 30
0.0
  9
$PLIMCHECK
 70
     0
  9
$PEXTMIN
 10
1.000000000000000E+20
 20
1.000000000000000E+20
 30
1.000000000000000E+20
  9
$PEXTMAX
 10
-1.000000000000000E+20
 20
-1.000000000000000E+20
 30
-1.000000000000000E+20
  9
$PLIMMIN
 10
0.0
 20
0.0
  9
$PLIMMAX
 10
12.0
 20
9.0
  9
$UNITMODE
 70
     0
  9
$VISRETAIN
 70
     1
  9
$PLINEGEN
 70
     0
  9
$PSLTSCALE
 70
     1
  9
$TREEDEPTH
 70
  3020
  9
$PICKSTYLE
 70
     1
  9
$CMLSTYLE
  2
STANDARD
  9
$CMLJUST
 70
     0
  9
$CMLSCALE
 40
1.0
  9
$PROXYGRAPHICS
 70
     1
  9
$MEASUREMENT
 70
     0
  0
ENDSEC
  0
SECTION
  2
CLASSES
  0
CLASS
  1
ACDBDICTIONARYWDFLT
  2
AcDbDictionaryWithDefault
  3
ObjectDBX Classes
 90
        0
280
     0
281
     0
  0
CLASS
  1
XRECORD
  2
AcDbXrecord
  3
AutoCAD 2000
 90
        0
280
     0
281
     0
  0
CLASS
  1
LWPOLYLINE
  2
AcDbPolyline
  3
AutoCAD 2000
 90
        0
280
     0
281
     1
  0
CLASS
  1
HATCH
  2
AcDbHatch
  3
AutoCAD 2000
 90
        0
280
     0
281
     1
  0
CLASS
  1
ACDBPLACEHOLDER
  2
AcDbPlaceHolder
  3
ObjectDBX Classes
 90
        0
280
     0
281
     0
  0
CLASS
  1
LAYOUT
  2
AcDbLayout
  3
ObjectDBX Classes
 90
        0
280
     0
281
     0
  0
ENDSEC
  0
SECTION
  2
TABLES
  0
TABLE
  2
VPORT
  5
7B5
330
0
100
AcDbSymbolTable
 70
     2
  0
VPORT
  5
7D6
102
{ACAD_XDICTIONARY
360
85F
102
}
330
7B5
100
AcDbSymbolTableRecord
100
AcDbViewportTableRecord
  2
*ACTIVE
 70
     0
 10
0.0
 20
0.0
 11
1.0
 21
1.0
 12
238.747901
 22
-44.068453
 13
0.0
 23
0.0
 14
1.0
 24
1.0
 15
5.0
 25
5.0
 16
0.0
 26
0.0
 36
1.0
 17
0.0
 27
0.0
 37
0.0
 40
453.233726
 41
0.0391779246270234
 42
50.0
 43
0.0
 44
0.0
 50
0.0
 51
0.0000000000007958
 71
     0
 72
   100
 73
     1
 74
     3
 75
     0
 76
     0
 77
     0
 78
     0
  0
ENDTAB
  0
TABLE
  2
LTYPE
  5
7B2
330
0
100
AcDbSymbolTable
 70
    25
  0
LTYPE
  5
7C1
330
7B2
100
AcDbSymbolTableRecord
100
AcDbLinetypeTableRecord
  2
BYBLOCK
 70
     0
  3

 72
    65
 73
     0
 40
0.0
  0
LTYPE
  5
7C2
330
7B2
100
AcDbSymbolTableRecord
100
AcDbLinetypeTableRecord
  2
BYLAYER
 70
     0
  3

 72
    65
 73
     0
 40
0.0
  0
LTYPE
  5
7C3
330
7B2
100
AcDbSymbolTableRecord
100
AcDbLinetypeTableRecord
  2
CONTINUOUS
 70
     0
  3
Solid line
 72
    65
 73
     0
 40
0.0
  0
LTYPE
  5
7DE
330
7B2
100
AcDbSymbolTableRecord
100
AcDbLinetypeTableRecord
  2
CENTER
 70
     0
  3
Center ____ _ ____ _ ____ _ ____ _ ____ _ ____
 72
    65
 73
     4
 40
2.0
 49
1.25
 74
     0
 49
-0.25
 74
     0
 49
0.25
 74
     0
 49
-0.25
 74
     0
  0
LTYPE
  5
7DF
330
7B2
100
AcDbSymbolTableRecord
100
AcDbLinetypeTableRecord
  2
DASHDOT
 70
     0
  3
Dashdot __ . __ . __ . __ . __ . __ . __ . __
 72
    65
 73
     4
 40
1.0
 49
0.5
 74
     0
 49
-0.25
 74
     0
 49
0.0
 74
     0
 49
-0.25
 74
     0
  0
LTYPE
  5
7E0
330
7B2
100
AcDbSymbolTableRecord
100
AcDbLinetypeTableRecord
  2
DASHED
 70
     0
  3
Dashed __ __ __ __ __ __ __ __ __ __ __ __ __ _
 72
    65
 73
     2
 40
0.75
 49
0.5
 74
     0
 49
-0.25
 74
     0
  0
LTYPE
  5
7E1
330
7B2
100
AcDbSymbolTableRecord
100
AcDbLinetypeTableRecord
  2
HIDDEN
 70
     0
  3
Hidden __ __ __ __ __ __ __ __ __ __ __ __ __ __
 72
    65
 73
     2
 40
0.375
 49
0.25
 74
     0
 49
-0.125
 74
     0
  0
LTYPE
  5
7E2
330
7B2
100
AcDbSymbolTableRecord
100
AcDbLinetypeTableRecord
  2
HIDDEN2
 70
     0
  3
Hidden2 _ _ _ _ _ _ _ _ _ _ _ _ _ _ _ _ _ 
 72
    65
 73
     2
 40
0.1875
 49
0.125
 74
     0
 49
-0.0625
 74
     0
  0
LTYPE
  5
7E3
330
7B2
100
AcDbSymbolTableRecord
100
AcDbLinetypeTableRecord
  2
BORDER
 70
     0
  3
Border __ __ . __ __ . __ __ . __ __ . __ __ .
 72
    65
 73
     6
 40
1.75
 49
0.5
 74
     0
 49
-0.25
 74
     0
 49
0.5
 74
     0
 49
-0.25
 74
     0
 49
0.0
 74
     0
 49
-0.25
 74
     0
  0
LTYPE
  5
7E4
330
7B2
100
AcDbSymbolTableRecord
100
AcDbLinetypeTableRecord
  2
BORDER2
 70
     0
  3
Border2 __.__.__.__.__.__.__.__.__.__.__.
 72
    65
 73
     6
 40
0.875
 49
0.25
 74
     0
 49
-0.125
 74
     0
 49
0.25
 74
     0
 49
-0.125
 74
     0
 49
0.0
 74
     0
 49
-0.125
 74
     0
  0
LTYPE
  5
7E5
330
7B2
100
AcDbSymbolTableRecord
100
AcDbLinetypeTableRecord
  2
BORDERX2
 70
     0
  3
Borderx2  ____  ____  .  ____  ____  .  ___
 72
    65
 73
     6
 40
3.5
 49
1.0
 74
     0
 49
-0.5
 74
     0
 49
1.0
 74
     0
 49
-0.5
 74
     0
 49
0.0
 74
     0
 49
-0.5
 74
     0
  0
LTYPE
  5
7E6
330
7B2
100
AcDbSymbolTableRecord
100
AcDbLinetypeTableRecord
  2
CENTER2
 70
     0
  3
Center2  ___ _ ___ _ ___ _ ___ _ ___ _ ___
 72
    65
 73
     4
 40
1.125
 49
0.75
 74
     0
 49
-0.125
 74
     0
 49
0.125
 74
     0
 49
-0.125
 74
     0
  0
LTYPE
  5
7E7
330
7B2
100
AcDbSymbolTableRecord
100
AcDbLinetypeTableRecord
  2
CENTERX2
 70
     0
  3
Centerx2  ________  __  ________  __  _____
 72
    65
 73
     4
 40
4.0
 49
2.5
 74
     0
 49
-0.5
 74
     0
 49
0.5
 74
     0
 49
-0.5
 74
     0
  0
LTYPE
  5
7E8
330
7B2
100
AcDbSymbolTableRecord
100
AcDbLinetypeTableRecord
  2
DASHDOT2
 70
     0
  3
Dashdot2  _._._._._._._._._._._._._._._.
 72
    65
 73
     4
 40
0.5
 49
0.25
 74
     0
 49
-0.125
 74
     0
 49
0.0
 74
     0
 49
-0.125
 74
     0
  0
LTYPE
  5
7E9
330
7B2
100
AcDbSymbolTableRecord
100
AcDbLinetypeTableRecord
  2
DASHDOTX2
 70
     0
  3
Dashdotx2 ____  .  ____  .  ____  .  ___
 72
    65
 73
     4
 40
2.0
 49
1.0
 74
     0
 49
-0.5
 74
     0
 49
0.0
 74
     0
 49
-0.5
 74
     0
  0
LTYPE
  5
7EA
330
7B2
100
AcDbSymbolTableRecord
100
AcDbLinetypeTableRecord
  2
DASHED2
 70
     0
  3
Dashed2 _ _ _ _ _ _ _ _ _ _ _ _ _ _ _ _ _ 
 72
    65
 73
     2
 40
0.375
 49
0.25
 74
     0
 49
-0.125
 74
     0
  0
LTYPE
  5
7EB
330
7B2
100
AcDbSymbolTableRecord
100
AcDbLinetypeTableRecord
  2
DASHEDX2
 70
     0
  3
Dashedx2 ____  ____  ____  ____  ____  ___
 72
    65
 73
     2
 40
1.5
 49
1.0
 74
     0
 49
-0.5
 74
     0
  0
LTYPE
  5
7EC
330
7B2
100
AcDbSymbolTableRecord
100
AcDbLinetypeTableRecord
  2
DIVIDE
 70
     0
  3
Divide ____ . . ____ . . ____ . . ____ . . ____
 72
    65
 73
     6
 40
1.25
 49
0.5
 74
     0
 49
-0.25
 74
     0
 49
0.0
 74
     0
 49
-0.25
 74
     0
 49
0.0
 74
     0
 49
-0.25
 74
     0
  0
LTYPE
  5
7ED
330
7B2
100
AcDbSymbolTableRecord
100
AcDbLinetypeTableRecord
  2
DIVIDE2
 70
     0
  3
Divide2 __..__..__..__..__..__..__..__.._
 72
    65
 73
     6
 40
0.625
 49
0.25
 74
     0
 49
-0.125
 74
     0
 49
0.0
 74
     0
 49
-0.125
 74
     0
 49
0.0
 74
     0
 49
-0.125
 74
     0
  0
LTYPE
  5
7EE
330
7B2
100
AcDbSymbolTableRecord
100
AcDbLinetypeTableRecord
  2
DIVIDEX2
 70
     0
  3
Dividex2 ________  .  .  ________  .  .  _
 72
    65
 73
     6
 40
2.5
 49
1.0
 74
     0
 49
-0.5
 74
     0
 49
0.0
 74
     0
 49
-0.5
 74
     0
 49
0.0
 74
     0
 49
-0.5
 74
     0
  0
LTYPE
  5
7EF
330
7B2
100
AcDbSymbolTableRecord
100
AcDbLinetypeTableRecord
  2
DOT
 70
     0
  3
Dot . . . . . . . . . . . . . . . . . . . . . . . .
 72
    65
 73
     2
 40
0.25
 49
0.0
 74
     0
 49
-0.25
 74
     0
  0
LTYPE
  5
7F0
330
7B2
100
AcDbSymbolTableRecord
100
AcDbLinetypeTableRecord
  2
DOT2
 70
     0
  3
Dot2 ........................................
 72
    65
 73
     2
 40
0.125
 49
0.0
 74
     0
 49
-0.125
 74
     0
  0
LTYPE
  5
7F1
330
7B2
100
AcDbSymbolTableRecord
100
AcDbLinetypeTableRecord
  2
DOTX2
 70
     0
  3
Dotx2 .  .  .  .  .  .  .  .  .  .  .  .  .  .
 72
    65
 73
     2
 40
0.5
 49
0.0
 74
     0
 49
-0.5
 74
     0
  0
LTYPE
  5
7F2
330
7B2
100
AcDbSymbolTableRecord
100
AcDbLinetypeTableRecord
  2
HIDDENX2
 70
     0
  3
Hiddenx2 ____ ____ ____ ____ ____ ____ ____ 
 72
    65
 73
     2
 40
0.75
 49
0.5
 74
     0
 49
-0.25
 74
     0
  0
LTYPE
  5
7F3
330
7B2
100
AcDbSymbolTableRecord
100
AcDbLinetypeTableRecord
  2
PHANTOM
 70
     0
  3
Phantom ______  __  __  ______  __  __  ______ 
 72
    65
 73
     6
 40
2.5
 49
1.25
 74
     0
 49
-0.25
 74
     0
 49
0.25
 74
     0
 49
-0.25
 74
     0
 49
0.25
 74
     0
 49
-0.25
 74
     0
  0
LTYPE
  5
7F4
330
7B2
100
AcDbSymbolTableRecord
100
AcDbLinetypeTableRecord
  2
PHANTOM2
 70
     0
  3
Phantom2 ___ _ _ ___ _ _ ___ _ _ ___ _ _
 72
    65
 73
     6
 40
1.25
 49
0.625
 74
     0
 49
-0.125
 74
     0
 49
0.125
 74
     0
 49
-0.125
 74
     0
 49
0.125
 74
     0
 49
-0.125
 74
     0
  0
LTYPE
  5
7F5
330
7B2
100
AcDbSymbolTableRecord
100
AcDbLinetypeTableRecord
  2
PHANTOMX2
 70
     0
  3
Phantomx2 ____________    ____    ____   _
 72
    65
 73
     6
 40
5.0
 49
2.5
 74
     0
 49
-0.5
 74
     0
 49
0.5
 74
     0
 49
-0.5
 74
     0
 49
0.5
 74
     0
 49
-0.5
 74
     0
  0
ENDTAB
  0
TABLE
  2
LAYER
  5
7AF
330
0
100
AcDbSymbolTable
 70
     6
  0
LAYER
  5
7BD
330
7AF
100
AcDbSymbolTableRecord
100
AcDbLayerTableRecord
  2
0
 70
     0
 62
     7
  6
CONTINUOUS
  0
LAYER
  5
2E
330
7AF
100
AcDbSymbolTableRecord
100
AcDbLayerTableRecord
  2
DEFPOINTS
 70
     0
 62
     7
  6
CONTINUOUS
  0
LAYER
  5
4E
330
7AF
100
AcDbSymbolTableRecord
100
AcDbLayerTableRecord
  2
V0-OBRYS
 70
     0
 62
    90
  6
CONTINUOUS
  0
LAYER
  5
24
330
7AF
100
AcDbSymbolTableRecord
100
AcDbLayerTableRecord
  2
V0-VYPLNE
 70
     0
 62
    52
  6
CONTINUOUS
  0
LAYER
  5
91
330
7AF
100
AcDbSymbolTableRecord
100
AcDbLayerTableRecord
  2
V0-NAZVY
 70
     0
 62
   210
  6
CONTINUOUS
  0
LAYER
  5
FE
330
7AF
100
AcDbSymbolTableRecord
100
AcDbLayerTableRecord
  2
V0-ZBYTEK
 70
     0
 62
    51
  6
CONTINUOUS
  0
ENDTAB
  0
TABLE
  2
STYLE
  5
7B0
330
0
100
AcDbSymbolTable
 70
     7
  0
STYLE
  5
7BE
330
7B0
100
AcDbSymbolTableRecord
100
AcDbTextStyleTableRecord
  2
STANDARD
 70
     0
 40
0.0
 41
1.0
 50
0.0
 71
     0
 42
0.2
  3
ISOCP.shx
  4

1001
ACAD
1000
ISOCP.shx
1071
        0
  0
STYLE
  5
2F3
330
7B0
100
AcDbSymbolTableRecord
100
AcDbTextStyleTableRecord
  2
ED30
 70
     0
 40
30.0
 41
1.0
 50
0.0
 71
     0
 42
0.2
  3
ISOCP.shx
  4

1001
ACAD
1000
ISOCP.shx
1071
        0
  0
STYLE
  5
2F4
330
7B0
100
AcDbSymbolTableRecord
100
AcDbTextStyleTableRecord
  2
ED20
 70
     0
 40
20.0
 41
1.0
 50
0.0
 71
     0
 42
0.2
  3
isocp.shx
  4

1001
ACAD
1000
isocp.shx
1071
        0
  0
STYLE
  5
2F5
330
7B0
100
AcDbSymbolTableRecord
100
AcDbTextStyleTableRecord
  2
ED40
 70
     0
 40
40.0
 41
1.0
 50
0.0
 71
     0
 42
0.2
  3
isocp.shx
  4

1001
ACAD
1000
isocp.shx
1071
        0
  0
STYLE
  5
2F6
330
7B0
100
AcDbSymbolTableRecord
100
AcDbTextStyleTableRecord
  2
ED10
 70
     0
 40
10.0
 41
1.0
 50
0.0
 71
     0
 42
0.2
  3
isocp.shx
  4

1001
ACAD
1000
isocp.shx
1071
        0
  0
STYLE
  5
2F7
330
7B0
100
AcDbSymbolTableRecord
100
AcDbTextStyleTableRecord
  2
VD_RECOV_1_2F7_
 70
     0
 40
0.0
 41
1.0
 50
0.0
 71
     0
 42
0.2
  3
ltypeshp.shx
  4

1001
ACAD
1000
ltypeshp.shx
1071
        0
  0
STYLE
  5
415
330
7B0
100
AcDbSymbolTableRecord
100
AcDbTextStyleTableRecord
  2
ED5
 70
     0
 40
10.0
 41
1.0
 50
0.0
 71
     0
 42
0.2
  3
ISOCP.shx
  4

1001
ACAD
1000
ISOCP.shx
1071
        0
  0
ENDTAB
  0
TABLE
  2
VIEW
  5
7B3
330
0
100
AcDbSymbolTable
 70
     0
  0
ENDTAB
  0
TABLE
  2
UCS
  5
7B4
330
0
100
AcDbSymbolTable
 70
     0
  0
ENDTAB
  0
TABLE
  2
APPID
  5
7B6
330
0
100
AcDbSymbolTable
 70
     6
  0
APPID
  5
7BF
330
7B6
100
AcDbSymbolTableRecord
100
AcDbRegAppTableRecord
  2
ACAD
 70
     0
  0
APPID
  5
7D7
330
7B6
100
AcDbSymbolTableRecord
100
AcDbRegAppTableRecord
  2
VD_INVISIBLE_NOT_FOR_READ
 70
     0
  0
APPID
  5
7D8
330
7B6
100
AcDbSymbolTableRecord
100
AcDbRegAppTableRecord
  2
VD_TEMPHATCH
 70
     0
  0
APPID
  5
7D9
330
7B6
100
AcDbSymbolTableRecord
100
AcDbRegAppTableRecord
  2
VDEXTRAPARAM
 70
     0
  0
APPID
  5
7DA
330
7B6
100
AcDbSymbolTableRecord
100
AcDbRegAppTableRecord
  2
PE_URL
 70
     0
  0
APPID
  5
7DB
330
7B6
100
AcDbSymbolTableRecord
100
AcDbRegAppTableRecord
  2
VD_UNKNOWN
 70
     0
  0
ENDTAB
  0
TABLE
  2
DIMSTYLE
  5
7B7
330
0
100
AcDbSymbolTable
 70
     6
  0
DIMSTYLE
105
7D4
330
7B7
100
AcDbSymbolTableRecord
100
AcDbDimStyleTableRecord
  2
STANDARD
 70
     0
  3

  4

  5
OPEN
  6

  7

 40
5.0
 41
3.5
 42
0.0625
 43
0.38
 44
0.18
 45
0.0
 46
0.0
 47
0.0
 48
0.0
140
3.5
141
0.09
142
0.0
143
25.4
144
1.0
145
0.0
146
1.0
147
0.625
 71
     0
 72
     0
 73
     0
 74
     0
 75
     0
 76
     0
 77
     1
 78
     0
170
     0
171
     2
172
     1
173
     0
174
     1
175
     0
176
     0
177
     0
178
     0
270
     2
271
     0
272
     4
273
     2
274
     2
340
7BE
275
     0
280
     0
281
     0
282
     0
283
     1
284
     0
285
     0
286
     0
287
     3
288
     1
  0
DIMSTYLE
105
2F8
330
7B7
100
AcDbSymbolTableRecord
100
AcDbDimStyleTableRecord
  2
ED30
 70
     0
  3

  4

  5
OPEN
  6

  7

 40
1.0
 41
25.0
 42
1.0
 43
0.38
 44
1.25
 45
0.0
 46
0.0
 47
0.0
 48
0.0
140
30.0
141
0.09
142
0.0
143
25.4
144
1.0
145
0.0
146
1.0
147
2.0
 71
     0
 72
     0
 73
     0
 74
     0
 75
     0
 76
     0
 77
     1
 78
     0
170
     0
171
     2
172
     1
173
     0
174
     1
175
     0
176
     0
177
     0
178
     0
270
     2
271
     0
272
     4
273
     2
274
     2
340
2F3
275
     0
280
     0
281
     0
282
     0
283
     1
284
     0
285
     0
286
     0
287
     3
288
     1
  0
DIMSTYLE
105
2F9
330
7B7
100
AcDbSymbolTableRecord
100
AcDbDimStyleTableRecord
  2
ED40
 70
     0
  3

  4

  5
OPEN
  6

  7

 40
1.0
 41
35.0
 42
1.0
 43
0.38
 44
1.25
 45
0.0
 46
0.0
 47
0.0
 48
0.0
140
40.0
141
0.09
142
0.0
143
25.4
144
1.0
145
0.0
146
1.0
147
3.0
 71
     0
 72
     0
 73
     0
 74
     0
 75
     0
 76
     0
 77
     1
 78
     0
170
     0
171
     2
172
     1
173
     0
174
     1
175
     0
176
     0
177
     0
178
     0
270
     2
271
     0
272
     4
273
     2
274
     2
340
2F5
275
     0
280
     0
281
     0
282
     0
283
     1
284
     0
285
     0
286
     0
287
     3
288
     1
  0
DIMSTYLE
105
2FA
330
7B7
100
AcDbSymbolTableRecord
100
AcDbDimStyleTableRecord
  2
ED20
 70
     0
  3

  4

  5
OPEN
  6

  7

 40
1.0
 41
20.0
 42
1.0
 43
0.38
 44
1.25
 45
0.0
 46
0.0
 47
0.0
 48
0.0
140
20.0
141
0.09
142
0.0
143
25.4
144
1.0
145
0.0
146
1.0
147
1.5
 71
     0
 72
     0
 73
     0
 74
     0
 75
     0
 76
     0
 77
     1
 78
     0
170
     0
171
     2
172
     1
173
     0
174
     1
175
     0
176
     0
177
     0
178
     0
270
     2
271
     0
272
     4
273
     2
274
     2
340
2F4
275
     0
280
     0
281
     0
282
     0
283
     1
284
     0
285
     0
286
     0
287
     3
288
     1
  0
DIMSTYLE
105
2FB
330
7B7
100
AcDbSymbolTableRecord
100
AcDbDimStyleTableRecord
  2
ED10
 70
     0
  3

  4

  5
OPEN
  6

  7

 40
1.0
 41
15.0
 42
1.0
 43
0.38
 44
1.25
 45
0.0
 46
0.0
 47
0.0
 48
0.0
140
10.0
141
0.09
142
0.0
143
25.4
144
1.0
145
0.0
146
1.0
147
1.5
 71
     0
 72
     0
 73
     0
 74
     0
 75
     0
 76
     0
 77
     1
 78
     0
170
     0
171
     2
172
     1
173
     0
174
     1
175
     0
176
     0
177
     0
178
     0
270
     2
271
     0
272
     4
273
     2
274
     2
340
2F4
275
     0
280
     0
281
     0
282
     0
283
     1
284
     0
285
     0
286
     0
287
     3
288
     1
  0
DIMSTYLE
105
417
102
{ACAD_REACTORS
330
3EF
330
3FC
330
409
330
5FF
330
6A4
102
}
330
7B7
100
AcDbSymbolTableRecord
100
AcDbDimStyleTableRecord
  2
ED5
 70
     0
  3

  4

  5
OPEN
  6

  7

 40
1.0
 41
12.0
 42
1.0
 43
0.38
 44
1.25
 45
0.0
 46
0.0
 47
0.0
 48
0.0
140
10.0
141
0.09
142
0.0
143
25.4
144
1.0
145
0.0
146
1.0
147
1.5
 71
     0
 72
     0
 73
     0
 74
     0
 75
     0
 76
     0
 77
     1
 78
     0
170
     0
171
     2
172
     1
173
     0
174
     1
175
     0
176
     0
177
     0
178
     0
270
     2
271
     0
272
     4
273
     2
274
     2
340
415
275
     0
280
     0
281
     0
282
     0
283
     1
284
     0
285
     0
286
     0
287
     3
288
     1
  0
ENDTAB
  0
TABLE
  2
BLOCK_RECORD
  5
7AE
330
0
100
AcDbSymbolTable
 70
    10
  0
BLOCK_RECORD
  5
7CC
330
7AE
100
AcDbSymbolTableRecord
100
AcDbBlockTableRecord
  2
*MODEL_SPACE
  0
BLOCK_RECORD
  5
7C8
330
7AE
100
AcDbSymbolTableRecord
100
AcDbBlockTableRecord
  2
*PAPER_SPACE
  0
BLOCK_RECORD
  5
1D
330
7AE
100
AcDbSymbolTableRecord
100
AcDbBlockTableRecord
  2
_OPEN
  0
BLOCK_RECORD
  5
213
330
7AE
100
AcDbSymbolTableRecord
100
AcDbBlockTableRecord
  2
A20_350
  0
BLOCK_RECORD
  5
7AA
330
7AE
100
AcDbSymbolTableRecord
100
AcDbBlockTableRecord
  2
VDDIM_DEFAULT
  0
BLOCK_RECORD
  5
7AC
330
7AE
100
AcDbSymbolTableRecord
100
AcDbBlockTableRecord
  2
VDDIM_NONE
  0
BLOCK_RECORD
  5
7FF
330
7AE
100
AcDbSymbolTableRecord
100
AcDbBlockTableRecord
  2
*D5
  0
BLOCK_RECORD
  5
80B
330
7AE
100
AcDbSymbolTableRecord
100
AcDbBlockTableRecord
  2
*D6
  0
BLOCK_RECORD
  5
818
330
7AE
100
AcDbSymbolTableRecord
100
AcDbBlockTableRecord
  2
*D7
  0
BLOCK_RECORD
  5
825
330
7AE
100
AcDbSymbolTableRecord
100
AcDbBlockTableRecord
  2
*D8
  0
BLOCK_RECORD
  5
831
330
7AE
100
AcDbSymbolTableRecord
100
AcDbBlockTableRecord
  2
*D9
  0
ENDTAB
  0
ENDSEC
  0
SECTION
  2
BLOCKS
  0
BLOCK
  5
7CD
330
7CC
100
AcDbEntity
  8
0
100
AcDbBlockBegin
  2
*MODEL_SPACE
 70
     0
 71
     0
 10
0.0
 20
0.0
 30
0.0
  3
*MODEL_SPACE
  1

  0
ENDBLK
  5
7CE
330
7CC
100
AcDbEntity
  8
0
100
AcDbBlockEnd
  0
BLOCK
  5
7C9
330
7C8
100
AcDbEntity
 67
     1
  8
0
100
AcDbBlockBegin
  2
*PAPER_SPACE
 70
     0
 71
     0
 10
0.0
 20
0.0
 30
0.0
  3
*PAPER_SPACE
  1

  0
ENDBLK
  5
7CA
330
7C8
100
AcDbEntity
 67
     1
  8
0
100
AcDbBlockEnd
  0
BLOCK
  5
7F6
330
1D
100
AcDbEntity
  8
0
100
AcDbBlockBegin
  2
_OPEN
 70
     0
 71
     0
 10
0.0
 20
0.0
 30
0.0
  3
_OPEN
  1

  0
LINE
  5
1E
330
1D
100
AcDbEntity
  8
0
  6
BYBLOCK
 62
     0
100
AcDbLine
 10
-1.0
 20
0.166667
 30
0.0
 11
0.0
 21
0.0
 31
0.0
  0
LINE
  5
1F
330
1D
100
AcDbEntity
  8
0
  6
BYBLOCK
 62
     0
100
AcDbLine
 10
0.0
 20
0.0
 30
0.0
 11
-1.0
 21
-0.166667
 31
0.0
  0
LINE
  5
20
330
1D
100
AcDbEntity
  8
0
  6
BYBLOCK
 62
     0
100
AcDbLine
 10
0.0
 20
0.0
 30
0.0
 11
-1.0
 21
0.0
 31
0.0
  0
ENDBLK
  5
7F7
330
1D
100
AcDbEntity
  8
0
100
AcDbBlockEnd
  0
BLOCK
  5
7F8
330
213
100
AcDbEntity
  8
0
100
AcDbBlockBegin
  2
A20_350
 70
     0
 71
     0
 10
0.0
 20
0.0
 30
0.0
  3
A20_350
  1

  0
ENDBLK
  5
7F9
330
213
100
AcDbEntity
  8
0
100
AcDbBlockEnd
  0
BLOCK
  5
7FA
330
7AA
100
AcDbEntity
  8
0
100
AcDbBlockBegin
  2
VDDIM_DEFAULT
 70
     0
 71
     0
 10
0.0
 20
0.0
 30
0.0
  3
VDDIM_DEFAULT
  1

  0
LWPOLYLINE
  5
7AB
330
7AA
100
AcDbEntity
  8
0
  6
CONTINUOUS
 62
     0
100
AcDbPolyline
 90
        4
 70
     0
 43
0.0
 10
0.0
 20
0.0
 10
-1.0
 20
-0.1665
 10
-1.0
 20
0.1665
 10
0.0
 20
0.0
1001
VDEXTRAPARAM
1071
        1
1071
        0
1071
        0
1040
1.0
1000

1000

1040
0.0
1040
0.0
  0
HATCH
  5
7FE
330
7AA
100
AcDbEntity
  8
0
  6
CONTINUOUS
 62
     0
100
AcDbHatch
 10
0.0
 20
0.0
 30
0.0
210
0.0
220
0.0
230
1.0
  2
SOLID
 70
     1
 71
     0
 91
        1
 92
        2
 72
     0
 73
     1
 93
        3
 10
0.0
 20
0.0
 10
-1.0
 20
-0.1665
 10
-1.0
 20
0.1665
 97
        0
 75
     0
 76
     1
 98
        1
 10
0.0
 20
0.0
1001
VDEXTRAPARAM
1071
        1
1071
        0
1071
        0
1040
1.0
1000

1000

1040
0.0
1040
0.0
1001
VD_TEMPHATCH
1000
VD_TEMPHATCH
  0
ENDBLK
  5
7FB
330
7AA
100
AcDbEntity
  8
0
100
AcDbBlockEnd
  0
BLOCK
  5
7FC
330
7AC
100
AcDbEntity
  8
0
100
AcDbBlockBegin
  2
VDDIM_NONE
 70
     0
 71
     0
 10
0.0
 20
0.0
 30
0.0
  3
VDDIM_NONE
  1

  0
ENDBLK
  5
7FD
330
7AC
100
AcDbEntity
  8
0
100
AcDbBlockEnd
  0
BLOCK
  5
809
330
7FF
100
AcDbEntity
  8
0
100
AcDbBlockBegin
  2
*D5
 70
     1
 71
     0
 10
0.0
 20
0.0
 30
0.0
  3
*D5
  1

  0
LINE
  5
800
330
7FF
100
AcDbEntity
  8
V0-VYPLNE
 62
     0
100
AcDbLine
 10
50.486404
 20
75.303448
 30
0.0
 11
50.486404
 21
90.68938599999997
 31
0.0
  0
LINE
  5
801
330
7FF
100
AcDbEntity
  8
V0-VYPLNE
 62
     0
100
AcDbLine
 10
105.857204
 20
47.819898
 30
0.0
 11
105.857204
 21
90.68938599999997
 31
0.0
  0
LINE
  5
802
330
7FF
100
AcDbEntity
  8
V0-VYPLNE
 62
     0
100
AcDbLine
 10
62.486404
 20
89.43938599999997
 30
0.0
 11
93.857204
 21
89.43938599999997
 31
0.0
  0
INSERT
  5
803
330
7FF
100
AcDbEntity
  8
V0-VYPLNE
 62
     0
100
AcDbBlockReference
  2
_OPEN
 10
50.486404
 20
89.43938599999997
 30
0.0
 41
12.0
 42
12.0
 43
12.0
 50
180.0
  0
INSERT
  5
804
330
7FF
100
AcDbEntity
  8
V0-VYPLNE
 62
     0
100
AcDbBlockReference
  2
_OPEN
 10
105.857204
 20
89.43938599999997
 30
0.0
 41
12.0
 42
12.0
 43
12.0
  0
MTEXT
  5
805
330
7FF
100
AcDbEntity
  8
V0-VYPLNE
 62
     0
100
AcDbMText
 10
78.17180400000001
 20
95.93938599999997
 30
0.0
 40
10.0
 41
0.0
 71
     5
 72
     1
  1
\A1;55
  7
ED5
  0
POINT
  5
806
330
7FF
100
AcDbEntity
  8
DEFPOINTS
 62
     0
100
AcDbPoint
 10
50.486404
 20
74.303448
 30
0.0
  0
POINT
  5
807
330
7FF
100
AcDbEntity
  8
DEFPOINTS
 62
     0
100
AcDbPoint
 10
105.857204
 20
46.819898
 30
0.0
  0
POINT
  5
808
330
7FF
100
AcDbEntity
  8
DEFPOINTS
 62
     0
100
AcDbPoint
 10
105.857204
 20
89.43938599999997
 30
0.0
  0
ENDBLK
  5
80A
330
7FF
100
AcDbEntity
  8
0
100
AcDbBlockEnd
  0
BLOCK
  5
816
330
80B
100
AcDbEntity
  8
0
100
AcDbBlockBegin
  2
*D6
 70
     1
 71
     0
 10
0.0
 20
0.0
 30
0.0
  3
*D6
  1

  0
LINE
  5
80C
330
80B
100
AcDbEntity
  8
V0-VYPLNE
 62
     0
100
AcDbLine
 10
172.900007
 20
-4.192552
 30
0.0
 11
172.900007
 21
-102.451347999995
 31
0.0
  0
LINE
  5
80D
330
80B
100
AcDbEntity
  8
V0-VYPLNE
 62
     0
100
AcDbLine
 10
327.853259
 20
-4.192552
 30
0.0
 11
327.853259
 21
-102.4513479999951
 31
0.0
  0
LINE
  5
80E
330
80B
100
AcDbEntity
  8
V0-VYPLNE
 62
     0
100
AcDbLine
 10
184.900007
 20
-101.201347999995
 30
0.0
 11
238.8082478571429
 21
-101.2013479999951
 31
0.0
  0
LINE
  5
80F
330
80B
100
AcDbEntity
  8
V0-VYPLNE
 62
     0
100
AcDbLine
 10
315.853259
 20
-101.2013479999951
 30
0.0
 11
266.0939621428572
 21
-101.2013479999951
 31
0.0
  0
INSERT
  5
810
330
80B
100
AcDbEntity
  8
V0-VYPLNE
 62
     0
100
AcDbBlockReference
  2
_OPEN
 10
172.900007
 20
-101.201347999995
 30
0.0
 41
12.0
 42
12.0
 43
12.0
 50
180.0
  0
INSERT
  5
811
330
80B
100
AcDbEntity
  8
V0-VYPLNE
 62
     0
100
AcDbBlockReference
  2
_OPEN
 10
327.853259
 20
-101.2013479999951
 30
0.0
 41
12.0
 42
12.0
 43
12.0
 50
360.0
  0
MTEXT
  5
812
330
80B
100
AcDbEntity
  8
V0-VYPLNE
 62
     0
100
AcDbMText
 10
252.451105
 20
-101.201348
 30
0.0
 40
10.0
 41
0.0
 71
     5
 72
     1
  1
\A1;155
  7
ED5
  0
POINT
  5
813
330
80B
100
AcDbEntity
  8
DEFPOINTS
 62
     0
100
AcDbPoint
 10
172.900007
 20
-3.192552
 30
0.0
  0
POINT
  5
814
330
80B
100
AcDbEntity
  8
DEFPOINTS
 62
     0
100
AcDbPoint
 10
327.853259
 20
-3.192552
 30
0.0
  0
POINT
  5
815
330
80B
100
AcDbEntity
  8
DEFPOINTS
 62
     0
100
AcDbPoint
 10
327.853259
 20
-101.2013479999951
 30
0.0
  0
ENDBLK
  5
817
330
80B
100
AcDbEntity
  8
0
100
AcDbBlockEnd
  0
BLOCK
  5
823
330
818
100
AcDbEntity
  8
0
100
AcDbBlockBegin
  2
*D7
 70
     1
 71
     0
 10
0.0
 20
0.0
 30
0.0
  3
*D7
  1

  0
LINE
  5
819
330
818
100
AcDbEntity
  8
V0-VYPLNE
 62
     0
100
AcDbLine
 10
106.857204
 20
45.851198
 30
0.0
 11
129.0252119999996
 21
45.851198
 31
0.0
  0
LINE
  5
81A
330
818
100
AcDbEntity
  8
V0-VYPLNE
 62
     0
100
AcDbLine
 10
106.857204
 20
-51.736302
 30
0.0
 11
129.0252119999996
 21
-51.736302
 31
0.0
  0
LINE
  5
81B
330
818
100
AcDbEntity
  8
V0-VYPLNE
 62
     0
100
AcDbLine
 10
127.7752119999996
 20
33.85119800000001
 30
0.0
 11
127.7752119999996
 21
13.35319861904761
 31
0.0
  0
LINE
  5
81C
330
818
100
AcDbEntity
  8
V0-VYPLNE
 62
     0
100
AcDbLine
 10
127.7752119999995
 20
-39.736302
 30
0.0
 11
127.7752119999996
 21
-14.88489661904761
 31
0.0
  0
INSERT
  5
81D
330
818
100
AcDbEntity
  8
V0-VYPLNE
 62
     0
100
AcDbBlockReference
  2
_OPEN
 10
127.7752119999996
 20
45.85119800000001
 30
0.0
 41
12.0
 42
12.0
 43
12.0
 50
90.0
  0
INSERT
  5
81E
330
818
100
AcDbEntity
  8
V0-VYPLNE
 62
     0
100
AcDbBlockReference
  2
_OPEN
 10
127.7752119999995
 20
-51.736302
 30
0.0
 41
12.0
 42
12.0
 43
12.0
 50
270.0
  0
MTEXT
  5
81F
330
818
100
AcDbEntity
  8
V0-VYPLNE
 62
     0
100
AcDbMText
 10
127.775212
 20
-0.765849
 30
0.0
 40
10.0
 41
0.0
 71
     5
 72
     1
  1
%%c\A1;98
  7
ED5
 11
0.0
 21
1.0
 31
0.0
  0
POINT
  5
820
330
818
100
AcDbEntity
  8
DEFPOINTS
 62
     0
100
AcDbPoint
 10
105.857204
 20
45.851198
 30
0.0
  0
POINT
  5
821
330
818
100
AcDbEntity
  8
DEFPOINTS
 62
     0
100
AcDbPoint
 10
105.857204
 20
-51.736302
 30
0.0
  0
POINT
  5
822
330
818
100
AcDbEntity
  8
DEFPOINTS
 62
     0
100
AcDbPoint
 10
127.7752119999996
 20
-51.736302
 30
0.0
  0
ENDBLK
  5
824
330
818
100
AcDbEntity
  8
0
100
AcDbBlockEnd
  0
BLOCK
  5
82F
330
825
100
AcDbEntity
  8
0
100
AcDbBlockBegin
  2
*D8
 70
     1
 71
     0
 10
0.0
 20
0.0
 30
0.0
  3
*D8
  1

  0
LINE
  5
826
330
825
100
AcDbEntity
  8
V0-VYPLNE
 62
     0
100
AcDbLine
 10
249.376633
 20
74.284074
 30
0.0
 11
154.6850649999997
 21
74.28407400000002
 31
0.0
  0
LINE
  5
827
330
825
100
AcDbEntity
  8
V0-VYPLNE
 62
     0
100
AcDbLine
 10
249.376633
 20
-80.669178
 30
0.0
 11
154.6850649999997
 21
-80.669178
 31
0.0
  0
LINE
  5
828
330
825
100
AcDbEntity
  8
V0-VYPLNE
 62
     0
100
AcDbLine
 10
155.9350649999997
 20
62.28407400000003
 30
0.0
 11
155.9350649999997
 21
-68.66917799999999
 31
0.0
  0
INSERT
  5
829
330
825
100
AcDbEntity
  8
V0-VYPLNE
 62
     0
100
AcDbBlockReference
  2
_OPEN
 10
155.9350649999997
 20
74.28407400000003
 30
0.0
 41
12.0
 42
12.0
 43
12.0
 50
90.0
  0
INSERT
  5
82A
330
825
100
AcDbEntity
  8
V0-VYPLNE
 62
     0
100
AcDbBlockReference
  2
_OPEN
 10
155.9350649999997
 20
-80.66917799999999
 30
0.0
 41
12.0
 42
12.0
 43
12.0
 50
270.0
  0
MTEXT
  5
82B
330
825
100
AcDbEntity
  8
V0-VYPLNE
 62
     0
100
AcDbMText
 10
149.4350649999997
 20
-3.192551999999992
 30
0.0
 40
10.0
 41
0.0
 71
     5
 72
     1
  1
\A1;155
  7
ED5
 11
0.0
 21
1.0
 31
0.0
  0
POINT
  5
82C
330
825
100
AcDbEntity
  8
DEFPOINTS
 62
     0
100
AcDbPoint
 10
250.376633
 20
74.284074
 30
0.0
  0
POINT
  5
82D
330
825
100
AcDbEntity
  8
DEFPOINTS
 62
     0
100
AcDbPoint
 10
250.376633
 20
-80.669178
 30
0.0
  0
POINT
  5
82E
330
825
100
AcDbEntity
  8
DEFPOINTS
 62
     0
100
AcDbPoint
 10
155.9350649999997
 20
-80.669178
 30
0.0
  0
ENDBLK
  5
830
330
825
100
AcDbEntity
  8
0
100
AcDbBlockEnd
  0
BLOCK
  5
83B
330
831
100
AcDbEntity
  8
0
100
AcDbBlockBegin
  2
*D9
 70
     1
 71
     0
 10
0.0
 20
0.0
 30
0.0
  3
*D9
  1

  0
LINE
  5
832
330
831
100
AcDbEntity
  8
V0-VYPLNE
 62
     0
100
AcDbLine
 10
4.360913
 20
75.303448
 30
0.0
 11
4.360912999999997
 21
107.858490999999
 31
0.0
  0
LINE
  5
833
330
831
100
AcDbEntity
  8
V0-VYPLNE
 62
     0
100
AcDbLine
 10
105.857204
 20
46.851198
 30
0.0
 11
105.857204
 21
107.858490999999
 31
0.0
  0
LINE
  5
834
330
831
100
AcDbEntity
  8
V0-VYPLNE
 62
     0
100
AcDbLine
 10
16.360913
 20
106.608490999999
 30
0.0
 11
93.857204
 21
106.608490999999
 31
0.0
  0
INSERT
  5
835
330
831
100
AcDbEntity
  8
V0-VYPLNE
 62
     0
100
AcDbBlockReference
  2
_OPEN
 10
4.360912999999997
 20
106.608490999999
 30
0.0
 41
12.0
 42
12.0
 43
12.0
 50
180.0
  0
INSERT
  5
836
330
831
100
AcDbEntity
  8
V0-VYPLNE
 62
     0
100
AcDbBlockReference
  2
_OPEN
 10
105.857204
 20
106.608490999999
 30
0.0
 41
12.0
 42
12.0
 43
12.0
  0
MTEXT
  5
837
330
831
100
AcDbEntity
  8
V0-VYPLNE
 62
     0
100
AcDbMText
 10
55.1090585
 20
113.108490999999
 30
0.0
 40
10.0
 41
0.0
 71
     5
 72
     1
  1
\A1;101
  7
ED5
  0
POINT
  5
838
330
831
100
AcDbEntity
  8
DEFPOINTS
 62
     0
100
AcDbPoint
 10
4.360913
 20
74.303448
 30
0.0
  0
POINT
  5
839
330
831
100
AcDbEntity
  8
DEFPOINTS
 62
     0
100
AcDbPoint
 10
105.857204
 20
45.851198
 30
0.0
  0
POINT
  5
83A
330
831
100
AcDbEntity
  8
DEFPOINTS
 62
     0
100
AcDbPoint
 10
105.857204
 20
106.608490999999
 30
0.0
  0
ENDBLK
  5
83C
330
831
100
AcDbEntity
  8
0
100
AcDbBlockEnd
  0
ENDSEC
  0
SECTION
  2
ENTITIES
  0
LINE
  5
197
330
7CC
100
AcDbEntity
  8
V0-VYPLNE
  6
DASHDOT
 62
    63
100
AcDbLine
 10
-11.167696
 20
-3.192552
 30
0.0
 11
111.669404
 21
-3.192552
 31
0.0
  0
LINE
  5
199
330
7CC
100
AcDbEntity
  8
V0-OBRYS
  6
CONTINUOUS
 62
    90
 48
5.0
100
AcDbLine
 10
12.517195
 20
-80.688552
 30
0.0
 11
50.486404
 21
-80.688552
 31
0.0
  0
LINE
  5
19A
330
7CC
100
AcDbEntity
  8
V0-OBRYS
  6
CONTINUOUS
 62
    90
 48
5.0
100
AcDbLine
 10
50.486404
 20
-80.688552
 30
0.0
 11
50.486404
 21
74.30344800000002
 31
0.0
  0
LINE
  5
19B
330
7CC
100
AcDbEntity
  8
V0-OBRYS
  6
CONTINUOUS
 62
    90
 48
5.0
100
AcDbLine
 10
50.486404
 20
74.303448
 30
0.0
 11
12.517195
 21
74.303448
 31
0.0
  0
LINE
  5
1AC
330
7CC
100
AcDbEntity
  8
V0-OBRYS
  6
CONTINUOUS
 62
    90
 48
5.0
100
AcDbLine
 10
50.486404
 20
45.851198
 30
0.0
 11
105.857204
 21
45.851198
 31
0.0
  0
LINE
  5
1AD
330
7CC
100
AcDbEntity
  8
V0-OBRYS
  6
CONTINUOUS
 62
    90
 48
5.0
100
AcDbLine
 10
105.857204
 20
45.851198
 30
0.0
 11
105.857204
 21
-51.73630200000001
 31
0.0
  0
LINE
  5
1AE
330
7CC
100
AcDbEntity
  8
V0-OBRYS
  6
CONTINUOUS
 62
    90
 48
5.0
100
AcDbLine
 10
105.857204
 20
-51.736302
 30
0.0
 11
50.486404
 21
-51.736302
 31
0.0
  0
CIRCLE
  5
1B3
330
7CC
100
AcDbEntity
  8
V0-OBRYS
  6
CONTINUOUS
 62
    90
100
AcDbCircle
 10
250.376633
 20
-3.192552
 30
0.0
 40
56.233035
  0
CIRCLE
  5
1B4
330
7CC
100
AcDbEntity
  8
V0-OBRYS
  6
CONTINUOUS
 62
    90
100
AcDbCircle
 10
250.376633
 20
-3.192552
 30
0.0
 40
51.234543
  0
ARC
  5
1B7
330
7CC
100
AcDbEntity
  8
V0-OBRYS
  6
CONTINUOUS
 62
    90
100
AcDbCircle
 10
250.376633
 20
-979.148115
 30
0.0
 40
1053.432189
100
AcDbArc
 50
86.526445
 51
93.47355500000001
  0
ARC
  5
1B8
330
7CC
100
AcDbEntity
  8
V0-OBRYS
  6
CONTINUOUS
 62
    90
100
AcDbCircle
 10
1226.332196
 20
-3.192552
 30
0.0
 40
1053.432189
100
AcDbArc
 50
176.526445
 51
183.473555
  0
ARC
  5
1B9
330
7CC
100
AcDbEntity
  8
V0-OBRYS
  6
CONTINUOUS
 62
    90
100
AcDbCircle
 10
250.376633
 20
972.763011
 30
0.0
 40
1053.432189
100
AcDbArc
 50
266.526445
 51
273.473555
  0
ARC
  5
1BA
330
7CC
100
AcDbEntity
  8
V0-OBRYS
  6
CONTINUOUS
 62
    90
100
AcDbCircle
 10
-725.57893
 20
-3.192552
 30
0.0
 40
1053.432189
100
AcDbArc
 50
356.526445
 51
3.473555
  0
ARC
  5
1BC
330
7CC
100
AcDbEntity
  8
V0-OBRYS
  6
CONTINUOUS
 62
    90
100
AcDbCircle
 10
187.308572
 20
59.875509
 30
0.0
 40
12.49623
100
AcDbArc
 50
93.47355500000001
 51
176.526445
  0
ARC
  5
1BD
330
7CC
100
AcDbEntity
  8
V0-OBRYS
  6
CONTINUOUS
 62
    90
100
AcDbCircle
 10
187.308572
 20
-66.260612
 30
0.0
 40
12.49623
100
AcDbArc
 50
183.473555
 51
266.526445
  0
ARC
  5
1BE
330
7CC
100
AcDbEntity
  8
V0-OBRYS
  6
CONTINUOUS
 62
    90
100
AcDbCircle
 10
313.444693
 20
-66.260612
 30
0.0
 40
12.49623
100
AcDbArc
 50
273.473555
 51
356.526445
  0
ARC
  5
1BF
330
7CC
100
AcDbEntity
  8
V0-OBRYS
  6
CONTINUOUS
 62
    90
100
AcDbCircle
 10
313.444693
 20
59.875509
 30
0.0
 40
12.49623
100
AcDbArc
 50
3.473555
 51
86.526445
  0
LINE
  5
1C0
330
7CC
100
AcDbEntity
  8
V0-OBRYS
  6
CONTINUOUS
 62
    90
100
AcDbLine
 10
223.691988
 20
40.544253
 30
0.0
 11
277.061278
 21
40.544253
 31
0.0
  0
LINE
  5
1C1
330
7CC
100
AcDbEntity
  8
V0-OBRYS
  6
CONTINUOUS
 62
    90
100
AcDbLine
 10
215.387189
 20
34.296138
 30
0.0
 11
215.454197
 21
34.296138
 31
0.0
  0
LINE
  5
1C2
330
7CC
100
AcDbEntity
  8
V0-OBRYS
  6
CONTINUOUS
 62
    90
100
AcDbLine
 10
209.768692
 20
28.048023
 30
0.0
 11
290.984574
 21
28.048023
 31
0.0
  0
LINE
  5
1C3
330
7CC
100
AcDbEntity
  8
V0-OBRYS
  6
CONTINUOUS
 62
    90
100
AcDbLine
 10
205.651301
 20
21.799908
 30
0.0
 11
295.101965
 21
21.799908
 31
0.0
  0
LINE
  5
1C4
330
7CC
100
AcDbEntity
  8
V0-OBRYS
  6
CONTINUOUS
 62
    90
100
AcDbLine
 10
203.204399
 20
16.801416
 30
0.0
 11
297.862307
 21
16.801416
 31
0.0
  0
LINE
  5
1C5
330
7CC
100
AcDbEntity
  8
V0-OBRYS
  6
CONTINUOUS
 62
    90
100
AcDbLine
 10
201.385673
 20
11.802924
 30
0.0
 11
299.367592
 21
11.802924
 31
0.0
  0
LINE
  5
1C6
330
7CC
100
AcDbEntity
  8
V0-OBRYS
  6
CONTINUOUS
 62
    90
100
AcDbLine
 10
200.126869
 20
6.804432
 30
0.0
 11
300.626396
 21
6.804432
 31
0.0
  0
LINE
  5
1C7
330
7CC
100
AcDbEntity
  8
V0-OBRYS
  6
CONTINUOUS
 62
    90
100
AcDbLine
 10
199.14209
 20
1.80594
 30
0.0
 11
301.611176
 21
1.80594
 31
0.0
  0
LINE
  5
1C8
330
7CC
100
AcDbEntity
  8
V0-OBRYS
  6
CONTINUOUS
 62
    90
100
AcDbLine
 10
199.14209
 20
-3.192552
 30
0.0
 11
301.611176
 21
-3.192552
 31
0.0
  0
LINE
  5
1C9
330
7CC
100
AcDbEntity
  8
V0-OBRYS
  6
CONTINUOUS
 62
    90
100
AcDbLine
 10
215.387189
 20
34.296138
 30
0.0
 11
285.366077
 21
34.296138
 31
0.0
  0
LINE
  5
1D2
330
7CC
100
AcDbEntity
  8
V0-OBRYS
  6
CONTINUOUS
 62
    90
100
AcDbLine
 10
234.131534
 20
45.542745
 30
0.0
 11
265.372109
 21
45.542745
 31
0.0
  0
LINE
  5
1D3
330
7CC
100
AcDbEntity
  8
V0-OBRYS
  6
CONTINUOUS
 62
    90
100
AcDbLine
 10
234.131534
 20
-51.927849
 30
0.0
 11
265.372109
 21
-51.927849
 31
0.0
  0
LINE
  5
1D4
330
7CC
100
AcDbEntity
  8
V0-OBRYS
  6
CONTINUOUS
 62
    90
100
AcDbLine
 10
215.387189
 20
-40.681242
 30
0.0
 11
285.366077
 21
-40.681242
 31
0.0
  0
LINE
  5
1D5
330
7CC
100
AcDbEntity
  8
V0-OBRYS
  6
CONTINUOUS
 62
    90
100
AcDbLine
 10
205.651301
 20
-28.185012
 30
0.0
 11
295.101965
 21
-28.185012
 31
0.0
  0
LINE
  5
1D6
330
7CC
100
AcDbEntity
  8
V0-OBRYS
  6
CONTINUOUS
 62
    90
100
AcDbLine
 10
203.204399
 20
-23.18652
 30
0.0
 11
297.862307
 21
-23.18652
 31
0.0
  0
LINE
  5
1D7
330
7CC
100
AcDbEntity
  8
V0-OBRYS
  6
CONTINUOUS
 62
    90
100
AcDbLine
 10
209.768692
 20
-34.433127
 30
0.0
 11
290.984574
 21
-34.433127
 31
0.0
  0
LINE
  5
1D8
330
7CC
100
AcDbEntity
  8
V0-OBRYS
  6
CONTINUOUS
 62
    90
100
AcDbLine
 10
200.126869
 20
-13.189536
 30
0.0
 11
300.626396
 21
-13.189536
 31
0.0
  0
LINE
  5
1D9
330
7CC
100
AcDbEntity
  8
V0-OBRYS
  6
CONTINUOUS
 62
    90
100
AcDbLine
 10
201.385673
 20
-18.188028
 30
0.0
 11
299.367592
 21
-18.188028
 31
0.0
  0
LINE
  5
1DA
330
7CC
100
AcDbEntity
  8
V0-OBRYS
  6
CONTINUOUS
 62
    90
100
AcDbLine
 10
223.691988
 20
-46.929357
 30
0.0
 11
277.061278
 21
-46.929357
 31
0.0
  0
LINE
  5
1DB
330
7CC
100
AcDbEntity
  8
V0-OBRYS
  6
CONTINUOUS
 62
    90
100
AcDbLine
 10
199.14209
 20
-8.191044
 30
0.0
 11
301.611176
 21
-8.191044
 31
0.0
  0
LINE
  5
1DC
330
7CC
100
AcDbEntity
  8
V0-VYPLNE
  6
DASHDOT
 62
    63
100
AcDbLine
 10
250.376633
 20
85.530681
 30
0.0
 11
250.376633
 21
-85.37681099999999
 31
0.0
  0
LINE
  5
1DD
330
7CC
100
AcDbEntity
  8
V0-VYPLNE
  6
DASHDOT
 62
    63
100
AcDbLine
 10
159.154154
 20
-3.192552
 30
0.0
 11
347.260659
 21
-3.192552
 31
0.0
  0
DIMENSION
  5
3EF
330
7CC
100
AcDbEntity
  8
V0-VYPLNE
  6
CONTINUOUS
 62
    41
100
AcDbDimension
  2
*D5
 10
105.857204
 20
89.43938599999997
 30
0.0
 11
78.17180400000001
 21
95.93938599999997
 31
0.0
 70
    32
  3
ED5
100
AcDbAlignedDimension
 13
50.486404
 23
74.303448
 33
0.0
 14
105.857204
 24
46.819898
 34
0.0
100
AcDbRotatedDimension
1001
ACAD
1000
DSTYLE
1002
{
1070
    40
1040
1.0
1002
}
  0
DIMENSION
  5
3FC
330
7CC
100
AcDbEntity
  8
V0-VYPLNE
  6
CONTINUOUS
 62
    41
100
AcDbDimension
  2
*D6
 10
327.853259
 20
-101.2013479999951
 30
0.0
 11
252.451105
 21
-101.201348
 31
0.0
 70
   160
  3
ED5
100
AcDbAlignedDimension
 13
172.900007
 23
-3.192552
 33
0.0
 14
327.853259
 24
-3.192552
 34
0.0
100
AcDbRotatedDimension
1001
ACAD
1000
DSTYLE
1002
{
1070
    40
1040
1.0
1002
}
  0
DIMENSION
  5
409
330
7CC
100
AcDbEntity
  8
V0-VYPLNE
  6
CONTINUOUS
 62
    41
100
AcDbDimension
  2
*D7
 10
127.7752119999996
 20
-51.736302
 30
0.0
 11
127.775212
 21
-0.765849
 31
0.0
 70
   160
  1
%%c<>
  3
ED5
100
AcDbAlignedDimension
 13
105.857204
 23
45.851198
 33
0.0
 14
105.857204
 24
-51.736302
 34
0.0
 50
90.0
100
AcDbRotatedDimension
1001
ACAD
1000
DSTYLE
1002
{
1070
    40
1040
1.0
1002
}
  0
POINT
  5
59B
330
7CC
100
AcDbEntity
  8
V0-VYPLNE
  6
CONTINUOUS
 62
    52
100
AcDbPoint
 10
50.486404
 20
-3.192552
 30
0.0
  0
POINT
  5
59D
330
7CC
100
AcDbEntity
  8
V0-VYPLNE
  6
CONTINUOUS
 62
    52
100
AcDbPoint
 10
250.376633
 20
-3.192552
 30
0.0
  0
LINE
  5
5A3
330
7CC
100
AcDbEntity
  8
V0-OBRYS
  6
CONTINUOUS
 62
    90
100
AcDbLine
 10
229.356295
 20
43.531359
 30
0.0
 11
229.356295
 21
-49.645649
 31
0.0
  0
LINE
  5
5A4
330
7CC
100
AcDbEntity
  8
V0-OBRYS
  6
CONTINUOUS
 62
    90
100
AcDbLine
 10
271.396971
 20
43.531359
 30
0.0
 11
271.396971
 21
-49.645649
 31
0.0
  0
DIMENSION
  5
5FF
330
7CC
100
AcDbEntity
  8
V0-VYPLNE
  6
CONTINUOUS
 62
    41
100
AcDbDimension
  2
*D8
 10
155.9350649999997
 20
-80.669178
 30
0.0
 11
149.4350649999997
 21
-3.192551999999992
 31
0.0
 70
    32
  3
ED5
100
AcDbAlignedDimension
 13
250.376633
 23
74.284074
 33
0.0
 14
250.376633
 24
-80.669178
 34
0.0
 50
90.0
100
AcDbRotatedDimension
1001
ACAD
1000
DSTYLE
1002
{
1070
    40
1040
1.0
1002
}
  0
DIMENSION
  5
6A4
330
7CC
100
AcDbEntity
  8
V0-VYPLNE
  6
CONTINUOUS
 62
    41
100
AcDbDimension
  2
*D9
 10
105.857204
 20
106.608490999999
 30
0.0
 11
55.1090585
 21
113.108490999999
 31
0.0
 70
    32
  3
ED5
100
AcDbAlignedDimension
 13
4.360913
 23
74.303448
 33
0.0
 14
105.857204
 24
45.851198
 34
0.0
100
AcDbRotatedDimension
1001
ACAD
1000
DSTYLE
1002
{
1070
    40
1040
1.0
1002
}
  0
ARC
  5
6E0
330
7CC
100
AcDbEntity
  8
V0-OBRYS
  6
CONTINUOUS
 62
    90
100
AcDbCircle
 10
835.811137
 20
-3.192552
 30
0.0
 40
831.479633
100
AcDbArc
 50
174.967741
 51
185.032259
  0
ARC
  5
6E1
330
7CC
100
AcDbEntity
  8
V0-OBRYS
  6
CONTINUOUS
 62
    90
100
AcDbCircle
 10
12.517195
 20
69.303448
 30
0.0
 40
5.0
100
AcDbArc
 50
90.0
 51
174.967741
  0
ARC
  5
6E2
330
7CC
100
AcDbEntity
  8
V0-OBRYS
  6
CONTINUOUS
 62
    90
100
AcDbCircle
 10
12.517195
 20
-75.688552
 30
0.0
 40
5.0
100
AcDbArc
 50
185.032259
 51
270.0
  0
ARC
  5
6E3
330
7CC
100
AcDbEntity
  8
V0-OBRYS
  6
CONTINUOUS
 62
    90
100
AcDbCircle
 10
835.811137
 20
-184.284728
 30
0.0
 40
831.479633
100
AcDbArc
 50
174.967741
 51
185.032259
  0
LINE
  5
6E4
330
7CC
100
AcDbEntity
  8
V0-OBRYS
  6
CONTINUOUS
 62
    90
 48
5.0
100
AcDbLine
 10
105.857204
 20
-135.240978
 30
0.0
 11
105.857204
 21
-232.828478
 31
0.0
  0
POINT
  5
6E5
330
7CC
100
AcDbEntity
  8
V0-VYPLNE
  6
CONTINUOUS
 62
    52
100
AcDbPoint
 10
50.486404
 20
-184.284728
 30
0.0
  0
LINE
  5
6E6
330
7CC
100
AcDbEntity
  8
V0-OBRYS
  6
CONTINUOUS
 62
    90
 48
5.0
100
AcDbLine
 10
50.486404
 20
-261.780728
 30
0.0
 11
50.486404
 21
-106.788728
 31
0.0
  0
LINE
  5
6E7
330
7CC
100
AcDbEntity
  8
V0-OBRYS
  6
CONTINUOUS
 62
    90
 48
5.0
100
AcDbLine
 10
105.857204
 20
-232.828478
 30
0.0
 11
50.486404
 21
-232.828478
 31
0.0
  0
LINE
  5
6E9
330
7CC
100
AcDbEntity
  8
V0-VYPLNE
  6
DASHDOT
 62
    63
100
AcDbLine
 10
-11.167696
 20
-184.284728
 30
0.0
 11
111.669404
 21
-184.284728
 31
0.0
  0
LINE
  5
6EA
330
7CC
100
AcDbEntity
  8
V0-OBRYS
  6
CONTINUOUS
 62
    90
 48
5.0
100
AcDbLine
 10
12.517195
 20
-261.780728
 30
0.0
 11
50.486404
 21
-261.780728
 31
0.0
  0
ARC
  5
6EB
330
7CC
100
AcDbEntity
  8
V0-OBRYS
  6
CONTINUOUS
 62
    90
100
AcDbCircle
 10
12.517195
 20
-256.780728
 30
0.0
 40
5.0
100
AcDbArc
 50
185.032259
 51
270.0
  0
LINE
  5
6EC
330
7CC
100
AcDbEntity
  8
V0-OBRYS
  6
CONTINUOUS
 62
    90
 48
5.0
100
AcDbLine
 10
50.486404
 20
-135.240978
 30
0.0
 11
105.857204
 21
-135.240978
 31
0.0
  0
LINE
  5
6ED
330
7CC
100
AcDbEntity
  8
V0-OBRYS
  6
CONTINUOUS
 62
    90
 48
5.0
100
AcDbLine
 10
50.486404
 20
-106.788728
 30
0.0
 11
12.517195
 21
-106.788728
 31
0.0
  0
ARC
  5
6EE
330
7CC
100
AcDbEntity
  8
V0-OBRYS
  6
CONTINUOUS
 62
    90
100
AcDbCircle
 10
12.517195
 20
-111.788728
 30
0.0
 40
5.0
100
AcDbArc
 50
90.0
 51
174.967741
  0
LINE
  5
6EF
330
7CC
100
AcDbEntity
  8
V0-OBRYS
  6
CONTINUOUS
 62
    90
100
AcDbLine
 10
6.229401
 20
52.954799
 30
0.0
 11
7.92312
 21
52.954799
 31
0.0
  0
LINE
  5
6F0
330
7CC
100
AcDbEntity
  8
V0-OBRYS
  6
CONTINUOUS
 62
    90
100
AcDbLine
 10
7.92312
 20
52.954799
 30
0.0
 11
7.92312
 21
-59.515596
 31
0.0
  0
LINE
  5
6F1
330
7CC
100
AcDbEntity
  8
V0-OBRYS
  6
CONTINUOUS
 62
    90
100
AcDbLine
 10
7.92312
 20
-59.515596
 30
0.0
 11
6.651235
 21
-59.515596
 31
0.0
  0
LINE
  5
6F2
330
7CC
100
AcDbEntity
  8
V0-OBRYS
  6
CONTINUOUS
 62
    90
100
AcDbLine
 10
7.92312
 20
-128.137378
 30
0.0
 11
7.92312
 21
-240.607773
 31
0.0
  0
LINE
  5
6F3
330
7CC
100
AcDbEntity
  8
V0-OBRYS
  6
CONTINUOUS
 62
    90
100
AcDbLine
 10
7.92312
 20
-240.607773
 30
0.0
 11
6.651235
 21
-240.607773
 31
0.0
  0
LINE
  5
6F4
330
7CC
100
AcDbEntity
  8
V0-OBRYS
  6
CONTINUOUS
 62
    90
100
AcDbLine
 10
6.229401
 20
-128.137378
 30
0.0
 11
7.92312
 21
-128.137378
 31
0.0
  0
TEXT
  5
7A3
330
7CC
100
AcDbEntity
  8
V0-ZBYTEK
 62
    51
100
AcDbText
 10
183.308834
 20
-210.910556
 30
0.0
 40
13.5618
  1
MALY AXIALNI
  7
ED5
100
AcDbText
  0
TEXT
  5
7A4
330
7CC
100
AcDbEntity
  8
V0-ZBYTEK
 62
    51
100
AcDbText
 10
188.1489729180299
 20
-233.5135560000012
 30
0.0
 40
13.5618
  1
VENTILATOR
  7
ED5
100
AcDbText
  0
TEXT
  5
7A5
330
7CC
100
AcDbEntity
  8
V0-NAZVY
100
AcDbText
 10
172.9016861428572
 20
-183.273217
 30
0.0
 40
24.2175
  1
HEF 100
  7
ED5
100
AcDbText
  0
VIEWPORT
  5
83D
330
7C8
100
AcDbEntity
 67
     1
  8
0
 60
     1
100
AcDbViewport
 10
0.0
 20
0.0
 30
0.0
 40
10.0
 41
10.0
 68
     0
 69
     1
1001
VD_INVISIBLE_NOT_FOR_READ
1000
VD_INVISIBLE_NOT_FOR_READ
1001
ACAD
1000
MVIEW
1002
{
1070
    16
1010
0.0
1020
0.0
1030
0.0
1010
0.0
1020
0.0
1030
1.0
1040
6.2831853071796
1040
10.0
1040
0.0
1040
0.0
1040
0.0
1040
0.0
1040
0.0
1070
     0
1070
   100
1070
     0
1070
     1
1070
     0
1070
     0
1070
     0
1070
     0
1040
0.0
1040
0.0
1040
0.0
1040
1.0
1040
1.0
1040
0.0
1040
0.0
1070
     0
1002
{
1002
}
1002
}
  0
VIEWPORT
  5
83E
330
7C8
100
AcDbEntity
 67
     1
  8
0
 60
     1
100
AcDbViewport
 10
0.0
 20
0.0
 30
0.0
 40
10.0
 41
10.0
 68
     0
 69
     2
1001
VD_INVISIBLE_NOT_FOR_READ
1000
VD_INVISIBLE_NOT_FOR_READ
1001
ACAD
1000
MVIEW
1002
{
1070
    16
1010
0.0
1020
0.0
1030
0.0
1010
0.0
1020
0.0
1030
1.0
1040
6.2831853071796
1040
10.0
1040
0.0
1040
0.0
1040
0.0
1040
0.0
1040
0.0
1070
     0
1070
   100
1070
     0
1070
     1
1070
     0
1070
     0
1070
     0
1070
     0
1040
0.0
1040
0.0
1040
0.0
1040
1.0
1040
1.0
1040
0.0
1040
0.0
1070
     0
1002
{
1002
}
1002
}
  0
ENDSEC
  0
SECTION
  2
OBJECTS
  0
DICTIONARY
  5
7B9
330
0
100
AcDbDictionary
  3
ACAD_GROUP
350
7BA
  3
ACAD_LAYOUT
350
7C7
  3
ACAD_MLINESTYLE
350
7C4
  3
ACAD_PLOTSETTINGS
350
7C6
  3
ACDBHEADERROUNDTRIPXREC
350
83F
  3
VECTORDRAW_OBJECTS
350
7DC
  0
DICTIONARY
  5
85F
330
7D6
100
AcDbDictionary
280
     1
  3
ACAD_XREC_ROUNDTRIP
360
860
  0
DICTIONARY
  5
7BA
102
{ACAD_REACTORS
330
7B9
102
}
330
7B9
100
AcDbDictionary
  0
DICTIONARY
  5
7C7
102
{ACAD_REACTORS
330
7B9
102
}
330
7B9
100
AcDbDictionary
  0
DICTIONARY
  5
7C4
102
{ACAD_REACTORS
330
7B9
102
}
330
7B9
100
AcDbDictionary
  3
STANDARD
350
7C5
  0
DICTIONARY
  5
7C6
102
{ACAD_REACTORS
330
7B9
102
}
330
7B9
100
AcDbDictionary
  0
DICTIONARY
  5
83F
102
{ACAD_REACTORS
330
7B9
102
}
330
7B9
100
AcDbDictionary
  3
CEPSNTYPE
350
848
  3
DIMSTYLEDATA
350
85E
  3
FINGERPRINTGUID
350
849
  3
HYPERLINKBASE
350
842
  3
INSUNITS
350
847
  3
LAYOUTDICT
350
844
  3
LWETCUNION
350
846
  3
PLOTSETDICT
350
845
  3
PSVPSCALE
350
84B
  3
PUCSBASE
350
84E
  3
PUCSORGBACK
350
854
  3
PUCSORGBOTTOM
350
850
  3
PUCSORGFRONT
350
853
  3
PUCSORGLEFT
350
851
  3
PUCSORGRIGHT
350
852
  3
PUCSORGTOP
350
84F
  3
PUCSORTHOREF
350
84C
  3
PUCSORTHOVIEW
350
84D
  3
STYLESHEET
350
843
  3
TSTACKALIGN
350
840
  3
TSTACKSIZE
350
841
  3
UCSBASE
350
857
  3
UCSORGBACK
350
85D
  3
UCSORGBOTTOM
350
859
  3
UCSORGFRONT
350
85C
  3
UCSORGLEFT
350
85A
  3
UCSORGRIGHT
350
85B
  3
UCSORGTOP
350
858
  3
UCSORTHOREF
350
855
  3
UCSORTHOVIEW
350
856
  3
VERSIONGUID
350
84A
  0
DICTIONARY
  5
7DC
102
{ACAD_REACTORS
330
7B9
102
}
330
7B9
100
AcDbDictionary
  3
SERIALNO
350
7DD
  0
XRECORD
  5
860
102
{ACAD_REACTORS
330
85F
102
}
330
85F
100
AcDbXrecord
102
UCS
 74
     0
 71
     1
 10
0.0
 20
0.0
 30
0.0
 10
1.0
 20
0.0
 30
0.0
 10
0.0
 20
1.0
 30
0.0
146
0.0
 79
     0
102
VIEW
281
     0
  0
MLINESTYLE
  5
7C5
102
{ACAD_REACTORS
330
7C4
102
}
330
7C4
100
AcDbMlineStyle
  2
Standard
 70
     0
  3

 62
   256
 51
90.0
 52
90.0
 71
     2
 49
0.5
 62
   256
  6
BYLAYER
 49
-0.5
 62
   256
  6
BYLAYER
  0
XRECORD
  5
848
102
{ACAD_REACTORS
330
83F
102
}
330
83F
100
AcDbXrecord
 90
        0
  0
XRECORD
  5
85E
102
{ACAD_REACTORS
330
83F
102
}
330
83F
100
AcDbXrecord
1000
DSTYLE
1002
{
1070
    41
 40
12.0
1070
   342
340
1D
1070
   271
 70
     0
1070
    44
 40
1.25
1070
    42
 40
1.0
1070
   147
 40
1.5
1070
    77
 70
     1
1070
    73
 70
     0
1070
   174
 70
     1
1070
   172
 70
     1
1070
    74
 70
     0
1070
   340
340
415
1070
   140
 40
10.0
1070
   288
 70
     1
1002
}
  0
XRECORD
  5
849
102
{ACAD_REACTORS
330
83F
102
}
330
83F
100
AcDbXrecord
  1
{FAEB1C30-E019-11D5-929B-00C0DF256EC4}
  0
XRECORD
  5
842
102
{ACAD_REACTORS
330
83F
102
}
330
83F
100
AcDbXrecord
  1

  0
XRECORD
  5
847
102
{ACAD_REACTORS
330
83F
102
}
330
83F
100
AcDbXrecord
 90
        1
  0
XRECORD
  5
844
102
{ACAD_REACTORS
330
83F
102
}
330
83F
100
AcDbXrecord
340
7C7
  0
XRECORD
  5
846
102
{ACAD_REACTORS
330
83F
102
}
330
83F
100
AcDbXrecord
 90
     2560
  0
XRECORD
  5
845
102
{ACAD_REACTORS
330
83F
102
}
330
83F
100
AcDbXrecord
340
7C6
  0
XRECORD
  5
84B
102
{ACAD_REACTORS
330
83F
102
}
330
83F
100
AcDbXrecord
 40
0.0
  0
XRECORD
  5
84E
102
{ACAD_REACTORS
330
83F
102
}
330
83F
100
AcDbXrecord
340
0
  0
XRECORD
  5
854
102
{ACAD_REACTORS
330
83F
102
}
330
83F
100
AcDbXrecord
 10
0.0
 20
0.0
 30
0.0
  0
XRECORD
  5
850
102
{ACAD_REACTORS
330
83F
102
}
330
83F
100
AcDbXrecord
 10
0.0
 20
0.0
 30
0.0
  0
XRECORD
  5
853
102
{ACAD_REACTORS
330
83F
102
}
330
83F
100
AcDbXrecord
 10
0.0
 20
0.0
 30
0.0
  0
XRECORD
  5
851
102
{ACAD_REACTORS
330
83F
102
}
330
83F
100
AcDbXrecord
 10
0.0
 20
0.0
 30
0.0
  0
XRECORD
  5
852
102
{ACAD_REACTORS
330
83F
102
}
330
83F
100
AcDbXrecord
 10
0.0
 20
0.0
 30
0.0
  0
XRECORD
  5
84F
102
{ACAD_REACTORS
330
83F
102
}
330
83F
100
AcDbXrecord
 10
0.0
 20
0.0
 30
0.0
  0
XRECORD
  5
84C
102
{ACAD_REACTORS
330
83F
102
}
330
83F
100
AcDbXrecord
340
0
  0
XRECORD
  5
84D
102
{ACAD_REACTORS
330
83F
102
}
330
83F
100
AcDbXrecord
 70
     0
  0
XRECORD
  5
843
102
{ACAD_REACTORS
330
83F
102
}
330
83F
100
AcDbXrecord
  1

  0
XRECORD
  5
840
102
{ACAD_REACTORS
330
83F
102
}
330
83F
100
AcDbXrecord
 90
        1
  0
XRECORD
  5
841
102
{ACAD_REACTORS
330
83F
102
}
330
83F
100
AcDbXrecord
 90
       70
  0
XRECORD
  5
857
102
{ACAD_REACTORS
330
83F
102
}
330
83F
100
AcDbXrecord
340
0
  0
XRECORD
  5
85D
102
{ACAD_REACTORS
330
83F
102
}
330
83F
100
AcDbXrecord
 10
0.0
 20
0.0
 30
0.0
  0
XRECORD
  5
859
102
{ACAD_REACTORS
330
83F
102
}
330
83F
100
AcDbXrecord
 10
0.0
 20
0.0
 30
0.0
  0
XRECORD
  5
85C
102
{ACAD_REACTORS
330
83F
102
}
330
83F
100
AcDbXrecord
 10
0.0
 20
0.0
 30
0.0
  0
XRECORD
  5
85A
102
{ACAD_REACTORS
330
83F
102
}
330
83F
100
AcDbXrecord
 10
0.0
 20
0.0
 30
0.0
  0
XRECORD
  5
85B
102
{ACAD_REACTORS
330
83F
102
}
330
83F
100
AcDbXrecord
 10
0.0
 20
0.0
 30
0.0
  0
XRECORD
  5
858
102
{ACAD_REACTORS
330
83F
102
}
330
83F
100
AcDbXrecord
 10
0.0
 20
0.0
 30
0.0
  0
XRECORD
  5
855
102
{ACAD_REACTORS
330
83F
102
}
330
83F
100
AcDbXrecord
340
0
  0
XRECORD
  5
856
102
{ACAD_REACTORS
330
83F
102
}
330
83F
100
AcDbXrecord
 70
     0
  0
XRECORD
  5
84A
102
{ACAD_REACTORS
330
83F
102
}
330
83F
100
AcDbXrecord
  1
{FAEB1C32-E019-11D5-929B-00C0DF256EC4}
  0
XRECORD
  5
7DD
102
{ACAD_REACTORS
330
7DC
102
}
330
7DC
100
AcDbXrecord
1000
rInJVR9YY4Q8hfPWdUq5j5319
1070
     4
1070
     6
  0
ENDSEC
  0
EOF
