  0
SECTION
  2
HEADER
  9
$ACADVER
  1
AC1014
  9
$ACADMAINTVER
 70
     9
  9
$DWGCODEPAGE
  3
ANSI_1250
  9
$INSBASE
 10
0.0
 20
0.0
 30
0.0
  9
$EXTMIN
 10
988.0526022307691
 20
-1351.630106
 30
0.0
  9
$EXTMAX
 10
2287.084328868132
 20
343.999093
 30
0.0
  9
$LIMMIN
 10
0.0
 20
0.0
  9
$LIMMAX
 10
0.0
 20
0.0
  9
$ORTHOMODE
 70
     1
  9
$REGENMODE
 70
     1
  9
$FILLMODE
 70
     1
  9
$QTEXTMODE
 70
     0
  9
$MIRRTEXT
 70
     1
  9
$DRAGMODE
 70
     2
  9
$LTSCALE
 40
1.0
  9
$OSMODE
 70
    37
  9
$ATTMODE
 70
     1
  9
$TEXTSIZE
 40
0.2
  9
$TRACEWID
 40
0.05
  9
$TEXTSTYLE
  7
ED40
  9
$CLAYER
  8
V0-VYPLNE
  9
$CELTYPE
  6
CONTINUOUS
  9
$CECOLOR
 62
    41
  9
$CELTSCALE
 40
1.0
  9
$DELOBJ
 70
     1
  9
$DISPSILH
 70
     0
  9
$DIMSCALE
 40
1.0
  9
$DIMASZ
 40
40.0
  9
$DIMEXO
 40
1.0
  9
$DIMDLI
 40
0.38
  9
$DIMRND
 40
0.0
  9
$DIMDLE
 40
0.0
  9
$DIMEXE
 40
1.25
  9
$DIMTP
 40
0.0
  9
$DIMTM
 40
0.0
  9
$DIMTXT
 40
40.0
  9
$DIMCEN
 40
0.09
  9
$DIMTSZ
 40
0.0
  9
$DIMTOL
 70
     0
  9
$DIMLIM
 70
     0
  9
$DIMTIH
 70
     0
  9
$DIMTOH
 70
     0
  9
$DIMSE1
 70
     0
  9
$DIMSE2
 70
     0
  9
$DIMTAD
 70
     1
  9
$DIMZIN
 70
     0
  9
$DIMBLK
  1
OPEN
  9
$DIMASO
 70
     1
  9
$DIMSHO
 70
     1
  9
$DIMPOST
  1

  9
$DIMAPOST
  1

  9
$DIMALT
 70
     0
  9
$DIMALTD
 70
     2
  9
$DIMALTF
 40
25.4
  9
$DIMLFAC
 40
1.0
  9
$DIMTOFL
 70
     1
  9
$DIMTVP
 40
0.0
  9
$DIMTIX
 70
     1
  9
$DIMSOXD
 70
     0
  9
$DIMSAH
 70
     0
  9
$DIMBLK1
  1

  9
$DIMBLK2
  1

  9
$DIMSTYLE
  2
ED40
  9
$DIMCLRD
 70
     0
  9
$DIMCLRE
 70
    41
  9
$DIMCLRT
 70
    41
  9
$DIMTFAC
 40
1.0
  9
$DIMGAP
 40
2.0
  9
$DIMJUST
 70
     0
  9
$DIMSD1
 70
     0
  9
$DIMSD2
 70
     0
  9
$DIMTOLJ
 70
     1
  9
$DIMTZIN
 70
     0
  9
$DIMALTZ
 70
     0
  9
$DIMALTTZ
 70
     0
  9
$DIMFIT
 70
     3
  9
$DIMUPT
 70
     1
  9
$DIMUNIT
 70
     2
  9
$DIMDEC
 70
     0
  9
$DIMTDEC
 70
     4
  9
$DIMALTU
 70
     2
  9
$DIMALTTD
 70
     2
  9
$DIMTXSTY
  7
ED40
  9
$DIMAUNIT
 70
     0
  9
$LUNITS
 70
     2
  9
$LUPREC
 70
     4
  9
$SKETCHINC
 40
0.1
  9
$FILLETRAD
 40
0.5
  9
$AUNITS
 70
     0
  9
$AUPREC
 70
     0
  9
$MENU
  1
.
  9
$ELEVATION
 40
0.0
  9
$PELEVATION
 40
0.0
  9
$THICKNESS
 40
0.0
  9
$LIMCHECK
 70
     0
  9
$BLIPMODE
 70
     0
  9
$CHAMFERA
 40
0.5
  9
$CHAMFERB
 40
0.5
  9
$CHAMFERC
 40
1.0
  9
$CHAMFERD
 40
0.0
  9
$SKPOLY
 70
     0
  9
$TDCREATE
 40
2455636.644229595
  9
$TDUPDATE
 40
2455636.644229606
  9
$TDINDWG
 40
0.0000000116
  9
$TDUSRTIMER
 40
0.0000000116
  9
$USRTIMER
 70
     1
  9
$ANGBASE
 50
0.0
  9
$ANGDIR
 70
     0
  9
$PDMODE
 70
    35
  9
$PDSIZE
 40
20.0
  9
$PLINEWID
 40
0.0
  9
$COORDS
 70
     1
  9
$SPLFRAME
 70
     0
  9
$SPLINETYPE
 70
     6
  9
$SPLINESEGS
 70
     8
  9
$ATTDIA
 70
     0
  9
$ATTREQ
 70
     1
  9
$HANDLING
 70
     1
  9
$HANDSEED
  5
4C80
  9
$SURFTAB1
 70
     6
  9
$SURFTAB2
 70
     6
  9
$SURFTYPE
 70
     6
  9
$SURFU
 70
     6
  9
$SURFV
 70
     6
  9
$UCSNAME
  2

  9
$UCSORG
 10
0.0
 20
0.0
 30
0.0
  9
$UCSXDIR
 10
1.0
 20
0.0
 30
0.0
  9
$UCSYDIR
 10
0.0
 20
1.0
 30
0.0
  9
$PUCSNAME
  2

  9
$PUCSORG
 10
0.0
 20
0.0
 30
0.0
  9
$PUCSXDIR
 10
1.0
 20
0.0
 30
0.0
  9
$PUCSYDIR
 10
0.0
 20
1.0
 30
0.0
  9
$USERI1
 70
     0
  9
$USERI2
 70
     0
  9
$USERI3
 70
     0
  9
$USERI4
 70
     0
  9
$USERI5
 70
     0
  9
$USERR1
 40
0.0
  9
$USERR2
 40
0.0
  9
$USERR3
 40
0.0
  9
$USERR4
 40
0.0
  9
$USERR5
 40
0.0
  9
$WORLDVIEW
 70
     1
  9
$SHADEDGE
 70
     3
  9
$SHADEDIF
 70
    70
  9
$TILEMODE
 70
     1
  9
$MAXACTVP
 70
    64
  9
$PINSBASE
 10
0.0
 20
0.0
 30
0.0
  9
$PLIMCHECK
 70
     0
  9
$PEXTMIN
 10
1.000000000000000E+20
 20
1.000000000000000E+20
 30
1.000000000000000E+20
  9
$PEXTMAX
 10
-1.000000000000000E+20
 20
-1.000000000000000E+20
 30
-1.000000000000000E+20
  9
$PLIMMIN
 10
0.0
 20
0.0
  9
$PLIMMAX
 10
0.0
 20
0.0
  9
$UNITMODE
 70
     0
  9
$VISRETAIN
 70
     1
  9
$PLINEGEN
 70
     0
  9
$PSLTSCALE
 70
     1
  9
$TREEDEPTH
 70
  3020
  9
$PICKSTYLE
 70
     1
  9
$CMLSTYLE
  2
STANDARD
  9
$CMLJUST
 70
     0
  9
$CMLSCALE
 40
1.0
  9
$PROXYGRAPHICS
 70
     1
  9
$MEASUREMENT
 70
     0
  0
ENDSEC
  0
SECTION
  2
CLASSES
  0
CLASS
  1
ACDBDICTIONARYWDFLT
  2
AcDbDictionaryWithDefault
  3
ObjectDBX Classes
 90
        0
280
     0
281
     0
  0
CLASS
  1
XRECORD
  2
AcDbXrecord
  3
AutoCAD 2000
 90
        0
280
     0
281
     0
  0
CLASS
  1
LWPOLYLINE
  2
AcDbPolyline
  3
AutoCAD 2000
 90
        0
280
     0
281
     1
  0
CLASS
  1
HATCH
  2
AcDbHatch
  3
AutoCAD 2000
 90
        0
280
     0
281
     1
  0
CLASS
  1
ACDBPLACEHOLDER
  2
AcDbPlaceHolder
  3
ObjectDBX Classes
 90
        0
280
     0
281
     0
  0
CLASS
  1
LAYOUT
  2
AcDbLayout
  3
ObjectDBX Classes
 90
        0
280
     0
281
     0
  0
ENDSEC
  0
SECTION
  2
TABLES
  0
TABLE
  2
VPORT
  5
4BC2
330
0
100
AcDbSymbolTable
 70
     2
  0
VPORT
  5
4BE3
102
{ACAD_XDICTIONARY
360
4C7E
102
}
330
4BC2
100
AcDbSymbolTableRecord
100
AcDbViewportTableRecord
  2
*ACTIVE
 70
     0
 10
0.0
 20
0.0
 11
1.0
 21
1.0
 12
1536.77219
 22
-454.98049
 13
0.0
 23
0.0
 14
10.0
 24
10.0
 15
10.0
 25
10.0
 16
0.0
 26
0.0
 36
1.0
 17
0.0
 27
0.0
 37
0.0
 40
1869.044998
 41
0.0095004436889716
 42
50.0
 43
0.0
 44
0.0
 50
0.0
 51
0.0000000000007958
 71
     0
 72
   100
 73
     1
 74
     3
 75
     0
 76
     0
 77
     0
 78
     0
  0
ENDTAB
  0
TABLE
  2
LTYPE
  5
4BBF
330
0
100
AcDbSymbolTable
 70
    25
  0
LTYPE
  5
4BCE
330
4BBF
100
AcDbSymbolTableRecord
100
AcDbLinetypeTableRecord
  2
BYBLOCK
 70
     0
  3

 72
    65
 73
     0
 40
0.0
  0
LTYPE
  5
4BCF
330
4BBF
100
AcDbSymbolTableRecord
100
AcDbLinetypeTableRecord
  2
BYLAYER
 70
     0
  3

 72
    65
 73
     0
 40
0.0
  0
LTYPE
  5
4BD0
330
4BBF
100
AcDbSymbolTableRecord
100
AcDbLinetypeTableRecord
  2
CONTINUOUS
 70
     0
  3
Solid line
 72
    65
 73
     0
 40
0.0
  0
LTYPE
  5
4BEB
330
4BBF
100
AcDbSymbolTableRecord
100
AcDbLinetypeTableRecord
  2
CENTER
 70
     0
  3
Center ____ _ ____ _ ____ _ ____ _ ____ _ ____
 72
    65
 73
     4
 40
2.0
 49
1.25
 74
     0
 49
-0.25
 74
     0
 49
0.25
 74
     0
 49
-0.25
 74
     0
  0
LTYPE
  5
4BEC
330
4BBF
100
AcDbSymbolTableRecord
100
AcDbLinetypeTableRecord
  2
DASHDOT
 70
     0
  3
Dashdot __ . __ . __ . __ . __ . __ . __ . __
 72
    65
 73
     4
 40
1.0
 49
0.5
 74
     0
 49
-0.25
 74
     0
 49
0.0
 74
     0
 49
-0.25
 74
     0
  0
LTYPE
  5
4BED
330
4BBF
100
AcDbSymbolTableRecord
100
AcDbLinetypeTableRecord
  2
DASHED
 70
     0
  3
Dashed __ __ __ __ __ __ __ __ __ __ __ __ __ _
 72
    65
 73
     2
 40
0.75
 49
0.5
 74
     0
 49
-0.25
 74
     0
  0
LTYPE
  5
4BEE
330
4BBF
100
AcDbSymbolTableRecord
100
AcDbLinetypeTableRecord
  2
HIDDEN
 70
     0
  3
Hidden __ __ __ __ __ __ __ __ __ __ __ __ __ __
 72
    65
 73
     2
 40
0.375
 49
0.25
 74
     0
 49
-0.125
 74
     0
  0
LTYPE
  5
4BEF
330
4BBF
100
AcDbSymbolTableRecord
100
AcDbLinetypeTableRecord
  2
HIDDEN2
 70
     0
  3
Hidden2 _ _ _ _ _ _ _ _ _ _ _ _ _ _ _ _ _ 
 72
    65
 73
     2
 40
0.1875
 49
0.125
 74
     0
 49
-0.0625
 74
     0
  0
LTYPE
  5
4BF0
330
4BBF
100
AcDbSymbolTableRecord
100
AcDbLinetypeTableRecord
  2
BORDER
 70
     0
  3
Border __ __ . __ __ . __ __ . __ __ . __ __ .
 72
    65
 73
     6
 40
1.75
 49
0.5
 74
     0
 49
-0.25
 74
     0
 49
0.5
 74
     0
 49
-0.25
 74
     0
 49
0.0
 74
     0
 49
-0.25
 74
     0
  0
LTYPE
  5
4BF1
330
4BBF
100
AcDbSymbolTableRecord
100
AcDbLinetypeTableRecord
  2
BORDER2
 70
     0
  3
Border2 __.__.__.__.__.__.__.__.__.__.__.
 72
    65
 73
     6
 40
0.875
 49
0.25
 74
     0
 49
-0.125
 74
     0
 49
0.25
 74
     0
 49
-0.125
 74
     0
 49
0.0
 74
     0
 49
-0.125
 74
     0
  0
LTYPE
  5
4BF2
330
4BBF
100
AcDbSymbolTableRecord
100
AcDbLinetypeTableRecord
  2
BORDERX2
 70
     0
  3
Borderx2  ____  ____  .  ____  ____  .  ___
 72
    65
 73
     6
 40
3.5
 49
1.0
 74
     0
 49
-0.5
 74
     0
 49
1.0
 74
     0
 49
-0.5
 74
     0
 49
0.0
 74
     0
 49
-0.5
 74
     0
  0
LTYPE
  5
4BF3
330
4BBF
100
AcDbSymbolTableRecord
100
AcDbLinetypeTableRecord
  2
CENTER2
 70
     0
  3
Center2  ___ _ ___ _ ___ _ ___ _ ___ _ ___
 72
    65
 73
     4
 40
1.125
 49
0.75
 74
     0
 49
-0.125
 74
     0
 49
0.125
 74
     0
 49
-0.125
 74
     0
  0
LTYPE
  5
4BF4
330
4BBF
100
AcDbSymbolTableRecord
100
AcDbLinetypeTableRecord
  2
CENTERX2
 70
     0
  3
Centerx2  ________  __  ________  __  _____
 72
    65
 73
     4
 40
4.0
 49
2.5
 74
     0
 49
-0.5
 74
     0
 49
0.5
 74
     0
 49
-0.5
 74
     0
  0
LTYPE
  5
4BF5
330
4BBF
100
AcDbSymbolTableRecord
100
AcDbLinetypeTableRecord
  2
DASHDOT2
 70
     0
  3
Dashdot2  _._._._._._._._._._._._._._._.
 72
    65
 73
     4
 40
0.5
 49
0.25
 74
     0
 49
-0.125
 74
     0
 49
0.0
 74
     0
 49
-0.125
 74
     0
  0
LTYPE
  5
4BF6
330
4BBF
100
AcDbSymbolTableRecord
100
AcDbLinetypeTableRecord
  2
DASHDOTX2
 70
     0
  3
Dashdotx2 ____  .  ____  .  ____  .  ___
 72
    65
 73
     4
 40
2.0
 49
1.0
 74
     0
 49
-0.5
 74
     0
 49
0.0
 74
     0
 49
-0.5
 74
     0
  0
LTYPE
  5
4BF7
330
4BBF
100
AcDbSymbolTableRecord
100
AcDbLinetypeTableRecord
  2
DASHED2
 70
     0
  3
Dashed2 _ _ _ _ _ _ _ _ _ _ _ _ _ _ _ _ _ 
 72
    65
 73
     2
 40
0.375
 49
0.25
 74
     0
 49
-0.125
 74
     0
  0
LTYPE
  5
4BF8
330
4BBF
100
AcDbSymbolTableRecord
100
AcDbLinetypeTableRecord
  2
DASHEDX2
 70
     0
  3
Dashedx2 ____  ____  ____  ____  ____  ___
 72
    65
 73
     2
 40
1.5
 49
1.0
 74
     0
 49
-0.5
 74
     0
  0
LTYPE
  5
4BF9
330
4BBF
100
AcDbSymbolTableRecord
100
AcDbLinetypeTableRecord
  2
DIVIDE
 70
     0
  3
Divide ____ . . ____ . . ____ . . ____ . . ____
 72
    65
 73
     6
 40
1.25
 49
0.5
 74
     0
 49
-0.25
 74
     0
 49
0.0
 74
     0
 49
-0.25
 74
     0
 49
0.0
 74
     0
 49
-0.25
 74
     0
  0
LTYPE
  5
4BFA
330
4BBF
100
AcDbSymbolTableRecord
100
AcDbLinetypeTableRecord
  2
DIVIDE2
 70
     0
  3
Divide2 __..__..__..__..__..__..__..__.._
 72
    65
 73
     6
 40
0.625
 49
0.25
 74
     0
 49
-0.125
 74
     0
 49
0.0
 74
     0
 49
-0.125
 74
     0
 49
0.0
 74
     0
 49
-0.125
 74
     0
  0
LTYPE
  5
4BFB
330
4BBF
100
AcDbSymbolTableRecord
100
AcDbLinetypeTableRecord
  2
DIVIDEX2
 70
     0
  3
Dividex2 ________  .  .  ________  .  .  _
 72
    65
 73
     6
 40
2.5
 49
1.0
 74
     0
 49
-0.5
 74
     0
 49
0.0
 74
     0
 49
-0.5
 74
     0
 49
0.0
 74
     0
 49
-0.5
 74
     0
  0
LTYPE
  5
4BFC
330
4BBF
100
AcDbSymbolTableRecord
100
AcDbLinetypeTableRecord
  2
DOT
 70
     0
  3
Dot . . . . . . . . . . . . . . . . . . . . . . . .
 72
    65
 73
     2
 40
0.25
 49
0.0
 74
     0
 49
-0.25
 74
     0
  0
LTYPE
  5
4BFD
330
4BBF
100
AcDbSymbolTableRecord
100
AcDbLinetypeTableRecord
  2
DOT2
 70
     0
  3
Dot2 ........................................
 72
    65
 73
     2
 40
0.125
 49
0.0
 74
     0
 49
-0.125
 74
     0
  0
LTYPE
  5
4BFE
330
4BBF
100
AcDbSymbolTableRecord
100
AcDbLinetypeTableRecord
  2
DOTX2
 70
     0
  3
Dotx2 .  .  .  .  .  .  .  .  .  .  .  .  .  .
 72
    65
 73
     2
 40
0.5
 49
0.0
 74
     0
 49
-0.5
 74
     0
  0
LTYPE
  5
4BFF
330
4BBF
100
AcDbSymbolTableRecord
100
AcDbLinetypeTableRecord
  2
HIDDENX2
 70
     0
  3
Hiddenx2 ____ ____ ____ ____ ____ ____ ____ 
 72
    65
 73
     2
 40
0.75
 49
0.5
 74
     0
 49
-0.25
 74
     0
  0
LTYPE
  5
4C00
330
4BBF
100
AcDbSymbolTableRecord
100
AcDbLinetypeTableRecord
  2
PHANTOM
 70
     0
  3
Phantom ______  __  __  ______  __  __  ______ 
 72
    65
 73
     6
 40
2.5
 49
1.25
 74
     0
 49
-0.25
 74
     0
 49
0.25
 74
     0
 49
-0.25
 74
     0
 49
0.25
 74
     0
 49
-0.25
 74
     0
  0
LTYPE
  5
4C01
330
4BBF
100
AcDbSymbolTableRecord
100
AcDbLinetypeTableRecord
  2
PHANTOM2
 70
     0
  3
Phantom2 ___ _ _ ___ _ _ ___ _ _ ___ _ _
 72
    65
 73
     6
 40
1.25
 49
0.625
 74
     0
 49
-0.125
 74
     0
 49
0.125
 74
     0
 49
-0.125
 74
     0
 49
0.125
 74
     0
 49
-0.125
 74
     0
  0
LTYPE
  5
4C02
330
4BBF
100
AcDbSymbolTableRecord
100
AcDbLinetypeTableRecord
  2
PHANTOMX2
 70
     0
  3
Phantomx2 ____________    ____    ____   _
 72
    65
 73
     6
 40
5.0
 49
2.5
 74
     0
 49
-0.5
 74
     0
 49
0.5
 74
     0
 49
-0.5
 74
     0
 49
0.5
 74
     0
 49
-0.5
 74
     0
  0
ENDTAB
  0
TABLE
  2
LAYER
  5
4BBC
330
0
100
AcDbSymbolTable
 70
     5
  0
LAYER
  5
4BCA
330
4BBC
100
AcDbSymbolTableRecord
100
AcDbLayerTableRecord
  2
0
 70
     0
 62
     7
  6
CONTINUOUS
  0
LAYER
  5
9E
330
4BBC
100
AcDbSymbolTableRecord
100
AcDbLayerTableRecord
  2
DEFPOINTS
 70
     0
 62
     7
  6
CONTINUOUS
  0
LAYER
  5
377
330
4BBC
100
AcDbSymbolTableRecord
100
AcDbLayerTableRecord
  2
V0-OBRYS
 70
     0
 62
    90
  6
CONTINUOUS
  0
LAYER
  5
378
330
4BBC
100
AcDbSymbolTableRecord
100
AcDbLayerTableRecord
  2
V0-VYPLNE
 70
     0
 62
    63
  6
DASHDOT
  0
LAYER
  5
1540
330
4BBC
100
AcDbSymbolTableRecord
100
AcDbLayerTableRecord
  2
VO-OBRYS
 70
     0
 62
    90
  6
CONTINUOUS
  0
ENDTAB
  0
TABLE
  2
STYLE
  5
4BBD
330
0
100
AcDbSymbolTable
 70
     6
  0
STYLE
  5
4BCB
330
4BBD
100
AcDbSymbolTableRecord
100
AcDbTextStyleTableRecord
  2
STANDARD
 70
     0
 40
0.0
 41
1.0
 50
0.0
 71
     0
 42
0.2
  3
ISOCP.shx
  4

1001
ACAD
1000
ISOCP.shx
1071
        0
  0
STYLE
  5
331
330
4BBD
100
AcDbSymbolTableRecord
100
AcDbTextStyleTableRecord
  2
ED20
 70
     0
 40
20.0
 41
1.0
 50
0.0
 71
     0
 42
0.2
  3
ISOCP.shx
  4

1001
ACAD
1000
ISOCP.shx
1071
        0
  0
STYLE
  5
648
330
4BBD
100
AcDbSymbolTableRecord
100
AcDbTextStyleTableRecord
  2
ED10
 70
     0
 40
10.0
 41
1.0
 50
0.0
 71
     0
 42
0.2
  3
ISOCP.shx
  4

1001
ACAD
1000
ISOCP.shx
1071
        0
  0
STYLE
  5
F38
330
4BBD
100
AcDbSymbolTableRecord
100
AcDbTextStyleTableRecord
  2
ED30
 70
     0
 40
30.0
 41
1.0
 50
0.0
 71
     0
 42
0.2
  3
ISOCP.shx
  4

1001
ACAD
1000
ISOCP.shx
1071
        0
  0
STYLE
  5
F39
330
4BBD
100
AcDbSymbolTableRecord
100
AcDbTextStyleTableRecord
  2
ED40
 70
     0
 40
40.0
 41
1.0
 50
0.0
 71
     0
 42
0.2
  3
ISOCP.shx
  4

1001
ACAD
1000
ISOCP.shx
1071
        0
  0
STYLE
  5
1B9D
330
4BBD
100
AcDbSymbolTableRecord
100
AcDbTextStyleTableRecord
  2
VD_RECOV_1_1B9D_
 70
     0
 40
0.0
 41
1.0
 50
0.0
 71
     0
 42
0.2
  3
ltypeshp.shx
  4

1001
ACAD
1000
ltypeshp.shx
1071
        0
  0
ENDTAB
  0
TABLE
  2
VIEW
  5
4BC0
330
0
100
AcDbSymbolTable
 70
     0
  0
ENDTAB
  0
TABLE
  2
UCS
  5
4BC1
330
0
100
AcDbSymbolTable
 70
     0
  0
ENDTAB
  0
TABLE
  2
APPID
  5
4BC3
330
0
100
AcDbSymbolTable
 70
     7
  0
APPID
  5
4BCC
330
4BC3
100
AcDbSymbolTableRecord
100
AcDbRegAppTableRecord
  2
ACAD
 70
     0
  0
APPID
  5
4BE4
330
4BC3
100
AcDbSymbolTableRecord
100
AcDbRegAppTableRecord
  2
VD_INVISIBLE_NOT_FOR_READ
 70
     0
  0
APPID
  5
4BE5
330
4BC3
100
AcDbSymbolTableRecord
100
AcDbRegAppTableRecord
  2
VD_TEMPHATCH
 70
     0
  0
APPID
  5
4BE6
330
4BC3
100
AcDbSymbolTableRecord
100
AcDbRegAppTableRecord
  2
VDEXTRAPARAM
 70
     0
  0
APPID
  5
4BE7
330
4BC3
100
AcDbSymbolTableRecord
100
AcDbRegAppTableRecord
  2
PE_URL
 70
     0
  0
APPID
  5
4BE8
330
4BC3
100
AcDbSymbolTableRecord
100
AcDbRegAppTableRecord
  2
VD_UNKNOWN
 70
     0
  0
APPID
  5
4C0B
330
4BC3
100
AcDbSymbolTableRecord
100
AcDbRegAppTableRecord
  2
CONTENTBLOCKICON
 70
     0
  0
ENDTAB
  0
TABLE
  2
DIMSTYLE
  5
4BC4
330
0
100
AcDbSymbolTable
 70
     4
  0
DIMSTYLE
105
4BE1
330
4BC4
100
AcDbSymbolTableRecord
100
AcDbDimStyleTableRecord
  2
STANDARD
 70
     0
  3

  4

  5
OPEN
  6

  7

 40
1.0
 41
15.0
 42
0.625
 43
0.38
 44
1.25
 45
0.0
 46
0.0
 47
0.0
 48
0.0
140
15.0
141
0.09
142
0.0
143
25.4
144
1.0
145
0.0
146
1.0
147
3.0
 71
     0
 72
     0
 73
     0
 74
     0
 75
     0
 76
     0
 77
     1
 78
     0
170
     0
171
     2
172
     1
173
     0
174
     1
175
     0
176
     0
177
     0
178
     0
270
     2
271
     0
272
     4
273
     2
274
     2
340
331
275
     0
280
     0
281
     0
282
     0
283
     1
284
     0
285
     0
286
     0
287
     3
288
     1
  0
DIMSTYLE
105
FE9
330
4BC4
100
AcDbSymbolTableRecord
100
AcDbDimStyleTableRecord
  2
ED20
 70
     0
  3

  4

  5
OPEN
  6

  7

 40
1.0
 41
20.0
 42
1.0
 43
0.38
 44
1.25
 45
0.0
 46
0.0
 47
0.0
 48
0.0
140
20.0
141
0.09
142
0.0
143
25.4
144
1.0
145
0.0
146
1.0
147
2.0
 71
     0
 72
     0
 73
     0
 74
     0
 75
     0
 76
     0
 77
     1
 78
     0
170
     0
171
     2
172
     1
173
     0
174
     1
175
     0
176
     0
177
    41
178
    41
270
     2
271
     0
272
     4
273
     2
274
     2
340
331
275
     0
280
     0
281
     0
282
     0
283
     1
284
     0
285
     0
286
     0
287
     3
288
     1
  0
DIMSTYLE
105
320E
330
4BC4
100
AcDbSymbolTableRecord
100
AcDbDimStyleTableRecord
  2
ED30
 70
     0
  3

  4

  5
OPEN
  6

  7

 40
1.0
 41
30.0
 42
1.0
 43
0.38
 44
1.25
 45
0.0
 46
0.0
 47
0.0
 48
0.0
140
30.0
141
0.09
142
0.0
143
25.4
144
1.0
145
0.0
146
1.0
147
2.0
 71
     0
 72
     0
 73
     0
 74
     0
 75
     0
 76
     0
 77
     1
 78
     0
170
     0
171
     2
172
     1
173
     0
174
     1
175
     0
176
     0
177
    41
178
    41
270
     2
271
     0
272
     4
273
     2
274
     2
340
F38
275
     0
280
     0
281
     0
282
     0
283
     1
284
     0
285
     0
286
     0
287
     3
288
     1
  0
DIMSTYLE
105
4105
102
{ACAD_REACTORS
330
3F41
330
4020
330
409E
330
40AB
330
41E1
330
41E2
102
}
330
4BC4
100
AcDbSymbolTableRecord
100
AcDbDimStyleTableRecord
  2
ED40
 70
     0
  3

  4

  5
OPEN
  6

  7

 40
1.0
 41
40.0
 42
1.0
 43
0.38
 44
1.25
 45
0.0
 46
0.0
 47
0.0
 48
0.0
140
40.0
141
0.09
142
0.0
143
25.4
144
1.0
145
0.0
146
1.0
147
2.0
 71
     0
 72
     0
 73
     0
 74
     0
 75
     0
 76
     0
 77
     1
 78
     0
170
     0
171
     2
172
     1
173
     0
174
     1
175
     0
176
     0
177
    41
178
    41
270
     2
271
     0
272
     4
273
     2
274
     2
340
F39
275
     0
280
     0
281
     0
282
     0
283
     1
284
     0
285
     0
286
     0
287
     3
288
     1
  0
ENDTAB
  0
TABLE
  2
BLOCK_RECORD
  5
4BBB
330
0
100
AcDbSymbolTable
 70
    11
  0
BLOCK_RECORD
  5
4BD9
330
4BBB
100
AcDbSymbolTableRecord
100
AcDbBlockTableRecord
  2
*MODEL_SPACE
  0
BLOCK_RECORD
  5
4BD5
330
4BBB
100
AcDbSymbolTableRecord
100
AcDbBlockTableRecord
  2
*PAPER_SPACE
  0
BLOCK_RECORD
  5
90
330
4BBB
100
AcDbSymbolTableRecord
100
AcDbBlockTableRecord
  2
_OPEN
  0
BLOCK_RECORD
  5
267B
330
4BBB
100
AcDbSymbolTableRecord
100
AcDbBlockTableRecord
  2
ASVORK
1001
CONTENTBLOCKICON
1071
        0
1004
2800000020000000200000000100040000000000000200000000000000000000000000000000000000000000000080000080000000808000800000008000800080800000C0C0C000808080000000FF0000FF000000FFFF00FF000000FF00FF00FFFF0000FFFFFF00FFFFFFFAAAAAAAAAAAAAAAAAAFFFFFFF
1004
FFFFFFFAFFFFFAFFFFFFFFFFAFFFFFFFFFFFFFFAFFFFFAFFFFFFFFFFAFFFFFFFFFFFFFFAFFFFFAFFFFFFFFFFAFFFFFFFFFFFFFFAFFFFFAFFFFFFFFFFAFFFFFFFFFFFFFFAFFFFFAFFFFFFFFFFAFFFFFFFFFFFFFFAFFFFFAFFFFFFFFFFAFFFFFFFFFFFFFFAFFFFFAFFFFFFFFFFAFFFFFFFFFFFFFFAFFFFFAFF
1004
FFFFFFFFAFFFFFFFFFFFFFFAFFFFFAFFFFFFFFFFAFFFFFFFFFFFFFFAFFFFFAFFFFFFFFFFAFFFFFFFFFFFFFFAFFFFFAFFFFFFFFFFAFFFFFFFFFFFFFFAFFFFFAFFFFFFFFFFAFFFFFFFFFFFFFFAFFFFFAFFFFFFFFFFAFFFFFFFFFFFFFFAFFFFFAFFFFFFFFFFAFFFFFFFFFFFFFFAFFFFFAFFFFFFFFFFAFFFFFFF
1004
FFFFFFFAFFFFFAFFFFFFFFFFFFFFFFFFFFFFFFFAFFFFFAFFFFFFFFFFAFFFFFFFFFFFFFFAFFFFFAFFFFFFFFFFAFFFFFFFFFFFFFFAFFFFFAFFFFFFFFFFAFFFFFFFFFFFFFFAFFFFFAFFFFFFFFFFAFFFFFFFFFFFFFFAFFFFFAFFFFFFFFFFAFFFFFFFFFFFFFFAFFFFFAFFFFFFFFFFAFFFFFFFFFFFFFFAFFFFFAFF
1004
FFFFFFFFAFFFFFFFFFFFFFFAFFFFFAFFFFFFFFFFAFFFFFFFFFFFFFFAFFFFFAFFFFFFFFFFAFFFFFFFFFFFFFFAFFFFFAFFFFFFFFFFAFFFFFFFFFFFFFFAFFFFFAFFFFFFFFFFAFFFFFFFFFFFFFFAFFFFFAFFFFFFFFFFAFFFFFFFFFFFFFFAFFFFFAFFFFFFFFFFAFFFFFFFFFFFFFFAFFFFFAFFFFFFFFFFAFFFFFFF
1004
FFFFFFFAAAAAAAAAAAAAAAAAAFFFFFFF
  0
BLOCK_RECORD
  5
4BB7
330
4BBB
100
AcDbSymbolTableRecord
100
AcDbBlockTableRecord
  2
VDDIM_DEFAULT
  0
BLOCK_RECORD
  5
4BB9
330
4BBB
100
AcDbSymbolTableRecord
100
AcDbBlockTableRecord
  2
VDDIM_NONE
  0
BLOCK_RECORD
  5
4C0D
330
4BBB
100
AcDbSymbolTableRecord
100
AcDbBlockTableRecord
  2
*D5
  0
BLOCK_RECORD
  5
4C1A
330
4BBB
100
AcDbSymbolTableRecord
100
AcDbBlockTableRecord
  2
*D6
  0
BLOCK_RECORD
  5
4C27
330
4BBB
100
AcDbSymbolTableRecord
100
AcDbBlockTableRecord
  2
*D7
  0
BLOCK_RECORD
  5
4C34
330
4BBB
100
AcDbSymbolTableRecord
100
AcDbBlockTableRecord
  2
*D8
  0
BLOCK_RECORD
  5
4C41
330
4BBB
100
AcDbSymbolTableRecord
100
AcDbBlockTableRecord
  2
*D9
  0
BLOCK_RECORD
  5
4C4E
330
4BBB
100
AcDbSymbolTableRecord
100
AcDbBlockTableRecord
  2
*D10
  0
ENDTAB
  0
ENDSEC
  0
SECTION
  2
BLOCKS
  0
BLOCK
  5
4BDA
330
4BD9
100
AcDbEntity
  8
0
100
AcDbBlockBegin
  2
*MODEL_SPACE
 70
     0
 71
     0
 10
0.0
 20
0.0
 30
0.0
  3
*MODEL_SPACE
  1

  0
ENDBLK
  5
4BDB
330
4BD9
100
AcDbEntity
  8
0
100
AcDbBlockEnd
  0
BLOCK
  5
4BD6
330
4BD5
100
AcDbEntity
 67
     1
  8
0
100
AcDbBlockBegin
  2
*PAPER_SPACE
 70
     0
 71
     0
 10
0.0
 20
0.0
 30
0.0
  3
*PAPER_SPACE
  1

  0
ENDBLK
  5
4BD7
330
4BD5
100
AcDbEntity
 67
     1
  8
0
100
AcDbBlockEnd
  0
BLOCK
  5
4C03
330
90
100
AcDbEntity
  8
0
100
AcDbBlockBegin
  2
_OPEN
 70
     0
 71
     0
 10
0.0
 20
0.0
 30
0.0
  3
_OPEN
  1

  0
LINE
  5
92
330
90
100
AcDbEntity
  8
0
  6
BYBLOCK
 62
     0
100
AcDbLine
 10
-1.0
 20
0.166667
 30
0.0
 11
0.0
 21
0.0
 31
0.0
  0
LINE
  5
93
330
90
100
AcDbEntity
  8
0
  6
BYBLOCK
 62
     0
100
AcDbLine
 10
0.0
 20
0.0
 30
0.0
 11
-1.0
 21
-0.166667
 31
0.0
  0
LINE
  5
94
330
90
100
AcDbEntity
  8
0
  6
BYBLOCK
 62
     0
100
AcDbLine
 10
0.0
 20
0.0
 30
0.0
 11
-1.0
 21
0.0
 31
0.0
  0
ENDBLK
  5
4C04
330
90
100
AcDbEntity
  8
0
100
AcDbBlockEnd
  0
BLOCK
  5
4C05
330
267B
100
AcDbEntity
  8
0
100
AcDbBlockBegin
  2
ASVORK
 70
     0
 71
     0
 10
0.0
 20
0.0
 30
0.0
  3
ASVORK
  1

  0
LINE
  5
32CF
330
267B
100
AcDbEntity
  8
V0-OBRYS
  6
CONTINUOUS
 62
    90
100
AcDbLine
 10
-44.999998
 20
-40.000011
 30
0.0
 11
0.0000020000000021
 21
-40.000011
 31
0.0
  0
LINE
  5
32D0
330
267B
100
AcDbEntity
  8
V0-OBRYS
  6
CONTINUOUS
 62
    90
100
AcDbLine
 10
-44.999998
 20
39.999989
 30
0.0
 11
0.0000020000000021
 21
39.999989
 31
0.0
  0
LINE
  5
32D1
330
267B
100
AcDbEntity
  8
V0-OBRYS
  6
CONTINUOUS
 62
    90
100
AcDbLine
 10
-44.999998
 20
-0.000011
 30
0.0
 11
-44.999998
 21
-40.000011
 31
0.0
  0
LINE
  5
32D2
330
267B
100
AcDbEntity
  8
V0-OBRYS
  6
CONTINUOUS
 62
    90
100
AcDbLine
 10
-29.999998
 20
-0.000011
 30
0.0
 11
-29.999998
 21
-40.000011
 31
0.0
  0
LINE
  5
32D3
330
267B
100
AcDbEntity
  8
V0-OBRYS
  6
CONTINUOUS
 62
    90
100
AcDbLine
 10
-44.999998
 20
-0.000011
 30
0.0
 11
-44.999998
 21
39.999989
 31
0.0
  0
LINE
  5
32D4
330
267B
100
AcDbEntity
  8
V0-OBRYS
  6
CONTINUOUS
 62
    90
100
AcDbLine
 10
-29.999998
 20
-0.000011
 30
0.0
 11
-29.999998
 21
39.999989
 31
0.0
  0
LINE
  5
32D5
330
267B
100
AcDbEntity
  8
V0-OBRYS
  6
CONTINUOUS
 62
    90
100
AcDbLine
 10
0.000002
 20
-40.000011
 30
0.0
 11
0.000002
 21
-0.0000110000000006
 31
0.0
  0
LINE
  5
32D6
330
267B
100
AcDbEntity
  8
V0-OBRYS
  6
CONTINUOUS
 62
    90
100
AcDbLine
 10
0.000002
 20
39.999989
 30
0.0
 11
0.000002
 21
-0.0000110000000006
 31
0.0
  0
ENDBLK
  5
4C06
330
267B
100
AcDbEntity
  8
0
100
AcDbBlockEnd
  0
BLOCK
  5
4C07
330
4BB7
100
AcDbEntity
  8
0
100
AcDbBlockBegin
  2
VDDIM_DEFAULT
 70
     0
 71
     0
 10
0.0
 20
0.0
 30
0.0
  3
VDDIM_DEFAULT
  1

  0
LWPOLYLINE
  5
4BB8
330
4BB7
100
AcDbEntity
  8
0
  6
CONTINUOUS
 62
     0
100
AcDbPolyline
 90
        4
 70
     0
 43
0.0
 10
0.0
 20
0.0
 10
-1.0
 20
-0.1665
 10
-1.0
 20
0.1665
 10
0.0
 20
0.0
1001
VDEXTRAPARAM
1071
        1
1071
        0
1071
        0
1040
1.0
1000

1000

1040
0.0
1040
0.0
  0
HATCH
  5
4C0C
330
4BB7
100
AcDbEntity
  8
0
  6
CONTINUOUS
 62
     0
100
AcDbHatch
 10
0.0
 20
0.0
 30
0.0
210
0.0
220
0.0
230
1.0
  2
SOLID
 70
     1
 71
     0
 91
        1
 92
        2
 72
     0
 73
     1
 93
        3
 10
0.0
 20
0.0
 10
-1.0
 20
-0.1665
 10
-1.0
 20
0.1665
 97
        0
 75
     0
 76
     1
 98
        1
 10
0.0
 20
0.0
1001
VDEXTRAPARAM
1071
        1
1071
        0
1071
        0
1040
1.0
1000

1000

1040
0.0
1040
0.0
1001
VD_TEMPHATCH
1000
VD_TEMPHATCH
  0
ENDBLK
  5
4C08
330
4BB7
100
AcDbEntity
  8
0
100
AcDbBlockEnd
  0
BLOCK
  5
4C09
330
4BB9
100
AcDbEntity
  8
0
100
AcDbBlockBegin
  2
VDDIM_NONE
 70
     0
 71
     0
 10
0.0
 20
0.0
 30
0.0
  3
VDDIM_NONE
  1

  0
ENDBLK
  5
4C0A
330
4BB9
100
AcDbEntity
  8
0
100
AcDbBlockEnd
  0
BLOCK
  5
4C18
330
4C0D
100
AcDbEntity
  8
0
100
AcDbBlockBegin
  2
*D5
 70
     1
 71
     0
 10
0.0
 20
0.0
 30
0.0
  3
*D5
  1

  0
LINE
  5
4C0E
330
4C0D
100
AcDbEntity
  8
V0-VYPLNE
 62
    41
100
AcDbLine
 10
1348.878441
 20
268.998643
 30
0.0
 11
1453.487178999989
 21
268.998643
 31
0.0
  0
LINE
  5
4C0F
330
4C0D
100
AcDbEntity
  8
V0-VYPLNE
 62
    41
100
AcDbLine
 10
1348.878441
 20
-291.000457
 30
0.0
 11
1453.487178999989
 21
-291.000457
 31
0.0
  0
LINE
  5
4C10
330
4C0D
100
AcDbEntity
  8
V0-VYPLNE
 62
     0
100
AcDbLine
 10
1452.237178999989
 20
228.9986430000001
 30
0.0
 11
1452.237178999989
 21
60.52290252380965
 31
0.0
  0
LINE
  5
4C11
330
4C0D
100
AcDbEntity
  8
V0-VYPLNE
 62
     0
100
AcDbLine
 10
1452.237178999989
 20
-251.0004569999999
 30
0.0
 11
1452.237178999989
 21
-82.52471652380962
 31
0.0
  0
INSERT
  5
4C12
330
4C0D
100
AcDbEntity
  8
V0-VYPLNE
 62
     0
100
AcDbBlockReference
  2
_OPEN
 10
1452.237178999989
 20
268.9986430000001
 30
0.0
 41
40.0
 42
40.0
 43
40.0
 50
90.0
  0
INSERT
  5
4C13
330
4C0D
100
AcDbEntity
  8
V0-VYPLNE
 62
     0
100
AcDbBlockReference
  2
_OPEN
 10
1452.237178999989
 20
-291.0004569999999
 30
0.0
 41
40.0
 42
40.0
 43
40.0
 50
270.0
  0
MTEXT
  5
4C14
330
4C0D
100
AcDbEntity
  8
V0-VYPLNE
 62
    41
100
AcDbMText
 10
1452.237179
 20
-11.000907
 30
0.0
 40
40.0
 41
0.0
 71
     5
 72
     1
  1
%%c\A1;560
  7
ED40
 11
0.0
 21
1.0
 31
0.0
  0
POINT
  5
4C15
330
4C0D
100
AcDbEntity
  8
DEFPOINTS
 62
     0
100
AcDbPoint
 10
1347.878441
 20
268.998643
 30
0.0
  0
POINT
  5
4C16
330
4C0D
100
AcDbEntity
  8
DEFPOINTS
 62
     0
100
AcDbPoint
 10
1347.878441
 20
-291.000457
 30
0.0
  0
POINT
  5
4C17
330
4C0D
100
AcDbEntity
  8
DEFPOINTS
 62
     0
100
AcDbPoint
 10
1452.237178999989
 20
-291.000457
 30
0.0
  0
ENDBLK
  5
4C19
330
4C0D
100
AcDbEntity
  8
0
100
AcDbBlockEnd
  0
BLOCK
  5
4C25
330
4C1A
100
AcDbEntity
  8
0
100
AcDbBlockBegin
  2
*D6
 70
     1
 71
     0
 10
0.0
 20
0.0
 30
0.0
  3
*D6
  1

  0
LINE
  5
4C1B
330
4C1A
100
AcDbEntity
  8
V0-VYPLNE
 62
    41
100
AcDbLine
 10
1155.51027
 20
78.999813
 30
0.0
 11
1012.571832999995
 21
78.99981300000005
 31
0.0
  0
LINE
  5
4C1C
330
4C1A
100
AcDbEntity
  8
V0-VYPLNE
 62
    41
100
AcDbLine
 10
1155.51027
 20
-101.001627
 30
0.0
 11
1012.571832999995
 21
-101.001627
 31
0.0
  0
LINE
  5
4C1D
330
4C1A
100
AcDbEntity
  8
V0-VYPLNE
 62
     0
100
AcDbLine
 10
1013.821832999995
 20
38.99981300000013
 30
0.0
 11
1013.821832999995
 21
57.66575966666669
 31
0.0
  0
LINE
  5
4C1E
330
4C1A
100
AcDbEntity
  8
V0-VYPLNE
 62
     0
100
AcDbLine
 10
1013.821832999995
 20
-61.00162699999987
 30
0.0
 11
1013.821832999995
 21
-79.66757366666668
 31
0.0
  0
INSERT
  5
4C1F
330
4C1A
100
AcDbEntity
  8
V0-VYPLNE
 62
     0
100
AcDbBlockReference
  2
_OPEN
 10
1013.821832999995
 20
78.99981300000013
 30
0.0
 41
40.0
 42
40.0
 43
40.0
 50
90.0
  0
INSERT
  5
4C20
330
4C1A
100
AcDbEntity
  8
V0-VYPLNE
 62
     0
100
AcDbBlockReference
  2
_OPEN
 10
1013.821832999995
 20
-101.0016269999999
 30
0.0
 41
40.0
 42
40.0
 43
40.0
 50
270.0
  0
MTEXT
  5
4C21
330
4C1A
100
AcDbEntity
  8
V0-VYPLNE
 62
    41
100
AcDbMText
 10
1013.821833
 20
-11.000907
 30
0.0
 40
40.0
 41
0.0
 71
     5
 72
     1
  1
%%c\A1;180
  7
ED40
 11
0.0
 21
1.0
 31
0.0
  0
POINT
  5
4C22
330
4C1A
100
AcDbEntity
  8
DEFPOINTS
 62
     0
100
AcDbPoint
 10
1156.51027
 20
78.999813
 30
0.0
  0
POINT
  5
4C23
330
4C1A
100
AcDbEntity
  8
DEFPOINTS
 62
     0
100
AcDbPoint
 10
1156.51027
 20
-101.001627
 30
0.0
  0
POINT
  5
4C24
330
4C1A
100
AcDbEntity
  8
DEFPOINTS
 62
     0
100
AcDbPoint
 10
1013.821832999995
 20
-101.001627
 30
0.0
  0
ENDBLK
  5
4C26
330
4C1A
100
AcDbEntity
  8
0
100
AcDbBlockEnd
  0
BLOCK
  5
4C32
330
4C27
100
AcDbEntity
  8
0
100
AcDbBlockBegin
  2
*D7
 70
     1
 71
     0
 10
0.0
 20
0.0
 30
0.0
  3
*D7
  1

  0
LINE
  5
4C28
330
4C27
100
AcDbEntity
  8
V0-OBRYS
 62
    41
100
AcDbLine
 10
1248.321191
 20
-367.000907
 30
0.0
 11
1248.321191
 21
-472.657643999983
 31
0.0
  0
LINE
  5
4C29
330
4C27
100
AcDbEntity
  8
V0-OBRYS
 62
    41
100
AcDbLine
 10
1347.878441
 20
-292.000457
 30
0.0
 11
1347.878441
 21
-472.657643999983
 31
0.0
  0
LINE
  5
4C2A
330
4C27
100
AcDbEntity
  8
V0-OBRYS
 62
     0
100
AcDbLine
 10
1288.321191
 20
-471.407643999983
 30
0.0
 11
1249.028387428571
 21
-471.407643999983
 31
0.0
  0
LINE
  5
4C2B
330
4C27
100
AcDbEntity
  8
V0-OBRYS
 62
     0
100
AcDbLine
 10
1387.878441
 20
-471.407643999983
 30
0.0
 11
1350.171244571429
 21
-471.407643999983
 31
0.0
  0
INSERT
  5
4C2C
330
4C27
100
AcDbEntity
  8
V0-OBRYS
 62
     0
100
AcDbBlockReference
  2
_OPEN
 10
1248.321191
 20
-471.407643999983
 30
0.0
 41
40.0
 42
40.0
 43
40.0
 50
180.0
  0
INSERT
  5
4C2D
330
4C27
100
AcDbEntity
  8
V0-OBRYS
 62
     0
100
AcDbBlockReference
  2
_OPEN
 10
1347.878441
 20
-471.407643999983
 30
0.0
 41
40.0
 42
40.0
 43
40.0
  0
MTEXT
  5
4C2E
330
4C27
100
AcDbEntity
  8
V0-OBRYS
 62
    41
100
AcDbMText
 10
1299.599816
 20
-471.407644
 30
0.0
 40
40.0
 41
0.0
 71
     5
 72
     1
  1
\A1;100
  7
ED40
  0
POINT
  5
4C2F
330
4C27
100
AcDbEntity
  8
DEFPOINTS
 62
     0
100
AcDbPoint
 10
1248.321191
 20
-366.000907
 30
0.0
  0
POINT
  5
4C30
330
4C27
100
AcDbEntity
  8
DEFPOINTS
 62
     0
100
AcDbPoint
 10
1347.878441
 20
-291.000457
 30
0.0
  0
POINT
  5
4C31
330
4C27
100
AcDbEntity
  8
DEFPOINTS
 62
     0
100
AcDbPoint
 10
1347.878441
 20
-471.407643999983
 30
0.0
  0
ENDBLK
  5
4C33
330
4C27
100
AcDbEntity
  8
0
100
AcDbBlockEnd
  0
BLOCK
  5
4C3F
330
4C34
100
AcDbEntity
  8
0
100
AcDbBlockBegin
  2
*D8
 70
     1
 71
     0
 10
0.0
 20
0.0
 30
0.0
  3
*D8
  1

  0
LINE
  5
4C35
330
4C34
100
AcDbEntity
  8
V0-OBRYS
 62
    41
100
AcDbLine
 10
1129.689883
 20
-74.51942699999999
 30
0.0
 11
1129.689883
 21
-542.0167350000038
 31
0.0
  0
LINE
  5
4C36
330
4C34
100
AcDbEntity
  8
V0-OBRYS
 62
    41
100
AcDbLine
 10
1347.878441
 20
-292.000457
 30
0.0
 11
1347.878441
 21
-542.0167350000038
 31
0.0
  0
LINE
  5
4C37
330
4C34
100
AcDbEntity
  8
V0-OBRYS
 62
     0
100
AcDbLine
 10
1169.689883
 20
-540.7667350000038
 30
0.0
 11
1188.085238571429
 21
-540.7667350000038
 31
0.0
  0
LINE
  5
4C38
330
4C34
100
AcDbEntity
  8
V0-OBRYS
 62
     0
100
AcDbLine
 10
1307.878441
 20
-540.7667350000038
 30
0.0
 11
1294.942381428571
 21
-540.7667350000038
 31
0.0
  0
INSERT
  5
4C39
330
4C34
100
AcDbEntity
  8
V0-OBRYS
 62
     0
100
AcDbBlockReference
  2
_OPEN
 10
1129.689883
 20
-540.7667350000038
 30
0.0
 41
40.0
 42
40.0
 43
40.0
 50
180.0
  0
INSERT
  5
4C3A
330
4C34
100
AcDbEntity
  8
V0-OBRYS
 62
     0
100
AcDbBlockReference
  2
_OPEN
 10
1347.878441
 20
-540.7667350000038
 30
0.0
 41
40.0
 42
40.0
 43
40.0
  0
MTEXT
  5
4C3B
330
4C34
100
AcDbEntity
  8
V0-OBRYS
 62
    41
100
AcDbMText
 10
1241.51381
 20
-540.766735
 30
0.0
 40
40.0
 41
0.0
 71
     5
 72
     1
  1
\A1;218
  7
ED40
  0
POINT
  5
4C3C
330
4C34
100
AcDbEntity
  8
DEFPOINTS
 62
     0
100
AcDbPoint
 10
1129.689883
 20
-73.51942699999999
 30
0.0
  0
POINT
  5
4C3D
330
4C34
100
AcDbEntity
  8
DEFPOINTS
 62
     0
100
AcDbPoint
 10
1347.878441
 20
-291.000457
 30
0.0
  0
POINT
  5
4C3E
330
4C34
100
AcDbEntity
  8
DEFPOINTS
 62
     0
100
AcDbPoint
 10
1347.878441
 20
-540.7667350000038
 30
0.0
  0
ENDBLK
  5
4C40
330
4C34
100
AcDbEntity
  8
0
100
AcDbBlockEnd
  0
BLOCK
  5
4C4C
330
4C41
100
AcDbEntity
  8
0
100
AcDbBlockBegin
  2
*D9
 70
     1
 71
     0
 10
0.0
 20
0.0
 30
0.0
  3
*D9
  1

  0
LINE
  5
4C42
330
4C41
100
AcDbEntity
  8
V0-VYPLNE
 62
    41
100
AcDbLine
 10
1548.347933
 20
-358.788045
 30
0.0
 11
1548.347933
 21
-604.0748679998796
 31
0.0
  0
LINE
  5
4C43
330
4C41
100
AcDbEntity
  8
V0-VYPLNE
 62
    41
100
AcDbLine
 10
2257.2329
 20
-358.788045
 30
0.0
 11
2257.2329
 21
-604.0748679998796
 31
0.0
  0
LINE
  5
4C44
330
4C41
100
AcDbEntity
  8
V0-VYPLNE
 62
     0
100
AcDbLine
 10
1588.347933
 20
-602.8248679998796
 30
0.0
 11
1853.175695571429
 21
-602.8248679998796
 31
0.0
  0
LINE
  5
4C45
330
4C41
100
AcDbEntity
  8
V0-VYPLNE
 62
     0
100
AcDbLine
 10
2217.2329
 20
-602.8248679998796
 30
0.0
 11
1960.032838428571
 21
-602.8248679998796
 31
0.0
  0
INSERT
  5
4C46
330
4C41
100
AcDbEntity
  8
V0-VYPLNE
 62
     0
100
AcDbBlockReference
  2
_OPEN
 10
1548.347933
 20
-602.8248679998796
 30
0.0
 41
40.0
 42
40.0
 43
40.0
 50
180.0
  0
INSERT
  5
4C47
330
4C41
100
AcDbEntity
  8
V0-VYPLNE
 62
     0
100
AcDbBlockReference
  2
_OPEN
 10
2257.2329
 20
-602.8248679998796
 30
0.0
 41
40.0
 42
40.0
 43
40.0
  0
MTEXT
  5
4C48
330
4C41
100
AcDbEntity
  8
V0-VYPLNE
 62
    41
100
AcDbMText
 10
1906.604267
 20
-602.824868
 30
0.0
 40
40.0
 41
0.0
 71
     5
 72
     1
  1
710
  7
ED40
  0
POINT
  5
4C49
330
4C41
100
AcDbEntity
  8
DEFPOINTS
 62
     0
100
AcDbPoint
 10
1548.347933
 20
-357.788045
 30
0.0
  0
POINT
  5
4C4A
330
4C41
100
AcDbEntity
  8
DEFPOINTS
 62
     0
100
AcDbPoint
 10
2257.2329
 20
-357.788045
 30
0.0
  0
POINT
  5
4C4B
330
4C41
100
AcDbEntity
  8
DEFPOINTS
 62
     0
100
AcDbPoint
 10
2257.2329
 20
-602.8248679998796
 30
0.0
  0
ENDBLK
  5
4C4D
330
4C41
100
AcDbEntity
  8
0
100
AcDbBlockEnd
  0
BLOCK
  5
4C59
330
4C4E
100
AcDbEntity
  8
0
100
AcDbBlockBegin
  2
*D10
 70
     1
 71
     0
 10
0.0
 20
0.0
 30
0.0
  3
*D10
  1

  0
LINE
  5
4C4F
330
4C4E
100
AcDbEntity
  8
V0-OBRYS
 62
    41
100
AcDbLine
 10
1587.521752
 20
-364.050869
 30
0.0
 11
1587.521752
 21
-521.9828429999761
 31
0.0
  0
LINE
  5
4C50
330
4C4E
100
AcDbEntity
  8
V0-OBRYS
 62
    41
100
AcDbLine
 10
2218.059025
 20
-364.050924
 30
0.0
 11
2218.059025
 21
-521.9828429999761
 31
0.0
  0
LINE
  5
4C51
330
4C4E
100
AcDbEntity
  8
V0-OBRYS
 62
     0
100
AcDbLine
 10
1627.521752
 20
-520.7328429999761
 30
0.0
 11
1846.25181652381
 21
-520.7328429999761
 31
0.0
  0
LINE
  5
4C52
330
4C4E
100
AcDbEntity
  8
V0-OBRYS
 62
     0
100
AcDbLine
 10
2178.059025
 20
-520.7328429999761
 30
0.0
 11
1951.20419747619
 21
-520.7328429999761
 31
0.0
  0
INSERT
  5
4C53
330
4C4E
100
AcDbEntity
  8
V0-OBRYS
 62
     0
100
AcDbBlockReference
  2
_OPEN
 10
1587.521752
 20
-520.7328429999761
 30
0.0
 41
40.0
 42
40.0
 43
40.0
 50
180.0
  0
INSERT
  5
4C54
330
4C4E
100
AcDbEntity
  8
V0-OBRYS
 62
     0
100
AcDbBlockReference
  2
_OPEN
 10
2218.059025
 20
-520.7328429999761
 30
0.0
 41
40.0
 42
40.0
 43
40.0
  0
MTEXT
  5
4C55
330
4C4E
100
AcDbEntity
  8
V0-OBRYS
 62
    41
100
AcDbMText
 10
1898.728007
 20
-520.732843
 30
0.0
 40
40.0
 41
0.0
 71
     5
 72
     1
  1
630
  7
ED40
  0
POINT
  5
4C56
330
4C4E
100
AcDbEntity
  8
DEFPOINTS
 62
     0
100
AcDbPoint
 10
1587.521752
 20
-363.050869
 30
0.0
  0
POINT
  5
4C57
330
4C4E
100
AcDbEntity
  8
DEFPOINTS
 62
     0
100
AcDbPoint
 10
2218.059025
 20
-363.050924
 30
0.0
  0
POINT
  5
4C58
330
4C4E
100
AcDbEntity
  8
DEFPOINTS
 62
     0
100
AcDbPoint
 10
2218.059025
 20
-520.7328429999761
 30
0.0
  0
ENDBLK
  5
4C5A
330
4C4E
100
AcDbEntity
  8
0
100
AcDbBlockEnd
  0
ENDSEC
  0
SECTION
  2
ENTITIES
  0
TEXT
  5
3152
330
4BD9
100
AcDbEntity
  8
V0-VYPLNE
  6
CONTINUOUS
 62
    51
100
AcDbText
 10
1670.416197
 20
-918.969343
 30
0.0
 40
43.2
  1
AXIALNI VENTILATOR
  7
ED30
100
AcDbText
  0
TEXT
  5
3153
330
4BD9
100
AcDbEntity
  8
V0-VYPLNE
  6
CONTINUOUS
 62
    51
100
AcDbText
 10
1790.624296
 20
-989.935892
 30
0.0
 40
43.2
  1
NA STENU
  7
ED30
100
AcDbText
  0
TEXT
  5
3154
330
4BD9
100
AcDbEntity
  8
V0-VYPLNE
 62
     6
100
AcDbText
 10
1786.419054
 20
-838.810548
 30
0.0
 40
57.6
  1
HCF-560/4
  7
ED40
100
AcDbText
  0
LINE
  5
3F3A
330
4BD9
100
AcDbEntity
  8
V0-OBRYS
  6
CONTINUOUS
 62
    90
 48
2.0
100
AcDbLine
 10
1347.878441
 20
-291.000457
 30
0.0
 11
1290.083015
 21
-291.000457
 31
0.0
  0
LINE
  5
3F3B
330
4BD9
100
AcDbEntity
  8
V0-OBRYS
  6
CONTINUOUS
 62
    90
 48
2.0
100
AcDbLine
 10
1347.878441
 20
268.998643
 30
0.0
 11
1290.083015
 21
268.998643
 31
0.0
  0
ARC
  5
3F3C
330
4BD9
100
AcDbEntity
  8
V0-OBRYS
  6
CONTINUOUS
 62
    90
 48
2.0
100
AcDbCircle
 10
1290.083015
 20
-317.575207
 30
0.0
 40
26.57475
100
AcDbArc
 50
90.0
 51
149.420799
  0
LINE
  5
3F3D
330
4BD9
100
AcDbEntity
  8
V0-OBRYS
  6
CONTINUOUS
 62
    90
 48
2.0
100
AcDbLine
 10
1247.980991
 20
-326.433457
 30
0.0
 11
1267.204101
 21
-304.055863
 31
0.0
  0
ARC
  5
3F3F
330
4BD9
100
AcDbEntity
  8
V0-OBRYS
  6
CONTINUOUS
 62
    90
 48
2.0
100
AcDbCircle
 10
1290.083015
 20
295.573393
 30
0.0
 40
26.57475
100
AcDbArc
 50
210.579201
 51
270.0
  0
LINE
  5
3F40
330
4BD9
100
AcDbEntity
  8
V0-OBRYS
  6
CONTINUOUS
 62
    90
 48
2.0
100
AcDbLine
 10
1247.980991
 20
304.431643
 30
0.0
 11
1267.204101
 21
282.054049
 31
0.0
  0
DIMENSION
  5
3F41
330
4BD9
100
AcDbEntity
  8
V0-VYPLNE
  6
CONTINUOUS
 62
    41
100
AcDbDimension
  2
*D5
 10
1452.237178999989
 20
-291.000457
 30
0.0
 11
1452.237179
 21
-11.000907
 31
0.0
 70
   160
  1
%%c<>
  3
ED40
100
AcDbAlignedDimension
 13
1347.878441
 23
268.998643
 33
0.0
 14
1347.878441
 24
-291.000457
 34
0.0
 50
90.0
100
AcDbRotatedDimension
  0
LINE
  5
3F42
330
4BD9
100
AcDbEntity
  8
V0-OBRYS
  6
CONTINUOUS
 62
    90
 48
2.0
100
AcDbLine
 10
1347.878441
 20
-11.000907
 30
0.0
 11
1347.878441
 21
268.998643
 31
0.0
  0
LINE
  5
3F43
330
4BD9
100
AcDbEntity
  8
V0-OBRYS
  6
CONTINUOUS
 62
    90
 48
2.0
100
AcDbLine
 10
1347.878441
 20
-11.000907
 30
0.0
 11
1347.878441
 21
-291.000457
 31
0.0
  0
LINE
  5
3F5C
330
4BD9
100
AcDbEntity
  8
V0-VYPLNE
  6
DASHED
 62
    52
100
AcDbLine
 10
1266.681671
 20
-119.17372
 30
0.0
 11
1282.815098
 21
-285.621978
 31
0.0
  0
LINE
  5
3F5D
330
4BD9
100
AcDbEntity
  8
V0-VYPLNE
  6
DASHED
 62
    52
100
AcDbLine
 10
1338.760398
 20
-119.17372
 30
0.0
 11
1322.62697
 21
-285.621978
 31
0.0
  0
LINE
  5
3F6B
330
4BD9
100
AcDbEntity
  8
V0-VYPLNE
  6
DASHED
 62
    52
100
AcDbLine
 10
1282.815098
 20
-285.621978
 30
0.0
 11
1322.62697
 21
-285.621978
 31
0.0
  0
ELLIPSE
  5
3F6C
330
4BD9
100
AcDbEntity
  8
V0-VYPLNE
  6
DASHED
 62
    52
100
AcDbEllipse
 10
275.99323
 20
-22.154234
 30
0.0
 11
4.320099833421409E-11
 21
1174.336946725988
 31
0.0
210
0.0
220
0.0
230
-1.0
 40
0.9090909999999999
 41
1.480829966572563
 42
1.560998901912708
  0
LINE
  5
3F6D
330
4BD9
100
AcDbEntity
  8
V0-VYPLNE
  6
DASHED
 62
    52
100
AcDbLine
 10
1266.721034
 20
-10.64894
 30
0.0
 11
1266.721034
 21
89.67106
 31
0.0
  0
LINE
  5
3F6E
330
4BD9
100
AcDbEntity
  8
V0-VYPLNE
  6
DASHED
 62
    52
100
AcDbLine
 10
1302.721034
 20
94.70048199999999
 30
0.0
 11
1302.721034
 21
-10.64894
 31
0.0
  0
LINE
  5
3F6F
330
4BD9
100
AcDbEntity
  8
V0-VYPLNE
  6
DASHDOT
 62
    63
100
AcDbLine
 10
1155.917908
 20
-11.001013
 30
0.0
 11
1366.902694
 21
-11.001013
 31
0.0
  0
ELLIPSE
  5
3F70
330
4BD9
100
AcDbEntity
  8
V0-VYPLNE
  6
DASHED
 62
    52
100
AcDbEllipse
 10
1302.721034
 20
42.414984
 30
0.0
 11
-6.821210263296962E-13
 21
158.4133457296311
 31
0.0
210
0.0
220
0.0
230
-1.0
 40
0.9090909999999999
 41
2.929991421004501
 42
3.394251156505873
  0
LINE
  5
3F71
330
4BD9
100
AcDbEntity
  8
V0-VYPLNE
  6
DASHED
 62
    52
100
AcDbLine
 10
1267.356234
 20
-22.695027
 30
0.0
 11
1341.465076
 21
1.810407999999999
 31
0.0
  0
LINE
  5
3F72
330
4BD9
100
AcDbEntity
  8
V0-VYPLNE
  6
DASHED
 62
    52
100
AcDbLine
 10
1302.721034
 20
-115.998362
 30
0.0
 11
1302.721034
 21
-10.64894
 31
0.0
  0
LINE
  5
3F73
330
4BD9
100
AcDbEntity
  8
V0-VYPLNE
  6
DASHED
 62
    52
100
AcDbLine
 10
1266.721034
 20
-10.64894
 30
0.0
 11
1266.721034
 21
-110.96894
 31
0.0
  0
LINE
  5
3F74
330
4BD9
100
AcDbEntity
  8
V0-VYPLNE
  6
DASHED
 62
    52
100
AcDbLine
 10
1272.827739
 20
-112.41928
 30
0.0
 11
1266.681671
 21
-119.17372
 31
0.0
  0
ELLIPSE
  5
3F75
330
4BD9
100
AcDbEntity
  8
V0-VYPLNE
  6
DASHED
 62
    52
100
AcDbEllipse
 10
1302.721034
 20
-11.001013
 30
0.0
 11
6.821210263296962E-13
 21
7.458195139447457
 31
0.0
210
0.0
220
0.0
230
-1.0
 40
0.909091
 41
0.0
 42
6.283185307179586
  0
ELLIPSE
  5
3F76
330
4BD9
100
AcDbEntity
  8
V0-VYPLNE
  6
DASHED
 62
    52
100
AcDbEllipse
 10
275.99323
 20
0.856354
 30
0.0
 11
5.400124791776761E-12
 21
1174.336946726077
 31
0.0
210
0.0
220
0.0
230
-1.0
 40
0.909091
 41
1.580593751677045
 42
1.660762687017184
  0
LINE
  5
3F77
330
4BD9
100
AcDbEntity
  8
V0-VYPLNE
  6
DASHED
 62
    52
100
AcDbLine
 10
1332.614329
 20
-112.41928
 30
0.0
 11
1338.760398
 21
-119.17372
 31
0.0
  0
ELLIPSE
  5
3F78
330
4BD9
100
AcDbEntity
  8
V0-VYPLNE
  6
DASHED
 62
    52
100
AcDbEllipse
 10
1331.287076
 20
-103.861366
 30
0.0
 11
6.821210263296962E-13
 21
8.799999999999983
 31
0.0
210
0.0
220
0.0
230
-1.0
 40
0.909091
 41
1.660762687017155
 42
2.929991421004478
  0
LINE
  5
3F79
330
4BD9
100
AcDbEntity
  8
V0-VYPLNE
  6
DASHED
 62
    52
100
AcDbLine
 10
1282.815098
 20
264.324098
 30
0.0
 11
1322.62697
 21
264.324098
 31
0.0
  0
ELLIPSE
  5
3F7A
330
4BD9
100
AcDbEntity
  8
V0-VYPLNE
  6
DASHED
 62
    52
100
AcDbEllipse
 10
1302.721034
 20
-63.712864
 30
0.0
 11
-1.136868377216160E-12
 21
158.413345729631
 31
0.0
210
0.0
220
0.0
230
-1.0
 40
0.9090910000000001
 41
-0.2526585029160793
 42
0.2116012325852784
  0
LINE
  5
3F7B
330
4BD9
100
AcDbEntity
  8
V0-VYPLNE
  6
DASHED
 62
    52
100
AcDbLine
 10
1266.681671
 20
97.87584
 30
0.0
 11
1282.815098
 21
264.324098
 31
0.0
  0
LINE
  5
3F7C
330
4BD9
100
AcDbEntity
  8
V0-VYPLNE
  6
DASHED
 62
    52
100
AcDbLine
 10
1272.827739
 20
91.12139999999999
 30
0.0
 11
1266.681671
 21
97.87584
 31
0.0
  0
LINE
  5
3F7D
330
4BD9
100
AcDbEntity
  8
V0-VYPLNE
  6
DASHED
 62
    52
100
AcDbLine
 10
1338.760398
 20
97.87584
 30
0.0
 11
1322.62697
 21
264.324098
 31
0.0
  0
LINE
  5
3F7E
330
4BD9
100
AcDbEntity
  8
V0-VYPLNE
  6
DASHED
 62
    52
100
AcDbLine
 10
1332.614329
 20
91.12139999999999
 30
0.0
 11
1338.760398
 21
97.87584
 31
0.0
  0
LINE
  5
3F8B
330
4BD9
100
AcDbEntity
  8
V0-OBRYS
  6
CONTINUOUS
 62
    90
 48
2.0
100
AcDbLine
 10
1236.721191
 20
343.999093
 30
0.0
 11
1236.721191
 21
-11.00090699999998
 31
0.0
  0
LINE
  5
3F91
330
4BD9
100
AcDbEntity
  8
V0-OBRYS
  6
CONTINUOUS
 62
    90
 48
2.0
100
AcDbLine
 10
1236.721191
 20
-366.000907
 30
0.0
 11
1236.721191
 21
-11.00090699999998
 31
0.0
  0
LINE
  5
3F92
330
4BD9
100
AcDbEntity
  8
V0-OBRYS
  6
CONTINUOUS
 62
    90
 48
2.0
100
AcDbLine
 10
1184.090934
 20
-242.568871
 30
0.0
 11
1184.090934
 21
-139.25365
 31
0.0
  0
LINE
  5
3F93
330
4BD9
100
AcDbEntity
  8
V0-OBRYS
  6
CONTINUOUS
 62
    90
 48
2.0
100
AcDbLine
 10
1186.901635
 20
-242.568871
 30
0.0
 11
1186.901635
 21
-139.25365
 31
0.0
  0
LINE
  5
3F94
330
4BD9
100
AcDbEntity
  8
V0-OBRYS
  6
CONTINUOUS
 62
    90
 48
2.0
100
AcDbLine
 10
1248.321191
 20
-366.000907
 30
0.0
 11
1236.721191
 21
-366.000907
 31
0.0
  0
ARC
  5
3F97
330
4BD9
100
AcDbEntity
  8
V0-OBRYS
  6
CONTINUOUS
 62
    90
 48
2.0
100
AcDbCircle
 10
1193.090934
 20
-242.568871
 30
0.0
 40
6.189299
100
AcDbArc
 50
180.0
 51
215.946405
  0
ARC
  5
3F98
330
4BD9
100
AcDbEntity
  8
V0-OBRYS
  6
CONTINUOUS
 62
    90
 48
2.0
100
AcDbCircle
 10
1197.534701
 20
-242.476612
 30
0.0
 40
13.444084
100
AcDbArc
 50
180.393192
 51
223.416411
  0
CIRCLE
  5
3F99
330
4BD9
100
AcDbEntity
  8
V0-OBRYS
  6
CONTINUOUS
 62
    90
 48
2.0
100
AcDbCircle
 10
1181.195912
 20
-235.42224
 30
0.0
 40
2.894689
  0
CIRCLE
  5
3F9A
330
4BD9
100
AcDbEntity
  8
V0-OBRYS
  6
CONTINUOUS
 62
    90
 48
2.0
100
AcDbCircle
 10
1181.195912
 20
-213.82224
 30
0.0
 40
2.894689
  0
LINE
  5
3F9B
330
4BD9
100
AcDbEntity
  8
V0-OBRYS
  6
CONTINUOUS
 62
    90
 48
2.0
100
AcDbLine
 10
1233.886152
 20
-331.546817
 30
0.0
 11
1233.886152
 21
-314.754848
 31
0.0
  0
ARC
  5
3F9C
330
4BD9
100
AcDbEntity
  8
V0-OBRYS
  6
CONTINUOUS
 62
    90
 48
2.0
100
AcDbCircle
 10
1235.303672
 20
-331.546817
 30
0.0
 40
1.41752
100
AcDbArc
 50
180.0
 51
0.0
  0
CIRCLE
  5
3FA2
330
4BD9
100
AcDbEntity
  8
V0-OBRYS
  6
CONTINUOUS
 62
    90
 48
2.0
100
AcDbCircle
 10
1181.195912
 20
-192.22224
 30
0.0
 40
2.894689
  0
CIRCLE
  5
3FA3
330
4BD9
100
AcDbEntity
  8
V0-OBRYS
  6
CONTINUOUS
 62
    90
 48
2.0
100
AcDbCircle
 10
1181.195912
 20
-170.62224
 30
0.0
 40
2.894689
  0
CIRCLE
  5
3FA4
330
4BD9
100
AcDbEntity
  8
V0-OBRYS
  6
CONTINUOUS
 62
    90
 48
2.0
100
AcDbCircle
 10
1181.195912
 20
-149.02224
 30
0.0
 40
2.894689
  0
ARC
  5
3FA6
330
4BD9
100
AcDbEntity
  8
V0-OBRYS
  6
CONTINUOUS
 62
    90
 48
2.0
100
AcDbCircle
 10
1193.090934
 20
117.251836
 30
0.0
 40
6.189299
100
AcDbArc
 50
180.0
 51
230.825893
  0
ARC
  5
3FA7
330
4BD9
100
AcDbEntity
  8
V0-OBRYS
  6
CONTINUOUS
 62
    90
 48
2.0
100
AcDbCircle
 10
1193.090934
 20
117.251836
 30
0.0
 40
9.0
100
AcDbArc
 50
180.0
 51
230.825893
  0
ARC
  5
3FAA
330
4BD9
100
AcDbEntity
  8
V0-OBRYS
  6
CONTINUOUS
 62
    90
 48
2.0
100
AcDbCircle
 10
1211.053465
 20
79.396551
 30
0.0
 40
11.810701
100
AcDbArc
 50
1.052754
 51
50.825893
  0
ARC
  5
3FAB
330
4BD9
100
AcDbEntity
  8
V0-OBRYS
  6
CONTINUOUS
 62
    90
 48
2.0
100
AcDbCircle
 10
1211.053465
 20
79.396551
 30
0.0
 40
9.0
100
AcDbArc
 50
0.0
 51
50.825893
  0
CIRCLE
  5
3FAC
330
4BD9
100
AcDbEntity
  8
V0-OBRYS
  6
CONTINUOUS
 62
    90
 48
2.0
100
AcDbCircle
 10
1181.32239
 20
191.820426
 30
0.0
 40
2.894689
  0
LINE
  5
3FAD
330
4BD9
100
AcDbEntity
  8
V0-OBRYS
  6
CONTINUOUS
 62
    90
 48
2.0
100
AcDbLine
 10
1186.901635
 20
220.567058
 30
0.0
 11
1186.901635
 21
117.251836
 31
0.0
  0
LINE
  5
3FAE
330
4BD9
100
AcDbEntity
  8
V0-OBRYS
  6
CONTINUOUS
 62
    90
 48
2.0
100
AcDbLine
 10
1184.090934
 20
220.567058
 30
0.0
 11
1184.090934
 21
117.251836
 31
0.0
  0
CIRCLE
  5
3FAF
330
4BD9
100
AcDbEntity
  8
V0-OBRYS
  6
CONTINUOUS
 62
    90
 48
2.0
100
AcDbCircle
 10
1181.32239
 20
170.220426
 30
0.0
 40
2.894689
  0
CIRCLE
  5
3FB0
330
4BD9
100
AcDbEntity
  8
V0-OBRYS
  6
CONTINUOUS
 62
    90
 48
2.0
100
AcDbCircle
 10
1181.32239
 20
127.020426
 30
0.0
 40
2.894689
  0
CIRCLE
  5
3FB1
330
4BD9
100
AcDbEntity
  8
V0-OBRYS
  6
CONTINUOUS
 62
    90
 48
2.0
100
AcDbCircle
 10
1181.32239
 20
148.620426
 30
0.0
 40
2.894689
  0
ARC
  5
3FB4
330
4BD9
100
AcDbEntity
  8
V0-OBRYS
  6
CONTINUOUS
 62
    90
 48
2.0
100
AcDbCircle
 10
1193.090934
 20
220.567058
 30
0.0
 40
6.189299
100
AcDbArc
 50
144.607521
 51
180.0
  0
CIRCLE
  5
3FB5
330
4BD9
100
AcDbEntity
  8
V0-OBRYS
  6
CONTINUOUS
 62
    90
 48
2.0
100
AcDbCircle
 10
1181.32239
 20
213.420426
 30
0.0
 40
2.894689
  0
ARC
  5
3FB6
330
4BD9
100
AcDbEntity
  8
V0-OBRYS
  6
CONTINUOUS
 62
    90
 48
2.0
100
AcDbCircle
 10
1193.090934
 20
220.567058
 30
0.0
 40
9.0
100
AcDbArc
 50
144.271055
 51
180.0
  0
ARC
  5
3FB7
330
4BD9
100
AcDbEntity
  8
V0-OBRYS
  6
CONTINUOUS
 62
    90
 48
2.0
100
AcDbCircle
 10
1235.303672
 20
309.545004
 30
0.0
 40
1.41752
100
AcDbArc
 50
0.0
 51
180.0
  0
LINE
  5
3FB8
330
4BD9
100
AcDbEntity
  8
V0-OBRYS
  6
CONTINUOUS
 62
    90
 48
2.0
100
AcDbLine
 10
1233.886152
 20
309.545004
 30
0.0
 11
1233.886152
 21
292.753034
 31
0.0
  0
LINE
  5
3FB9
330
4BD9
100
AcDbEntity
  8
V0-OBRYS
  6
CONTINUOUS
 62
    90
 48
2.0
100
AcDbLine
 10
1248.321191
 20
343.999093
 30
0.0
 11
1236.721191
 21
343.999093
 31
0.0
  0
LINE
  5
4016
330
4BD9
100
AcDbEntity
  8
V0-OBRYS
  6
CONTINUOUS
 62
    90
 48
2.0
100
AcDbLine
 10
1155.499806
 20
57.577264
 30
0.0
 11
1130.448036
 21
42.428131
 31
0.0
  0
LINE
  5
4017
330
4BD9
100
AcDbEntity
  8
V0-OBRYS
  6
CONTINUOUS
 62
    90
 48
2.0
100
AcDbLine
 10
1156.257965
 20
73.483856
 30
0.0
 11
1129.689883
 21
51.517613
 31
0.0
  0
LINE
  5
4018
330
4BD9
100
AcDbEntity
  8
V0-OBRYS
  6
CONTINUOUS
 62
    90
 48
2.0
100
AcDbLine
 10
1155.499806
 20
2.282927
 30
0.0
 11
1129.689883
 21
1.525471
 31
0.0
  0
LINE
  5
4019
330
4BD9
100
AcDbEntity
  8
V0-OBRYS
  6
CONTINUOUS
 62
    90
 48
2.0
100
AcDbLine
 10
1155.499806
 20
20.461888
 30
0.0
 11
1129.689883
 21
17.43206
 31
0.0
  0
LINE
  5
401A
330
4BD9
100
AcDbEntity
  8
V0-OBRYS
  6
CONTINUOUS
 62
    90
 48
2.0
100
AcDbLine
 10
1156.257965
 20
38.640846
 30
0.0
 11
1128.931724
 21
31.823736
 31
0.0
  0
LINE
  5
401B
330
4BD9
100
AcDbEntity
  8
V0-OBRYS
  6
CONTINUOUS
 62
    90
 48
2.0
100
AcDbLine
 10
1155.499806
 20
-42.463702
 30
0.0
 11
1129.689883
 21
-39.433874
 31
0.0
  0
LINE
  5
401C
330
4BD9
100
AcDbEntity
  8
V0-OBRYS
  6
CONTINUOUS
 62
    90
 48
2.0
100
AcDbLine
 10
1155.499806
 20
-24.284741
 30
0.0
 11
1129.689883
 21
-23.527285
 31
0.0
  0
LINE
  5
401D
330
4BD9
100
AcDbEntity
  8
V0-OBRYS
  6
CONTINUOUS
 62
    90
 48
2.0
100
AcDbLine
 10
1156.257965
 20
-60.64266
 30
0.0
 11
1128.931724
 21
-53.82555
 31
0.0
  0
LINE
  5
401E
330
4BD9
100
AcDbEntity
  8
V0-OBRYS
  6
CONTINUOUS
 62
    90
 48
2.0
100
AcDbLine
 10
1156.257965
 20
-95.48567
 30
0.0
 11
1129.689883
 21
-73.51942699999999
 31
0.0
  0
LINE
  5
401F
330
4BD9
100
AcDbEntity
  8
V0-OBRYS
  6
CONTINUOUS
 62
    90
 48
2.0
100
AcDbLine
 10
1155.499806
 20
-79.579078
 30
0.0
 11
1130.448036
 21
-64.429945
 31
0.0
  0
DIMENSION
  5
4020
330
4BD9
100
AcDbEntity
  8
V0-VYPLNE
  6
CONTINUOUS
 62
    41
100
AcDbDimension
  2
*D6
 10
1013.821832999995
 20
-101.001627
 30
0.0
 11
1013.821833
 21
-11.000907
 31
0.0
 70
   160
  1
%%c<>
  3
ED40
100
AcDbAlignedDimension
 13
1156.51027
 23
78.999813
 33
0.0
 14
1156.51027
 24
-101.001627
 34
0.0
 50
90.0
100
AcDbRotatedDimension
  0
LINE
  5
4021
330
4BD9
100
AcDbEntity
  8
V0-OBRYS
  6
CONTINUOUS
 62
    90
 48
2.0
100
AcDbLine
 10
1142.29963
 20
-101.001627
 30
0.0
 11
1236.72115
 21
-101.001627
 31
0.0
  0
LINE
  5
4022
330
4BD9
100
AcDbEntity
  8
V0-OBRYS
  6
CONTINUOUS
 62
    90
 48
2.0
100
AcDbLine
 10
1142.29963
 20
78.999813
 30
0.0
 11
1236.72115
 21
78.999813
 31
0.0
  0
LINE
  5
4023
330
4BD9
100
AcDbEntity
  8
V0-OBRYS
  6
CONTINUOUS
 62
    90
 48
2.0
100
AcDbLine
 10
1129.51003
 20
-11.000907
 30
0.0
 11
1129.51003
 21
-85.21202700000001
 31
0.0
  0
ARC
  5
4024
330
4BD9
100
AcDbEntity
  8
V0-OBRYS
  6
CONTINUOUS
 62
    90
 48
2.0
100
AcDbCircle
 10
1142.779924
 20
-87.53798999999999
 30
0.0
 40
13.472201
100
AcDbArc
 50
170.05812
 51
267.95693
  0
LINE
  5
4025
330
4BD9
100
AcDbEntity
  8
V0-OBRYS
  6
CONTINUOUS
 62
    90
 48
2.0
100
AcDbLine
 10
1129.51003
 20
-11.000907
 30
0.0
 11
1129.51003
 21
63.21021300000001
 31
0.0
  0
ARC
  5
4026
330
4BD9
100
AcDbEntity
  8
V0-OBRYS
  6
CONTINUOUS
 62
    90
 48
2.0
100
AcDbCircle
 10
1142.779924
 20
65.536177
 30
0.0
 40
13.472201
100
AcDbArc
 50
92.04307
 51
189.94188
  0
LINE
  5
4028
330
4BD9
100
AcDbEntity
  8
V0-OBRYS
  6
CONTINUOUS
 62
    90
 48
2.0
100
AcDbLine
 10
1156.51027
 20
-11.000907
 30
0.0
 11
1156.51027
 21
-101.001627
 31
0.0
  0
LINE
  5
4029
330
4BD9
100
AcDbEntity
  8
V0-OBRYS
  6
CONTINUOUS
 62
    90
 48
2.0
100
AcDbLine
 10
1156.257965
 20
-95.48567
 30
0.0
 11
1236.72115
 21
-95.48567
 31
0.0
  0
LINE
  5
402A
330
4BD9
100
AcDbEntity
  8
V0-OBRYS
  6
CONTINUOUS
 62
    90
 48
2.0
100
AcDbLine
 10
1160.048742
 20
-42.463702
 30
0.0
 11
1236.72115
 21
-42.463702
 31
0.0
  0
LINE
  5
402B
330
4BD9
100
AcDbEntity
  8
V0-OBRYS
  6
CONTINUOUS
 62
    90
 48
2.0
100
AcDbLine
 10
1156.257965
 20
-60.64266
 30
0.0
 11
1236.72115
 21
-60.64266
 31
0.0
  0
LINE
  5
402C
330
4BD9
100
AcDbEntity
  8
V0-OBRYS
  6
CONTINUOUS
 62
    90
 48
2.0
100
AcDbLine
 10
1155.499806
 20
-79.579078
 30
0.0
 11
1236.72115
 21
-79.579078
 31
0.0
  0
LINE
  5
402D
330
4BD9
100
AcDbEntity
  8
V0-OBRYS
  6
CONTINUOUS
 62
    90
 48
2.0
100
AcDbLine
 10
1155.499806
 20
-42.463702
 30
0.0
 11
1160.048742
 21
-42.463702
 31
0.0
  0
LINE
  5
402E
330
4BD9
100
AcDbEntity
  8
V0-OBRYS
  6
CONTINUOUS
 62
    90
 48
2.0
100
AcDbLine
 10
1156.51027
 20
-11.000907
 30
0.0
 11
1156.51027
 21
78.999813
 31
0.0
  0
LINE
  5
402F
330
4BD9
100
AcDbEntity
  8
V0-OBRYS
  6
CONTINUOUS
 62
    90
 48
2.0
100
AcDbLine
 10
1160.048742
 20
20.461888
 30
0.0
 11
1236.72115
 21
20.461888
 31
0.0
  0
LINE
  5
4030
330
4BD9
100
AcDbEntity
  8
V0-OBRYS
  6
CONTINUOUS
 62
    90
 48
2.0
100
AcDbLine
 10
1155.499806
 20
-24.284741
 30
0.0
 11
1236.72115
 21
-24.284741
 31
0.0
  0
LINE
  5
4031
330
4BD9
100
AcDbEntity
  8
V0-OBRYS
  6
CONTINUOUS
 62
    90
 48
2.0
100
AcDbLine
 10
1155.499806
 20
2.282927
 30
0.0
 11
1236.72115
 21
2.282927
 31
0.0
  0
LINE
  5
4032
330
4BD9
100
AcDbEntity
  8
V0-OBRYS
  6
CONTINUOUS
 62
    90
 48
2.0
100
AcDbLine
 10
1156.257965
 20
38.640846
 30
0.0
 11
1236.72115
 21
38.640846
 31
0.0
  0
LINE
  5
4033
330
4BD9
100
AcDbEntity
  8
V0-OBRYS
  6
CONTINUOUS
 62
    90
 48
2.0
100
AcDbLine
 10
1155.499806
 20
20.461888
 30
0.0
 11
1160.048742
 21
20.461888
 31
0.0
  0
LINE
  5
4034
330
4BD9
100
AcDbEntity
  8
V0-OBRYS
  6
CONTINUOUS
 62
    90
 48
2.0
100
AcDbLine
 10
1155.499806
 20
57.577264
 30
0.0
 11
1236.72115
 21
57.577264
 31
0.0
  0
LINE
  5
4035
330
4BD9
100
AcDbEntity
  8
V0-OBRYS
  6
CONTINUOUS
 62
    90
 48
2.0
100
AcDbLine
 10
1156.257965
 20
73.483856
 30
0.0
 11
1236.72115
 21
73.483856
 31
0.0
  0
LINE
  5
404E
330
4BD9
100
AcDbEntity
  8
V0-VYPLNE
  6
DASHED
 62
    52
100
AcDbLine
 10
1258.992166
 20
-93.106827
 30
0.0
 11
1258.992166
 21
-11.000907
 31
0.0
  0
LINE
  5
4050
330
4BD9
100
AcDbEntity
  8
V0-VYPLNE
  6
DASHED
 62
    52
100
AcDbLine
 10
1236.721237
 20
-95.48567
 30
0.0
 11
1258.992166
 21
-95.48567
 31
0.0
  0
LINE
  5
4051
330
4BD9
100
AcDbEntity
  8
V0-VYPLNE
  6
DASHED
 62
    52
100
AcDbLine
 10
1236.721237
 20
-101.001627
 30
0.0
 11
1248.097366
 21
-101.001627
 31
0.0
  0
LINE
  5
4052
330
4BD9
100
AcDbEntity
  8
V0-VYPLNE
  6
DASHED
 62
    52
100
AcDbLine
 10
1236.721237
 20
-79.579078
 30
0.0
 11
1258.992166
 21
-79.579078
 31
0.0
  0
LINE
  5
4053
330
4BD9
100
AcDbEntity
  8
V0-VYPLNE
  6
DASHED
 62
    52
100
AcDbLine
 10
1236.721237
 20
-60.64266
 30
0.0
 11
1258.234013
 21
-60.64266
 31
0.0
  0
LINE
  5
4054
330
4BD9
100
AcDbEntity
  8
V0-VYPLNE
  6
DASHED
 62
    52
100
AcDbLine
 10
1236.721237
 20
-42.463702
 30
0.0
 11
1258.992166
 21
-42.463702
 31
0.0
  0
ARC
  5
4055
330
4BD9
100
AcDbEntity
  8
V0-VYPLNE
  6
DASHED
 62
    52
 48
2.0
100
AcDbCircle
 10
1248.481095
 20
-90.06637600000001
 30
0.0
 40
10.941982
100
AcDbArc
 50
267.99026
 51
343.866865
  0
LINE
  5
4056
330
4BD9
100
AcDbEntity
  8
V0-VYPLNE
  6
DASHED
 62
    52
100
AcDbLine
 10
1236.721237
 20
2.282927
 30
0.0
 11
1258.234013
 21
2.282927
 31
0.0
  0
LINE
  5
4057
330
4BD9
100
AcDbEntity
  8
V0-VYPLNE
  6
DASHED
 62
    52
100
AcDbLine
 10
1236.721237
 20
20.461888
 30
0.0
 11
1258.992166
 21
20.461888
 31
0.0
  0
LINE
  5
4058
330
4BD9
100
AcDbEntity
  8
V0-VYPLNE
  6
DASHED
 62
    52
100
AcDbLine
 10
1236.721237
 20
38.640846
 30
0.0
 11
1258.234013
 21
38.640846
 31
0.0
  0
LINE
  5
4059
330
4BD9
100
AcDbEntity
  8
V0-VYPLNE
  6
DASHED
 62
    52
100
AcDbLine
 10
1236.721237
 20
57.577264
 30
0.0
 11
1258.992166
 21
57.577264
 31
0.0
  0
LINE
  5
405A
330
4BD9
100
AcDbEntity
  8
V0-VYPLNE
  6
DASHED
 62
    52
100
AcDbLine
 10
1236.721237
 20
73.483856
 30
0.0
 11
1258.992166
 21
73.483856
 31
0.0
  0
LINE
  5
405B
330
4BD9
100
AcDbEntity
  8
V0-VYPLNE
  6
DASHED
 62
    52
100
AcDbLine
 10
1236.721237
 20
78.999813
 30
0.0
 11
1248.097366
 21
78.999813
 31
0.0
  0
LINE
  5
405C
330
4BD9
100
AcDbEntity
  8
V0-VYPLNE
  6
DASHED
 62
    52
100
AcDbLine
 10
1236.721237
 20
-24.284741
 30
0.0
 11
1258.234013
 21
-24.284741
 31
0.0
  0
LINE
  5
405D
330
4BD9
100
AcDbEntity
  8
V0-VYPLNE
  6
DASHED
 62
    52
100
AcDbLine
 10
1258.992166
 20
71.105013
 30
0.0
 11
1258.992166
 21
-11.000907
 31
0.0
  0
ARC
  5
405E
330
4BD9
100
AcDbEntity
  8
V0-VYPLNE
  6
DASHED
 62
    52
 48
2.0
100
AcDbCircle
 10
1248.481095
 20
68.064562
 30
0.0
 40
10.941982
100
AcDbArc
 50
16.133135
 51
92.00973999999999
  0
DIMENSION
  5
409E
330
4BD9
100
AcDbEntity
  8
V0-OBRYS
  6
CONTINUOUS
 62
    90
100
AcDbDimension
  2
*D7
 10
1347.878441
 20
-471.407643999983
 30
0.0
 11
1299.599816
 21
-471.407644
 31
0.0
 70
   160
  3
ED40
100
AcDbAlignedDimension
 13
1248.321191
 23
-366.000907
 33
0.0
 14
1347.878441
 24
-291.000457
 34
0.0
100
AcDbRotatedDimension
  0
DIMENSION
  5
40AB
330
4BD9
100
AcDbEntity
  8
V0-OBRYS
  6
CONTINUOUS
 62
    90
100
AcDbDimension
  2
*D8
 10
1347.878441
 20
-540.7667350000038
 30
0.0
 11
1241.51381
 21
-540.766735
 31
0.0
 70
   160
  3
ED40
100
AcDbAlignedDimension
 13
1129.689883
 23
-73.51942699999999
 33
0.0
 14
1347.878441
 24
-291.000457
 34
0.0
100
AcDbRotatedDimension
  0
INSERT
  5
40EE
330
4BD9
100
AcDbEntity
  8
V0-OBRYS
  6
CONTINUOUS
 62
    90
100
AcDbBlockReference
  2
ASVORK
 10
1129.51003
 20
-11.000907
 30
0.0
  0
DIMENSION
  5
41E1
330
4BD9
100
AcDbEntity
  8
V0-VYPLNE
  6
CONTINUOUS
 62
    41
100
AcDbDimension
  2
*D9
 10
2257.2329
 20
-602.8248679998796
 30
0.0
 11
1906.604267
 21
-602.824868
 31
0.0
 70
   160
  1
710
  3
ED40
100
AcDbAlignedDimension
 13
1548.347933
 23
-357.788045
 33
0.0
 14
2257.2329
 24
-357.788045
 34
0.0
100
AcDbRotatedDimension
  0
DIMENSION
  5
41E2
330
4BD9
100
AcDbEntity
  8
V0-OBRYS
  6
CONTINUOUS
 62
    90
100
AcDbDimension
  2
*D10
 10
2218.059025
 20
-520.7328429999761
 30
0.0
 11
1898.728007
 21
-520.732843
 31
0.0
 70
   160
  1
630
  3
ED40
100
AcDbAlignedDimension
 13
1587.521752
 23
-363.050869
 33
0.0
 14
2218.059025
 24
-363.050924
 34
0.0
100
AcDbRotatedDimension
  0
LINE
  5
41E4
330
4BD9
100
AcDbEntity
  8
V0-OBRYS
  6
CONTINUOUS
100
AcDbLine
 10
2257.2329
 20
320.925855
 30
0.0
 11
2257.2329
 21
-342.927669
 31
0.0
  0
LINE
  5
41E5
330
4BD9
100
AcDbEntity
  8
V0-OBRYS
  6
CONTINUOUS
100
AcDbLine
 10
1548.347933
 20
-342.927669
 30
0.0
 11
1548.347933
 21
320.925855
 31
0.0
  0
LINE
  5
41E6
330
4BD9
100
AcDbEntity
  8
V0-OBRYS
  6
CONTINUOUS
100
AcDbLine
 10
2234.717178
 20
-365.44339
 30
0.0
 11
1570.863655
 21
-365.44339
 31
0.0
  0
ARC
  5
41E7
330
4BD9
100
AcDbEntity
  8
V0-OBRYS
  6
CONTINUOUS
100
AcDbCircle
 10
1570.863655
 20
-342.927669
 30
0.0
 40
22.515721
100
AcDbArc
 50
180.0
 51
270.0
  0
LINE
  5
41E8
330
4BD9
100
AcDbEntity
  8
V0-VYPLNE
  6
DASHDOT
 62
    63
100
AcDbLine
 10
1587.521752
 20
-363.050869
 30
0.0
 11
1587.521752
 21
-277.864032
 31
0.0
  0
CIRCLE
  5
41E9
330
4BD9
100
AcDbEntity
  8
V0-OBRYS
  6
CONTINUOUS
 62
    90
100
AcDbCircle
 10
1587.521752
 20
-326.269516
 30
0.0
 40
9.195338
  0
LINE
  5
41EA
330
4BD9
100
AcDbEntity
  8
V0-VYPLNE
  6
DASHDOT
 62
    63
100
AcDbLine
 10
1550.740399
 20
-326.269516
 30
0.0
 11
1628.911849
 21
-326.269516
 31
0.0
  0
LINE
  5
41EB
330
4BD9
100
AcDbEntity
  8
V0-VYPLNE
  6
DASHDOT
 62
    63
100
AcDbLine
 10
2218.059025
 20
-363.050924
 30
0.0
 11
2218.059025
 21
-279.639362
 31
0.0
  0
LINE
  5
41EC
330
4BD9
100
AcDbEntity
  8
V0-VYPLNE
  6
DASHDOT
 62
    63
100
AcDbLine
 10
2254.840378
 20
-326.269571
 30
0.0
 11
2177.43376
 21
-326.269571
 31
0.0
  0
CIRCLE
  5
41ED
330
4BD9
100
AcDbEntity
  8
V0-OBRYS
  6
CONTINUOUS
 62
    90
100
AcDbCircle
 10
2218.059025
 20
-326.269571
 30
0.0
 40
9.195338
  0
ARC
  5
41EE
330
4BD9
100
AcDbEntity
  8
V0-OBRYS
  6
CONTINUOUS
100
AcDbCircle
 10
2234.717178
 20
-342.927669
 30
0.0
 40
22.515721
100
AcDbArc
 50
270.0
 51
0.0
  0
LINE
  5
41F0
330
4BD9
100
AcDbEntity
  8
V0-OBRYS
  6
CONTINUOUS
100
AcDbLine
 10
1570.863655
 20
343.441576
 30
0.0
 11
2234.717178
 21
343.441576
 31
0.0
  0
LINE
  5
41F1
330
4BD9
100
AcDbEntity
  8
V0-VYPLNE
  6
DASHDOT
 62
    63
100
AcDbLine
 10
1550.740454
 20
304.267757
 30
0.0
 11
1628.147073
 21
304.267757
 31
0.0
  0
CIRCLE
  5
41F2
330
4BD9
100
AcDbEntity
  8
V0-OBRYS
  6
CONTINUOUS
 62
    90
100
AcDbCircle
 10
1587.521807
 20
304.267757
 30
0.0
 40
9.195338
  0
LINE
  5
41F3
330
4BD9
100
AcDbEntity
  8
V0-VYPLNE
  6
DASHDOT
 62
    63
100
AcDbLine
 10
1587.521807
 20
341.04911
 30
0.0
 11
1587.521807
 21
262.87766
 31
0.0
  0
ARC
  5
41F4
330
4BD9
100
AcDbEntity
  8
V0-OBRYS
  6
CONTINUOUS
100
AcDbCircle
 10
1570.863655
 20
320.925855
 30
0.0
 40
22.515721
100
AcDbArc
 50
90.0
 51
180.0
  0
LINE
  5
41F5
330
4BD9
100
AcDbEntity
  8
V0-VYPLNE
  6
DASHDOT
 62
    63
100
AcDbLine
 10
2254.840434
 20
304.267702
 30
0.0
 11
2176.668984
 21
304.267702
 31
0.0
  0
LINE
  5
41F6
330
4BD9
100
AcDbEntity
  8
V0-VYPLNE
  6
DASHDOT
 62
    63
100
AcDbLine
 10
2218.059081
 20
341.049055
 30
0.0
 11
2218.059081
 21
263.642436
 31
0.0
  0
CIRCLE
  5
41F7
330
4BD9
100
AcDbEntity
  8
V0-OBRYS
  6
CONTINUOUS
 62
    90
100
AcDbCircle
 10
2218.059081
 20
304.267702
 30
0.0
 40
9.195338
  0
ARC
  5
41F8
330
4BD9
100
AcDbEntity
  8
V0-OBRYS
  6
CONTINUOUS
100
AcDbCircle
 10
2234.717178
 20
320.925855
 30
0.0
 40
22.515721
100
AcDbArc
 50
0.0
 51
90.0
  0
CIRCLE
  5
424A
330
4BD9
100
AcDbEntity
  8
V0-OBRYS
  6
CONTINUOUS
 62
    90
100
AcDbCircle
 10
1902.790416
 20
-11.000907
 30
0.0
 40
274.426626
  0
CIRCLE
  5
424B
330
4BD9
100
AcDbEntity
  8
V0-OBRYS
  6
CONTINUOUS
 62
    90
100
AcDbCircle
 10
1902.790416
 20
-11.000907
 30
0.0
 40
311.918235
  0
LINE
  5
424C
330
4BD9
100
AcDbEntity
  8
V0-OBRYS
  6
CONTINUOUS
 62
    90
100
AcDbLine
 10
1767.665843
 20
-21.277247
 30
0.0
 11
1819.866391
 21
-17.30735
 31
0.0
  0
LINE
  5
424D
330
4BD9
100
AcDbEntity
  8
V0-OBRYS
  6
CONTINUOUS
 62
    90
100
AcDbLine
 10
1767.665843
 20
-0.724567
 30
0.0
 11
1819.866391
 21
-4.694464
 31
0.0
  0
LINE
  5
424E
330
4BD9
100
AcDbEntity
  8
V0-OBRYS
  6
CONTINUOUS
 62
    90
100
AcDbLine
 10
1821.95826
 20
8.552293000000001
 30
0.0
 11
1770.155867
 21
21.083228
 31
0.0
  0
LINE
  5
424F
330
4BD9
100
AcDbEntity
  8
V0-OBRYS
  6
CONTINUOUS
 62
    90
100
AcDbLine
 10
1777.003423
 20
40.398707
 30
0.0
 11
1825.806122
 21
20.456741
 31
0.0
  0
LINE
  5
4250
330
4BD9
100
AcDbEntity
  8
V0-OBRYS
  6
CONTINUOUS
 62
    90
100
AcDbLine
 10
1811.18311
 20
43.750507
 30
0.0
 11
1784.473488
 21
59.714185
 31
0.0
  0
LINE
  5
4252
330
4BD9
100
AcDbEntity
  8
V0-OBRYS
  6
CONTINUOUS
 62
    90
100
AcDbLine
 10
1797.132472
 20
-116.703674
 30
0.0
 11
1808.902516
 21
-87.702258
 31
0.0
  0
LINE
  5
4253
330
4BD9
100
AcDbEntity
  8
V0-OBRYS
  6
CONTINUOUS
 62
    90
100
AcDbLine
 10
1811.18311
 20
-65.752321
 30
0.0
 11
1784.473488
 21
-81.715999
 31
0.0
  0
LINE
  5
4254
330
4BD9
100
AcDbEntity
  8
V0-OBRYS
  6
CONTINUOUS
 62
    90
100
AcDbLine
 10
1777.003423
 20
-62.40052
 30
0.0
 11
1825.806122
 21
-42.458555
 31
0.0
  0
LINE
  5
4255
330
4BD9
100
AcDbEntity
  8
V0-OBRYS
  6
CONTINUOUS
 62
    90
100
AcDbLine
 10
1821.95826
 20
-30.554106
 30
0.0
 11
1770.155867
 21
-43.085042
 31
0.0
  0
ARC
  5
4256
330
4BD9
100
AcDbEntity
  8
V0-OBRYS
  6
CONTINUOUS
 62
    90
100
AcDbCircle
 10
1902.790416
 20
-11.000907
 30
0.0
 40
107.191973
100
AcDbArc
 50
148.716649
 51
211.283351
  0
ARC
  5
4257
330
4BD9
100
AcDbEntity
  8
V0-OBRYS
  6
CONTINUOUS
 62
    90
100
AcDbCircle
 10
1902.790416
 20
-11.000907
 30
0.0
 40
285.01875
100
AcDbArc
 50
236.13779
 51
252.433638
  0
LINE
  5
4258
330
4BD9
100
AcDbEntity
  8
VO-OBRYS
  6
CONTINUOUS
100
AcDbLine
 10
1829.173653
 20
-49.688597
 30
0.0
 11
1648.606419
 21
-230.255831
 31
0.0
  0
LINE
  5
4259
330
4BD9
100
AcDbEntity
  8
VO-OBRYS
  6
CONTINUOUS
100
AcDbLine
 10
1864.102727
 20
-84.61767
 30
0.0
 11
1683.535493
 21
-265.184904
 31
0.0
  0
LINE
  5
425A
330
4BD9
100
AcDbEntity
  8
VO-OBRYS
  6
CONTINUOUS
100
AcDbLine
 10
1830.969322
 20
-52.928172
 30
0.0
 11
1651.124041
 21
-232.773453
 31
0.0
  0
LINE
  5
425B
330
4BD9
100
AcDbEntity
  8
VO-OBRYS
  6
CONTINUOUS
100
AcDbLine
 10
1860.863151
 20
-82.822001
 30
0.0
 11
1681.017871
 21
-262.667282
 31
0.0
  0
LINE
  5
425C
330
4BD9
100
AcDbEntity
  8
VO-OBRYS
  6
CONTINUOUS
100
AcDbLine
 10
1829.173653
 20
27.686783
 30
0.0
 11
1648.606419
 21
208.254017
 31
0.0
  0
LINE
  5
425D
330
4BD9
100
AcDbEntity
  8
VO-OBRYS
  6
CONTINUOUS
100
AcDbLine
 10
1864.102727
 20
62.615856
 30
0.0
 11
1683.535493
 21
243.183091
 31
0.0
  0
LINE
  5
425E
330
4BD9
100
AcDbEntity
  8
VO-OBRYS
  6
CONTINUOUS
100
AcDbLine
 10
1830.969322
 20
30.926358
 30
0.0
 11
1651.124041
 21
210.771639
 31
0.0
  0
LINE
  5
425F
330
4BD9
100
AcDbEntity
  8
VO-OBRYS
  6
CONTINUOUS
100
AcDbLine
 10
1860.863151
 20
60.820188
 30
0.0
 11
1681.017871
 21
240.665468
 31
0.0
  0
LINE
  5
4260
330
4BD9
100
AcDbEntity
  8
V0-OBRYS
  6
CONTINUOUS
 62
    90
100
AcDbLine
 10
1788.072657
 20
140.110933
 30
0.0
 11
1820.087377
 21
117.738415
 31
0.0
  0
CIRCLE
  5
4261
330
4BD9
100
AcDbEntity
  8
V0-OBRYS
  6
CONTINUOUS
 62
    90
100
AcDbCircle
 10
1902.790416
 20
-11.000907
 30
0.0
 40
153.015051
  0
CIRCLE
  5
4262
330
4BD9
100
AcDbEntity
  8
V0-OBRYS
  6
CONTINUOUS
 62
    90
100
AcDbCircle
 10
1902.790416
 20
-11.000907
 30
0.0
 40
193.283814
  0
CIRCLE
  5
4263
330
4BD9
100
AcDbEntity
  8
V0-OBRYS
  6
CONTINUOUS
 62
    90
100
AcDbCircle
 10
1902.790416
 20
-11.000907
 30
0.0
 40
234.941157
  0
CIRCLE
  5
4264
330
4BD9
100
AcDbEntity
  8
V0-OBRYS
  6
CONTINUOUS
 62
    90
100
AcDbCircle
 10
1902.790416
 20
-11.000907
 30
0.0
 40
231.380702
  0
CIRCLE
  5
4265
330
4BD9
100
AcDbEntity
  8
V0-OBRYS
  6
CONTINUOUS
 62
    90
100
AcDbCircle
 10
1902.790416
 20
-11.000907
 30
0.0
 40
189.723358
  0
CIRCLE
  5
4266
330
4BD9
100
AcDbEntity
  8
V0-OBRYS
  6
CONTINUOUS
 62
    90
100
AcDbCircle
 10
1902.790416
 20
-11.000907
 30
0.0
 40
149.454596
  0
LINE
  5
4267
330
4BD9
100
AcDbEntity
  8
V0-OBRYS
  6
CONTINUOUS
 62
    90
100
AcDbLine
 10
1657.017037
 20
133.329041
 30
0.0
 11
1662.341302
 21
128.501928
 31
0.0
  0
LINE
  5
4268
330
4BD9
100
AcDbEntity
  8
V0-OBRYS
  6
CONTINUOUS
 62
    90
100
AcDbLine
 10
1764.687744
 20
-196.647563
 30
0.0
 11
1779.589081
 21
-159.930633
 31
0.0
  0
ARC
  5
4269
330
4BD9
100
AcDbEntity
  8
VO-OBRYS
  6
CONTINUOUS
100
AcDbCircle
 10
1666.070956
 20
-247.720367
 30
0.0
 40
24.698585
100
AcDbArc
 50
135.0
 51
315.0
  0
ARC
  5
426A
330
4BD9
100
AcDbEntity
  8
VO-OBRYS
  6
CONTINUOUS
100
AcDbCircle
 10
1666.070956
 20
-247.720367
 30
0.0
 40
21.138129
100
AcDbArc
 50
135.0
 51
315.0
  0
LINE
  5
426B
330
4BD9
100
AcDbEntity
  8
V0-OBRYS
  6
CONTINUOUS
 62
    90
100
AcDbLine
 10
1748.050886
 20
-237.640821
 30
0.0
 11
1763.305125
 21
-200.05434
 31
0.0
  0
LINE
  5
426C
330
4BD9
100
AcDbEntity
  8
V0-OBRYS
  6
CONTINUOUS
 62
    90
100
AcDbLine
 10
1743.978671
 20
-247.674769
 30
0.0
 11
1746.681262
 21
-241.015579
 31
0.0
  0
LINE
  5
426D
330
4BD9
100
AcDbEntity
  8
V0-OBRYS
  6
CONTINUOUS
 62
    90
100
AcDbLine
 10
1629.117677
 20
-31.328345
 30
0.0
 11
1668.014834
 21
-19.819802
 31
0.0
  0
ARC
  5
426E
330
4BD9
100
AcDbEntity
  8
V0-OBRYS
  6
CONTINUOUS
 62
    90
100
AcDbCircle
 10
1902.790416
 20
-11.000907
 30
0.0
 40
285.01875
100
AcDbArc
 50
184.709219
 51
201.005067
  0
LINE
  5
426F
330
4BD9
100
AcDbEntity
  8
V0-OBRYS
  6
CONTINUOUS
 62
    90
100
AcDbLine
 10
1636.711524
 20
-113.166022
 30
0.0
 11
1643.805138
 21
-112.013
 31
0.0
  0
LINE
  5
4270
330
4BD9
100
AcDbEntity
  8
V0-OBRYS
  6
CONTINUOUS
 62
    90
100
AcDbLine
 10
1618.733836
 20
-34.400624
 30
0.0
 11
1625.625239
 21
-32.361657
 31
0.0
  0
LINE
  5
4271
330
4BD9
100
AcDbEntity
  8
V0-OBRYS
  6
CONTINUOUS
 62
    90
100
AcDbLine
 10
1691.067574
 20
-104.33079
 30
0.0
 11
1730.179793
 21
-97.97334600000001
 31
0.0
  0
LINE
  5
4272
330
4BD9
100
AcDbEntity
  8
V0-OBRYS
  6
CONTINUOUS
 62
    90
100
AcDbLine
 10
1647.400053
 20
-111.428669
 30
0.0
 11
1687.43855
 21
-104.920665
 31
0.0
  0
LINE
  5
4273
330
4BD9
100
AcDbEntity
  8
V0-OBRYS
  6
CONTINUOUS
 62
    90
100
AcDbLine
 10
1780.994369
 20
-156.468001
 30
0.0
 11
1795.682016
 21
-120.277603
 31
0.0
  0
LINE
  5
4274
330
4BD9
100
AcDbEntity
  8
V0-OBRYS
  6
CONTINUOUS
 62
    90
100
AcDbLine
 10
1733.868316
 20
-97.3738
 30
0.0
 11
1772.419654
 21
-91.107524
 31
0.0
  0
LINE
  5
4275
330
4BD9
100
AcDbEntity
  8
V0-OBRYS
  6
CONTINUOUS
 62
    90
100
AcDbLine
 10
1776.226734
 20
-90.48870700000001
 30
0.0
 11
1807.120105
 21
-85.467185
 31
0.0
  0
LINE
  5
4276
330
4BD9
100
AcDbEntity
  8
V0-OBRYS
  6
CONTINUOUS
 62
    90
100
AcDbLine
 10
1713.121069
 20
-6.474172
 30
0.0
 11
1750.573459
 21
4.606906999999999
 31
0.0
  0
LINE
  5
4277
330
4BD9
100
AcDbEntity
  8
V0-OBRYS
  6
CONTINUOUS
 62
    90
100
AcDbLine
 10
1697.815143
 20
96.340447
 30
0.0
 11
1727.171662
 21
69.725084
 31
0.0
  0
LINE
  5
4278
330
4BD9
100
AcDbEntity
  8
V0-OBRYS
  6
CONTINUOUS
 62
    90
100
AcDbLine
 10
1671.540408
 20
-18.776686
 30
0.0
 11
1709.537691
 21
-7.53439
 31
0.0
  0
LINE
  5
4279
330
4BD9
100
AcDbEntity
  8
V0-OBRYS
  6
CONTINUOUS
 62
    90
100
AcDbLine
 10
1665.039543
 20
126.055634
 30
0.0
 11
1695.091301
 21
98.809951
 31
0.0
  0
LINE
  5
427A
330
4BD9
100
AcDbEntity
  8
V0-OBRYS
  6
CONTINUOUS
 62
    90
100
AcDbLine
 10
1729.940163
 20
67.215091
 30
0.0
 11
1758.8757
 21
40.981401
 31
0.0
  0
LINE
  5
427B
330
4BD9
100
AcDbEntity
  8
V0-OBRYS
  6
CONTINUOUS
 62
    90
100
AcDbLine
 10
1761.733186
 20
38.390732
 30
0.0
 11
1784.920872
 21
17.368189
 31
0.0
  0
LINE
  5
427C
330
4BD9
100
AcDbEntity
  8
V0-OBRYS
  6
CONTINUOUS
 62
    90
100
AcDbLine
 10
1754.272014
 20
5.701203
 30
0.0
 11
1784.284737
 21
14.581099
 31
0.0
  0
LINE
  5
427D
330
4BD9
100
AcDbEntity
  8
V0-OBRYS
  6
CONTINUOUS
 62
    90
100
AcDbLine
 10
1784.284737
 20
14.581099
 30
0.0
 11
1794.994461
 21
4.426053999999999
 31
0.0
  0
LINE
  5
427E
330
4BD9
100
AcDbEntity
  8
V0-OBRYS
  6
CONTINUOUS
 62
    90
100
AcDbLine
 10
1784.920872
 20
17.368189
 30
0.0
 11
1798.976109
 21
21.870794
 31
0.0
  0
ARC
  5
427F
330
4BD9
100
AcDbEntity
  8
VO-OBRYS
  6
CONTINUOUS
100
AcDbCircle
 10
1666.070956
 20
225.718554
 30
0.0
 40
24.698585
100
AcDbArc
 50
45.0
 51
225.0
  0
ARC
  5
4280
330
4BD9
100
AcDbEntity
  8
VO-OBRYS
  6
CONTINUOUS
100
AcDbCircle
 10
1666.070956
 20
225.718554
 30
0.0
 40
21.138129
100
AcDbArc
 50
45.0
 51
225.0
  0
LINE
  5
4281
330
4BD9
100
AcDbEntity
  8
V0-OBRYS
  6
CONTINUOUS
 62
    90
100
AcDbLine
 10
1716.265623
 20
190.291106
 30
0.0
 11
1749.515345
 21
167.055544
 31
0.0
  0
ARC
  5
4282
330
4BD9
100
AcDbEntity
  8
V0-OBRYS
  6
CONTINUOUS
 62
    90
100
AcDbCircle
 10
1902.790416
 20
-11.000907
 30
0.0
 40
285.01875
100
AcDbArc
 50
133.280648
 51
149.576495
  0
LINE
  5
4283
330
4BD9
100
AcDbEntity
  8
V0-OBRYS
  6
CONTINUOUS
 62
    90
100
AcDbLine
 10
1707.3894
 20
196.493986
 30
0.0
 11
1713.280248
 21
192.377345
 31
0.0
  0
LINE
  5
4284
330
4BD9
100
AcDbEntity
  8
V0-OBRYS
  6
CONTINUOUS
 62
    90
100
AcDbLine
 10
1752.529045
 20
164.949511
 30
0.0
 11
1785.009546
 21
142.251496
 31
0.0
  0
LINE
  5
4285
330
4BD9
100
AcDbEntity
  8
V0-OBRYS
  6
CONTINUOUS
 62
    90
100
AcDbLine
 10
2148.563796
 20
133.329041
 30
0.0
 11
2143.239531
 21
128.501928
 31
0.0
  0
LINE
  5
4286
330
4BD9
100
AcDbEntity
  8
V0-OBRYS
  6
CONTINUOUS
 62
    90
100
AcDbLine
 10
2017.508176
 20
140.110933
 30
0.0
 11
1985.493456
 21
117.738415
 31
0.0
  0
LINE
  5
4287
330
4BD9
100
AcDbEntity
  8
VO-OBRYS
  6
CONTINUOUS
100
AcDbLine
 10
1976.40718
 20
27.686783
 30
0.0
 11
2156.974414
 21
208.254017
 31
0.0
  0
LINE
  5
4288
330
4BD9
100
AcDbEntity
  8
VO-OBRYS
  6
CONTINUOUS
100
AcDbLine
 10
1941.478106
 20
62.615856
 30
0.0
 11
2122.04534
 21
243.183091
 31
0.0
  0
LINE
  5
4289
330
4BD9
100
AcDbEntity
  8
VO-OBRYS
  6
CONTINUOUS
100
AcDbLine
 10
1944.717682
 20
60.820188
 30
0.0
 11
2124.562962
 21
240.665468
 31
0.0
  0
LINE
  5
428A
330
4BD9
100
AcDbEntity
  8
VO-OBRYS
  6
CONTINUOUS
100
AcDbLine
 10
1974.611511
 20
30.926358
 30
0.0
 11
2154.456792
 21
210.771639
 31
0.0
  0
LINE
  5
428B
330
4BD9
100
AcDbEntity
  8
V0-OBRYS
  6
CONTINUOUS
 62
    90
100
AcDbLine
 10
2140.54129
 20
126.055634
 30
0.0
 11
2110.489532
 21
98.809951
 31
0.0
  0
LINE
  5
428C
330
4BD9
100
AcDbEntity
  8
V0-OBRYS
  6
CONTINUOUS
 62
    90
100
AcDbLine
 10
2158.18078
 20
-111.428669
 30
0.0
 11
2118.142283
 21
-104.920665
 31
0.0
  0
ARC
  5
428D
330
4BD9
100
AcDbEntity
  8
VO-OBRYS
  6
CONTINUOUS
100
AcDbCircle
 10
2139.509877
 20
-247.720367
 30
0.0
 40
21.138129
100
AcDbArc
 50
225.0
 51
45.0
  0
ARC
  5
428E
330
4BD9
100
AcDbEntity
  8
VO-OBRYS
  6
CONTINUOUS
100
AcDbCircle
 10
2139.509877
 20
-247.720367
 30
0.0
 40
24.698585
100
AcDbArc
 50
225.0
 51
45.0
  0
LINE
  5
428F
330
4BD9
100
AcDbEntity
  8
VO-OBRYS
  6
CONTINUOUS
100
AcDbLine
 10
1976.40718
 20
-49.688597
 30
0.0
 11
2156.974414
 21
-230.255831
 31
0.0
  0
LINE
  5
4290
330
4BD9
100
AcDbEntity
  8
VO-OBRYS
  6
CONTINUOUS
100
AcDbLine
 10
1974.611511
 20
-52.928172
 30
0.0
 11
2154.456792
 21
-232.773453
 31
0.0
  0
LINE
  5
4291
330
4BD9
100
AcDbEntity
  8
V0-OBRYS
  6
CONTINUOUS
 62
    90
100
AcDbLine
 10
1864.998257
 20
-196.922141
 30
0.0
 11
1884.135451
 21
-162.874532
 31
0.0
  0
LINE
  5
4292
330
4BD9
100
AcDbEntity
  8
V0-OBRYS
  6
CONTINUOUS
 62
    90
100
AcDbLine
 10
1940.582576
 20
-196.922141
 30
0.0
 11
1921.445382
 21
-162.874532
 31
0.0
  0
LINE
  5
4293
330
4BD9
100
AcDbEntity
  8
VO-OBRYS
  6
CONTINUOUS
100
AcDbLine
 10
1941.478106
 20
-84.61767
 30
0.0
 11
2122.04534
 21
-265.184904
 31
0.0
  0
LINE
  5
4294
330
4BD9
100
AcDbEntity
  8
VO-OBRYS
  6
CONTINUOUS
100
AcDbLine
 10
1944.717682
 20
-82.822001
 30
0.0
 11
2124.562962
 21
-262.667282
 31
0.0
  0
LINE
  5
4295
330
4BD9
100
AcDbEntity
  8
V0-OBRYS
  6
CONTINUOUS
 62
    90
100
AcDbLine
 10
2040.893089
 20
-196.647563
 30
0.0
 11
2025.991752
 21
-159.930633
 31
0.0
  0
LINE
  5
4296
330
4BD9
100
AcDbEntity
  8
V0-OBRYS
  6
CONTINUOUS
 62
    90
100
AcDbLine
 10
1983.506117
 20
-273.288819
 30
0.0
 11
1963.630685
 21
-237.927787
 31
0.0
  0
LINE
  5
4297
330
4BD9
100
AcDbEntity
  8
V0-OBRYS
  6
CONTINUOUS
 62
    90
100
AcDbLine
 10
1822.074716
 20
-273.288819
 30
0.0
 11
1841.950148
 21
-237.927787
 31
0.0
  0
LINE
  5
4298
330
4BD9
100
AcDbEntity
  8
V0-OBRYS
  6
CONTINUOUS
 62
    90
100
AcDbLine
 10
1816.768844
 20
-282.728669
 30
0.0
 11
1820.290171
 21
-276.463761
 31
0.0
  0
LINE
  5
4299
330
4BD9
100
AcDbEntity
  8
V0-OBRYS
  6
CONTINUOUS
 62
    90
100
AcDbLine
 10
1843.751624
 20
-234.722721
 30
0.0
 11
1863.167244
 21
-200.179756
 31
0.0
  0
LINE
  5
429A
330
4BD9
100
AcDbEntity
  8
V0-OBRYS
  6
CONTINUOUS
 62
    90
100
AcDbLine
 10
1961.829209
 20
-234.722721
 30
0.0
 11
1942.413589
 21
-200.179756
 31
0.0
  0
LINE
  5
429B
330
4BD9
100
AcDbEntity
  8
V0-OBRYS
  6
CONTINUOUS
 62
    90
100
AcDbLine
 10
2057.529947
 20
-237.640821
 30
0.0
 11
2042.275708
 21
-200.05434
 31
0.0
  0
ARC
  5
429C
330
4BD9
100
AcDbEntity
  8
V0-OBRYS
  6
CONTINUOUS
 62
    90
100
AcDbCircle
 10
1902.790416
 20
-11.000907
 30
0.0
 40
285.01875
100
AcDbArc
 50
287.566362
 51
303.86221
  0
LINE
  5
429D
330
4BD9
100
AcDbEntity
  8
V0-OBRYS
  6
CONTINUOUS
 62
    90
100
AcDbLine
 10
1988.811989
 20
-282.728669
 30
0.0
 11
1985.290662
 21
-276.463761
 31
0.0
  0
LINE
  5
429E
330
4BD9
100
AcDbEntity
  8
V0-OBRYS
  6
CONTINUOUS
 62
    90
100
AcDbLine
 10
2061.602162
 20
-247.674769
 30
0.0
 11
2058.899571
 21
-241.015579
 31
0.0
  0
LINE
  5
429F
330
4BD9
100
AcDbEntity
  8
V0-OBRYS
  6
CONTINUOUS
 62
    90
100
AcDbLine
 10
1982.33189
 20
115.529051
 30
0.0
 11
1956.676681
 21
97.600684
 31
0.0
  0
LINE
  5
42A0
330
4BD9
100
AcDbEntity
  8
V0-OBRYS
  6
CONTINUOUS
 62
    90
100
AcDbLine
 10
1957.541831
 20
80.60639999999999
 30
0.0
 11
1973.505509
 21
107.316021
 31
0.0
  0
LINE
  5
42A3
330
4BD9
100
AcDbEntity
  8
V0-OBRYS
  6
CONTINUOUS
 62
    90
100
AcDbLine
 10
1957.541831
 20
-102.608213
 30
0.0
 11
1973.505509
 21
-129.317835
 31
0.0
  0
LINE
  5
42A8
330
4BD9
100
AcDbEntity
  8
V0-OBRYS
  6
CONTINUOUS
 62
    90
100
AcDbLine
 10
1886.025316
 20
-159.512212
 30
0.0
 11
1901.361034
 21
-132.227933
 31
0.0
  0
ARC
  5
42A9
330
4BD9
100
AcDbEntity
  8
V0-OBRYS
  6
CONTINUOUS
 62
    90
100
AcDbCircle
 10
1902.790416
 20
-11.000907
 30
0.0
 40
107.191973
100
AcDbArc
 50
238.716649
 51
301.283351
  0
LINE
  5
42AA
330
4BD9
100
AcDbEntity
  8
V0-OBRYS
  6
CONTINUOUS
 62
    90
100
AcDbLine
 10
1883.237217
 20
-91.83306399999999
 30
0.0
 11
1870.706282
 21
-143.635457
 31
0.0
  0
LINE
  5
42AB
330
4BD9
100
AcDbEntity
  8
V0-OBRYS
  6
CONTINUOUS
 62
    90
100
AcDbLine
 10
1851.390803
 20
-136.7879
 30
0.0
 11
1871.332768
 21
-87.985201
 31
0.0
  0
LINE
  5
42AC
330
4BD9
100
AcDbEntity
  8
V0-OBRYS
  6
CONTINUOUS
 62
    90
100
AcDbLine
 10
1848.039002
 20
-102.608213
 30
0.0
 11
1832.075324
 21
-129.317835
 31
0.0
  0
LINE
  5
42B0
330
4BD9
100
AcDbEntity
  8
V0-OBRYS
  6
CONTINUOUS
 62
    90
100
AcDbLine
 10
1922.343616
 20
-91.83306399999999
 30
0.0
 11
1934.874551
 21
-143.635457
 31
0.0
  0
LINE
  5
42B1
330
4BD9
100
AcDbEntity
  8
V0-OBRYS
  6
CONTINUOUS
 62
    90
100
AcDbLine
 10
1913.066756
 20
-146.12548
 30
0.0
 11
1909.09686
 21
-93.924932
 31
0.0
  0
LINE
  5
42B2
330
4BD9
100
AcDbEntity
  8
V0-OBRYS
  6
CONTINUOUS
 62
    90
100
AcDbLine
 10
1892.514077
 20
-146.12548
 30
0.0
 11
1896.483973
 21
-93.924932
 31
0.0
  0
LINE
  5
42B3
330
4BD9
100
AcDbEntity
  8
V0-OBRYS
  6
CONTINUOUS
 62
    90
100
AcDbLine
 10
1954.19003
 20
-136.7879
 30
0.0
 11
1934.248065
 21
-87.985201
 31
0.0
  0
LINE
  5
42B4
330
4BD9
100
AcDbEntity
  8
V0-OBRYS
  6
CONTINUOUS
 62
    90
100
AcDbLine
 10
1919.555517
 20
-159.512212
 30
0.0
 11
1904.219799
 21
-132.227933
 31
0.0
  0
LINE
  5
42B5
330
4BD9
100
AcDbEntity
  8
V0-OBRYS
  6
CONTINUOUS
 62
    90
100
AcDbLine
 10
1904.219799
 20
-132.227933
 30
0.0
 11
1911.737099
 21
-119.527015
 31
0.0
  0
LINE
  5
42B6
330
4BD9
100
AcDbEntity
  8
V0-OBRYS
  6
CONTINUOUS
 62
    90
100
AcDbLine
 10
1901.361034
 20
-132.227933
 30
0.0
 11
1893.843734
 21
-119.527015
 31
0.0
  0
ARC
  5
42B7
330
4BD9
100
AcDbEntity
  8
V0-OBRYS
  6
CONTINUOUS
 62
    90
100
AcDbCircle
 10
1902.790416
 20
-11.000907
 30
0.0
 40
107.191973
100
AcDbArc
 50
58.71664899999999
 51
121.283351
  0
LINE
  5
42B9
330
4BD9
100
AcDbEntity
  8
V0-OBRYS
  6
CONTINUOUS
 62
    90
100
AcDbLine
 10
1848.039002
 20
80.60639999999999
 30
0.0
 11
1832.075324
 21
107.316021
 31
0.0
  0
LINE
  5
42BA
330
4BD9
100
AcDbEntity
  8
V0-OBRYS
  6
CONTINUOUS
 62
    90
100
AcDbLine
 10
1848.039002
 20
80.60639999999999
 30
0.0
 11
1832.075324
 21
107.316021
 31
0.0
  0
LINE
  5
42BB
330
4BD9
100
AcDbEntity
  8
V0-OBRYS
  6
CONTINUOUS
 62
    90
100
AcDbLine
 10
1848.904152
 20
97.600684
 30
0.0
 11
1847.642021
 21
82.895918
 31
0.0
  0
LINE
  5
42BD
330
4BD9
100
AcDbEntity
  8
V0-OBRYS
  6
CONTINUOUS
 62
    90
100
AcDbLine
 10
1823.248943
 20
115.529051
 30
0.0
 11
1848.904152
 21
97.600684
 31
0.0
  0
LINE
  5
42BE
330
4BD9
100
AcDbEntity
  8
V0-OBRYS
  6
CONTINUOUS
 62
    90
100
AcDbLine
 10
1880.630722
 20
80.60639999999999
 30
0.0
 11
1870.706282
 21
121.633643
 31
0.0
  0
LINE
  5
42BF
330
4BD9
100
AcDbEntity
  8
V0-OBRYS
  6
CONTINUOUS
 62
    90
100
AcDbLine
 10
1883.237217
 20
69.83125
 30
0.0
 11
1870.706282
 21
121.633643
 31
0.0
  0
LINE
  5
42C0
330
4BD9
100
AcDbEntity
  8
V0-OBRYS
  6
CONTINUOUS
 62
    90
100
AcDbLine
 10
1851.390803
 20
114.786086
 30
0.0
 11
1865.357451
 21
80.60639999999999
 31
0.0
  0
LINE
  5
42C1
330
4BD9
100
AcDbEntity
  8
V0-OBRYS
  6
CONTINUOUS
 62
    90
100
AcDbLine
 10
1851.390803
 20
114.786086
 30
0.0
 11
1871.332768
 21
65.98338699999999
 31
0.0
  0
LINE
  5
42C2
330
4BD9
100
AcDbEntity
  8
V0-OBRYS
  6
CONTINUOUS
 62
    90
100
AcDbLine
 10
1851.47981
 20
98.841056
 30
0.0
 11
1863.763385
 21
90.659558
 31
0.0
  0
LINE
  5
42C3
330
4BD9
100
AcDbEntity
  8
V0-OBRYS
  6
CONTINUOUS
 62
    90
100
AcDbLine
 10
1853.45861
 20
130.07726
 30
0.0
 11
1851.47981
 21
98.841056
 31
0.0
  0
LINE
  5
42C4
330
4BD9
100
AcDbEntity
  8
V0-OBRYS
  6
CONTINUOUS
 62
    90
100
AcDbLine
 10
1922.343616
 20
69.83125
 30
0.0
 11
1934.874551
 21
121.633643
 31
0.0
  0
LINE
  5
42C5
330
4BD9
100
AcDbEntity
  8
V0-OBRYS
  6
CONTINUOUS
 62
    90
100
AcDbLine
 10
1892.514077
 20
124.123666
 30
0.0
 11
1895.823602
 21
80.60639999999999
 31
0.0
  0
LINE
  5
42C6
330
4BD9
100
AcDbEntity
  8
V0-OBRYS
  6
CONTINUOUS
 62
    90
100
AcDbLine
 10
1892.514077
 20
124.123666
 30
0.0
 11
1896.483973
 21
71.923118
 31
0.0
  0
LINE
  5
42C7
330
4BD9
100
AcDbEntity
  8
V0-OBRYS
  6
CONTINUOUS
 62
    90
100
AcDbLine
 10
1913.066756
 20
124.123666
 30
0.0
 11
1909.09686
 21
71.923118
 31
0.0
  0
LINE
  5
42C8
330
4BD9
100
AcDbEntity
  8
V0-OBRYS
  6
CONTINUOUS
 62
    90
100
AcDbLine
 10
1956.676681
 20
97.600684
 30
0.0
 11
1957.938812
 21
82.895918
 31
0.0
  0
LINE
  5
42C9
330
4BD9
100
AcDbEntity
  8
V0-OBRYS
  6
CONTINUOUS
 62
    90
100
AcDbLine
 10
1954.19003
 20
114.786086
 30
0.0
 11
1934.248065
 21
65.98338699999999
 31
0.0
  0
LINE
  5
42CA
330
4BD9
100
AcDbEntity
  8
V0-OBRYS
  6
CONTINUOUS
 62
    90
100
AcDbLine
 10
1954.101023
 20
98.841056
 30
0.0
 11
1941.817448
 21
90.659558
 31
0.0
  0
LINE
  5
42CB
330
4BD9
100
AcDbEntity
  8
V0-OBRYS
  6
CONTINUOUS
 62
    90
100
AcDbLine
 10
1952.122223
 20
130.07726
 30
0.0
 11
1954.101023
 21
98.841056
 31
0.0
  0
ARC
  5
42CD
330
4BD9
100
AcDbEntity
  8
V0-OBRYS
  6
CONTINUOUS
 62
    90
100
AcDbCircle
 10
1902.790416
 20
-11.000907
 30
0.0
 40
107.191973
100
AcDbArc
 50
328.716649
 51
31.283351
  0
LINE
  5
42CE
330
4BD9
100
AcDbEntity
  8
V0-OBRYS
  6
CONTINUOUS
 62
    90
100
AcDbLine
 10
2071.712517
 20
-97.3738
 30
0.0
 11
2033.161179
 21
-91.107524
 31
0.0
  0
LINE
  5
42CF
330
4BD9
100
AcDbEntity
  8
V0-OBRYS
  6
CONTINUOUS
 62
    90
100
AcDbLine
 10
2008.448361
 20
-116.703674
 30
0.0
 11
1996.678317
 21
-87.702258
 31
0.0
  0
LINE
  5
42D0
330
4BD9
100
AcDbEntity
  8
V0-OBRYS
  6
CONTINUOUS
 62
    90
100
AcDbLine
 10
2024.586464
 20
-156.468001
 30
0.0
 11
2009.898817
 21
-120.277603
 31
0.0
  0
LINE
  5
42D1
330
4BD9
100
AcDbEntity
  8
V0-OBRYS
  6
CONTINUOUS
 62
    90
100
AcDbLine
 10
2028.57741
 20
-62.40052
 30
0.0
 11
1979.774711
 21
-42.458555
 31
0.0
  0
LINE
  5
42D2
330
4BD9
100
AcDbEntity
  8
V0-OBRYS
  6
CONTINUOUS
 62
    90
100
AcDbLine
 10
2029.354099
 20
-90.48870700000001
 30
0.0
 11
1998.460728
 21
-85.467185
 31
0.0
  0
LINE
  5
42D3
330
4BD9
100
AcDbEntity
  8
V0-OBRYS
  6
CONTINUOUS
 62
    90
100
AcDbLine
 10
1994.397723
 20
-65.752321
 30
0.0
 11
2021.107345
 21
-81.715999
 31
0.0
  0
LINE
  5
42D4
330
4BD9
100
AcDbEntity
  8
V0-OBRYS
  6
CONTINUOUS
 62
    90
100
AcDbLine
 10
1983.622573
 20
-30.554106
 30
0.0
 11
2035.424966
 21
-43.085042
 31
0.0
  0
LINE
  5
42D8
330
4BD9
100
AcDbEntity
  8
V0-OBRYS
  6
CONTINUOUS
 62
    90
100
AcDbLine
 10
2114.513259
 20
-104.33079
 30
0.0
 11
2075.40104
 21
-97.97334600000001
 31
0.0
  0
LINE
  5
42D9
330
4BD9
100
AcDbEntity
  8
V0-OBRYS
  6
CONTINUOUS
 62
    90
100
AcDbLine
 10
2075.64067
 20
67.215091
 30
0.0
 11
2046.705133
 21
40.981401
 31
0.0
  0
LINE
  5
42DA
330
4BD9
100
AcDbEntity
  8
V0-OBRYS
  6
CONTINUOUS
 62
    90
100
AcDbLine
 10
1994.397723
 20
43.750507
 30
0.0
 11
2021.107345
 21
59.714185
 31
0.0
  0
LINE
  5
42DB
330
4BD9
100
AcDbEntity
  8
V0-OBRYS
  6
CONTINUOUS
 62
    90
100
AcDbLine
 10
2028.57741
 20
40.398707
 30
0.0
 11
1979.774711
 21
20.456741
 31
0.0
  0
LINE
  5
42DC
330
4BD9
100
AcDbEntity
  8
V0-OBRYS
  6
CONTINUOUS
 62
    90
100
AcDbLine
 10
2020.659961
 20
17.368189
 30
0.0
 11
2006.604724
 21
21.870794
 31
0.0
  0
LINE
  5
42DD
330
4BD9
100
AcDbEntity
  8
V0-OBRYS
  6
CONTINUOUS
 62
    90
100
AcDbLine
 10
2021.296096
 20
14.581099
 30
0.0
 11
2010.586372
 21
4.426053999999999
 31
0.0
  0
LINE
  5
42DE
330
4BD9
100
AcDbEntity
  8
V0-OBRYS
  6
CONTINUOUS
 62
    90
100
AcDbLine
 10
1983.622573
 20
8.552293000000001
 30
0.0
 11
2035.424966
 21
21.083228
 31
0.0
  0
LINE
  5
42DF
330
4BD9
100
AcDbEntity
  8
V0-OBRYS
  6
CONTINUOUS
 62
    90
100
AcDbLine
 10
2037.91499
 20
-0.724567
 30
0.0
 11
1985.714442
 21
-4.694464
 31
0.0
  0
LINE
  5
42E0
330
4BD9
100
AcDbEntity
  8
V0-OBRYS
  6
CONTINUOUS
 62
    90
100
AcDbLine
 10
2037.91499
 20
-21.277247
 30
0.0
 11
1985.714442
 21
-17.30735
 31
0.0
  0
LINE
  5
42E1
330
4BD9
100
AcDbEntity
  8
V0-OBRYS
  6
CONTINUOUS
 62
    90
100
AcDbLine
 10
2051.308818
 20
5.701203
 30
0.0
 11
2021.296096
 21
14.581099
 31
0.0
  0
LINE
  5
42E2
330
4BD9
100
AcDbEntity
  8
V0-OBRYS
  6
CONTINUOUS
 62
    90
100
AcDbLine
 10
2043.847647
 20
38.390732
 30
0.0
 11
2020.659961
 21
17.368189
 31
0.0
  0
LINE
  5
42E4
330
4BD9
100
AcDbEntity
  8
V0-OBRYS
  6
CONTINUOUS
 62
    90
100
AcDbLine
 10
2092.459764
 20
-6.474172
 30
0.0
 11
2055.007374
 21
4.606906999999999
 31
0.0
  0
LINE
  5
42E5
330
4BD9
100
AcDbEntity
  8
V0-OBRYS
  6
CONTINUOUS
 62
    90
100
AcDbLine
 10
2134.040425
 20
-18.776686
 30
0.0
 11
2096.043142
 21
-7.53439
 31
0.0
  0
LINE
  5
42E6
330
4BD9
100
AcDbEntity
  8
V0-OBRYS
  6
CONTINUOUS
 62
    90
100
AcDbLine
 10
2107.76569
 20
96.340447
 30
0.0
 11
2078.409171
 21
69.725084
 31
0.0
  0
LINE
  5
42E7
330
4BD9
100
AcDbEntity
  8
V0-OBRYS
  6
CONTINUOUS
 62
    90
100
AcDbLine
 10
2176.463156
 20
-31.328345
 30
0.0
 11
2137.565999
 21
-19.819802
 31
0.0
  0
ARC
  5
42E8
330
4BD9
100
AcDbEntity
  8
V0-OBRYS
  6
CONTINUOUS
 62
    90
100
AcDbCircle
 10
1902.790416
 20
-11.000907
 30
0.0
 40
285.01875
100
AcDbArc
 50
338.994933
 51
355.290781
  0
LINE
  5
42E9
330
4BD9
100
AcDbEntity
  8
V0-OBRYS
  6
CONTINUOUS
 62
    90
100
AcDbLine
 10
2168.869309
 20
-113.166022
 30
0.0
 11
2161.775695
 21
-112.013
 31
0.0
  0
LINE
  5
42EA
330
4BD9
100
AcDbEntity
  8
V0-OBRYS
  6
CONTINUOUS
 62
    90
100
AcDbLine
 10
2186.846997
 20
-34.400624
 30
0.0
 11
2179.955594
 21
-32.361657
 31
0.0
  0
ARC
  5
42EB
330
4BD9
100
AcDbEntity
  8
VO-OBRYS
  6
CONTINUOUS
100
AcDbCircle
 10
2139.509877
 20
225.718554
 30
0.0
 40
24.698585
100
AcDbArc
 50
315.0
 51
135.0
  0
ARC
  5
42EC
330
4BD9
100
AcDbEntity
  8
VO-OBRYS
  6
CONTINUOUS
100
AcDbCircle
 10
2139.509877
 20
225.718554
 30
0.0
 40
21.138129
100
AcDbArc
 50
315.0
 51
135.0
  0
ARC
  5
42ED
330
4BD9
100
AcDbEntity
  8
V0-OBRYS
  6
CONTINUOUS
 62
    90
100
AcDbCircle
 10
1902.790416
 20
-11.000907
 30
0.0
 40
285.01875
100
AcDbArc
 50
30.423505
 51
46.719352
  0
LINE
  5
42EF
330
4BD9
100
AcDbEntity
  8
V0-OBRYS
  6
CONTINUOUS
 62
    90
100
AcDbLine
 10
1858.913273
 20
216.181454
 30
0.0
 11
1856.408035
 21
176.635196
 31
0.0
  0
LINE
  5
42F0
330
4BD9
100
AcDbEntity
  8
V0-OBRYS
  6
CONTINUOUS
 62
    90
100
AcDbLine
 10
1856.171776
 20
172.90574
 30
0.0
 11
1853.702463
 21
133.926588
 31
0.0
  0
LINE
  5
42F1
330
4BD9
100
AcDbEntity
  8
V0-OBRYS
  6
CONTINUOUS
 62
    90
100
AcDbLine
 10
1861.71029
 20
260.333566
 30
0.0
 11
1859.145721
 21
219.850751
 31
0.0
  0
LINE
  5
42F2
330
4BD9
100
AcDbEntity
  8
V0-OBRYS
  6
CONTINUOUS
 62
    90
100
AcDbLine
 10
1862.394918
 20
271.140709
 30
0.0
 11
1861.940554
 21
263.968375
 31
0.0
  0
LINE
  5
42F3
330
4BD9
100
AcDbEntity
  8
V0-OBRYS
  6
CONTINUOUS
 62
    90
100
AcDbLine
 10
1946.66756
 20
216.181454
 30
0.0
 11
1949.172798
 21
176.635196
 31
0.0
  0
LINE
  5
42F4
330
4BD9
100
AcDbEntity
  8
V0-OBRYS
  6
CONTINUOUS
 62
    90
100
AcDbLine
 10
1949.409057
 20
172.90574
 30
0.0
 11
1951.87837
 21
133.926588
 31
0.0
  0
LINE
  5
42F5
330
4BD9
100
AcDbEntity
  8
V0-OBRYS
  6
CONTINUOUS
 62
    90
100
AcDbLine
 10
1943.870543
 20
260.333566
 30
0.0
 11
1946.435111
 21
219.850751
 31
0.0
  0
LINE
  5
42F6
330
4BD9
100
AcDbEntity
  8
V0-OBRYS
  6
CONTINUOUS
 62
    90
100
AcDbLine
 10
1943.185915
 20
271.140709
 30
0.0
 11
1943.640279
 21
263.968375
 31
0.0
  0
LINE
  5
42F7
330
4BD9
100
AcDbEntity
  8
V0-OBRYS
  6
CONTINUOUS
 62
    90
100
AcDbLine
 10
2053.051787
 20
164.949511
 30
0.0
 11
2020.571287
 21
142.251496
 31
0.0
  0
LINE
  5
42F8
330
4BD9
100
AcDbEntity
  8
V0-OBRYS
  6
CONTINUOUS
 62
    90
100
AcDbLine
 10
2098.191433
 20
196.493986
 30
0.0
 11
2092.300585
 21
192.377345
 31
0.0
  0
LINE
  5
42F9
330
4BD9
100
AcDbEntity
  8
V0-OBRYS
  6
CONTINUOUS
 62
    90
100
AcDbLine
 10
2089.31521
 20
190.291106
 30
0.0
 11
2056.065488
 21
167.055544
 31
0.0
  0
CIRCLE
  5
42FA
330
4BD9
100
AcDbEntity
  8
V0-OBRYS
  6
CONTINUOUS
 62
    90
100
AcDbCircle
 10
1666.070956
 20
225.718554
 30
0.0
 40
11.425317
  0
LINE
  5
42FB
330
4BD9
100
AcDbEntity
  8
V0-VYPLNE
  6
DASHDOT
 62
    63
100
AcDbLine
 10
1902.790416
 20
-11.000907
 30
0.0
 11
1636.462143
 21
255.327367
 31
0.0
  0
CIRCLE
  5
42FC
330
4BD9
100
AcDbEntity
  8
V0-OBRYS
  6
CONTINUOUS
 62
    90
100
AcDbCircle
 10
1666.070956
 20
-247.720367
 30
0.0
 40
11.425317
  0
LINE
  5
42FD
330
4BD9
100
AcDbEntity
  8
V0-VYPLNE
  6
DASHDOT
 62
    63
100
AcDbLine
 10
1902.790416
 20
-11.000907
 30
0.0
 11
1636.462143
 21
-277.329181
 31
0.0
  0
CIRCLE
  5
42FE
330
4BD9
100
AcDbEntity
  8
V0-OBRYS
  6
CONTINUOUS
 62
    90
100
AcDbCircle
 10
2139.509877
 20
-247.720367
 30
0.0
 40
11.425317
  0
LINE
  5
42FF
330
4BD9
100
AcDbEntity
  8
V0-VYPLNE
  6
DASHDOT
 62
    63
100
AcDbLine
 10
1902.790416
 20
-11.000907
 30
0.0
 11
2169.11869
 21
-277.329181
 31
0.0
  0
CIRCLE
  5
4300
330
4BD9
100
AcDbEntity
  8
V0-OBRYS
  6
CONTINUOUS
 62
    90
100
AcDbCircle
 10
2139.509877
 20
225.718554
 30
0.0
 40
11.425317
  0
LINE
  5
4301
330
4BD9
100
AcDbEntity
  8
V0-VYPLNE
  6
DASHDOT
 62
    63
100
AcDbLine
 10
1902.790416
 20
-11.000907
 30
0.0
 11
2169.11869
 21
255.327367
 31
0.0
  0
CIRCLE
  5
4325
330
4BD9
100
AcDbEntity
  8
V0-OBRYS
  6
CONTINUOUS
 62
    90
100
AcDbCircle
 10
1902.790416
 20
-11.000907
 30
0.0
 40
83.16348499999999
  0
LINE
  5
43F7
330
4BD9
100
AcDbEntity
  8
V0-OBRYS
  6
CONTINUOUS
 62
    90
100
AcDbLine
 10
1248.321191
 20
343.999093
 30
0.0
 11
1248.321191
 21
-366.000907
 31
0.0
  0
ARC
  5
44E8
330
4BD9
100
AcDbEntity
  8
V0-OBRYS
  6
CONTINUOUS
 62
    90
100
AcDbCircle
 10
1902.790416
 20
41.468957
 30
0.0
 40
233.197149
100
AcDbArc
 50
80.02463899999999
 51
99.97536100000001
  0
LINE
  5
460C
330
4BD9
100
AcDbEntity
  8
V0-OBRYS
  6
CONTINUOUS
 62
    90
100
AcDbLine
 10
1189.181283
 20
112.453706
 30
0.0
 11
1218.514037
 21
88.552561
 31
0.0
  0
LINE
  5
460D
330
4BD9
100
AcDbEntity
  8
V0-OBRYS
  6
CONTINUOUS
 62
    90
100
AcDbLine
 10
1187.405822
 20
110.274766
 30
0.0
 11
1216.738576
 21
86.373621
 31
0.0
  0
ARC
  5
460E
330
4BD9
100
AcDbEntity
  8
V0-OBRYS
  6
CONTINUOUS
 62
    90
 48
2.0
100
AcDbCircle
 10
1211.393345
 20
-101.192417
 30
0.0
 40
9.0
100
AcDbArc
 50
309.389776
 51
0.215669
  0
LINE
  5
460F
330
4BD9
100
AcDbEntity
  8
V0-OBRYS
  6
CONTINUOUS
 62
    90
100
AcDbLine
 10
1189.64575
 20
-134.331667
 30
0.0
 11
1218.888329
 21
-110.32028
 31
0.0
  0
LINE
  5
4610
330
4BD9
100
AcDbEntity
  8
V0-OBRYS
  6
CONTINUOUS
 62
    90
100
AcDbLine
 10
1187.8621
 20
-132.159426
 30
0.0
 11
1217.104679
 21
-108.148038
 31
0.0
  0
ARC
  5
4611
330
4BD9
100
AcDbEntity
  8
V0-OBRYS
  6
CONTINUOUS
 62
    90
 48
2.0
100
AcDbCircle
 10
1193.573433
 20
-139.115047
 30
0.0
 40
9.0
100
AcDbArc
 50
129.389776
 51
180.215669
  0
ARC
  5
4612
330
4BD9
100
AcDbEntity
  8
V0-OBRYS
  6
CONTINUOUS
 62
    90
 48
2.0
100
AcDbCircle
 10
1193.573433
 20
-139.115047
 30
0.0
 40
6.189299
100
AcDbArc
 50
129.389776
 51
180.215669
  0
ARC
  5
4613
330
4BD9
100
AcDbEntity
  8
V0-OBRYS
  6
CONTINUOUS
 62
    90
 48
2.0
100
AcDbCircle
 10
1211.393345
 20
-101.192417
 30
0.0
 40
11.810701
100
AcDbArc
 50
309.389776
 51
359.162914
  0
LINE
  5
4693
330
4BD9
100
AcDbEntity
  8
V0-OBRYS
  6
CONTINUOUS
 62
    90
100
AcDbLine
 10
1188.080285
 20
-246.202165
 30
0.0
 11
1236.815059
 21
-313.411945
 31
0.0
  0
LINE
  5
4694
330
4BD9
100
AcDbEntity
  8
V0-OBRYS
  6
CONTINUOUS
 62
    90
100
AcDbLine
 10
1187.769216
 20
-251.716672
 30
0.0
 11
1233.684874
 21
-314.549267
 31
0.0
  0
LINE
  5
4695
330
4BD9
100
AcDbEntity
  8
V0-OBRYS
  6
CONTINUOUS
 62
    90
100
AcDbLine
 10
1185.784836
 20
225.82262
 30
0.0
 11
1233.962492
 21
292.797498
 31
0.0
  0
LINE
  5
4696
330
4BD9
100
AcDbEntity
  8
V0-OBRYS
  6
CONTINUOUS
 62
    90
100
AcDbLine
 10
1188.045393
 20
224.15174
 30
0.0
 11
1236.461091
 21
292.298186
 31
0.0
  0
POINT
  5
46C3
330
4BD9
100
AcDbEntity
  8
V0-VYPLNE
  6
DASHED
 62
    52
100
AcDbPoint
 10
1902.790416
 20
-11.000907
 30
0.0
  0
LINE
  5
46C4
330
4BD9
100
AcDbEntity
  8
V0-OBRYS
  6
CONTINUOUS
 62
    90
100
AcDbLine
 10
1939.026195
 20
29.26107
 30
0.0
 11
1866.554638
 21
29.26107
 31
0.0
  0
LINE
  5
46C5
330
4BD9
100
AcDbEntity
  8
V0-OBRYS
  6
CONTINUOUS
 62
    90
100
AcDbLine
 10
1866.554638
 20
-51.262884
 30
0.0
 11
1939.026195
 21
-51.262884
 31
0.0
  0
LINE
  5
46C6
330
4BD9
100
AcDbEntity
  8
V0-OBRYS
  6
CONTINUOUS
 62
    90
100
AcDbLine
 10
1862.52844
 20
25.234872
 30
0.0
 11
1862.52844
 21
-47.23668600000001
 31
0.0
  0
CIRCLE
  5
46C7
330
4BD9
100
AcDbEntity
  8
V0-OBRYS
  6
CONTINUOUS
 62
    90
100
AcDbCircle
 10
1872.593934
 20
-41.197389
 30
0.0
 40
2.684132
  0
ARC
  5
46CA
330
4BD9
100
AcDbEntity
  8
V0-OBRYS
  6
CONTINUOUS
 62
    90
100
AcDbCircle
 10
1866.554638
 20
-47.236686
 30
0.0
 40
4.026198
100
AcDbArc
 50
180.0
 51
270.0
  0
CIRCLE
  5
46CB
330
4BD9
100
AcDbEntity
  8
V0-OBRYS
  6
CONTINUOUS
 62
    90
100
AcDbCircle
 10
1872.593934
 20
19.195576
 30
0.0
 40
2.684132
  0
ARC
  5
46CC
330
4BD9
100
AcDbEntity
  8
V0-OBRYS
  6
CONTINUOUS
 62
    90
100
AcDbCircle
 10
1866.554638
 20
25.234872
 30
0.0
 40
4.026198
100
AcDbArc
 50
90.0
 51
180.0
  0
LINE
  5
46CD
330
4BD9
100
AcDbEntity
  8
V0-OBRYS
  6
CONTINUOUS
 62
    90
100
AcDbLine
 10
1943.052393
 20
-47.236686
 30
0.0
 11
1943.052393
 21
25.234872
 31
0.0
  0
ARC
  5
46CF
330
4BD9
100
AcDbEntity
  8
V0-OBRYS
  6
CONTINUOUS
 62
    90
100
AcDbCircle
 10
1939.026195
 20
-47.236686
 30
0.0
 40
4.026198
100
AcDbArc
 50
270.0
 51
0.0
  0
CIRCLE
  5
46D0
330
4BD9
100
AcDbEntity
  8
V0-OBRYS
  6
CONTINUOUS
 62
    90
100
AcDbCircle
 10
1932.986899
 20
-41.197389
 30
0.0
 40
2.684132
  0
CIRCLE
  5
46D1
330
4BD9
100
AcDbEntity
  8
V0-OBRYS
  6
CONTINUOUS
 62
    90
100
AcDbCircle
 10
1932.986899
 20
19.195576
 30
0.0
 40
2.684132
  0
ARC
  5
46D2
330
4BD9
100
AcDbEntity
  8
V0-OBRYS
  6
CONTINUOUS
 62
    90
100
AcDbCircle
 10
1939.026195
 20
25.234872
 30
0.0
 40
4.026198
100
AcDbArc
 50
0.0
 51
90.0
  0
LINE
  5
46D3
330
4BD9
100
AcDbEntity
  8
V0-OBRYS
  6
CONTINUOUS
 62
    90
100
AcDbLine
 10
1188.045393
 20
-761.47746
 30
0.0
 11
1236.461091
 21
-693.331013
 31
0.0
  0
LINE
  5
46D4
330
4BD9
100
AcDbEntity
  8
V0-OBRYS
  6
CONTINUOUS
 62
    90
100
AcDbLine
 10
1185.784836
 20
-759.8065790000001
 30
0.0
 11
1233.962492
 21
-692.831701
 31
0.0
  0
LINE
  5
46D5
330
4BD9
100
AcDbEntity
  8
V0-OBRYS
  6
CONTINUOUS
 62
    90
100
AcDbLine
 10
1187.769216
 20
-1237.345871
 30
0.0
 11
1233.684874
 21
-1300.178467
 31
0.0
  0
LINE
  5
46D6
330
4BD9
100
AcDbEntity
  8
V0-OBRYS
  6
CONTINUOUS
 62
    90
100
AcDbLine
 10
1188.080285
 20
-1231.831364
 30
0.0
 11
1236.815059
 21
-1299.041144
 31
0.0
  0
LINE
  5
46D7
330
4BD9
100
AcDbEntity
  8
V0-OBRYS
  6
CONTINUOUS
 62
    90
100
AcDbLine
 10
1187.8621
 20
-1117.788625
 30
0.0
 11
1217.104679
 21
-1093.777238
 31
0.0
  0
LINE
  5
46D8
330
4BD9
100
AcDbEntity
  8
V0-OBRYS
  6
CONTINUOUS
 62
    90
100
AcDbLine
 10
1189.64575
 20
-1119.960867
 30
0.0
 11
1218.888329
 21
-1095.949479
 31
0.0
  0
ARC
  5
46D9
330
4BD9
100
AcDbEntity
  8
V0-OBRYS
  6
CONTINUOUS
 62
    90
 48
2.0
100
AcDbCircle
 10
1211.053465
 20
-906.232649
 30
0.0
 40
9.0
100
AcDbArc
 50
0.0
 51
50.825893
  0
LINE
  5
46DA
330
4BD9
100
AcDbEntity
  8
V0-OBRYS
  6
CONTINUOUS
 62
    90
100
AcDbLine
 10
1189.181283
 20
-873.175494
 30
0.0
 11
1218.514037
 21
-897.076638
 31
0.0
  0
LINE
  5
46DB
330
4BD9
100
AcDbEntity
  8
V0-OBRYS
  6
CONTINUOUS
 62
    90
 48
2.0
100
AcDbLine
 10
1156.257965
 20
-912.145343
 30
0.0
 11
1236.72115
 21
-912.145343
 31
0.0
  0
LINE
  5
46DC
330
4BD9
100
AcDbEntity
  8
V0-OBRYS
  6
CONTINUOUS
 62
    90
 48
2.0
100
AcDbLine
 10
1155.499806
 20
-928.051936
 30
0.0
 11
1236.72115
 21
-928.051936
 31
0.0
  0
LINE
  5
46DD
330
4BD9
100
AcDbEntity
  8
V0-OBRYS
  6
CONTINUOUS
 62
    90
 48
2.0
100
AcDbLine
 10
1156.257965
 20
-946.988353
 30
0.0
 11
1236.72115
 21
-946.988353
 31
0.0
  0
LINE
  5
46DE
330
4BD9
100
AcDbEntity
  8
V0-OBRYS
  6
CONTINUOUS
 62
    90
 48
2.0
100
AcDbLine
 10
1160.048742
 20
-965.167311
 30
0.0
 11
1236.72115
 21
-965.167311
 31
0.0
  0
LINE
  5
46DF
330
4BD9
100
AcDbEntity
  8
V0-OBRYS
  6
CONTINUOUS
 62
    90
 48
2.0
100
AcDbLine
 10
1155.499806
 20
-983.346272
 30
0.0
 11
1236.72115
 21
-983.346272
 31
0.0
  0
LINE
  5
46E0
330
4BD9
100
AcDbEntity
  8
V0-OBRYS
  6
CONTINUOUS
 62
    90
 48
2.0
100
AcDbLine
 10
1155.499806
 20
-1009.91394
 30
0.0
 11
1236.72115
 21
-1009.91394
 31
0.0
  0
LINE
  5
46E1
330
4BD9
100
AcDbEntity
  8
V0-OBRYS
  6
CONTINUOUS
 62
    90
 48
2.0
100
AcDbLine
 10
1160.048742
 20
-1028.092902
 30
0.0
 11
1236.72115
 21
-1028.092902
 31
0.0
  0
LINE
  5
46E2
330
4BD9
100
AcDbEntity
  8
V0-VYPLNE
  6
DASHDOT
 62
    63
100
AcDbLine
 10
1155.917908
 20
-996.630212
 30
0.0
 11
1366.902694
 21
-996.630212
 31
0.0
  0
LINE
  5
46E3
330
4BD9
100
AcDbEntity
  8
V0-OBRYS
  6
CONTINUOUS
 62
    90
 48
2.0
100
AcDbLine
 10
1155.499806
 20
-1065.208277
 30
0.0
 11
1236.72115
 21
-1065.208277
 31
0.0
  0
LINE
  5
46E4
330
4BD9
100
AcDbEntity
  8
V0-OBRYS
  6
CONTINUOUS
 62
    90
 48
2.0
100
AcDbLine
 10
1156.257965
 20
-1046.271859
 30
0.0
 11
1236.72115
 21
-1046.271859
 31
0.0
  0
LINE
  5
46E5
330
4BD9
100
AcDbEntity
  8
V0-OBRYS
  6
CONTINUOUS
 62
    90
 48
2.0
100
AcDbLine
 10
1156.257965
 20
-1081.114869
 30
0.0
 11
1236.72115
 21
-1081.114869
 31
0.0
  0
LINE
  5
46E6
330
4BD9
100
AcDbEntity
  8
V0-OBRYS
  6
CONTINUOUS
 62
    90
 48
2.0
100
AcDbLine
 10
1142.29963
 20
-906.629386
 30
0.0
 11
1236.72115
 21
-906.629386
 31
0.0
  0
LINE
  5
46E7
330
4BD9
100
AcDbEntity
  8
V0-OBRYS
  6
CONTINUOUS
 62
    90
 48
2.0
100
AcDbLine
 10
1142.29963
 20
-1086.630826
 30
0.0
 11
1236.72115
 21
-1086.630826
 31
0.0
  0
ARC
  5
46E8
330
4BD9
100
AcDbEntity
  8
V0-OBRYS
  6
CONTINUOUS
 62
    90
 48
2.0
100
AcDbCircle
 10
1197.534701
 20
-1228.105812
 30
0.0
 40
13.444084
100
AcDbArc
 50
180.393192
 51
223.416411
  0
LINE
  5
46E9
330
4BD9
100
AcDbEntity
  8
V0-OBRYS
  6
CONTINUOUS
 62
    90
 48
2.0
100
AcDbLine
 10
1184.090934
 20
-765.062142
 30
0.0
 11
1184.090934
 21
-868.377363
 31
0.0
  0
LINE
  5
46EA
330
4BD9
100
AcDbEntity
  8
V0-OBRYS
  6
CONTINUOUS
 62
    90
 48
2.0
100
AcDbLine
 10
1186.901635
 20
-765.062142
 30
0.0
 11
1186.901635
 21
-868.377363
 31
0.0
  0
LINE
  5
46EB
330
4BD9
100
AcDbEntity
  8
V0-OBRYS
  6
CONTINUOUS
 62
    90
 48
2.0
100
AcDbLine
 10
1156.51027
 20
-996.630106
 30
0.0
 11
1156.51027
 21
-1086.630826
 31
0.0
  0
LINE
  5
46EC
330
4BD9
100
AcDbEntity
  8
V0-OBRYS
  6
CONTINUOUS
 62
    90
 48
2.0
100
AcDbLine
 10
1129.51003
 20
-996.630106
 30
0.0
 11
1129.51003
 21
-1070.841226
 31
0.0
  0
LINE
  5
46ED
330
4BD9
100
AcDbEntity
  8
V0-OBRYS
  6
CONTINUOUS
 62
    90
 48
2.0
100
AcDbLine
 10
1156.257965
 20
-1046.271859
 30
0.0
 11
1128.931724
 21
-1039.454749
 31
0.0
  0
LINE
  5
46EE
330
4BD9
100
AcDbEntity
  8
V0-OBRYS
  6
CONTINUOUS
 62
    90
 48
2.0
100
AcDbLine
 10
1186.901635
 20
-1228.198071
 30
0.0
 11
1186.901635
 21
-1124.882849
 31
0.0
  0
LINE
  5
46EF
330
4BD9
100
AcDbEntity
  8
V0-OBRYS
  6
CONTINUOUS
 62
    90
 48
2.0
100
AcDbLine
 10
1184.090934
 20
-1228.198071
 30
0.0
 11
1184.090934
 21
-1124.882849
 31
0.0
  0
ARC
  5
46F0
330
4BD9
100
AcDbEntity
  8
V0-OBRYS
  6
CONTINUOUS
 62
    90
 48
2.0
100
AcDbCircle
 10
1193.090934
 20
-1228.198071
 30
0.0
 40
6.189299
100
AcDbArc
 50
180.0
 51
215.946405
  0
CIRCLE
  5
46F1
330
4BD9
100
AcDbEntity
  8
V0-OBRYS
  6
CONTINUOUS
 62
    90
 48
2.0
100
AcDbCircle
 10
1181.195912
 20
-1221.051439
 30
0.0
 40
2.894689
  0
CIRCLE
  5
46F2
330
4BD9
100
AcDbEntity
  8
V0-OBRYS
  6
CONTINUOUS
 62
    90
 48
2.0
100
AcDbCircle
 10
1181.195912
 20
-1199.451439
 30
0.0
 40
2.894689
  0
CIRCLE
  5
46F3
330
4BD9
100
AcDbEntity
  8
V0-OBRYS
  6
CONTINUOUS
 62
    90
 48
2.0
100
AcDbCircle
 10
1181.195912
 20
-1177.851439
 30
0.0
 40
2.894689
  0
CIRCLE
  5
46F4
330
4BD9
100
AcDbEntity
  8
V0-OBRYS
  6
CONTINUOUS
 62
    90
 48
2.0
100
AcDbCircle
 10
1181.195912
 20
-1156.251439
 30
0.0
 40
2.894689
  0
ARC
  5
46F5
330
4BD9
100
AcDbEntity
  8
V0-OBRYS
  6
CONTINUOUS
 62
    90
 48
2.0
100
AcDbCircle
 10
1193.573433
 20
-1124.744247
 30
0.0
 40
6.189299
100
AcDbArc
 50
129.389776
 51
180.215669
  0
ARC
  5
46F6
330
4BD9
100
AcDbEntity
  8
V0-OBRYS
  6
CONTINUOUS
 62
    90
 48
2.0
100
AcDbCircle
 10
1193.573433
 20
-1124.744247
 30
0.0
 40
9.0
100
AcDbArc
 50
129.389776
 51
180.215669
  0
CIRCLE
  5
46F7
330
4BD9
100
AcDbEntity
  8
V0-OBRYS
  6
CONTINUOUS
 62
    90
 48
2.0
100
AcDbCircle
 10
1181.195912
 20
-1134.651439
 30
0.0
 40
2.894689
  0
LINE
  5
46F8
330
4BD9
100
AcDbEntity
  8
V0-OBRYS
  6
CONTINUOUS
 62
    90
 48
2.0
100
AcDbLine
 10
1156.257965
 20
-1081.114869
 30
0.0
 11
1129.689883
 21
-1059.148627
 31
0.0
  0
ARC
  5
46F9
330
4BD9
100
AcDbEntity
  8
V0-OBRYS
  6
CONTINUOUS
 62
    90
 48
2.0
100
AcDbCircle
 10
1142.779924
 20
-1073.16719
 30
0.0
 40
13.472201
100
AcDbArc
 50
170.05812
 51
267.95693
  0
LINE
  5
46FA
330
4BD9
100
AcDbEntity
  8
V0-OBRYS
  6
CONTINUOUS
 62
    90
 48
2.0
100
AcDbLine
 10
1155.499806
 20
-1065.208277
 30
0.0
 11
1130.448036
 21
-1050.059144
 31
0.0
  0
LINE
  5
46FB
330
4BD9
100
AcDbEntity
  8
V0-OBRYS
  6
CONTINUOUS
 62
    90
 48
2.0
100
AcDbLine
 10
1156.51027
 20
-996.630106
 30
0.0
 11
1156.51027
 21
-906.629386
 31
0.0
  0
LINE
  5
46FC
330
4BD9
100
AcDbEntity
  8
V0-OBRYS
  6
CONTINUOUS
 62
    90
 48
2.0
100
AcDbLine
 10
1129.51003
 20
-996.630106
 30
0.0
 11
1129.51003
 21
-922.418986
 31
0.0
  0
INSERT
  5
46FD
330
4BD9
100
AcDbEntity
  8
V0-OBRYS
  6
CONTINUOUS
 62
    90
100
AcDbBlockReference
  2
ASVORK
 10
1129.51003
 20
-996.630106
 30
0.0
  0
LINE
  5
46FE
330
4BD9
100
AcDbEntity
  8
V0-OBRYS
  6
CONTINUOUS
 62
    90
 48
2.0
100
AcDbLine
 10
1155.499806
 20
-1028.092902
 30
0.0
 11
1129.689883
 21
-1025.063073
 31
0.0
  0
LINE
  5
46FF
330
4BD9
100
AcDbEntity
  8
V0-OBRYS
  6
CONTINUOUS
 62
    90
 48
2.0
100
AcDbLine
 10
1155.499806
 20
-1028.092902
 30
0.0
 11
1160.048742
 21
-1028.092902
 31
0.0
  0
LINE
  5
4700
330
4BD9
100
AcDbEntity
  8
V0-OBRYS
  6
CONTINUOUS
 62
    90
 48
2.0
100
AcDbLine
 10
1155.499806
 20
-1009.91394
 30
0.0
 11
1129.689883
 21
-1009.156484
 31
0.0
  0
LINE
  5
4701
330
4BD9
100
AcDbEntity
  8
V0-OBRYS
  6
CONTINUOUS
 62
    90
 48
2.0
100
AcDbLine
 10
1155.499806
 20
-983.346272
 30
0.0
 11
1129.689883
 21
-984.1037280000001
 31
0.0
  0
LINE
  5
4702
330
4BD9
100
AcDbEntity
  8
V0-OBRYS
  6
CONTINUOUS
 62
    90
 48
2.0
100
AcDbLine
 10
1156.257965
 20
-946.988353
 30
0.0
 11
1128.931724
 21
-953.805463
 31
0.0
  0
LINE
  5
4703
330
4BD9
100
AcDbEntity
  8
V0-OBRYS
  6
CONTINUOUS
 62
    90
 48
2.0
100
AcDbLine
 10
1155.499806
 20
-965.167311
 30
0.0
 11
1129.689883
 21
-968.197139
 31
0.0
  0
LINE
  5
4704
330
4BD9
100
AcDbEntity
  8
V0-OBRYS
  6
CONTINUOUS
 62
    90
 48
2.0
100
AcDbLine
 10
1155.499806
 20
-965.167311
 30
0.0
 11
1160.048742
 21
-965.167311
 31
0.0
  0
LINE
  5
4705
330
4BD9
100
AcDbEntity
  8
V0-OBRYS
  6
CONTINUOUS
 62
    90
100
AcDbLine
 10
1187.405822
 20
-875.354433
 30
0.0
 11
1216.738576
 21
-899.255578
 31
0.0
  0
ARC
  5
4706
330
4BD9
100
AcDbEntity
  8
V0-OBRYS
  6
CONTINUOUS
 62
    90
 48
2.0
100
AcDbCircle
 10
1142.779924
 20
-920.093023
 30
0.0
 40
13.472201
100
AcDbArc
 50
92.04307
 51
189.94188
  0
LINE
  5
4707
330
4BD9
100
AcDbEntity
  8
V0-OBRYS
  6
CONTINUOUS
 62
    90
 48
2.0
100
AcDbLine
 10
1156.257965
 20
-912.145343
 30
0.0
 11
1129.689883
 21
-934.111586
 31
0.0
  0
LINE
  5
4708
330
4BD9
100
AcDbEntity
  8
V0-OBRYS
  6
CONTINUOUS
 62
    90
 48
2.0
100
AcDbLine
 10
1155.499806
 20
-928.051936
 30
0.0
 11
1130.448036
 21
-943.201068
 31
0.0
  0
ARC
  5
4709
330
4BD9
100
AcDbEntity
  8
V0-OBRYS
  6
CONTINUOUS
 62
    90
 48
2.0
100
AcDbCircle
 10
1193.090934
 20
-868.377363
 30
0.0
 40
9.0
100
AcDbArc
 50
180.0
 51
230.825893
  0
ARC
  5
470A
330
4BD9
100
AcDbEntity
  8
V0-OBRYS
  6
CONTINUOUS
 62
    90
 48
2.0
100
AcDbCircle
 10
1193.090934
 20
-868.377363
 30
0.0
 40
6.189299
100
AcDbArc
 50
180.0
 51
230.825893
  0
CIRCLE
  5
470B
330
4BD9
100
AcDbEntity
  8
V0-OBRYS
  6
CONTINUOUS
 62
    90
 48
2.0
100
AcDbCircle
 10
1181.32239
 20
-858.608773
 30
0.0
 40
2.894689
  0
CIRCLE
  5
470C
330
4BD9
100
AcDbEntity
  8
V0-OBRYS
  6
CONTINUOUS
 62
    90
 48
2.0
100
AcDbCircle
 10
1181.32239
 20
-837.008773
 30
0.0
 40
2.894689
  0
CIRCLE
  5
470D
330
4BD9
100
AcDbEntity
  8
V0-OBRYS
  6
CONTINUOUS
 62
    90
 48
2.0
100
AcDbCircle
 10
1181.32239
 20
-815.408773
 30
0.0
 40
2.894689
  0
CIRCLE
  5
470E
330
4BD9
100
AcDbEntity
  8
V0-OBRYS
  6
CONTINUOUS
 62
    90
 48
2.0
100
AcDbCircle
 10
1181.32239
 20
-793.808773
 30
0.0
 40
2.894689
  0
ARC
  5
470F
330
4BD9
100
AcDbEntity
  8
V0-OBRYS
  6
CONTINUOUS
 62
    90
 48
2.0
100
AcDbCircle
 10
1193.090934
 20
-765.062142
 30
0.0
 40
9.0
100
AcDbArc
 50
144.271055
 51
180.0
  0
ARC
  5
4710
330
4BD9
100
AcDbEntity
  8
V0-OBRYS
  6
CONTINUOUS
 62
    90
 48
2.0
100
AcDbCircle
 10
1193.090934
 20
-765.062142
 30
0.0
 40
6.189299
100
AcDbArc
 50
144.607521
 51
180.0
  0
CIRCLE
  5
4711
330
4BD9
100
AcDbEntity
  8
V0-OBRYS
  6
CONTINUOUS
 62
    90
 48
2.0
100
AcDbCircle
 10
1181.32239
 20
-772.208773
 30
0.0
 40
2.894689
  0
LINE
  5
4712
330
4BD9
100
AcDbEntity
  8
V0-OBRYS
  6
CONTINUOUS
 62
    90
 48
2.0
100
AcDbLine
 10
1236.721191
 20
-1351.630106
 30
0.0
 11
1236.721191
 21
-996.630106
 31
0.0
  0
LINE
  5
4713
330
4BD9
100
AcDbEntity
  8
V0-OBRYS
  6
CONTINUOUS
 62
    90
100
AcDbLine
 10
1248.321191
 20
-641.630106
 30
0.0
 11
1248.321191
 21
-1351.630106
 31
0.0
  0
LINE
  5
4714
330
4BD9
100
AcDbEntity
  8
V0-VYPLNE
  6
DASHED
 62
    52
100
AcDbLine
 10
1266.681671
 20
-1104.80292
 30
0.0
 11
1282.815098
 21
-1271.251178
 31
0.0
  0
LINE
  5
4715
330
4BD9
100
AcDbEntity
  8
V0-VYPLNE
  6
DASHED
 62
    52
100
AcDbLine
 10
1338.760398
 20
-1104.80292
 30
0.0
 11
1322.62697
 21
-1271.251178
 31
0.0
  0
LINE
  5
4716
330
4BD9
100
AcDbEntity
  8
V0-OBRYS
  6
CONTINUOUS
 62
    90
 48
2.0
100
AcDbLine
 10
1347.878441
 20
-996.630106
 30
0.0
 11
1347.878441
 21
-1276.629656
 31
0.0
  0
LINE
  5
4717
330
4BD9
100
AcDbEntity
  8
V0-OBRYS
  6
CONTINUOUS
 62
    90
 48
2.0
100
AcDbLine
 10
1248.321191
 20
-1351.630106
 30
0.0
 11
1236.721191
 21
-1351.630106
 31
0.0
  0
LINE
  5
4718
330
4BD9
100
AcDbEntity
  8
V0-OBRYS
  6
CONTINUOUS
 62
    90
 48
2.0
100
AcDbLine
 10
1347.878441
 20
-1276.629656
 30
0.0
 11
1290.083015
 21
-1276.629656
 31
0.0
  0
LINE
  5
4719
330
4BD9
100
AcDbEntity
  8
V0-VYPLNE
  6
DASHED
 62
    52
100
AcDbLine
 10
1282.815098
 20
-1271.251178
 30
0.0
 11
1322.62697
 21
-1271.251178
 31
0.0
  0
ARC
  5
471A
330
4BD9
100
AcDbEntity
  8
V0-OBRYS
  6
CONTINUOUS
 62
    90
 48
2.0
100
AcDbCircle
 10
1290.083015
 20
-1303.204406
 30
0.0
 40
26.57475
100
AcDbArc
 50
90.0
 51
149.420799
  0
LINE
  5
471B
330
4BD9
100
AcDbEntity
  8
V0-OBRYS
  6
CONTINUOUS
 62
    90
 48
2.0
100
AcDbLine
 10
1247.980991
 20
-1312.062656
 30
0.0
 11
1267.204101
 21
-1289.685062
 31
0.0
  0
LINE
  5
471C
330
4BD9
100
AcDbEntity
  8
V0-OBRYS
  6
CONTINUOUS
 62
    90
 48
2.0
100
AcDbLine
 10
1233.886152
 20
-1317.176017
 30
0.0
 11
1233.886152
 21
-1300.384047
 31
0.0
  0
ARC
  5
471D
330
4BD9
100
AcDbEntity
  8
V0-OBRYS
  6
CONTINUOUS
 62
    90
 48
2.0
100
AcDbCircle
 10
1235.303672
 20
-1317.176017
 30
0.0
 40
1.41752
100
AcDbArc
 50
180.0
 51
0.0
  0
LINE
  5
471E
330
4BD9
100
AcDbEntity
  8
V0-OBRYS
  6
CONTINUOUS
 62
    90
 48
2.0
100
AcDbLine
 10
1236.721191
 20
-641.630106
 30
0.0
 11
1236.721191
 21
-996.630106
 31
0.0
  0
LINE
  5
471F
330
4BD9
100
AcDbEntity
  8
V0-OBRYS
  6
CONTINUOUS
 62
    90
 48
2.0
100
AcDbLine
 10
1347.878441
 20
-996.630106
 30
0.0
 11
1347.878441
 21
-716.630556
 31
0.0
  0
LINE
  5
4720
330
4BD9
100
AcDbEntity
  8
V0-VYPLNE
  6
DASHED
 62
    52
100
AcDbLine
 10
1266.681671
 20
-887.7533590000001
 30
0.0
 11
1282.815098
 21
-721.305101
 31
0.0
  0
LINE
  5
4721
330
4BD9
100
AcDbEntity
  8
V0-VYPLNE
  6
DASHED
 62
    52
100
AcDbLine
 10
1338.760398
 20
-887.7533590000001
 30
0.0
 11
1322.62697
 21
-721.305101
 31
0.0
  0
ELLIPSE
  5
4722
330
4BD9
100
AcDbEntity
  8
V0-VYPLNE
  6
DASHED
 62
    52
100
AcDbEllipse
 10
275.99323
 20
-984.772845
 30
0.0
 11
5.400124791776761E-12
 21
1174.336946726077
 31
0.0
210
0.0
220
0.0
230
-1.0
 40
0.909091
 41
1.580593751677045
 42
1.660762687017184
  0
LINE
  5
4723
330
4BD9
100
AcDbEntity
  8
V0-VYPLNE
  6
DASHED
 62
    52
100
AcDbLine
 10
1302.721034
 20
-1101.627561
 30
0.0
 11
1302.721034
 21
-996.278139
 31
0.0
  0
LINE
  5
4724
330
4BD9
100
AcDbEntity
  8
V0-VYPLNE
  6
DASHED
 62
    52
100
AcDbLine
 10
1266.721034
 20
-996.278139
 30
0.0
 11
1266.721034
 21
-1096.598139
 31
0.0
  0
LINE
  5
4725
330
4BD9
100
AcDbEntity
  8
V0-VYPLNE
  6
DASHED
 62
    52
100
AcDbLine
 10
1258.992166
 20
-1078.736026
 30
0.0
 11
1258.992166
 21
-996.630106
 31
0.0
  0
ELLIPSE
  5
4726
330
4BD9
100
AcDbEntity
  8
V0-VYPLNE
  6
DASHED
 62
    52
100
AcDbEllipse
 10
1302.721034
 20
-943.214216
 30
0.0
 11
-6.821210263296962E-13
 21
158.413345729631
 31
0.0
210
0.0
220
0.0
230
-1.0
 40
0.9090909999999999
 41
2.929991421004501
 42
3.394251156505873
  0
ARC
  5
4727
330
4BD9
100
AcDbEntity
  8
V0-OBRYS
  6
CONTINUOUS
 62
    90
 48
2.0
100
AcDbCircle
 10
1211.393345
 20
-1086.821616
 30
0.0
 40
11.810701
100
AcDbArc
 50
309.389776
 51
359.162914
  0
ARC
  5
4728
330
4BD9
100
AcDbEntity
  8
V0-OBRYS
  6
CONTINUOUS
 62
    90
 48
2.0
100
AcDbCircle
 10
1211.393345
 20
-1086.821616
 30
0.0
 40
9.0
100
AcDbArc
 50
309.389776
 51
0.215669
  0
LINE
  5
4729
330
4BD9
100
AcDbEntity
  8
V0-VYPLNE
  6
DASHED
 62
    52
100
AcDbLine
 10
1272.827739
 20
-1098.04848
 30
0.0
 11
1266.681671
 21
-1104.80292
 31
0.0
  0
LINE
  5
472A
330
4BD9
100
AcDbEntity
  8
V0-VYPLNE
  6
DASHED
 62
    52
100
AcDbLine
 10
1236.721237
 20
-1081.114869
 30
0.0
 11
1258.992166
 21
-1081.114869
 31
0.0
  0
LINE
  5
472B
330
4BD9
100
AcDbEntity
  8
V0-VYPLNE
  6
DASHED
 62
    52
100
AcDbLine
 10
1236.721237
 20
-1086.630826
 30
0.0
 11
1248.097366
 21
-1086.630826
 31
0.0
  0
ARC
  5
472C
330
4BD9
100
AcDbEntity
  8
V0-VYPLNE
  6
DASHED
 62
    52
 48
2.0
100
AcDbCircle
 10
1248.481095
 20
-1075.695575
 30
0.0
 40
10.941982
100
AcDbArc
 50
267.99026
 51
343.866865
  0
LINE
  5
472D
330
4BD9
100
AcDbEntity
  8
V0-VYPLNE
  6
DASHED
 62
    52
100
AcDbLine
 10
1236.721237
 20
-1046.271859
 30
0.0
 11
1258.234013
 21
-1046.271859
 31
0.0
  0
LINE
  5
472E
330
4BD9
100
AcDbEntity
  8
V0-VYPLNE
  6
DASHED
 62
    52
100
AcDbLine
 10
1236.721237
 20
-1065.208277
 30
0.0
 11
1258.992166
 21
-1065.208277
 31
0.0
  0
ELLIPSE
  5
472F
330
4BD9
100
AcDbEntity
  8
V0-VYPLNE
  6
DASHED
 62
    52
100
AcDbEllipse
 10
1331.287076
 20
-1089.490565
 30
0.0
 11
6.821210263296962E-13
 21
8.799999999999955
 31
0.0
210
0.0
220
0.0
230
-1.0
 40
0.9090909999999999
 41
1.660762687017155
 42
2.929991421004478
  0
LINE
  5
4730
330
4BD9
100
AcDbEntity
  8
V0-VYPLNE
  6
DASHED
 62
    52
100
AcDbLine
 10
1332.614329
 20
-1098.04848
 30
0.0
 11
1338.760398
 21
-1104.80292
 31
0.0
  0
ELLIPSE
  5
4731
330
4BD9
100
AcDbEntity
  8
V0-VYPLNE
  6
DASHED
 62
    52
100
AcDbEllipse
 10
275.99323
 20
-1007.783433
 30
0.0
 11
4.320099833421409E-11
 21
1174.336946725988
 31
0.0
210
0.0
220
0.0
230
-1.0
 40
0.9090909999999999
 41
1.480829966572563
 42
1.560998901912708
  0
LINE
  5
4732
330
4BD9
100
AcDbEntity
  8
V0-VYPLNE
  6
DASHED
 62
    52
100
AcDbLine
 10
1266.721034
 20
-996.278139
 30
0.0
 11
1266.721034
 21
-895.958139
 31
0.0
  0
LINE
  5
4733
330
4BD9
100
AcDbEntity
  8
V0-VYPLNE
  6
DASHED
 62
    52
100
AcDbLine
 10
1302.721034
 20
-890.928718
 30
0.0
 11
1302.721034
 21
-996.278139
 31
0.0
  0
LINE
  5
4734
330
4BD9
100
AcDbEntity
  8
V0-VYPLNE
  6
DASHED
 62
    52
100
AcDbLine
 10
1258.992166
 20
-914.524186
 30
0.0
 11
1258.992166
 21
-996.630106
 31
0.0
  0
LINE
  5
4735
330
4BD9
100
AcDbEntity
  8
V0-VYPLNE
  6
DASHED
 62
    52
100
AcDbLine
 10
1267.356234
 20
-1008.324226
 30
0.0
 11
1341.465076
 21
-983.818791
 31
0.0
  0
ELLIPSE
  5
4736
330
4BD9
100
AcDbEntity
  8
V0-VYPLNE
  6
DASHED
 62
    52
100
AcDbEllipse
 10
1302.721034
 20
-996.630212
 30
0.0
 11
6.821210263296962E-13
 21
7.458195139447412
 31
0.0
210
0.0
220
0.0
230
-1.0
 40
0.909091
 41
0.0
 42
6.283185307179586
  0
LINE
  5
473A
330
4BD9
100
AcDbEntity
  8
V0-VYPLNE
  6
DASHED
 62
    52
100
AcDbLine
 10
1236.721237
 20
-1028.092902
 30
0.0
 11
1258.992166
 21
-1028.092902
 31
0.0
  0
LINE
  5
473B
330
4BD9
100
AcDbEntity
  8
V0-VYPLNE
  6
DASHED
 62
    52
100
AcDbLine
 10
1236.721237
 20
-1009.91394
 30
0.0
 11
1258.234013
 21
-1009.91394
 31
0.0
  0
LINE
  5
473C
330
4BD9
100
AcDbEntity
  8
V0-VYPLNE
  6
DASHED
 62
    52
100
AcDbLine
 10
1236.721237
 20
-983.346272
 30
0.0
 11
1258.234013
 21
-983.346272
 31
0.0
  0
LINE
  5
473D
330
4BD9
100
AcDbEntity
  8
V0-VYPLNE
  6
DASHED
 62
    52
100
AcDbLine
 10
1236.721237
 20
-946.988353
 30
0.0
 11
1258.234013
 21
-946.988353
 31
0.0
  0
LINE
  5
473E
330
4BD9
100
AcDbEntity
  8
V0-VYPLNE
  6
DASHED
 62
    52
100
AcDbLine
 10
1236.721237
 20
-965.167311
 30
0.0
 11
1258.992166
 21
-965.167311
 31
0.0
  0
ELLIPSE
  5
473F
330
4BD9
100
AcDbEntity
  8
V0-VYPLNE
  6
DASHED
 62
    52
100
AcDbEllipse
 10
1302.721034
 20
-1049.342063
 30
0.0
 11
-1.136868377216160E-12
 21
158.413345729631
 31
0.0
210
0.0
220
0.0
230
-1.0
 40
0.9090910000000001
 41
-0.2526585029160793
 42
0.2116012325852784
  0
LINE
  5
4740
330
4BD9
100
AcDbEntity
  8
V0-VYPLNE
  6
DASHED
 62
    52
100
AcDbLine
 10
1236.721237
 20
-928.051936
 30
0.0
 11
1258.992166
 21
-928.051936
 31
0.0
  0
LINE
  5
4741
330
4BD9
100
AcDbEntity
  8
V0-VYPLNE
  6
DASHED
 62
    52
100
AcDbLine
 10
1236.721237
 20
-912.145343
 30
0.0
 11
1258.992166
 21
-912.145343
 31
0.0
  0
LINE
  5
4742
330
4BD9
100
AcDbEntity
  8
V0-VYPLNE
  6
DASHED
 62
    52
100
AcDbLine
 10
1236.721237
 20
-906.629386
 30
0.0
 11
1248.097366
 21
-906.629386
 31
0.0
  0
ARC
  5
4743
330
4BD9
100
AcDbEntity
  8
V0-OBRYS
  6
CONTINUOUS
 62
    90
 48
2.0
100
AcDbCircle
 10
1211.053465
 20
-906.232649
 30
0.0
 40
11.810701
100
AcDbArc
 50
1.052754
 51
50.825893
  0
ARC
  5
4744
330
4BD9
100
AcDbEntity
  8
V0-VYPLNE
  6
DASHED
 62
    52
 48
2.0
100
AcDbCircle
 10
1248.481095
 20
-917.564637
 30
0.0
 40
10.941982
100
AcDbArc
 50
16.133135
 51
92.00973999999999
  0
LINE
  5
4745
330
4BD9
100
AcDbEntity
  8
V0-VYPLNE
  6
DASHED
 62
    52
100
AcDbLine
 10
1272.827739
 20
-894.507799
 30
0.0
 11
1266.681671
 21
-887.7533590000001
 31
0.0
  0
LINE
  5
4746
330
4BD9
100
AcDbEntity
  8
V0-VYPLNE
  6
DASHED
 62
    52
100
AcDbLine
 10
1332.614329
 20
-894.507799
 30
0.0
 11
1338.760398
 21
-887.7533590000001
 31
0.0
  0
LINE
  5
4747
330
4BD9
100
AcDbEntity
  8
V0-OBRYS
  6
CONTINUOUS
 62
    90
 48
2.0
100
AcDbLine
 10
1347.878441
 20
-716.630556
 30
0.0
 11
1290.083015
 21
-716.630556
 31
0.0
  0
LINE
  5
4748
330
4BD9
100
AcDbEntity
  8
V0-VYPLNE
  6
DASHED
 62
    52
100
AcDbLine
 10
1282.815098
 20
-721.305101
 30
0.0
 11
1322.62697
 21
-721.305101
 31
0.0
  0
LINE
  5
4749
330
4BD9
100
AcDbEntity
  8
V0-OBRYS
  6
CONTINUOUS
 62
    90
 48
2.0
100
AcDbLine
 10
1247.980991
 20
-681.197556
 30
0.0
 11
1267.204101
 21
-703.57515
 31
0.0
  0
ARC
  5
474A
330
4BD9
100
AcDbEntity
  8
V0-OBRYS
  6
CONTINUOUS
 62
    90
 48
2.0
100
AcDbCircle
 10
1290.083015
 20
-690.055806
 30
0.0
 40
26.57475
100
AcDbArc
 50
210.579201
 51
270.0
  0
LINE
  5
474B
330
4BD9
100
AcDbEntity
  8
V0-OBRYS
  6
CONTINUOUS
 62
    90
 48
2.0
100
AcDbLine
 10
1233.886152
 20
-676.084196
 30
0.0
 11
1233.886152
 21
-692.876165
 31
0.0
  0
ARC
  5
474C
330
4BD9
100
AcDbEntity
  8
V0-OBRYS
  6
CONTINUOUS
 62
    90
 48
2.0
100
AcDbCircle
 10
1235.303672
 20
-676.084196
 30
0.0
 40
1.41752
100
AcDbArc
 50
0.0
 51
180.0
  0
LINE
  5
474D
330
4BD9
100
AcDbEntity
  8
V0-OBRYS
  6
CONTINUOUS
 62
    90
 48
2.0
100
AcDbLine
 10
1248.321191
 20
-641.630106
 30
0.0
 11
1236.721191
 21
-641.630106
 31
0.0
  0
LINE
  5
47FB
330
4BD9
100
AcDbEntity
  8
0
  6
BYBLOCK
 62
    41
100
AcDbLine
 10
1236.721191
 20
-367.000907
 30
0.0
 11
1236.721191
 21
-402.138425
 31
0.0
  0
LINE
  5
47FC
330
4BD9
100
AcDbEntity
  8
0
  6
BYBLOCK
 62
    41
100
AcDbLine
 10
1248.321191
 20
-367.000907
 30
0.0
 11
1248.321191
 21
-402.138425
 31
0.0
  0
LINE
  5
47FD
330
4BD9
100
AcDbEntity
  8
0
  6
BYBLOCK
 62
    41
100
AcDbLine
 10
1288.321191
 20
-400.888425
 30
0.0
 11
1328.321191
 21
-400.888425
 31
0.0
  0
LINE
  5
47FE
330
4BD9
100
AcDbEntity
  8
0
  6
BYBLOCK
 62
    41
100
AcDbLine
 10
1196.721191
 20
-400.888425
 30
0.0
 11
1114.318829
 21
-400.888425
 31
0.0
  0
LINE
  5
47FF
330
4BD9
100
AcDbEntity
  8
0
  6
BYBLOCK
 62
    41
100
AcDbLine
 10
1248.321191
 20
-400.888425
 30
0.0
 11
1236.721191
 21
-400.888425
 31
0.0
  0
INSERT
  5
4800
330
4BD9
100
AcDbEntity
  8
0
  6
BYBLOCK
 62
    41
100
AcDbBlockReference
  2
_OPEN
 10
1248.321191
 20
-400.888425
 30
0.0
 41
40.0
 42
40.0
 43
40.0
 50
180.0
  0
INSERT
  5
4801
330
4BD9
100
AcDbEntity
  8
0
  6
BYBLOCK
 62
    41
100
AcDbBlockReference
  2
_OPEN
 10
1236.721191
 20
-400.888425
 30
0.0
 41
40.0
 42
40.0
 43
40.0
  0
POINT
  5
4803
330
4BD9
100
AcDbEntity
  8
DEFPOINTS
  6
BYBLOCK
 62
     0
100
AcDbPoint
 10
1236.721191
 20
-366.000907
 30
0.0
  0
POINT
  5
4804
330
4BD9
100
AcDbEntity
  8
DEFPOINTS
  6
BYBLOCK
 62
     0
100
AcDbPoint
 10
1248.321191
 20
-366.000907
 30
0.0
  0
POINT
  5
4805
330
4BD9
100
AcDbEntity
  8
DEFPOINTS
  6
BYBLOCK
 62
     0
100
AcDbPoint
 10
1248.321191
 20
-400.888425
 30
0.0
  0
POINT
  5
480C
330
4BD9
100
AcDbEntity
  8
V0-VYPLNE
  6
CONTINUOUS
 62
    41
100
AcDbPoint
 10
1347.878441
 20
-11.000907
 30
0.0
  0
POINT
  5
480D
330
4BD9
100
AcDbEntity
  8
V0-VYPLNE
  6
CONTINUOUS
 62
    41
100
AcDbPoint
 10
1347.878441
 20
-996.630106
 30
0.0
  0
LWPOLYLINE
  5
4BAE
330
4BD9
100
AcDbEntity
  8
V0-OBRYS
  6
CONTINUOUS
 62
    41
100
AcDbPolyline
 90
        4
 70
     1
 43
0.0
 10
2189.810438079498
 20
-353.665813507325
 10
2213.410074
 20
-334.480997
 10
2197.308196726225
 20
-360.282732373038
 10
2197.308196726225
 20
-360.282732373038
1001
VDEXTRAPARAM
1071
       65
1071
        0
1071
        0
1040
1.0
1000

1000

1040
0.0
1040
0.0
  0
HATCH
  5
4C5B
330
4BD9
100
AcDbEntity
  8
V0-OBRYS
  6
CONTINUOUS
 62
    41
100
AcDbHatch
 10
0.0
 20
0.0
 30
0.0
210
0.0
220
0.0
230
1.0
  2
SOLID
 70
     1
 71
     0
 91
        1
 92
        2
 72
     0
 73
     1
 93
        3
 10
2189.810438079498
 20
-353.665813507325
 10
2213.410074
 20
-334.480997
 10
2197.308196726225
 20
-360.282732373038
 97
        0
 75
     0
 76
     1
 98
        1
 10
0.0
 20
0.0
1001
VDEXTRAPARAM
1071
       65
1071
        0
1071
        0
1040
1.0
1000

1000

1040
0.0
1040
0.0
1001
VD_TEMPHATCH
1000
VD_TEMPHATCH
  0
LWPOLYLINE
  5
4BAF
330
4BD9
100
AcDbEntity
  8
V0-OBRYS
  6
CONTINUOUS
 62
    41
100
AcDbPolyline
 90
        3
 70
     0
 43
0.0
 10
2193.559317402861
 20
-356.9742729401815
 10
2125.488077
 20
-434.107111
 10
1774.237154
 20
-434.107111
  0
TEXT
  5
4BB4
330
4BD9
100
AcDbEntity
  8
V0-OBRYS
  6
CONTINUOUS
 62
    41
100
AcDbText
 10
1668.222005571429
 20
-432.107111
 30
0.0
 40
38.0025
  1
4 OTVORY %%c10
  7
ED40
100
AcDbText
  0
TEXT
  5
4BB5
330
4BD9
100
AcDbEntity
  8
0
  6
BYBLOCK
 62
    41
100
AcDbText
 10
1127.448783047619
 20
-398.884488
 30
0.0
 40
40.0
  1
12
  7
ED40
100
AcDbText
  0
VIEWPORT
  5
4C5C
330
4BD5
100
AcDbEntity
 67
     1
  8
0
 60
     1
100
AcDbViewport
 10
261.517699
 20
148.5
 30
0.0
 40
297.0
 41
297.0
 68
     0
 69
     1
1001
VD_INVISIBLE_NOT_FOR_READ
1000
VD_INVISIBLE_NOT_FOR_READ
1001
ACAD
1000
MVIEW
1002
{
1070
    16
1010
0.0
1020
0.0
1030
0.0
1010
0.0
1020
0.0
1030
1.0
1040
6.2831853071796
1040
297.0
1040
261.517699
1040
148.5
1040
0.0
1040
0.0
1040
0.0
1070
     0
1070
   100
1070
     0
1070
     1
1070
     0
1070
     0
1070
     0
1070
     0
1040
0.0
1040
0.0
1040
0.0
1040
1.0
1040
1.0
1040
0.0
1040
0.0
1070
     0
1002
{
1002
}
1002
}
  0
VIEWPORT
  5
4C5D
330
4BD5
100
AcDbEntity
 67
     1
  8
0
 60
     1
100
AcDbViewport
 10
261.517699
 20
148.5
 30
0.0
 40
297.0
 41
297.0
 68
     0
 69
     2
1001
VD_INVISIBLE_NOT_FOR_READ
1000
VD_INVISIBLE_NOT_FOR_READ
1001
ACAD
1000
MVIEW
1002
{
1070
    16
1010
0.0
1020
0.0
1030
0.0
1010
0.0
1020
0.0
1030
1.0
1040
6.2831853071796
1040
297.0
1040
261.517699
1040
148.5
1040
0.0
1040
0.0
1040
0.0
1070
     0
1070
   100
1070
     0
1070
     1
1070
     0
1070
     0
1070
     0
1070
     0
1040
0.0
1040
0.0
1040
0.0
1040
1.0
1040
1.0
1040
0.0
1040
0.0
1070
     0
1002
{
1002
}
1002
}
  0
ENDSEC
  0
SECTION
  2
OBJECTS
  0
DICTIONARY
  5
4BC6
330
0
100
AcDbDictionary
  3
ACAD_GROUP
350
4BC7
  3
ACAD_LAYOUT
350
4BD4
  3
ACAD_MLINESTYLE
350
4BD1
  3
ACAD_PLOTSETTINGS
350
4BD3
  3
ACDBHEADERROUNDTRIPXREC
350
4C5E
  3
VECTORDRAW_OBJECTS
350
4BE9
  0
DICTIONARY
  5
4C7E
330
4BE3
100
AcDbDictionary
280
     1
  3
ACAD_XREC_ROUNDTRIP
360
4C7F
  0
DICTIONARY
  5
4BC7
102
{ACAD_REACTORS
330
4BC6
102
}
330
4BC6
100
AcDbDictionary
  0
DICTIONARY
  5
4BD4
102
{ACAD_REACTORS
330
4BC6
102
}
330
4BC6
100
AcDbDictionary
  0
DICTIONARY
  5
4BD1
102
{ACAD_REACTORS
330
4BC6
102
}
330
4BC6
100
AcDbDictionary
  3
STANDARD
350
4BD2
  0
DICTIONARY
  5
4BD3
102
{ACAD_REACTORS
330
4BC6
102
}
330
4BC6
100
AcDbDictionary
  0
DICTIONARY
  5
4C5E
102
{ACAD_REACTORS
330
4BC6
102
}
330
4BC6
100
AcDbDictionary
  3
CEPSNTYPE
350
4C67
  3
DIMSTYLEDATA
350
4C7D
  3
FINGERPRINTGUID
350
4C68
  3
HYPERLINKBASE
350
4C61
  3
INSUNITS
350
4C66
  3
LAYOUTDICT
350
4C63
  3
LWETCUNION
350
4C65
  3
PLOTSETDICT
350
4C64
  3
PSVPSCALE
350
4C6A
  3
PUCSBASE
350
4C6D
  3
PUCSORGBACK
350
4C73
  3
PUCSORGBOTTOM
350
4C6F
  3
PUCSORGFRONT
350
4C72
  3
PUCSORGLEFT
350
4C70
  3
PUCSORGRIGHT
350
4C71
  3
PUCSORGTOP
350
4C6E
  3
PUCSORTHOREF
350
4C6B
  3
PUCSORTHOVIEW
350
4C6C
  3
STYLESHEET
350
4C62
  3
TSTACKALIGN
350
4C5F
  3
TSTACKSIZE
350
4C60
  3
UCSBASE
350
4C76
  3
UCSORGBACK
350
4C7C
  3
UCSORGBOTTOM
350
4C78
  3
UCSORGFRONT
350
4C7B
  3
UCSORGLEFT
350
4C79
  3
UCSORGRIGHT
350
4C7A
  3
UCSORGTOP
350
4C77
  3
UCSORTHOREF
350
4C74
  3
UCSORTHOVIEW
350
4C75
  3
VERSIONGUID
350
4C69
  0
DICTIONARY
  5
4BE9
102
{ACAD_REACTORS
330
4BC6
102
}
330
4BC6
100
AcDbDictionary
  3
SERIALNO
350
4BEA
  0
XRECORD
  5
4C7F
102
{ACAD_REACTORS
330
4C7E
102
}
330
4C7E
100
AcDbXrecord
102
UCS
 74
     0
 71
     1
 10
0.0
 20
0.0
 30
0.0
 10
1.0
 20
0.0
 30
0.0
 10
0.0
 20
1.0
 30
0.0
146
0.0
 79
     0
102
VIEW
281
     0
  0
MLINESTYLE
  5
4BD2
102
{ACAD_REACTORS
330
4BD1
102
}
330
4BD1
100
AcDbMlineStyle
  2
Standard
 70
     0
  3

 62
   256
 51
90.0
 52
90.0
 71
     2
 49
0.5
 62
   256
  6
BYLAYER
 49
-0.5
 62
   256
  6
BYLAYER
  0
XRECORD
  5
4C67
102
{ACAD_REACTORS
330
4C5E
102
}
330
4C5E
100
AcDbXrecord
 90
        0
  0
XRECORD
  5
4C7D
102
{ACAD_REACTORS
330
4C5E
102
}
330
4C5E
100
AcDbXrecord
1000
DSTYLE
1002
{
1070
    41
 40
40.0
1070
   342
340
90
1070
   177
 70
    41
1070
   178
 70
    41
1070
   271
 70
     0
1070
    44
 40
1.25
1070
    42
 40
1.0
1070
   147
 40
2.0
1070
    77
 70
     1
1070
    73
 70
     0
1070
   174
 70
     1
1070
   172
 70
     1
1070
    74
 70
     0
1070
   340
340
F39
1070
   140
 40
40.0
1070
   288
 70
     1
1002
}
  0
XRECORD
  5
4C68
102
{ACAD_REACTORS
330
4C5E
102
}
330
4C5E
100
AcDbXrecord
  1
{FAEB1C30-E019-11D5-929B-00C0DF256EC4}
  0
XRECORD
  5
4C61
102
{ACAD_REACTORS
330
4C5E
102
}
330
4C5E
100
AcDbXrecord
  1

  0
XRECORD
  5
4C66
102
{ACAD_REACTORS
330
4C5E
102
}
330
4C5E
100
AcDbXrecord
 90
        1
  0
XRECORD
  5
4C63
102
{ACAD_REACTORS
330
4C5E
102
}
330
4C5E
100
AcDbXrecord
340
4BD4
  0
XRECORD
  5
4C65
102
{ACAD_REACTORS
330
4C5E
102
}
330
4C5E
100
AcDbXrecord
 90
     2560
  0
XRECORD
  5
4C64
102
{ACAD_REACTORS
330
4C5E
102
}
330
4C5E
100
AcDbXrecord
340
4BD3
  0
XRECORD
  5
4C6A
102
{ACAD_REACTORS
330
4C5E
102
}
330
4C5E
100
AcDbXrecord
 40
0.0
  0
XRECORD
  5
4C6D
102
{ACAD_REACTORS
330
4C5E
102
}
330
4C5E
100
AcDbXrecord
340
0
  0
XRECORD
  5
4C73
102
{ACAD_REACTORS
330
4C5E
102
}
330
4C5E
100
AcDbXrecord
 10
0.0
 20
0.0
 30
0.0
  0
XRECORD
  5
4C6F
102
{ACAD_REACTORS
330
4C5E
102
}
330
4C5E
100
AcDbXrecord
 10
0.0
 20
0.0
 30
0.0
  0
XRECORD
  5
4C72
102
{ACAD_REACTORS
330
4C5E
102
}
330
4C5E
100
AcDbXrecord
 10
0.0
 20
0.0
 30
0.0
  0
XRECORD
  5
4C70
102
{ACAD_REACTORS
330
4C5E
102
}
330
4C5E
100
AcDbXrecord
 10
0.0
 20
0.0
 30
0.0
  0
XRECORD
  5
4C71
102
{ACAD_REACTORS
330
4C5E
102
}
330
4C5E
100
AcDbXrecord
 10
0.0
 20
0.0
 30
0.0
  0
XRECORD
  5
4C6E
102
{ACAD_REACTORS
330
4C5E
102
}
330
4C5E
100
AcDbXrecord
 10
0.0
 20
0.0
 30
0.0
  0
XRECORD
  5
4C6B
102
{ACAD_REACTORS
330
4C5E
102
}
330
4C5E
100
AcDbXrecord
340
0
  0
XRECORD
  5
4C6C
102
{ACAD_REACTORS
330
4C5E
102
}
330
4C5E
100
AcDbXrecord
 70
     0
  0
XRECORD
  5
4C62
102
{ACAD_REACTORS
330
4C5E
102
}
330
4C5E
100
AcDbXrecord
  1

  0
XRECORD
  5
4C5F
102
{ACAD_REACTORS
330
4C5E
102
}
330
4C5E
100
AcDbXrecord
 90
        1
  0
XRECORD
  5
4C60
102
{ACAD_REACTORS
330
4C5E
102
}
330
4C5E
100
AcDbXrecord
 90
       70
  0
XRECORD
  5
4C76
102
{ACAD_REACTORS
330
4C5E
102
}
330
4C5E
100
AcDbXrecord
340
0
  0
XRECORD
  5
4C7C
102
{ACAD_REACTORS
330
4C5E
102
}
330
4C5E
100
AcDbXrecord
 10
0.0
 20
0.0
 30
0.0
  0
XRECORD
  5
4C78
102
{ACAD_REACTORS
330
4C5E
102
}
330
4C5E
100
AcDbXrecord
 10
0.0
 20
0.0
 30
0.0
  0
XRECORD
  5
4C7B
102
{ACAD_REACTORS
330
4C5E
102
}
330
4C5E
100
AcDbXrecord
 10
0.0
 20
0.0
 30
0.0
  0
XRECORD
  5
4C79
102
{ACAD_REACTORS
330
4C5E
102
}
330
4C5E
100
AcDbXrecord
 10
0.0
 20
0.0
 30
0.0
  0
XRECORD
  5
4C7A
102
{ACAD_REACTORS
330
4C5E
102
}
330
4C5E
100
AcDbXrecord
 10
0.0
 20
0.0
 30
0.0
  0
XRECORD
  5
4C77
102
{ACAD_REACTORS
330
4C5E
102
}
330
4C5E
100
AcDbXrecord
 10
0.0
 20
0.0
 30
0.0
  0
XRECORD
  5
4C74
102
{ACAD_REACTORS
330
4C5E
102
}
330
4C5E
100
AcDbXrecord
340
0
  0
XRECORD
  5
4C75
102
{ACAD_REACTORS
330
4C5E
102
}
330
4C5E
100
AcDbXrecord
 70
     0
  0
XRECORD
  5
4C69
102
{ACAD_REACTORS
330
4C5E
102
}
330
4C5E
100
AcDbXrecord
  1
{FAEB1C32-E019-11D5-929B-00C0DF256EC4}
  0
XRECORD
  5
4BEA
102
{ACAD_REACTORS
330
4BE9
102
}
330
4BE9
100
AcDbXrecord
1000
rInJVR9YY4Q8hfPWdUq5j5319
1070
     4
1070
     6
  0
ENDSEC
  0
EOF
