  0
SECTION
  2
HEADER
  9
$ACADVER
  1
AC1014
  9
$ACADMAINTVER
 70
     0
  9
$DWGCODEPAGE
  3
ANSI_1250
  9
$INSBASE
 10
0.0
 20
0.0
 30
0.0
  9
$EXTMIN
 10
1084.682583
 20
-1149.030097
 30
0.0
  9
$EXTMAX
 10
2139.506972
 20
341.449035
 30
0.0
  9
$LIMMIN
 10
0.0
 20
0.0
  9
$LIMMAX
 10
420.0
 20
297.0
  9
$ORTHOMODE
 70
     1
  9
$REGENMODE
 70
     1
  9
$FILLMODE
 70
     1
  9
$QTEXTMODE
 70
     0
  9
$MIRRTEXT
 70
     1
  9
$DRAGMODE
 70
     2
  9
$LTSCALE
 40
1.0
  9
$OSMODE
 70
     1
  9
$ATTMODE
 70
     1
  9
$TEXTSIZE
 40
40.0
  9
$TRACEWID
 40
1.0
  9
$TEXTSTYLE
  7
ED40
  9
$CLAYER
  8
V0-VYPLNE
  9
$CELTYPE
  6
CONTINUOUS
  9
$CECOLOR
 62
    41
  9
$CELTSCALE
 40
1.0
  9
$DELOBJ
 70
     1
  9
$DISPSILH
 70
     0
  9
$DIMSCALE
 40
1.0
  9
$DIMASZ
 40
30.0
  9
$DIMEXO
 40
1.0
  9
$DIMDLI
 40
3.75
  9
$DIMRND
 40
0.0
  9
$DIMDLE
 40
0.0
  9
$DIMEXE
 40
1.25
  9
$DIMTP
 40
0.0
  9
$DIMTM
 40
0.0
  9
$DIMTXT
 40
30.0
  9
$DIMCEN
 40
3.0
  9
$DIMTSZ
 40
0.0
  9
$DIMTOL
 70
     0
  9
$DIMLIM
 70
     0
  9
$DIMTIH
 70
     0
  9
$DIMTOH
 70
     0
  9
$DIMSE1
 70
     0
  9
$DIMSE2
 70
     0
  9
$DIMTAD
 70
     1
  9
$DIMZIN
 70
     8
  9
$DIMBLK
  1

  9
$DIMASO
 70
     1
  9
$DIMSHO
 70
     1
  9
$DIMPOST
  1

  9
$DIMAPOST
  1

  9
$DIMALT
 70
     0
  9
$DIMALTD
 70
     4
  9
$DIMALTF
 40
0.0394
  9
$DIMLFAC
 40
1.0
  9
$DIMTOFL
 70
     1
  9
$DIMTVP
 40
0.0
  9
$DIMTIX
 70
     0
  9
$DIMSOXD
 70
     0
  9
$DIMSAH
 70
     1
  9
$DIMBLK1
  1
_OPEN
  9
$DIMBLK2
  1
_OPEN
  9
$DIMSTYLE
  2
ED30
  9
$DIMCLRD
 70
    41
  9
$DIMCLRE
 70
    41
  9
$DIMCLRT
 70
    41
  9
$DIMTFAC
 40
1.0
  9
$DIMGAP
 40
2.0
  9
$DIMJUST
 70
     0
  9
$DIMSD1
 70
     0
  9
$DIMSD2
 70
     0
  9
$DIMTOLJ
 70
     1
  9
$DIMTZIN
 70
     8
  9
$DIMALTZ
 70
     0
  9
$DIMALTTZ
 70
     0
  9
$DIMFIT
 70
     3
  9
$DIMUPT
 70
     0
  9
$DIMUNIT
 70
     2
  9
$DIMDEC
 70
     0
  9
$DIMTDEC
 70
     1
  9
$DIMALTU
 70
     8
  9
$DIMALTTD
 70
     4
  9
$DIMTXSTY
  7
ED30
  9
$DIMAUNIT
 70
     0
  9
$LUNITS
 70
     2
  9
$LUPREC
 70
     4
  9
$SKETCHINC
 40
1.0
  9
$FILLETRAD
 40
10.0
  9
$AUNITS
 70
     0
  9
$AUPREC
 70
     0
  9
$MENU
  1
.
  9
$ELEVATION
 40
0.0
  9
$PELEVATION
 40
0.0
  9
$THICKNESS
 40
0.0
  9
$LIMCHECK
 70
     0
  9
$BLIPMODE
 70
     0
  9
$CHAMFERA
 40
0.5
  9
$CHAMFERB
 40
0.5
  9
$CHAMFERC
 40
20.0
  9
$CHAMFERD
 40
0.0
  9
$SKPOLY
 70
     1
  9
$TDCREATE
 40
2451196.643769328
  9
$TDUPDATE
 40
2452915.903498842
  9
$TDINDWG
 40
1.0278363426
  9
$TDUSRTIMER
 40
1.0278363426
  9
$USRTIMER
 70
     1
  9
$ANGBASE
 50
0.0
  9
$ANGDIR
 70
     0
  9
$PDMODE
 70
    35
  9
$PDSIZE
 40
20.0
  9
$PLINEWID
 40
0.0
  9
$COORDS
 70
     1
  9
$SPLFRAME
 70
     0
  9
$SPLINETYPE
 70
     6
  9
$SPLINESEGS
 70
     8
  9
$ATTDIA
 70
     0
  9
$ATTREQ
 70
     1
  9
$HANDLING
 70
     1
  9
$HANDSEED
  5
4762
  9
$SURFTAB1
 70
     6
  9
$SURFTAB2
 70
     6
  9
$SURFTYPE
 70
     6
  9
$SURFU
 70
     6
  9
$SURFV
 70
     6
  9
$UCSNAME
  2

  9
$UCSORG
 10
1829.721191398644
 20
-11.00090689553283
 30
0.0
  9
$UCSXDIR
 10
1.0
 20
0.0
 30
0.0
  9
$UCSYDIR
 10
0.0
 20
1.0
 30
0.0
  9
$PUCSNAME
  2

  9
$PUCSORG
 10
0.0
 20
0.0
 30
0.0
  9
$PUCSXDIR
 10
1.0
 20
0.0
 30
0.0
  9
$PUCSYDIR
 10
0.0
 20
1.0
 30
0.0
  9
$USERI1
 70
     0
  9
$USERI2
 70
     0
  9
$USERI3
 70
     0
  9
$USERI4
 70
     0
  9
$USERI5
 70
     0
  9
$USERR1
 40
0.0
  9
$USERR2
 40
0.0
  9
$USERR3
 40
0.0
  9
$USERR4
 40
0.0
  9
$USERR5
 40
0.0
  9
$WORLDVIEW
 70
     1
  9
$SHADEDGE
 70
     3
  9
$SHADEDIF
 70
    70
  9
$TILEMODE
 70
     1
  9
$MAXACTVP
 70
    48
  9
$PINSBASE
 10
0.0
 20
0.0
 30
0.0
  9
$PLIMCHECK
 70
     0
  9
$PEXTMIN
 10
1.000000E+20
 20
1.000000E+20
 30
1.000000E+20
  9
$PEXTMAX
 10
-1.000000E+20
 20
-1.000000E+20
 30
-1.000000E+20
  9
$PLIMMIN
 10
0.0
 20
0.0
  9
$PLIMMAX
 10
420.0
 20
297.0
  9
$UNITMODE
 70
     0
  9
$VISRETAIN
 70
     1
  9
$PLINEGEN
 70
     0
  9
$PSLTSCALE
 70
     0
  9
$TREEDEPTH
 70
  3020
  9
$PICKSTYLE
 70
     0
  9
$CMLSTYLE
  2
STANDARD
  9
$CMLJUST
 70
     1
  9
$CMLSCALE
 40
3.0
  9
$PROXYGRAPHICS
 70
     1
  9
$MEASUREMENT
 70
     1
  0
ENDSEC
  0
SECTION
  2
CLASSES
  0
CLASS
  1
DICTIONARYVAR
  2
AcDbDictionaryVar
  3
"AutoCAD"
 90
        0
280
     0
281
     0
  0
CLASS
  1
LWPOLYLINE
  2
AcDbPolyline
  3
"AutoCAD"
 90
        0
280
     0
281
     1
  0
CLASS
  1
HATCH
  2
AcDbHatch
  3
"ACAD_SEDONA"
 90
        0
280
     0
281
     1
  0
ENDSEC
  0
SECTION
  2
TABLES
  0
TABLE
  2
VPORT
  5
8
100
AcDbSymbolTable
 70
     2
  0
VPORT
  5
4761
100
AcDbSymbolTableRecord
100
AcDbViewportTableRecord
  2
*ACTIVE
 70
     0
 10
0.0
 20
0.0
 11
1.0
 21
1.0
 12
1535.362314
 22
-454.980488
 13
0.0
 23
0.0
 14
10.0
 24
10.0
 15
10.0
 25
10.0
 16
0.0
 26
0.0
 36
1.0
 17
0.0
 27
0.0
 37
0.0
 40
1639.219942
 41
1.730469
 42
50.0
 43
0.0
 44
0.0
 50
0.0
 51
0.0
 71
     0
 72
   100
 73
     1
 74
     1
 75
     0
 76
     0
 77
     0
 78
     0
  0
ENDTAB
  0
TABLE
  2
LTYPE
  5
5
100
AcDbSymbolTable
 70
     4
  0
LTYPE
  5
14
100
AcDbSymbolTableRecord
100
AcDbLinetypeTableRecord
  2
BYBLOCK
 70
     0
  3

 72
    65
 73
     0
 40
0.0
  0
LTYPE
  5
15
100
AcDbSymbolTableRecord
100
AcDbLinetypeTableRecord
  2
BYLAYER
 70
     0
  3

 72
    65
 73
     0
 40
0.0
  0
LTYPE
  5
16
100
AcDbSymbolTableRecord
100
AcDbLinetypeTableRecord
  2
CONTINUOUS
 70
     0
  3
Solid line
 72
    65
 73
     0
 40
0.0
  0
LTYPE
  5
7F
100
AcDbSymbolTableRecord
100
AcDbLinetypeTableRecord
  2
DASHDOT
 70
     0
  3
Dash dot __ . __ . __ . __ . __ . __ . __ . __
 72
    65
 73
     4
 40
25.4
 49
12.7
 74
     0
 49
-6.35
 74
     0
 49
0.0
 74
     0
 49
-6.35
 74
     0
  0
LTYPE
  5
1B9E
100
AcDbSymbolTableRecord
100
AcDbLinetypeTableRecord
  2
ACAD_ISO02W100
 70
     0
  3
ISO dash __ __ __ __ __ __ __ __ __ __ __ __ __
 72
    65
 73
     2
 40
15.0
 49
12.0
 74
     0
 49
-3.0
 74
     0
  0
LTYPE
  5
1B9F
100
AcDbSymbolTableRecord
100
AcDbLinetypeTableRecord
  2
DASHED
 70
     0
  3
Dashed __ __ __ __ __ __ __ __ __ __ __ __ __ _
 72
    65
 73
     2
 40
19.05
 49
12.7
 74
     0
 49
-6.35
 74
     0
  0
ENDTAB
  0
TABLE
  2
LAYER
  5
2
100
AcDbSymbolTable
 70
     5
  0
LAYER
  5
F
100
AcDbSymbolTableRecord
100
AcDbLayerTableRecord
  2
0
 70
     0
 62
     7
  6
CONTINUOUS
  0
LAYER
  5
9E
100
AcDbSymbolTableRecord
100
AcDbLayerTableRecord
  2
DEFPOINTS
 70
     0
 62
     7
  6
CONTINUOUS
  0
LAYER
  5
377
100
AcDbSymbolTableRecord
100
AcDbLayerTableRecord
  2
V0-OBRYS
 70
     0
 62
    90
  6
CONTINUOUS
  0
LAYER
  5
378
100
AcDbSymbolTableRecord
100
AcDbLayerTableRecord
  2
V0-VYPLNE
 70
     0
 62
    63
  6
DASHDOT
  0
LAYER
  5
1540
100
AcDbSymbolTableRecord
100
AcDbLayerTableRecord
  2
VO-OBRYS
 70
     0
 62
    90
  6
CONTINUOUS
  0
ENDTAB
  0
TABLE
  2
STYLE
  5
3
100
AcDbSymbolTable
 70
     6
  0
STYLE
  5
10
100
AcDbSymbolTableRecord
100
AcDbTextStyleTableRecord
  2
STANDARD
 70
     0
 40
0.0
 41
1.0
 50
0.0
 71
     0
 42
2.5
  3
ISOCP
  4

  0
STYLE
  5
331
100
AcDbSymbolTableRecord
100
AcDbTextStyleTableRecord
  2
ED20
 70
     0
 40
20.0
 41
1.0
 50
0.0
 71
     0
 42
2.5
  3
ISOCP.shx
  4

  0
STYLE
  5
648
100
AcDbSymbolTableRecord
100
AcDbTextStyleTableRecord
  2
ED10
 70
     0
 40
10.0
 41
1.0
 50
0.0
 71
     0
 42
10.0
  3
ISOCP.shx
  4

  0
STYLE
  5
F38
100
AcDbSymbolTableRecord
100
AcDbTextStyleTableRecord
  2
ED30
 70
     0
 40
30.0
 41
1.0
 50
0.0
 71
     0
 42
2.5
  3
ISOCP.shx
  4

  0
STYLE
  5
F39
100
AcDbSymbolTableRecord
100
AcDbTextStyleTableRecord
  2
ED40
 70
     0
 40
40.0
 41
1.0
 50
0.0
 71
     0
 42
40.0
  3
ISOCP.shx
  4

  0
STYLE
  5
1B9D
100
AcDbSymbolTableRecord
100
AcDbTextStyleTableRecord
  2

 70
     1
 40
0.0
 41
1.0
 50
0.0
 71
     0
 42
40.0
  3
ltypeshp.shx
  4

  0
ENDTAB
  0
TABLE
  2
VIEW
  5
6
100
AcDbSymbolTable
 70
     0
  0
ENDTAB
  0
TABLE
  2
UCS
  5
7
100
AcDbSymbolTable
 70
     0
  0
ENDTAB
  0
TABLE
  2
APPID
  5
9
100
AcDbSymbolTable
 70
     3
  0
APPID
  5
11
100
AcDbSymbolTableRecord
100
AcDbRegAppTableRecord
  2
ACAD
 70
     0
  0
APPID
  5
2570
100
AcDbSymbolTableRecord
100
AcDbRegAppTableRecord
  2
CONTENTBLOCKICON
 70
     0
  0
APPID
  5
2571
100
AcDbSymbolTableRecord
100
AcDbRegAppTableRecord
  2
CONTENTBLOCKDESCRIPTION
 70
     0
  0
ENDTAB
  0
TABLE
  2
DIMSTYLE
  5
A
100
AcDbSymbolTable
 70
     4
  0
DIMSTYLE
105
1D
100
AcDbSymbolTableRecord
100
AcDbDimStyleTableRecord
  2
STANDARD
 70
     0
  3

  4

  5

  6
_OPEN
  7
_OPEN
 40
0.0
 41
15.0
 42
0.625
 43
3.75
 44
1.25
 45
0.0
 46
0.0
 47
0.0
 48
0.0
140
15.0
141
2.5
142
0.0
143
0.0394
144
1.0
145
0.0
146
1.0
147
3.0
 71
     0
 72
     0
 73
     0
 74
     0
 75
     0
 76
     0
 77
     1
 78
     8
170
     0
171
     4
172
     1
173
     1
174
     0
175
     0
176
     0
177
     0
178
     0
270
     2
271
     0
272
     1
273
     8
274
     4
340
331
275
     0
280
     0
281
     0
282
     0
283
     1
284
     8
285
     0
286
     0
287
     3
288
     0
  0
DIMSTYLE
105
FE9
100
AcDbSymbolTableRecord
100
AcDbDimStyleTableRecord
  2
ED20
 70
     0
  3

  4

  5

  6
_OPEN
  7
_OPEN
 40
1.0
 41
20.0
 42
1.0
 43
3.75
 44
1.25
 45
0.0
 46
0.0
 47
0.0
 48
0.0
140
20.0
141
3.0
142
0.0
143
0.0394
144
1.0
145
0.0
146
1.0
147
2.0
 71
     0
 72
     0
 73
     0
 74
     0
 75
     0
 76
     0
 77
     1
 78
     8
170
     0
171
     4
172
     1
173
     1
174
     0
175
     0
176
    41
177
    41
178
    41
270
     2
271
     0
272
     1
273
     8
274
     4
340
331
275
     0
280
     0
281
     0
282
     0
283
     1
284
     8
285
     0
286
     0
287
     3
288
     0
  0
DIMSTYLE
105
320E
102
{ACAD_REACTORS
330
4084
330
409E
330
40AB
102
}
100
AcDbSymbolTableRecord
100
AcDbDimStyleTableRecord
  2
ED30
 70
     0
  3

  4

  5

  6
_OPEN
  7
_OPEN
 40
1.0
 41
30.0
 42
1.0
 43
3.75
 44
1.25
 45
0.0
 46
0.0
 47
0.0
 48
0.0
140
30.0
141
3.0
142
0.0
143
0.0394
144
1.0
145
0.0
146
1.0
147
2.0
 71
     0
 72
     0
 73
     0
 74
     0
 75
     0
 76
     0
 77
     1
 78
     8
170
     0
171
     4
172
     1
173
     1
174
     0
175
     0
176
    41
177
    41
178
    41
270
     2
271
     0
272
     1
273
     8
274
     4
340
F38
275
     0
280
     0
281
     0
282
     0
283
     1
284
     8
285
     0
286
     0
287
     3
288
     0
  0
DIMSTYLE
105
4105
100
AcDbSymbolTableRecord
100
AcDbDimStyleTableRecord
  2
ED40
 70
     0
  3

  4

  5

  6
_OPEN
  7
_OPEN
 40
1.0
 41
40.0
 42
1.0
 43
3.75
 44
1.25
 45
0.0
 46
0.0
 47
0.0
 48
0.0
140
40.0
141
3.0
142
0.0
143
0.0394
144
1.0
145
0.0
146
1.0
147
2.0
 71
     0
 72
     0
 73
     0
 74
     0
 75
     0
 76
     0
 77
     1
 78
     8
170
     0
171
     4
172
     1
173
     1
174
     0
175
     0
176
    41
177
    41
178
    41
270
     2
271
     0
272
     1
273
     8
274
     4
340
F39
275
     0
280
     0
281
     0
282
     0
283
     1
284
     8
285
     0
286
     0
287
     3
288
     0
  0
ENDTAB
  0
TABLE
  2
BLOCK_RECORD
  5
1
100
AcDbSymbolTable
 70
    10
  0
BLOCK_RECORD
  5
1A
100
AcDbSymbolTableRecord
100
AcDbBlockTableRecord
  2
*MODEL_SPACE
  0
BLOCK_RECORD
  5
17
100
AcDbSymbolTableRecord
100
AcDbBlockTableRecord
  2
*PAPER_SPACE
  0
BLOCK_RECORD
  5
90
100
AcDbSymbolTableRecord
100
AcDbBlockTableRecord
  2
_OPEN
  0
BLOCK_RECORD
  5
267B
100
AcDbSymbolTableRecord
100
AcDbBlockTableRecord
  2
ASVORK
1001
CONTENTBLOCKICON
1071
        0
1004
2800000020000000200000000100040000000000000200000000000000000000000000000000000000000000000080000080000000808000800000008000800080800000C0C0C000808080000000FF0000FF000000FFFF00FF000000FF00FF00FFFF0000FFFFFF00FFFFFFFAAAAAAAAAAAAAAAAAAFFFFFFF
1004
FFFFFFFAFFFFFAFFFFFFFFFFAFFFFFFFFFFFFFFAFFFFFAFFFFFFFFFFAFFFFFFFFFFFFFFAFFFFFAFFFFFFFFFFAFFFFFFFFFFFFFFAFFFFFAFFFFFFFFFFAFFFFFFFFFFFFFFAFFFFFAFFFFFFFFFFAFFFFFFFFFFFFFFAFFFFFAFFFFFFFFFFAFFFFFFFFFFFFFFAFFFFFAFFFFFFFFFFAFFFFFFFFFFFFFFAFFFFFAFF
1004
FFFFFFFFAFFFFFFFFFFFFFFAFFFFFAFFFFFFFFFFAFFFFFFFFFFFFFFAFFFFFAFFFFFFFFFFAFFFFFFFFFFFFFFAFFFFFAFFFFFFFFFFAFFFFFFFFFFFFFFAFFFFFAFFFFFFFFFFAFFFFFFFFFFFFFFAFFFFFAFFFFFFFFFFAFFFFFFFFFFFFFFAFFFFFAFFFFFFFFFFAFFFFFFFFFFFFFFAFFFFFAFFFFFFFFFFAFFFFFFF
1004
FFFFFFFAFFFFFAFFFFFFFFFFFFFFFFFFFFFFFFFAFFFFFAFFFFFFFFFFAFFFFFFFFFFFFFFAFFFFFAFFFFFFFFFFAFFFFFFFFFFFFFFAFFFFFAFFFFFFFFFFAFFFFFFFFFFFFFFAFFFFFAFFFFFFFFFFAFFFFFFFFFFFFFFAFFFFFAFFFFFFFFFFAFFFFFFFFFFFFFFAFFFFFAFFFFFFFFFFAFFFFFFFFFFFFFFAFFFFFAFF
1004
FFFFFFFFAFFFFFFFFFFFFFFAFFFFFAFFFFFFFFFFAFFFFFFFFFFFFFFAFFFFFAFFFFFFFFFFAFFFFFFFFFFFFFFAFFFFFAFFFFFFFFFFAFFFFFFFFFFFFFFAFFFFFAFFFFFFFFFFAFFFFFFFFFFFFFFAFFFFFAFFFFFFFFFFAFFFFFFFFFFFFFFAFFFFFAFFFFFFFFFFAFFFFFFFFFFFFFFAFFFFFAFFFFFFFFFFAFFFFFFF
1004
FFFFFFFAAAAAAAAAAAAAAAAAAFFFFFFF
  0
BLOCK_RECORD
  5
26B3
100
AcDbSymbolTableRecord
100
AcDbBlockTableRecord
  2
ASVORKBOK
1001
CONTENTBLOCKICON
1071
        0
1004
2800000020000000200000000100040000000000000200000000000000000000000000000000000000000000000080000080000000808000800000008000800080800000C0C0C000808080000000FF0000FF000000FFFF00FF000000FF00FF00FFFF0000FFFFFF00FFFFFFFFFFFFFFFFFFFFFFFFFFFFFFFF
1004
FAAAAAAAAAAAAAAAAAAAAAAAAAAAAAAFFAFFFFFFFFFFFFFFFFFFFFFFFFFFFFFAAAFFFFFFFFFFFFFFFFFFFFFFFFFFFFAAAAAFAAFFFFFFFFFFFFFFFFFFFFAAAFFAFAFAAAFFFFFFFFFFFFFFFFFFFFAFAFFAFAFFAFFFFFFFFFFFFFFFFFFFFFFAFFFAFAFFFFFFFFFFFFFFFFFFFFFFFFFFFFFAFAFFFFFFFFFFFFFF
1004
FFFFFFFFFFFFFFFAFAFFFFFFFFFFFFFFFFFFFFFFFFFFFFFAFAFFFFFFFFFFFFFFFFFFFFFFFFFFFFFAFAFFFFFFFFFFFFFFFFFFFFFFFFFFFFFAFAFFFFFFFFFFFFFFFFFFFFFFFFFFFFFAFAFFFFFFFFFFFFFFFFFFFFFFFFFFFFFAFAFFFFFFFFFFFFFFFFFFFFFFFFFFFFFAFAFFFFFFFFFFFFFFFFFFFFFFFFFFFFFA
1004
FAFFFFFFFFFFFFFFBFFFFFFFFFFFFFFAFAFFFFFFFFFFFFFFFFFFFFFFFFFFFFFAFAFFFFFFFFFFFFFFFFFFFFFFFFFFFFFAFAFFFFFFFFFFFFFFFFFFFFFFFFFFFFFAFAFFFFFFFFFFFFFFFFFFFFFFFFFFFFFAFAFFFFFFFFFFFFFFFFFFFFFFFFFFFFFAFAFFFFFFFFFFFFFFFFFFFFFFFFFFFFFAFAFFFFFFFFFFFFFF
1004
FFFFFFFFFFFFFFFAFAFFFFFFFFFFFFFFFFFFFFFFFFFFFFFAFAFFFFFFFFFFFFFFFFFFFFFFFFFFFFFAFAFFAFFFFFFFFFFFFFFFFFFFFFFAFFFAFAFAAAFFFFFFFFFFFFFFFFFFFFAFAFFAFAFFAAFFFFFFFFFFFFFFFFFFFFAAAFFAFAFFFFFFFFFFFFFFFFFFFFFFFFFFFFFAFAFFFFFFFFFFFFFFFFFFFFFFFFFFFFFA
1004
FAAAAAAAAAAAAAAAAAAAAAAAAAAAAAAF
  0
BLOCK_RECORD
  5
3F44
100
AcDbSymbolTableRecord
100
AcDbBlockTableRecord
  2
*D3
  0
BLOCK_RECORD
  5
4036
100
AcDbSymbolTableRecord
100
AcDbBlockTableRecord
  2
*D4
  0
BLOCK_RECORD
  5
4076
100
AcDbSymbolTableRecord
100
AcDbBlockTableRecord
  2
*D5
  0
BLOCK_RECORD
  5
4092
100
AcDbSymbolTableRecord
100
AcDbBlockTableRecord
  2
*D6
  0
BLOCK_RECORD
  5
409F
100
AcDbSymbolTableRecord
100
AcDbBlockTableRecord
  2
*D7
  0
BLOCK_RECORD
  5
41F9
100
AcDbSymbolTableRecord
100
AcDbBlockTableRecord
  2
*D8
  0
BLOCK_RECORD
  5
4205
100
AcDbSymbolTableRecord
100
AcDbBlockTableRecord
  2
*D9
  0
ENDTAB
  0
ENDSEC
  0
SECTION
  2
BLOCKS
  0
BLOCK
  5
1B
100
AcDbEntity
  8
0
100
AcDbBlockBegin
  2
*MODEL_SPACE
 70
     0
 10
0.0
 20
0.0
 30
0.0
  3
*MODEL_SPACE
  1

  0
ENDBLK
  5
1C
100
AcDbEntity
  8
0
100
AcDbBlockEnd
  0
BLOCK
  5
18
100
AcDbEntity
 67
     1
  8
0
100
AcDbBlockBegin
  2
*PAPER_SPACE
 70
     0
 10
0.0
 20
0.0
 30
0.0
  3
*PAPER_SPACE
  1

  0
ENDBLK
  5
19
100
AcDbEntity
 67
     1
  8
0
100
AcDbBlockEnd
  0
BLOCK
  5
91
100
AcDbEntity
  8
0
100
AcDbBlockBegin
  2
_OPEN
 70
     0
 10
0.0
 20
0.0
 30
0.0
  3
_OPEN
  1

  0
LINE
  5
92
100
AcDbEntity
  8
0
  6
BYBLOCK
 62
     0
100
AcDbLine
 10
-1.0
 20
0.166667
 30
0.0
 11
0.0
 21
0.0
 31
0.0
  0
LINE
  5
93
100
AcDbEntity
  8
0
  6
BYBLOCK
 62
     0
100
AcDbLine
 10
0.0
 20
0.0
 30
0.0
 11
-1.0
 21
-0.166667
 31
0.0
  0
LINE
  5
94
100
AcDbEntity
  8
0
  6
BYBLOCK
 62
     0
100
AcDbLine
 10
0.0
 20
0.0
 30
0.0
 11
-1.0
 21
0.0
 31
0.0
  0
ENDBLK
  5
95
100
AcDbEntity
  8
0
100
AcDbBlockEnd
  0
BLOCK
  5
32CE
100
AcDbEntity
  8
0
100
AcDbBlockBegin
  2
ASVORK
 70
     0
 10
0.0
 20
0.0
 30
0.0
  3
ASVORK
  1

  0
LINE
  5
32CF
100
AcDbEntity
  8
V0-OBRYS
  6
CONTINUOUS
 62
    90
100
AcDbLine
 10
-44.999998
 20
-40.000011
 30
0.0
 11
0.000002
 21
-40.000011
 31
0.0
  0
LINE
  5
32D0
100
AcDbEntity
  8
V0-OBRYS
  6
CONTINUOUS
 62
    90
100
AcDbLine
 10
-44.999998
 20
39.999989
 30
0.0
 11
0.000002
 21
39.999989
 31
0.0
  0
LINE
  5
32D1
100
AcDbEntity
  8
V0-OBRYS
  6
CONTINUOUS
 62
    90
100
AcDbLine
 10
-44.999998
 20
-0.000011
 30
0.0
 11
-44.999998
 21
-40.000011
 31
0.0
  0
LINE
  5
32D2
100
AcDbEntity
  8
V0-OBRYS
  6
CONTINUOUS
 62
    90
100
AcDbLine
 10
-29.999998
 20
-0.000011
 30
0.0
 11
-29.999998
 21
-40.000011
 31
0.0
  0
LINE
  5
32D3
100
AcDbEntity
  8
V0-OBRYS
  6
CONTINUOUS
 62
    90
100
AcDbLine
 10
-44.999998
 20
-0.000011
 30
0.0
 11
-44.999998
 21
39.999989
 31
0.0
  0
LINE
  5
32D4
100
AcDbEntity
  8
V0-OBRYS
  6
CONTINUOUS
 62
    90
100
AcDbLine
 10
-29.999998
 20
-0.000011
 30
0.0
 11
-29.999998
 21
39.999989
 31
0.0
  0
LINE
  5
32D5
100
AcDbEntity
  8
V0-OBRYS
  6
CONTINUOUS
 62
    90
100
AcDbLine
 10
0.000002
 20
-40.000011
 30
0.0
 11
0.000002
 21
-0.000011
 31
0.0
  0
LINE
  5
32D6
100
AcDbEntity
  8
V0-OBRYS
  6
CONTINUOUS
 62
    90
100
AcDbLine
 10
0.000002
 20
39.999989
 30
0.0
 11
0.000002
 21
-0.000011
 31
0.0
  0
ENDBLK
  5
32D7
100
AcDbEntity
  8
0
100
AcDbBlockEnd
  0
BLOCK
  5
26B4
100
AcDbEntity
  8
0
100
AcDbBlockBegin
  2
ASVORKBOK
 70
     0
 10
0.0
 20
0.0
 30
0.0
  3
ASVORKBOK
  1

  0
POINT
  5
26B5
100
AcDbEntity
  8
V0-VYPLNE
  6
DASHED
 62
    52
100
AcDbPoint
 10
0.0
 20
0.0
 30
0.0
  0
LINE
  5
26B6
100
AcDbEntity
  8
V0-OBRYS
  6
CONTINUOUS
 62
    90
100
AcDbLine
 10
36.1584
 20
40.176
 30
0.0
 11
-36.1584
 21
40.176
 31
0.0
  0
LINE
  5
26B7
100
AcDbEntity
  8
V0-OBRYS
  6
CONTINUOUS
 62
    90
100
AcDbLine
 10
-36.1584
 20
-40.176
 30
0.0
 11
36.1584
 21
-40.176
 31
0.0
  0
LINE
  5
26B8
100
AcDbEntity
  8
V0-OBRYS
  6
CONTINUOUS
 62
    90
100
AcDbLine
 10
-40.176
 20
36.1584
 30
0.0
 11
-40.176
 21
-36.1584
 31
0.0
  0
CIRCLE
  5
26B9
100
AcDbEntity
  8
V0-OBRYS
  6
CONTINUOUS
 62
    90
100
AcDbCircle
 10
-30.132
 20
-30.132
 30
0.0
 40
2.6784
  0
LINE
  5
26BA
100
AcDbEntity
  8
V0-OBRYS
  6
CONTINUOUS
 62
    90
100
AcDbLine
 10
-41.176195
 20
-33.63873
 30
0.0
 11
-34.765679
 21
-32.743337
 31
0.0
  0
LINE
  5
26BB
100
AcDbEntity
  8
V0-OBRYS
  6
CONTINUOUS
 62
    90
100
AcDbLine
 10
-41.957903
 20
-32.6585
 30
0.0
 11
-39.658484
 21
-26.607953
 31
0.0
  0
ARC
  5
26BC
100
AcDbEntity
  8
V0-OBRYS
  6
CONTINUOUS
 62
    90
100
AcDbCircle
 10
-36.1584
 20
-36.1584
 30
0.0
 40
4.0176
100
AcDbArc
 50
180.0
 51
270.0
  0
CIRCLE
  5
26BD
100
AcDbEntity
  8
V0-OBRYS
  6
CONTINUOUS
 62
    90
100
AcDbCircle
 10
-30.132
 20
30.132
 30
0.0
 40
2.6784
  0
ARC
  5
26BE
100
AcDbEntity
  8
V0-OBRYS
  6
CONTINUOUS
 62
    90
100
AcDbCircle
 10
-36.1584
 20
36.1584
 30
0.0
 40
4.0176
100
AcDbArc
 50
90.0
 51
180.0
  0
LINE
  5
26BF
100
AcDbEntity
  8
V0-OBRYS
  6
CONTINUOUS
 62
    90
100
AcDbLine
 10
40.176
 20
-36.1584
 30
0.0
 11
40.176
 21
36.1584
 31
0.0
  0
LINE
  5
26C0
100
AcDbEntity
  8
V0-OBRYS
  6
CONTINUOUS
 62
    90
100
AcDbLine
 10
41.176195
 20
-33.63873
 30
0.0
 11
34.765679
 21
-32.743337
 31
0.0
  0
ARC
  5
26C1
100
AcDbEntity
  8
V0-OBRYS
  6
CONTINUOUS
 62
    90
100
AcDbCircle
 10
36.1584
 20
-36.1584
 30
0.0
 40
4.0176
100
AcDbArc
 50
270.0
 51
0.0
  0
CIRCLE
  5
26C2
100
AcDbEntity
  8
V0-OBRYS
  6
CONTINUOUS
 62
    90
100
AcDbCircle
 10
30.132
 20
-30.132
 30
0.0
 40
2.6784
  0
CIRCLE
  5
26C3
100
AcDbEntity
  8
V0-OBRYS
  6
CONTINUOUS
 62
    90
100
AcDbCircle
 10
30.132
 20
30.132
 30
0.0
 40
2.6784
  0
ARC
  5
26C4
100
AcDbEntity
  8
V0-OBRYS
  6
CONTINUOUS
 62
    90
100
AcDbCircle
 10
36.1584
 20
36.1584
 30
0.0
 40
4.0176
100
AcDbArc
 50
0.0
 51
90.0
  0
ENDBLK
  5
26C5
100
AcDbEntity
  8
0
100
AcDbBlockEnd
  0
BLOCK
  5
4160
100
AcDbEntity
  8
0
100
AcDbBlockBegin
  2
*D3
 70
     1
 10
0.0
 20
0.0
 30
0.0
  3
*D3
  1

  0
LINE
  5
4161
100
AcDbEntity
  8
0
  6
BYBLOCK
 62
    41
100
AcDbLine
 10
1345.878441
 20
213.998643
 30
0.0
 11
1423.14136
 21
213.998643
 31
0.0
  0
LINE
  5
4162
100
AcDbEntity
  8
0
  6
BYBLOCK
 62
    41
100
AcDbLine
 10
1345.878441
 20
-236.000457
 30
0.0
 11
1423.14136
 21
-236.000457
 31
0.0
  0
LINE
  5
4163
100
AcDbEntity
  8
0
  6
BYBLOCK
 62
    41
100
AcDbLine
 10
1421.89136
 20
183.998643
 30
0.0
 11
1421.89136
 21
-206.000457
 31
0.0
  0
INSERT
  5
4164
100
AcDbEntity
  8
0
  6
BYBLOCK
 62
    41
100
AcDbBlockReference
  2
_OPEN
 10
1421.89136
 20
213.998643
 30
0.0
 41
30.0
 42
30.0
 43
30.0
 50
90.0
  0
INSERT
  5
4165
100
AcDbEntity
  8
0
  6
BYBLOCK
 62
    41
100
AcDbBlockReference
  2
_OPEN
 10
1421.89136
 20
-236.000457
 30
0.0
 41
30.0
 42
30.0
 43
30.0
 50
270.0
  0
MTEXT
  5
4166
100
AcDbEntity
  8
0
  6
BYBLOCK
 62
    41
100
AcDbMText
 10
1404.89136
 20
-11.000907
 30
0.0
 40
30.0
 41
0.0
 71
     5
 72
     1
  1
\A1;\U+2205450
  7
ED30
 11
0.0
 21
1.0
 31
0.0
  0
POINT
  5
4167
100
AcDbEntity
  8
DEFPOINTS
  6
BYBLOCK
 62
     0
100
AcDbPoint
 10
1344.878441
 20
213.998643
 30
0.0
  0
POINT
  5
4168
100
AcDbEntity
  8
DEFPOINTS
  6
BYBLOCK
 62
     0
100
AcDbPoint
 10
1344.878441
 20
-236.000457
 30
0.0
  0
POINT
  5
4169
100
AcDbEntity
  8
DEFPOINTS
  6
BYBLOCK
 62
     0
100
AcDbPoint
 10
1421.89136
 20
-236.000457
 30
0.0
  0
ENDBLK
  5
416A
100
AcDbEntity
  8
0
100
AcDbBlockEnd
  0
BLOCK
  5
4155
100
AcDbEntity
  8
0
100
AcDbBlockBegin
  2
*D4
 70
     1
 10
0.0
 20
0.0
 30
0.0
  3
*D4
  1

  0
LINE
  5
4156
100
AcDbEntity
  8
0
  6
BYBLOCK
 62
    41
100
AcDbLine
 10
1223.51027
 20
78.999813
 30
0.0
 11
1113.944394
 21
78.999813
 31
0.0
  0
LINE
  5
4157
100
AcDbEntity
  8
0
  6
BYBLOCK
 62
    41
100
AcDbLine
 10
1223.51027
 20
-101.001627
 30
0.0
 11
1113.944394
 21
-101.001627
 31
0.0
  0
LINE
  5
4158
100
AcDbEntity
  8
0
  6
BYBLOCK
 62
    41
100
AcDbLine
 10
1115.194394
 20
48.999813
 30
0.0
 11
1115.194394
 21
-71.001627
 31
0.0
  0
INSERT
  5
4159
100
AcDbEntity
  8
0
  6
BYBLOCK
 62
    41
100
AcDbBlockReference
  2
_OPEN
 10
1115.194394
 20
78.999813
 30
0.0
 41
30.0
 42
30.0
 43
30.0
 50
90.0
  0
INSERT
  5
415A
100
AcDbEntity
  8
0
  6
BYBLOCK
 62
    41
100
AcDbBlockReference
  2
_OPEN
 10
1115.194394
 20
-101.001627
 30
0.0
 41
30.0
 42
30.0
 43
30.0
 50
270.0
  0
MTEXT
  5
415B
100
AcDbEntity
  8
0
  6
BYBLOCK
 62
    41
100
AcDbMText
 10
1098.194394
 20
-11.000907
 30
0.0
 40
30.0
 41
0.0
 71
     5
 72
     1
  1
\A1;\U+2205180
  7
ED30
 11
0.0
 21
1.0
 31
0.0
  0
POINT
  5
415C
100
AcDbEntity
  8
DEFPOINTS
  6
BYBLOCK
 62
     0
100
AcDbPoint
 10
1224.51027
 20
78.999813
 30
0.0
  0
POINT
  5
415D
100
AcDbEntity
  8
DEFPOINTS
  6
BYBLOCK
 62
     0
100
AcDbPoint
 10
1224.51027
 20
-101.001627
 30
0.0
  0
POINT
  5
415E
100
AcDbEntity
  8
DEFPOINTS
  6
BYBLOCK
 62
     0
100
AcDbPoint
 10
1115.194394
 20
-101.001627
 30
0.0
  0
ENDBLK
  5
415F
100
AcDbEntity
  8
0
100
AcDbBlockEnd
  0
BLOCK
  5
4176
100
AcDbEntity
  8
0
100
AcDbBlockBegin
  2
*D5
 70
     1
 10
0.0
 20
0.0
 30
0.0
  3
*D5
  1

  0
LINE
  5
4177
100
AcDbEntity
  8
0
  6
BYBLOCK
 62
    41
100
AcDbLine
 10
1239.721191
 20
-292.000907
 30
0.0
 11
1239.721191
 21
-332.84499
 31
0.0
  0
LINE
  5
4178
100
AcDbEntity
  8
0
  6
BYBLOCK
 62
    41
100
AcDbLine
 10
1251.321191
 20
-292.000907
 30
0.0
 11
1251.321191
 21
-332.84499
 31
0.0
  0
LINE
  5
4179
100
AcDbEntity
  8
0
  6
BYBLOCK
 62
    41
100
AcDbLine
 10
1209.721191
 20
-331.59499
 30
0.0
 11
1179.721191
 21
-331.59499
 31
0.0
  0
LINE
  5
417A
100
AcDbEntity
  8
0
  6
BYBLOCK
 62
    41
100
AcDbLine
 10
1281.321191
 20
-331.59499
 30
0.0
 11
1344.122963
 21
-331.59499
 31
0.0
  0
LINE
  5
417B
100
AcDbEntity
  8
0
  6
BYBLOCK
 62
    41
100
AcDbLine
 10
1239.721191
 20
-331.59499
 30
0.0
 11
1251.321191
 21
-331.59499
 31
0.0
  0
INSERT
  5
417C
100
AcDbEntity
  8
0
  6
BYBLOCK
 62
    41
100
AcDbBlockReference
  2
_OPEN
 10
1239.721191
 20
-331.59499
 30
0.0
 41
30.0
 42
30.0
 43
30.0
  0
INSERT
  5
417D
100
AcDbEntity
  8
0
  6
BYBLOCK
 62
    41
100
AcDbBlockReference
  2
_OPEN
 10
1251.321191
 20
-331.59499
 30
0.0
 41
30.0
 42
30.0
 43
30.0
 50
180.0
  0
MTEXT
  5
417E
100
AcDbEntity
  8
0
  6
BYBLOCK
 62
    41
100
AcDbMText
 10
1327.722077
 20
-314.592038
 30
0.0
 40
30.0
 41
0.0
 71
     5
 72
     1
  1
\A1;12
  7
ED30
  0
POINT
  5
417F
100
AcDbEntity
  8
DEFPOINTS
  6
BYBLOCK
 62
     0
100
AcDbPoint
 10
1239.721191
 20
-291.000907
 30
0.0
  0
POINT
  5
4180
100
AcDbEntity
  8
DEFPOINTS
  6
BYBLOCK
 62
     0
100
AcDbPoint
 10
1251.321191
 20
-291.000907
 30
0.0
  0
POINT
  5
4181
100
AcDbEntity
  8
DEFPOINTS
  6
BYBLOCK
 62
     0
100
AcDbPoint
 10
1251.321191
 20
-331.59499
 30
0.0
  0
ENDBLK
  5
4182
100
AcDbEntity
  8
0
100
AcDbBlockEnd
  0
BLOCK
  5
416B
100
AcDbEntity
  8
0
100
AcDbBlockBegin
  2
*D6
 70
     1
 10
0.0
 20
0.0
 30
0.0
  3
*D6
  1

  0
LINE
  5
416C
100
AcDbEntity
  8
0
  6
BYBLOCK
 62
    41
100
AcDbLine
 10
1251.321191
 20
-292.000907
 30
0.0
 11
1251.321191
 21
-388.111351
 31
0.0
  0
LINE
  5
416D
100
AcDbEntity
  8
0
  6
BYBLOCK
 62
    41
100
AcDbLine
 10
1344.878441
 20
-237.000457
 30
0.0
 11
1344.878441
 21
-388.111351
 31
0.0
  0
LINE
  5
416E
100
AcDbEntity
  8
0
  6
BYBLOCK
 62
    41
100
AcDbLine
 10
1281.321191
 20
-386.861351
 30
0.0
 11
1314.878441
 21
-386.861351
 31
0.0
  0
INSERT
  5
416F
100
AcDbEntity
  8
0
  6
BYBLOCK
 62
    41
100
AcDbBlockReference
  2
_OPEN
 10
1251.321191
 20
-386.861351
 30
0.0
 41
30.0
 42
30.0
 43
30.0
 50
180.0
  0
INSERT
  5
4170
100
AcDbEntity
  8
0
  6
BYBLOCK
 62
    41
100
AcDbBlockReference
  2
_OPEN
 10
1344.878441
 20
-386.861351
 30
0.0
 41
30.0
 42
30.0
 43
30.0
  0
MTEXT
  5
4171
100
AcDbEntity
  8
0
  6
BYBLOCK
 62
    41
100
AcDbMText
 10
1298.099816
 20
-369.861351
 30
0.0
 40
30.0
 41
0.0
 71
     5
 72
     1
  1
\A1;94
  7
ED30
  0
POINT
  5
4172
100
AcDbEntity
  8
DEFPOINTS
  6
BYBLOCK
 62
     0
100
AcDbPoint
 10
1251.321191
 20
-291.000907
 30
0.0
  0
POINT
  5
4173
100
AcDbEntity
  8
DEFPOINTS
  6
BYBLOCK
 62
     0
100
AcDbPoint
 10
1344.878441
 20
-236.000457
 30
0.0
  0
POINT
  5
4174
100
AcDbEntity
  8
DEFPOINTS
  6
BYBLOCK
 62
     0
100
AcDbPoint
 10
1344.878441
 20
-386.861351
 30
0.0
  0
ENDBLK
  5
4175
100
AcDbEntity
  8
0
100
AcDbBlockEnd
  0
BLOCK
  5
4183
100
AcDbEntity
  8
0
100
AcDbBlockBegin
  2
*D7
 70
     1
 10
0.0
 20
0.0
 30
0.0
  3
*D7
  1

  0
LINE
  5
4184
100
AcDbEntity
  8
0
  6
BYBLOCK
 62
    41
100
AcDbLine
 10
1194.689883
 20
-74.519427
 30
0.0
 11
1194.689883
 21
-442.99595
 31
0.0
  0
LINE
  5
4185
100
AcDbEntity
  8
0
  6
BYBLOCK
 62
    41
100
AcDbLine
 10
1344.878441
 20
-237.000457
 30
0.0
 11
1344.878441
 21
-442.99595
 31
0.0
  0
LINE
  5
4186
100
AcDbEntity
  8
0
  6
BYBLOCK
 62
    41
100
AcDbLine
 10
1224.689883
 20
-441.74595
 30
0.0
 11
1314.878441
 21
-441.74595
 31
0.0
  0
INSERT
  5
4187
100
AcDbEntity
  8
0
  6
BYBLOCK
 62
    41
100
AcDbBlockReference
  2
_OPEN
 10
1194.689883
 20
-441.74595
 30
0.0
 41
30.0
 42
30.0
 43
30.0
 50
180.0
  0
INSERT
  5
4188
100
AcDbEntity
  8
0
  6
BYBLOCK
 62
    41
100
AcDbBlockReference
  2
_OPEN
 10
1344.878441
 20
-441.74595
 30
0.0
 41
30.0
 42
30.0
 43
30.0
  0
MTEXT
  5
4189
100
AcDbEntity
  8
0
  6
BYBLOCK
 62
    41
100
AcDbMText
 10
1269.784162
 20
-424.74595
 30
0.0
 40
30.0
 41
0.0
 71
     5
 72
     1
  1
\A1;150
  7
ED30
  0
POINT
  5
418A
100
AcDbEntity
  8
DEFPOINTS
  6
BYBLOCK
 62
     0
100
AcDbPoint
 10
1194.689883
 20
-73.519427
 30
0.0
  0
POINT
  5
418B
100
AcDbEntity
  8
DEFPOINTS
  6
BYBLOCK
 62
     0
100
AcDbPoint
 10
1344.878441
 20
-236.000457
 30
0.0
  0
POINT
  5
418C
100
AcDbEntity
  8
DEFPOINTS
  6
BYBLOCK
 62
     0
100
AcDbPoint
 10
1344.878441
 20
-441.74595
 30
0.0
  0
ENDBLK
  5
418D
100
AcDbEntity
  8
0
100
AcDbBlockEnd
  0
BLOCK
  5
433E
100
AcDbEntity
  8
0
100
AcDbBlockBegin
  2
*D8
 70
     1
 10
0.0
 20
0.0
 30
0.0
  3
*D8
  1

  0
LINE
  5
433F
100
AcDbEntity
  8
0
  6
BYBLOCK
 62
    41
100
AcDbLine
 10
1549.916587
 20
-285.762216
 30
0.0
 11
1549.916587
 21
-453.647071
 31
0.0
  0
LINE
  5
4340
100
AcDbEntity
  8
0
  6
BYBLOCK
 62
    41
100
AcDbLine
 10
2109.525796
 20
-285.762216
 30
0.0
 11
2109.525796
 21
-453.647071
 31
0.0
  0
LINE
  5
4341
100
AcDbEntity
  8
0
  6
BYBLOCK
 62
    41
100
AcDbLine
 10
1579.916587
 20
-452.397071
 30
0.0
 11
2079.525796
 21
-452.397071
 31
0.0
  0
INSERT
  5
4342
100
AcDbEntity
  8
0
  6
BYBLOCK
 62
    41
100
AcDbBlockReference
  2
_OPEN
 10
1549.916587
 20
-452.397071
 30
0.0
 41
30.0
 42
30.0
 43
30.0
 50
180.0
  0
INSERT
  5
4343
100
AcDbEntity
  8
0
  6
BYBLOCK
 62
    41
100
AcDbBlockReference
  2
_OPEN
 10
2109.525796
 20
-452.397071
 30
0.0
 41
30.0
 42
30.0
 43
30.0
  0
MTEXT
  5
4344
100
AcDbEntity
  8
0
  6
BYBLOCK
 62
    41
100
AcDbMText
 10
1832.731928
 20
-435.397071
 30
0.0
 40
30.0
 41
0.0
 71
     5
 72
     1
  1
\A1;560
  7
ED30
  0
POINT
  5
4345
100
AcDbEntity
  8
DEFPOINTS
  6
BYBLOCK
 62
     0
100
AcDbPoint
 10
1549.916587
 20
-284.762216
 30
0.0
  0
POINT
  5
4346
100
AcDbEntity
  8
DEFPOINTS
  6
BYBLOCK
 62
     0
100
AcDbPoint
 10
2109.525796
 20
-284.762216
 30
0.0
  0
POINT
  5
4347
100
AcDbEntity
  8
DEFPOINTS
  6
BYBLOCK
 62
     0
100
AcDbPoint
 10
2109.525796
 20
-452.397071
 30
0.0
  0
ENDBLK
  5
4348
100
AcDbEntity
  8
0
100
AcDbBlockEnd
  0
BLOCK
  5
4349
100
AcDbEntity
  8
0
100
AcDbBlockBegin
  2
*D9
 70
     1
 10
0.0
 20
0.0
 30
0.0
  3
*D9
  1

  0
LINE
  5
434A
100
AcDbEntity
  8
0
  6
BYBLOCK
 62
    41
100
AcDbLine
 10
1589.721249
 20
-280.000807
 30
0.0
 11
1589.721249
 21
-400.287046
 31
0.0
  0
LINE
  5
434B
100
AcDbEntity
  8
0
  6
BYBLOCK
 62
    41
100
AcDbLine
 10
2069.721092
 20
-280.000849
 30
0.0
 11
2069.721092
 21
-400.287046
 31
0.0
  0
LINE
  5
434C
100
AcDbEntity
  8
0
  6
BYBLOCK
 62
    41
100
AcDbLine
 10
1619.721249
 20
-399.037046
 30
0.0
 11
2039.721092
 21
-399.037046
 31
0.0
  0
INSERT
  5
434D
100
AcDbEntity
  8
0
  6
BYBLOCK
 62
    41
100
AcDbBlockReference
  2
_OPEN
 10
1589.721249
 20
-399.037046
 30
0.0
 41
30.0
 42
30.0
 43
30.0
 50
180.0
  0
INSERT
  5
434E
100
AcDbEntity
  8
0
  6
BYBLOCK
 62
    41
100
AcDbBlockReference
  2
_OPEN
 10
2069.721092
 20
-399.037046
 30
0.0
 41
30.0
 42
30.0
 43
30.0
  0
MTEXT
  5
434F
100
AcDbEntity
  8
0
  6
BYBLOCK
 62
    41
100
AcDbMText
 10
1826.628661
 20
-382.037046
 30
0.0
 40
30.0
 41
0.0
 71
     5
 72
     1
  1
\A1;480
  7
ED30
  0
POINT
  5
4350
100
AcDbEntity
  8
DEFPOINTS
  6
BYBLOCK
 62
     0
100
AcDbPoint
 10
1589.721249
 20
-279.000807
 30
0.0
  0
POINT
  5
4351
100
AcDbEntity
  8
DEFPOINTS
  6
BYBLOCK
 62
     0
100
AcDbPoint
 10
2069.721092
 20
-279.000849
 30
0.0
  0
POINT
  5
4352
100
AcDbEntity
  8
DEFPOINTS
  6
BYBLOCK
 62
     0
100
AcDbPoint
 10
2069.721092
 20
-399.037046
 30
0.0
  0
ENDBLK
  5
4353
100
AcDbEntity
  8
0
100
AcDbBlockEnd
  0
ENDSEC
  0
SECTION
  2
ENTITIES
  0
TEXT
  5
3152
100
AcDbEntity
  8
V0-VYPLNE
  6
CONTINUOUS
 62
    51
100
AcDbText
 10
1597.346972
 20
-806.91329
 30
0.0
 40
43.2
  1
AXIALNI VENTILATOR
  7
ED30
100
AcDbText
  0
TEXT
  5
3153
100
AcDbEntity
  8
V0-VYPLNE
  6
CONTINUOUS
 62
    51
100
AcDbText
 10
1717.555071
 20
-877.87984
 30
0.0
 40
43.2
  1
NA STENU
  7
ED30
100
AcDbText
  0
TEXT
  5
3154
100
AcDbEntity
  8
V0-VYPLNE
 62
     6
100
AcDbText
 10
1713.349829
 20
-726.754496
 30
0.0
 40
57.6
  1
HCF-450
  7
ED40
100
AcDbText
  0
LINE
  5
3F3A
100
AcDbEntity
  8
V0-OBRYS
  6
CONTINUOUS
 62
    90
 48
2.0
100
AcDbLine
 10
1344.878441
 20
-236.000457
 30
0.0
 11
1287.083015
 21
-236.000457
 31
0.0
  0
LINE
  5
3F3B
100
AcDbEntity
  8
V0-OBRYS
  6
CONTINUOUS
 62
    90
 48
2.0
100
AcDbLine
 10
1344.878441
 20
213.998643
 30
0.0
 11
1287.083015
 21
213.998643
 31
0.0
  0
ARC
  5
3F3C
100
AcDbEntity
  8
V0-OBRYS
  6
CONTINUOUS
 62
    90
 48
2.0
100
AcDbCircle
 10
1287.083015
 20
-262.575207
 30
0.0
 40
26.57475
100
AcDbArc
 50
90.0
 51
149.420799
  0
LINE
  5
3F3D
100
AcDbEntity
  8
V0-OBRYS
  6
CONTINUOUS
 62
    90
 48
2.0
100
AcDbLine
 10
1250.980991
 20
-271.433457
 30
0.0
 11
1264.204101
 21
-249.055863
 31
0.0
  0
ARC
  5
3F3F
100
AcDbEntity
  8
V0-OBRYS
  6
CONTINUOUS
 62
    90
 48
2.0
100
AcDbCircle
 10
1287.083015
 20
240.573393
 30
0.0
 40
26.57475
100
AcDbArc
 50
210.579201
 51
270.0
  0
LINE
  5
3F40
100
AcDbEntity
  8
V0-OBRYS
  6
CONTINUOUS
 62
    90
 48
2.0
100
AcDbLine
 10
1250.980991
 20
249.431643
 30
0.0
 11
1264.204101
 21
227.054049
 31
0.0
  0
DIMENSION
  5
3F41
100
AcDbEntity
  8
V0-VYPLNE
  6
CONTINUOUS
 62
    41
100
AcDbDimension
  2
*D3
 10
1421.89136
 20
-236.000457
 30
0.0
 11
1404.89136
 21
-11.000907
 31
0.0
 70
    32
  1
%%c<>
  3
ED30
100
AcDbAlignedDimension
 13
1344.878441
 23
213.998643
 33
0.0
 14
1344.878441
 24
-236.000457
 34
0.0
 50
90.0
100
AcDbRotatedDimension
  0
LINE
  5
3F42
100
AcDbEntity
  8
V0-OBRYS
  6
CONTINUOUS
 62
    90
 48
2.0
100
AcDbLine
 10
1344.878441
 20
-11.000907
 30
0.0
 11
1344.878441
 21
213.998643
 31
0.0
  0
LINE
  5
3F43
100
AcDbEntity
  8
V0-OBRYS
  6
CONTINUOUS
 62
    90
 48
2.0
100
AcDbLine
 10
1344.878441
 20
-11.000907
 30
0.0
 11
1344.878441
 21
-236.000457
 31
0.0
  0
LINE
  5
3F5C
100
AcDbEntity
  8
V0-VYPLNE
  6
DASHED
 62
    52
100
AcDbLine
 10
1263.681671
 20
-119.17372
 30
0.0
 11
1279.815098
 21
-230.621978
 31
0.0
  0
LINE
  5
3F5D
100
AcDbEntity
  8
V0-VYPLNE
  6
DASHED
 62
    52
100
AcDbLine
 10
1335.760398
 20
-119.17372
 30
0.0
 11
1319.62697
 21
-230.621978
 31
0.0
  0
LINE
  5
3F6B
100
AcDbEntity
  8
V0-VYPLNE
  6
DASHED
 62
    52
100
AcDbLine
 10
1279.815098
 20
-230.621978
 30
0.0
 11
1319.62697
 21
-230.621978
 31
0.0
  0
ELLIPSE
  5
3F6C
100
AcDbEntity
  8
V0-VYPLNE
  6
DASHED
 62
    52
100
AcDbEllipse
 10
272.99323
 20
-22.154234
 30
0.0
 11
-0.0000000000011424
 21
1174.336946726076
 31
0.0
210
0.0
220
0.0
230
-1.0
 40
0.909091
 41
1.480829966572604
 42
1.560998901912743
  0
LINE
  5
3F6D
100
AcDbEntity
  8
V0-VYPLNE
  6
DASHED
 62
    52
100
AcDbLine
 10
1263.721034
 20
-10.64894
 30
0.0
 11
1263.721034
 21
89.67106
 31
0.0
  0
LINE
  5
3F6E
100
AcDbEntity
  8
V0-VYPLNE
  6
DASHED
 62
    52
100
AcDbLine
 10
1299.721034
 20
94.700482
 30
0.0
 11
1299.721034
 21
-10.64894
 31
0.0
  0
LINE
  5
3F6F
100
AcDbEntity
  8
V0-VYPLNE
  6
DASHDOT
 62
    63
100
AcDbLine
 10
1223.917908
 20
-11.001013
 30
0.0
 11
1363.902694
 21
-11.001013
 31
0.0
  0
ELLIPSE
  5
3F70
100
AcDbEntity
  8
V0-VYPLNE
  6
DASHED
 62
    52
100
AcDbEllipse
 10
1299.721034
 20
42.414984
 30
0.0
 11
-0.0000000000005955
 21
158.4133457296311
 31
0.0
210
0.0
220
0.0
230
-1.0
 40
0.909091
 41
2.929991421004501
 42
3.394251156505874
  0
LINE
  5
3F71
100
AcDbEntity
  8
V0-VYPLNE
  6
DASHED
 62
    52
100
AcDbLine
 10
1264.356234
 20
-22.695027
 30
0.0
 11
1338.465076
 21
1.810408
 31
0.0
  0
LINE
  5
3F72
100
AcDbEntity
  8
V0-VYPLNE
  6
DASHED
 62
    52
100
AcDbLine
 10
1299.721034
 20
-115.998362
 30
0.0
 11
1299.721034
 21
-10.64894
 31
0.0
  0
LINE
  5
3F73
100
AcDbEntity
  8
V0-VYPLNE
  6
DASHED
 62
    52
100
AcDbLine
 10
1263.721034
 20
-10.64894
 30
0.0
 11
1263.721034
 21
-110.96894
 31
0.0
  0
LINE
  5
3F74
100
AcDbEntity
  8
V0-VYPLNE
  6
DASHED
 62
    52
100
AcDbLine
 10
1269.827739
 20
-112.41928
 30
0.0
 11
1263.681671
 21
-119.17372
 31
0.0
  0
ELLIPSE
  5
3F75
100
AcDbEntity
  8
V0-VYPLNE
  6
DASHED
 62
    52
100
AcDbEllipse
 10
1299.721034
 20
-11.001013
 30
0.0
 11
0.0000000000007164
 21
7.458195139447457
 31
0.0
210
0.0
220
0.0
230
-1.0
 40
0.909091
 41
0.0
 42
6.283185307179586
  0
ELLIPSE
  5
3F76
100
AcDbEntity
  8
V0-VYPLNE
  6
DASHED
 62
    52
100
AcDbEllipse
 10
272.99323
 20
0.856354
 30
0.0
 11
0.0
 21
1174.336946726076
 31
0.0
210
0.0
220
0.0
230
-1.0
 40
0.909091
 41
1.580593751677049
 42
1.660762687017188
  0
LINE
  5
3F77
100
AcDbEntity
  8
V0-VYPLNE
  6
DASHED
 62
    52
100
AcDbLine
 10
1329.614329
 20
-112.41928
 30
0.0
 11
1335.760398
 21
-119.17372
 31
0.0
  0
ELLIPSE
  5
3F78
100
AcDbEntity
  8
V0-VYPLNE
  6
DASHED
 62
    52
100
AcDbEllipse
 10
1328.287076
 20
-103.861366
 30
0.0
 11
0.0000000000004001
 21
8.799999999999997
 31
0.0
210
0.0
220
0.0
230
-1.0
 40
0.909091
 41
1.660762687017187
 42
2.929991421004503
  0
LINE
  5
3F79
100
AcDbEntity
  8
V0-VYPLNE
  6
DASHED
 62
    52
100
AcDbLine
 10
1279.815098
 20
209.324098
 30
0.0
 11
1319.62697
 21
209.324098
 31
0.0
  0
ELLIPSE
  5
3F7A
100
AcDbEntity
  8
V0-VYPLNE
  6
DASHED
 62
    52
100
AcDbEllipse
 10
1299.721034
 20
-63.712864
 30
0.0
 11
-0.0000000000005955
 21
158.4133457296311
 31
0.0
210
0.0
220
0.0
230
-1.0
 40
0.909091
 41
6.030526804263504
 42
6.494786539764878
  0
LINE
  5
3F7B
100
AcDbEntity
  8
V0-VYPLNE
  6
DASHED
 62
    52
100
AcDbLine
 10
1263.681671
 20
97.87584
 30
0.0
 11
1279.815098
 21
209.324098
 31
0.0
  0
LINE
  5
3F7C
100
AcDbEntity
  8
V0-VYPLNE
  6
DASHED
 62
    52
100
AcDbLine
 10
1269.827739
 20
91.1214
 30
0.0
 11
1263.681671
 21
97.87584
 31
0.0
  0
LINE
  5
3F7D
100
AcDbEntity
  8
V0-VYPLNE
  6
DASHED
 62
    52
100
AcDbLine
 10
1335.760398
 20
97.87584
 30
0.0
 11
1319.62697
 21
209.324098
 31
0.0
  0
LINE
  5
3F7E
100
AcDbEntity
  8
V0-VYPLNE
  6
DASHED
 62
    52
100
AcDbLine
 10
1329.614329
 20
91.1214
 30
0.0
 11
1335.760398
 21
97.87584
 31
0.0
  0
LINE
  5
3F8B
100
AcDbEntity
  8
V0-OBRYS
  6
CONTINUOUS
 62
    90
 48
2.0
100
AcDbLine
 10
1239.721191
 20
268.999093
 30
0.0
 11
1239.721191
 21
-11.000907
 31
0.0
  0
LINE
  5
3F8C
100
AcDbEntity
  8
V0-OBRYS
  6
CONTINUOUS
 62
    90
 48
2.0
100
AcDbLine
 10
1251.321191
 20
-11.000907
 30
0.0
 11
1251.321191
 21
268.999093
 31
0.0
  0
LINE
  5
3F90
100
AcDbEntity
  8
V0-OBRYS
  6
CONTINUOUS
 62
    90
 48
2.0
100
AcDbLine
 10
1251.321191
 20
-11.000907
 30
0.0
 11
1251.321191
 21
-291.000907
 31
0.0
  0
LINE
  5
3F91
100
AcDbEntity
  8
V0-OBRYS
  6
CONTINUOUS
 62
    90
 48
2.0
100
AcDbLine
 10
1239.721191
 20
-291.000907
 30
0.0
 11
1239.721191
 21
-11.000907
 31
0.0
  0
LINE
  5
3F92
100
AcDbEntity
  8
V0-OBRYS
  6
CONTINUOUS
 62
    90
 48
2.0
100
AcDbLine
 10
1222.090934
 20
-242.568871
 30
0.0
 11
1222.090934
 21
-139.25365
 31
0.0
  0
LINE
  5
3F93
100
AcDbEntity
  8
V0-OBRYS
  6
CONTINUOUS
 62
    90
 48
2.0
100
AcDbLine
 10
1224.901635
 20
-242.568871
 30
0.0
 11
1224.901635
 21
-139.25365
 31
0.0
  0
LINE
  5
3F94
100
AcDbEntity
  8
V0-OBRYS
  6
CONTINUOUS
 62
    90
 48
2.0
100
AcDbLine
 10
1251.321191
 20
-291.000907
 30
0.0
 11
1239.721191
 21
-291.000907
 31
0.0
  0
ARC
  5
3F95
100
AcDbEntity
  8
V0-OBRYS
  6
CONTINUOUS
 62
    90
 48
2.0
100
AcDbCircle
 10
1225.889788
 20
-262.068406
 30
0.0
 40
13.999557
100
AcDbArc
 50
9.512305
 51
76.109153
  0
ARC
  5
3F96
100
AcDbEntity
  8
V0-OBRYS
  6
CONTINUOUS
 62
    90
 48
2.0
100
AcDbCircle
 10
1225.874082
 20
-262.138763
 30
0.0
 40
11.267153
100
AcDbArc
 50
12.215016
 51
76.966739
  0
ARC
  5
3F97
100
AcDbEntity
  8
V0-OBRYS
  6
CONTINUOUS
 62
    90
 48
2.0
100
AcDbCircle
 10
1231.090934
 20
-242.568871
 30
0.0
 40
6.189299
100
AcDbArc
 50
180.0
 51
252.703019
  0
ARC
  5
3F98
100
AcDbEntity
  8
V0-OBRYS
  6
CONTINUOUS
 62
    90
 48
2.0
100
AcDbCircle
 10
1231.090934
 20
-242.568871
 30
0.0
 40
9.0
100
AcDbArc
 50
180.0
 51
252.703019
  0
CIRCLE
  5
3F99
100
AcDbEntity
  8
V0-OBRYS
  6
CONTINUOUS
 62
    90
 48
2.0
100
AcDbCircle
 10
1219.195912
 20
-235.42224
 30
0.0
 40
2.894689
  0
CIRCLE
  5
3F9A
100
AcDbEntity
  8
V0-OBRYS
  6
CONTINUOUS
 62
    90
 48
2.0
100
AcDbCircle
 10
1219.195912
 20
-213.82224
 30
0.0
 40
2.894689
  0
LINE
  5
3F9B
100
AcDbEntity
  8
V0-OBRYS
  6
CONTINUOUS
 62
    90
 48
2.0
100
AcDbLine
 10
1236.886152
 20
-276.546817
 30
0.0
 11
1236.886152
 21
-259.754848
 31
0.0
  0
ARC
  5
3F9C
100
AcDbEntity
  8
V0-OBRYS
  6
CONTINUOUS
 62
    90
 48
2.0
100
AcDbCircle
 10
1238.303672
 20
-276.546817
 30
0.0
 40
1.41752
100
AcDbArc
 50
180.0
 51
0.0
  0
ARC
  5
3F9D
100
AcDbEntity
  8
V0-OBRYS
  6
CONTINUOUS
 62
    90
 48
2.0
100
AcDbCircle
 10
1230.721191
 20
-120.257783
 30
0.0
 40
9.0
100
AcDbArc
 50
289.78203
 51
0.0
  0
LINE
  5
3F9E
100
AcDbEntity
  8
V0-OBRYS
  6
CONTINUOUS
 62
    90
 48
2.0
100
AcDbLine
 10
1228.044948
 20
-130.784767
 30
0.0
 11
1233.767177
 21
-128.726666
 31
0.0
  0
LINE
  5
3F9F
100
AcDbEntity
  8
V0-OBRYS
  6
CONTINUOUS
 62
    90
 48
2.0
100
AcDbLine
 10
1228.99621
 20
-133.4296
 30
0.0
 11
1234.718438
 21
-131.371498
 31
0.0
  0
ARC
  5
3FA0
100
AcDbEntity
  8
V0-OBRYS
  6
CONTINUOUS
 62
    90
 48
2.0
100
AcDbCircle
 10
1231.090934
 20
-139.25365
 30
0.0
 40
6.189299
100
AcDbArc
 50
109.78203
 51
180.0
  0
ARC
  5
3FA1
100
AcDbEntity
  8
V0-OBRYS
  6
CONTINUOUS
 62
    90
 48
2.0
100
AcDbCircle
 10
1231.090934
 20
-139.25365
 30
0.0
 40
9.0
100
AcDbArc
 50
109.78203
 51
180.0
  0
CIRCLE
  5
3FA2
100
AcDbEntity
  8
V0-OBRYS
  6
CONTINUOUS
 62
    90
 48
2.0
100
AcDbCircle
 10
1219.195912
 20
-192.22224
 30
0.0
 40
2.894689
  0
CIRCLE
  5
3FA3
100
AcDbEntity
  8
V0-OBRYS
  6
CONTINUOUS
 62
    90
 48
2.0
100
AcDbCircle
 10
1219.195912
 20
-170.62224
 30
0.0
 40
2.894689
  0
CIRCLE
  5
3FA4
100
AcDbEntity
  8
V0-OBRYS
  6
CONTINUOUS
 62
    90
 48
2.0
100
AcDbCircle
 10
1219.195912
 20
-149.02224
 30
0.0
 40
2.894689
  0
ARC
  5
3FA5
100
AcDbEntity
  8
V0-OBRYS
  6
CONTINUOUS
 62
    90
 48
2.0
100
AcDbCircle
 10
1230.721191
 20
-120.257783
 30
0.0
 40
11.810701
100
AcDbArc
 50
289.78203
 51
319.642674
  0
ARC
  5
3FA6
100
AcDbEntity
  8
V0-OBRYS
  6
CONTINUOUS
 62
    90
 48
2.0
100
AcDbCircle
 10
1231.090934
 20
117.251836
 30
0.0
 40
6.189299
100
AcDbArc
 50
180.0
 51
250.21797
  0
ARC
  5
3FA7
100
AcDbEntity
  8
V0-OBRYS
  6
CONTINUOUS
 62
    90
 48
2.0
100
AcDbCircle
 10
1231.090934
 20
117.251836
 30
0.0
 40
9.0
100
AcDbArc
 50
180.0
 51
250.21797
  0
LINE
  5
3FA8
100
AcDbEntity
  8
V0-OBRYS
  6
CONTINUOUS
 62
    90
 48
2.0
100
AcDbLine
 10
1228.99621
 20
111.427787
 30
0.0
 11
1234.718438
 21
109.369685
 31
0.0
  0
LINE
  5
3FA9
100
AcDbEntity
  8
V0-OBRYS
  6
CONTINUOUS
 62
    90
 48
2.0
100
AcDbLine
 10
1228.044948
 20
108.782954
 30
0.0
 11
1233.767177
 21
106.724852
 31
0.0
  0
ARC
  5
3FAA
100
AcDbEntity
  8
V0-OBRYS
  6
CONTINUOUS
 62
    90
 48
2.0
100
AcDbCircle
 10
1230.721191
 20
98.255969
 30
0.0
 40
11.810701
100
AcDbArc
 50
40.357326
 51
70.21797
  0
ARC
  5
3FAB
100
AcDbEntity
  8
V0-OBRYS
  6
CONTINUOUS
 62
    90
 48
2.0
100
AcDbCircle
 10
1230.721191
 20
98.255969
 30
0.0
 40
9.0
100
AcDbArc
 50
0.0
 51
70.21797
  0
CIRCLE
  5
3FAC
100
AcDbEntity
  8
V0-OBRYS
  6
CONTINUOUS
 62
    90
 48
2.0
100
AcDbCircle
 10
1219.32239
 20
191.820426
 30
0.0
 40
2.894689
  0
LINE
  5
3FAD
100
AcDbEntity
  8
V0-OBRYS
  6
CONTINUOUS
 62
    90
 48
2.0
100
AcDbLine
 10
1224.901635
 20
220.567058
 30
0.0
 11
1224.901635
 21
117.251836
 31
0.0
  0
LINE
  5
3FAE
100
AcDbEntity
  8
V0-OBRYS
  6
CONTINUOUS
 62
    90
 48
2.0
100
AcDbLine
 10
1222.090934
 20
220.567058
 30
0.0
 11
1222.090934
 21
117.251836
 31
0.0
  0
CIRCLE
  5
3FAF
100
AcDbEntity
  8
V0-OBRYS
  6
CONTINUOUS
 62
    90
 48
2.0
100
AcDbCircle
 10
1219.32239
 20
170.220426
 30
0.0
 40
2.894689
  0
CIRCLE
  5
3FB0
100
AcDbEntity
  8
V0-OBRYS
  6
CONTINUOUS
 62
    90
 48
2.0
100
AcDbCircle
 10
1219.32239
 20
127.020426
 30
0.0
 40
2.894689
  0
CIRCLE
  5
3FB1
100
AcDbEntity
  8
V0-OBRYS
  6
CONTINUOUS
 62
    90
 48
2.0
100
AcDbCircle
 10
1219.32239
 20
148.620426
 30
0.0
 40
2.894689
  0
ARC
  5
3FB2
100
AcDbEntity
  8
V0-OBRYS
  6
CONTINUOUS
 62
    90
 48
2.0
100
AcDbCircle
 10
1225.889788
 20
240.066593
 30
0.0
 40
13.999557
100
AcDbArc
 50
283.890847
 51
350.487695
  0
ARC
  5
3FB3
100
AcDbEntity
  8
V0-OBRYS
  6
CONTINUOUS
 62
    90
 48
2.0
100
AcDbCircle
 10
1225.874082
 20
240.136949
 30
0.0
 40
11.267153
100
AcDbArc
 50
283.033261
 51
347.784984
  0
ARC
  5
3FB4
100
AcDbEntity
  8
V0-OBRYS
  6
CONTINUOUS
 62
    90
 48
2.0
100
AcDbCircle
 10
1231.090934
 20
220.567058
 30
0.0
 40
6.189299
100
AcDbArc
 50
107.296981
 51
180.0
  0
CIRCLE
  5
3FB5
100
AcDbEntity
  8
V0-OBRYS
  6
CONTINUOUS
 62
    90
 48
2.0
100
AcDbCircle
 10
1219.32239
 20
213.420426
 30
0.0
 40
2.894689
  0
ARC
  5
3FB6
100
AcDbEntity
  8
V0-OBRYS
  6
CONTINUOUS
 62
    90
 48
2.0
100
AcDbCircle
 10
1231.090934
 20
220.567058
 30
0.0
 40
9.0
100
AcDbArc
 50
107.296981
 51
180.0
  0
ARC
  5
3FB7
100
AcDbEntity
  8
V0-OBRYS
  6
CONTINUOUS
 62
    90
 48
2.0
100
AcDbCircle
 10
1238.303672
 20
254.545004
 30
0.0
 40
1.41752
100
AcDbArc
 50
0.0
 51
180.0
  0
LINE
  5
3FB8
100
AcDbEntity
  8
V0-OBRYS
  6
CONTINUOUS
 62
    90
 48
2.0
100
AcDbLine
 10
1236.886152
 20
254.545004
 30
0.0
 11
1236.886152
 21
237.753034
 31
0.0
  0
LINE
  5
3FB9
100
AcDbEntity
  8
V0-OBRYS
  6
CONTINUOUS
 62
    90
 48
2.0
100
AcDbLine
 10
1251.321191
 20
268.999093
 30
0.0
 11
1239.721191
 21
268.999093
 31
0.0
  0
LINE
  5
4016
100
AcDbEntity
  8
V0-OBRYS
  6
CONTINUOUS
 62
    90
 48
2.0
100
AcDbLine
 10
1223.499806
 20
57.577264
 30
0.0
 11
1195.448036
 21
42.428131
 31
0.0
  0
LINE
  5
4017
100
AcDbEntity
  8
V0-OBRYS
  6
CONTINUOUS
 62
    90
 48
2.0
100
AcDbLine
 10
1224.257965
 20
73.483856
 30
0.0
 11
1194.689883
 21
51.517613
 31
0.0
  0
LINE
  5
4018
100
AcDbEntity
  8
V0-OBRYS
  6
CONTINUOUS
 62
    90
 48
2.0
100
AcDbLine
 10
1223.499806
 20
2.282927
 30
0.0
 11
1194.689883
 21
1.525471
 31
0.0
  0
LINE
  5
4019
100
AcDbEntity
  8
V0-OBRYS
  6
CONTINUOUS
 62
    90
 48
2.0
100
AcDbLine
 10
1223.499806
 20
20.461888
 30
0.0
 11
1194.689883
 21
17.43206
 31
0.0
  0
LINE
  5
401A
100
AcDbEntity
  8
V0-OBRYS
  6
CONTINUOUS
 62
    90
 48
2.0
100
AcDbLine
 10
1224.257965
 20
38.640846
 30
0.0
 11
1193.931724
 21
31.823736
 31
0.0
  0
LINE
  5
401B
100
AcDbEntity
  8
V0-OBRYS
  6
CONTINUOUS
 62
    90
 48
2.0
100
AcDbLine
 10
1223.499806
 20
-42.463702
 30
0.0
 11
1194.689883
 21
-39.433874
 31
0.0
  0
LINE
  5
401C
100
AcDbEntity
  8
V0-OBRYS
  6
CONTINUOUS
 62
    90
 48
2.0
100
AcDbLine
 10
1223.499806
 20
-24.284741
 30
0.0
 11
1194.689883
 21
-23.527285
 31
0.0
  0
LINE
  5
401D
100
AcDbEntity
  8
V0-OBRYS
  6
CONTINUOUS
 62
    90
 48
2.0
100
AcDbLine
 10
1224.257965
 20
-60.64266
 30
0.0
 11
1193.931724
 21
-53.82555
 31
0.0
  0
LINE
  5
401E
100
AcDbEntity
  8
V0-OBRYS
  6
CONTINUOUS
 62
    90
 48
2.0
100
AcDbLine
 10
1224.257965
 20
-95.48567
 30
0.0
 11
1194.689883
 21
-73.519427
 31
0.0
  0
LINE
  5
401F
100
AcDbEntity
  8
V0-OBRYS
  6
CONTINUOUS
 62
    90
 48
2.0
100
AcDbLine
 10
1223.499806
 20
-79.579078
 30
0.0
 11
1195.448036
 21
-64.429945
 31
0.0
  0
DIMENSION
  5
4020
100
AcDbEntity
  8
V0-VYPLNE
  6
CONTINUOUS
 62
    41
100
AcDbDimension
  2
*D4
 10
1115.194394
 20
-101.001627
 30
0.0
 11
1115.194394
 21
-11.000907
 31
0.0
 70
   160
  1
%%c<>
  3
ED30
100
AcDbAlignedDimension
 13
1224.51027
 23
78.999813
 33
0.0
 14
1224.51027
 24
-101.001627
 34
0.0
 50
90.0
100
AcDbRotatedDimension
  0
LINE
  5
4021
100
AcDbEntity
  8
V0-OBRYS
  6
CONTINUOUS
 62
    90
 48
2.0
100
AcDbLine
 10
1210.29963
 20
-101.001627
 30
0.0
 11
1239.72115
 21
-101.001627
 31
0.0
  0
LINE
  5
4022
100
AcDbEntity
  8
V0-OBRYS
  6
CONTINUOUS
 62
    90
 48
2.0
100
AcDbLine
 10
1210.29963
 20
78.999813
 30
0.0
 11
1239.72115
 21
78.999813
 31
0.0
  0
LINE
  5
4023
100
AcDbEntity
  8
V0-OBRYS
  6
CONTINUOUS
 62
    90
 48
2.0
100
AcDbLine
 10
1194.51003
 20
-11.000907
 30
0.0
 11
1194.51003
 21
-85.212027
 31
0.0
  0
ARC
  5
4024
100
AcDbEntity
  8
V0-OBRYS
  6
CONTINUOUS
 62
    90
 48
2.0
100
AcDbCircle
 10
1210.29963
 20
-85.212027
 30
0.0
 40
15.7896
100
AcDbArc
 50
180.0
 51
270.0
  0
LINE
  5
4025
100
AcDbEntity
  8
V0-OBRYS
  6
CONTINUOUS
 62
    90
 48
2.0
100
AcDbLine
 10
1194.51003
 20
-11.000907
 30
0.0
 11
1194.51003
 21
63.210213
 31
0.0
  0
ARC
  5
4026
100
AcDbEntity
  8
V0-OBRYS
  6
CONTINUOUS
 62
    90
 48
2.0
100
AcDbCircle
 10
1210.29963
 20
63.210213
 30
0.0
 40
15.7896
100
AcDbArc
 50
90.0
 51
180.0
  0
LINE
  5
4028
100
AcDbEntity
  8
V0-OBRYS
  6
CONTINUOUS
 62
    90
 48
2.0
100
AcDbLine
 10
1224.51027
 20
-11.000907
 30
0.0
 11
1224.51027
 21
-101.001627
 31
0.0
  0
LINE
  5
4029
100
AcDbEntity
  8
V0-OBRYS
  6
CONTINUOUS
 62
    90
 48
2.0
100
AcDbLine
 10
1224.257965
 20
-95.48567
 30
0.0
 11
1239.72115
 21
-95.48567
 31
0.0
  0
LINE
  5
402A
100
AcDbEntity
  8
V0-OBRYS
  6
CONTINUOUS
 62
    90
 48
2.0
100
AcDbLine
 10
1228.048742
 20
-42.463702
 30
0.0
 11
1239.72115
 21
-42.463702
 31
0.0
  0
LINE
  5
402B
100
AcDbEntity
  8
V0-OBRYS
  6
CONTINUOUS
 62
    90
 48
2.0
100
AcDbLine
 10
1224.257965
 20
-60.64266
 30
0.0
 11
1239.72115
 21
-60.64266
 31
0.0
  0
LINE
  5
402C
100
AcDbEntity
  8
V0-OBRYS
  6
CONTINUOUS
 62
    90
 48
2.0
100
AcDbLine
 10
1223.499806
 20
-79.579078
 30
0.0
 11
1239.72115
 21
-79.579078
 31
0.0
  0
LINE
  5
402D
100
AcDbEntity
  8
V0-OBRYS
  6
CONTINUOUS
 62
    90
 48
2.0
100
AcDbLine
 10
1223.499806
 20
-42.463702
 30
0.0
 11
1228.048742
 21
-42.463702
 31
0.0
  0
LINE
  5
402E
100
AcDbEntity
  8
V0-OBRYS
  6
CONTINUOUS
 62
    90
 48
2.0
100
AcDbLine
 10
1224.51027
 20
-11.000907
 30
0.0
 11
1224.51027
 21
78.999813
 31
0.0
  0
LINE
  5
402F
100
AcDbEntity
  8
V0-OBRYS
  6
CONTINUOUS
 62
    90
 48
2.0
100
AcDbLine
 10
1228.048742
 20
20.461888
 30
0.0
 11
1239.72115
 21
20.461888
 31
0.0
  0
LINE
  5
4030
100
AcDbEntity
  8
V0-OBRYS
  6
CONTINUOUS
 62
    90
 48
2.0
100
AcDbLine
 10
1223.499806
 20
-24.284741
 30
0.0
 11
1239.72115
 21
-24.284741
 31
0.0
  0
LINE
  5
4031
100
AcDbEntity
  8
V0-OBRYS
  6
CONTINUOUS
 62
    90
 48
2.0
100
AcDbLine
 10
1223.499806
 20
2.282927
 30
0.0
 11
1239.72115
 21
2.282927
 31
0.0
  0
LINE
  5
4032
100
AcDbEntity
  8
V0-OBRYS
  6
CONTINUOUS
 62
    90
 48
2.0
100
AcDbLine
 10
1224.257965
 20
38.640846
 30
0.0
 11
1239.72115
 21
38.640846
 31
0.0
  0
LINE
  5
4033
100
AcDbEntity
  8
V0-OBRYS
  6
CONTINUOUS
 62
    90
 48
2.0
100
AcDbLine
 10
1223.499806
 20
20.461888
 30
0.0
 11
1228.048742
 21
20.461888
 31
0.0
  0
LINE
  5
4034
100
AcDbEntity
  8
V0-OBRYS
  6
CONTINUOUS
 62
    90
 48
2.0
100
AcDbLine
 10
1223.499806
 20
57.577264
 30
0.0
 11
1239.72115
 21
57.577264
 31
0.0
  0
LINE
  5
4035
100
AcDbEntity
  8
V0-OBRYS
  6
CONTINUOUS
 62
    90
 48
2.0
100
AcDbLine
 10
1224.257965
 20
73.483856
 30
0.0
 11
1239.72115
 21
73.483856
 31
0.0
  0
LINE
  5
404E
100
AcDbEntity
  8
V0-VYPLNE
  6
DASHED
 62
    52
100
AcDbLine
 10
1252.733928
 20
-93.106827
 30
0.0
 11
1252.733928
 21
-11.000907
 31
0.0
  0
LINE
  5
4050
100
AcDbEntity
  8
V0-VYPLNE
  6
DASHED
 62
    52
100
AcDbLine
 10
1239.721237
 20
-95.48567
 30
0.0
 11
1252.733928
 21
-95.48567
 31
0.0
  0
LINE
  5
4051
100
AcDbEntity
  8
V0-VYPLNE
  6
DASHED
 62
    52
100
AcDbLine
 10
1239.721237
 20
-101.001627
 30
0.0
 11
1244.839128
 21
-101.001627
 31
0.0
  0
LINE
  5
4052
100
AcDbEntity
  8
V0-VYPLNE
  6
DASHED
 62
    52
100
AcDbLine
 10
1239.721237
 20
-79.579078
 30
0.0
 11
1252.733928
 21
-79.579078
 31
0.0
  0
LINE
  5
4053
100
AcDbEntity
  8
V0-VYPLNE
  6
DASHED
 62
    52
100
AcDbLine
 10
1239.721237
 20
-60.64266
 30
0.0
 11
1251.975775
 21
-60.64266
 31
0.0
  0
LINE
  5
4054
100
AcDbEntity
  8
V0-VYPLNE
  6
DASHED
 62
    52
100
AcDbLine
 10
1239.721237
 20
-42.463702
 30
0.0
 11
1252.733928
 21
-42.463702
 31
0.0
  0
ARC
  5
4055
100
AcDbEntity
  8
V0-VYPLNE
  6
DASHED
 62
    52
 48
2.0
100
AcDbCircle
 10
1244.839128
 20
-93.106827
 30
0.0
 40
7.8948
100
AcDbArc
 50
270.0
 51
0.0
  0
LINE
  5
4056
100
AcDbEntity
  8
V0-VYPLNE
  6
DASHED
 62
    52
100
AcDbLine
 10
1239.721237
 20
2.282927
 30
0.0
 11
1251.975775
 21
2.282927
 31
0.0
  0
LINE
  5
4057
100
AcDbEntity
  8
V0-VYPLNE
  6
DASHED
 62
    52
100
AcDbLine
 10
1239.721237
 20
20.461888
 30
0.0
 11
1252.733928
 21
20.461888
 31
0.0
  0
LINE
  5
4058
100
AcDbEntity
  8
V0-VYPLNE
  6
DASHED
 62
    52
100
AcDbLine
 10
1239.721237
 20
38.640846
 30
0.0
 11
1251.975775
 21
38.640846
 31
0.0
  0
LINE
  5
4059
100
AcDbEntity
  8
V0-VYPLNE
  6
DASHED
 62
    52
100
AcDbLine
 10
1239.721237
 20
57.577264
 30
0.0
 11
1252.733928
 21
57.577264
 31
0.0
  0
LINE
  5
405A
100
AcDbEntity
  8
V0-VYPLNE
  6
DASHED
 62
    52
100
AcDbLine
 10
1239.721237
 20
73.483856
 30
0.0
 11
1252.733928
 21
73.483856
 31
0.0
  0
LINE
  5
405B
100
AcDbEntity
  8
V0-VYPLNE
  6
DASHED
 62
    52
100
AcDbLine
 10
1239.721237
 20
78.999813
 30
0.0
 11
1244.839128
 21
78.999813
 31
0.0
  0
LINE
  5
405C
100
AcDbEntity
  8
V0-VYPLNE
  6
DASHED
 62
    52
100
AcDbLine
 10
1239.721237
 20
-24.284741
 30
0.0
 11
1251.975775
 21
-24.284741
 31
0.0
  0
LINE
  5
405D
100
AcDbEntity
  8
V0-VYPLNE
  6
DASHED
 62
    52
100
AcDbLine
 10
1252.733928
 20
71.105013
 30
0.0
 11
1252.733928
 21
-11.000907
 31
0.0
  0
ARC
  5
405E
100
AcDbEntity
  8
V0-VYPLNE
  6
DASHED
 62
    52
 48
2.0
100
AcDbCircle
 10
1244.839128
 20
71.105013
 30
0.0
 40
7.8948
100
AcDbArc
 50
0.0
 51
90.0
  0
DIMENSION
  5
4084
100
AcDbEntity
  8
V0-OBRYS
  6
CONTINUOUS
 62
    90
100
AcDbDimension
  2
*D5
 10
1251.321191
 20
-331.59499
 30
0.0
 11
1327.722077
 21
-314.592038
 31
0.0
 70
    32
  3
ED30
100
AcDbAlignedDimension
 13
1239.721191
 23
-291.000907
 33
0.0
 14
1251.321191
 24
-291.000907
 34
0.0
100
AcDbRotatedDimension
  0
DIMENSION
  5
409E
100
AcDbEntity
  8
V0-OBRYS
  6
CONTINUOUS
 62
    90
100
AcDbDimension
  2
*D6
 10
1344.878441
 20
-386.861351
 30
0.0
 11
1298.099816
 21
-369.861351
 31
0.0
 70
    32
  3
ED30
100
AcDbAlignedDimension
 13
1251.321191
 23
-291.000907
 33
0.0
 14
1344.878441
 24
-236.000457
 34
0.0
100
AcDbRotatedDimension
  0
DIMENSION
  5
40AB
100
AcDbEntity
  8
V0-OBRYS
  6
CONTINUOUS
 62
    90
100
AcDbDimension
  2
*D7
 10
1344.878441
 20
-441.74595
 30
0.0
 11
1269.784162
 21
-424.74595
 31
0.0
 70
    32
  3
ED30
100
AcDbAlignedDimension
 13
1194.689883
 23
-73.519427
 33
0.0
 14
1344.878441
 24
-236.000457
 34
0.0
100
AcDbRotatedDimension
  0
INSERT
  5
40EE
100
AcDbEntity
  8
V0-OBRYS
  6
CONTINUOUS
 62
    90
100
AcDbBlockReference
  2
ASVORK
 10
1194.51003
 20
-11.000907
 30
0.0
  0
DIMENSION
  5
41E1
100
AcDbEntity
  8
V0-VYPLNE
  6
CONTINUOUS
 62
    41
100
AcDbDimension
  2
*D8
 10
2109.525796
 20
-452.397071
 30
0.0
 11
1832.731928
 21
-452.397071
 31
0.0
 70
   160
  3
ED30
100
AcDbAlignedDimension
 13
1549.916587
 23
-284.762216
 33
0.0
 14
2109.525796
 24
-284.762216
 34
0.0
100
AcDbRotatedDimension
  0
DIMENSION
  5
41E2
100
AcDbEntity
  8
V0-OBRYS
  6
CONTINUOUS
 62
    90
100
AcDbDimension
  2
*D9
 10
2069.721092
 20
-399.037046
 30
0.0
 11
1826.628661
 21
-399.037046
 31
0.0
 70
   160
  3
ED30
100
AcDbAlignedDimension
 13
1589.721249
 23
-279.000807
 33
0.0
 14
2069.721092
 24
-279.000849
 34
0.0
100
AcDbRotatedDimension
  0
LINE
  5
41E4
100
AcDbEntity
  8
V0-OBRYS
  6
CONTINUOUS
100
AcDbLine
 10
2109.525796
 20
251.029298
 30
0.0
 11
2109.525796
 21
-273.031112
 31
0.0
  0
LINE
  5
41E5
100
AcDbEntity
  8
V0-OBRYS
  6
CONTINUOUS
100
AcDbLine
 10
1549.916587
 20
-273.031112
 30
0.0
 11
1549.916587
 21
251.029298
 31
0.0
  0
LINE
  5
41E6
100
AcDbEntity
  8
V0-OBRYS
  6
CONTINUOUS
100
AcDbLine
 10
2091.751396
 20
-290.805512
 30
0.0
 11
1567.690987
 21
-290.805512
 31
0.0
  0
ARC
  5
41E7
100
AcDbEntity
  8
V0-OBRYS
  6
CONTINUOUS
100
AcDbCircle
 10
1567.690987
 20
-273.031112
 30
0.0
 40
17.7744
100
AcDbArc
 50
180.0
 51
270.0
  0
LINE
  5
41E8
100
AcDbEntity
  8
V0-VYPLNE
  6
DASHDOT
 62
    63
100
AcDbLine
 10
1589.721249
 20
-279.000807
 30
0.0
 11
1589.721249
 21
-190.074608
 31
0.0
  0
CIRCLE
  5
41E9
100
AcDbEntity
  8
V0-OBRYS
  6
CONTINUOUS
 62
    90
100
AcDbCircle
 10
1589.721249
 20
-251.000807
 30
0.0
 40
7.0
  0
LINE
  5
41EA
100
AcDbEntity
  8
V0-VYPLNE
  6
DASHDOT
 62
    63
100
AcDbLine
 10
1561.721249
 20
-251.000807
 30
0.0
 11
1621.22968
 21
-251.000807
 31
0.0
  0
LINE
  5
41EB
100
AcDbEntity
  8
V0-VYPLNE
  6
DASHDOT
 62
    63
100
AcDbLine
 10
2069.721092
 20
-279.000849
 30
0.0
 11
2069.721092
 21
-189.492418
 31
0.0
  0
LINE
  5
41EC
100
AcDbEntity
  8
V0-VYPLNE
  6
DASHDOT
 62
    63
100
AcDbLine
 10
2097.721092
 20
-251.000849
 30
0.0
 11
2038.794893
 21
-251.000849
 31
0.0
  0
CIRCLE
  5
41ED
100
AcDbEntity
  8
V0-OBRYS
  6
CONTINUOUS
 62
    90
100
AcDbCircle
 10
2069.721092
 20
-251.000849
 30
0.0
 40
7.0
  0
ARC
  5
41EE
100
AcDbEntity
  8
V0-OBRYS
  6
CONTINUOUS
100
AcDbCircle
 10
2091.751396
 20
-273.031112
 30
0.0
 40
17.7744
100
AcDbArc
 50
270.0
 51
0.0
  0
TEXT
  5
41EF
100
AcDbEntity
  8
V0-VYPLNE
 62
     6
100
AcDbText
 10
1714.148077
 20
293.188673
 30
0.0
 40
42.0
  1
HCF- 450
  7
ED30
100
AcDbText
  0
LINE
  5
41F0
100
AcDbEntity
  8
V0-OBRYS
  6
CONTINUOUS
100
AcDbLine
 10
1567.690987
 20
268.803698
 30
0.0
 11
2091.751396
 21
268.803698
 31
0.0
  0
LINE
  5
41F1
100
AcDbEntity
  8
V0-VYPLNE
  6
DASHDOT
 62
    63
100
AcDbLine
 10
1561.721291
 20
228.999036
 30
0.0
 11
1620.64749
 21
228.999036
 31
0.0
  0
CIRCLE
  5
41F2
100
AcDbEntity
  8
V0-OBRYS
  6
CONTINUOUS
 62
    90
100
AcDbCircle
 10
1589.721291
 20
228.999036
 30
0.0
 40
7.0
  0
LINE
  5
41F3
100
AcDbEntity
  8
V0-VYPLNE
  6
DASHDOT
 62
    63
100
AcDbLine
 10
1589.721291
 20
256.999036
 30
0.0
 11
1589.721291
 21
197.490604
 31
0.0
  0
ARC
  5
41F4
100
AcDbEntity
  8
V0-OBRYS
  6
CONTINUOUS
100
AcDbCircle
 10
1567.690987
 20
251.029298
 30
0.0
 40
17.7744
100
AcDbArc
 50
90.0
 51
180.0
  0
LINE
  5
41F5
100
AcDbEntity
  8
V0-VYPLNE
  6
DASHDOT
 62
    63
100
AcDbLine
 10
2097.721134
 20
228.998993
 30
0.0
 11
2038.212703
 21
228.998993
 31
0.0
  0
LINE
  5
41F6
100
AcDbEntity
  8
V0-VYPLNE
  6
DASHDOT
 62
    63
100
AcDbLine
 10
2069.721134
 20
256.998993
 30
0.0
 11
2069.721134
 21
198.072794
 31
0.0
  0
CIRCLE
  5
41F7
100
AcDbEntity
  8
V0-OBRYS
  6
CONTINUOUS
 62
    90
100
AcDbCircle
 10
2069.721134
 20
228.998993
 30
0.0
 40
7.0
  0
ARC
  5
41F8
100
AcDbEntity
  8
V0-OBRYS
  6
CONTINUOUS
100
AcDbCircle
 10
2091.751396
 20
251.029298
 30
0.0
 40
17.7744
100
AcDbArc
 50
0.0
 51
90.0
  0
CIRCLE
  5
424A
100
AcDbEntity
  8
V0-OBRYS
  6
CONTINUOUS
 62
    90
100
AcDbCircle
 10
1829.721191
 20
-11.000907
 30
0.0
 40
216.638347
  0
CIRCLE
  5
424B
100
AcDbEntity
  8
V0-OBRYS
  6
CONTINUOUS
 62
    90
100
AcDbCircle
 10
1829.721191
 20
-11.000907
 30
0.0
 40
246.235039
  0
LINE
  5
424C
100
AcDbEntity
  8
V0-OBRYS
  6
CONTINUOUS
 62
    90
100
AcDbLine
 10
1723.050914
 20
-19.113273
 30
0.0
 11
1764.259162
 21
-15.97935
 31
0.0
  0
LINE
  5
424D
100
AcDbEntity
  8
V0-OBRYS
  6
CONTINUOUS
 62
    90
100
AcDbLine
 10
1723.050914
 20
-2.888541
 30
0.0
 11
1764.259162
 21
-6.022463
 31
0.0
  0
LINE
  5
424E
100
AcDbEntity
  8
V0-OBRYS
  6
CONTINUOUS
 62
    90
100
AcDbLine
 10
1765.910529
 20
4.434814
 30
0.0
 11
1725.016593
 21
14.327007
 31
0.0
  0
LINE
  5
424F
100
AcDbEntity
  8
V0-OBRYS
  6
CONTINUOUS
 62
    90
100
AcDbLine
 10
1730.422203
 20
29.575066
 30
0.0
 11
1768.948115
 21
13.832445
 31
0.0
  0
LINE
  5
4250
100
AcDbEntity
  8
V0-OBRYS
  6
CONTINUOUS
 62
    90
100
AcDbLine
 10
1757.404391
 20
32.22105
 30
0.0
 11
1736.319235
 21
44.823125
 31
0.0
  0
LINE
  5
4252
100
AcDbEntity
  8
V0-OBRYS
  6
CONTINUOUS
 62
    90
100
AcDbLine
 10
1746.312512
 20
-94.44497
 30
0.0
 11
1755.604041
 21
-71.550622
 31
0.0
  0
LINE
  5
4253
100
AcDbEntity
  8
V0-OBRYS
  6
CONTINUOUS
 62
    90
100
AcDbLine
 10
1757.404391
 20
-54.222864
 30
0.0
 11
1736.319235
 21
-66.824939
 31
0.0
  0
LINE
  5
4254
100
AcDbEntity
  8
V0-OBRYS
  6
CONTINUOUS
 62
    90
100
AcDbLine
 10
1730.422203
 20
-51.57688
 30
0.0
 11
1768.948115
 21
-35.834258
 31
0.0
  0
LINE
  5
4255
100
AcDbEntity
  8
V0-OBRYS
  6
CONTINUOUS
 62
    90
100
AcDbLine
 10
1765.910529
 20
-26.436628
 30
0.0
 11
1725.016593
 21
-36.328821
 31
0.0
  0
ARC
  5
4256
100
AcDbEntity
  8
V0-OBRYS
  6
CONTINUOUS
 62
    90
100
AcDbCircle
 10
1829.721191
 20
-11.000907
 30
0.0
 40
84.619675
100
AcDbArc
 50
148.716649
 51
211.283351
  0
ARC
  5
4257
100
AcDbEntity
  8
V0-OBRYS
  6
CONTINUOUS
 62
    90
100
AcDbCircle
 10
1829.721191
 20
-11.000907
 30
0.0
 40
225.0
100
AcDbArc
 50
236.13779
 51
252.433638
  0
LINE
  5
4258
100
AcDbEntity
  8
VO-OBRYS
  6
CONTINUOUS
100
AcDbLine
 10
1771.606517
 20
-41.541811
 30
0.0
 11
1629.062816
 21
-184.085512
 31
0.0
  0
LINE
  5
4259
100
AcDbEntity
  8
VO-OBRYS
  6
CONTINUOUS
100
AcDbLine
 10
1799.180288
 20
-69.115581
 30
0.0
 11
1656.636586
 21
-211.659283
 31
0.0
  0
LINE
  5
425A
100
AcDbEntity
  8
VO-OBRYS
  6
CONTINUOUS
100
AcDbLine
 10
1773.024057
 20
-44.099202
 30
0.0
 11
1631.050281
 21
-186.072978
 31
0.0
  0
LINE
  5
425B
100
AcDbEntity
  8
VO-OBRYS
  6
CONTINUOUS
100
AcDbLine
 10
1796.622896
 20
-67.698041
 30
0.0
 11
1654.64912
 21
-209.671817
 31
0.0
  0
LINE
  5
425C
100
AcDbEntity
  8
VO-OBRYS
  6
CONTINUOUS
100
AcDbLine
 10
1771.606517
 20
19.539997
 30
0.0
 11
1629.062816
 21
162.083698
 31
0.0
  0
LINE
  5
425D
100
AcDbEntity
  8
VO-OBRYS
  6
CONTINUOUS
100
AcDbLine
 10
1799.180288
 20
47.113767
 30
0.0
 11
1656.636586
 21
189.657469
 31
0.0
  0
LINE
  5
425E
100
AcDbEntity
  8
VO-OBRYS
  6
CONTINUOUS
100
AcDbLine
 10
1773.024057
 20
22.097388
 30
0.0
 11
1631.050281
 21
164.071164
 31
0.0
  0
LINE
  5
425F
100
AcDbEntity
  8
VO-OBRYS
  6
CONTINUOUS
100
AcDbLine
 10
1796.622896
 20
45.696227
 30
0.0
 11
1654.64912
 21
187.670003
 31
0.0
  0
LINE
  5
4260
100
AcDbEntity
  8
V0-OBRYS
  6
CONTINUOUS
 62
    90
100
AcDbLine
 10
1739.160497
 20
108.290066
 30
0.0
 11
1764.433613
 21
90.628714
 31
0.0
  0
CIRCLE
  5
4261
100
AcDbEntity
  8
V0-OBRYS
  6
CONTINUOUS
 62
    90
100
AcDbCircle
 10
1829.721191
 20
-11.000907
 30
0.0
 40
120.793409
  0
CIRCLE
  5
4262
100
AcDbEntity
  8
V0-OBRYS
  6
CONTINUOUS
 62
    90
100
AcDbCircle
 10
1829.721191
 20
-11.000907
 30
0.0
 40
152.582446
  0
CIRCLE
  5
4263
100
AcDbEntity
  8
V0-OBRYS
  6
CONTINUOUS
 62
    90
100
AcDbCircle
 10
1829.721191
 20
-11.000907
 30
0.0
 40
185.467659
  0
CIRCLE
  5
4264
100
AcDbEntity
  8
V0-OBRYS
  6
CONTINUOUS
 62
    90
100
AcDbCircle
 10
1829.721191
 20
-11.000907
 30
0.0
 40
182.656958
  0
CIRCLE
  5
4265
100
AcDbEntity
  8
V0-OBRYS
  6
CONTINUOUS
 62
    90
100
AcDbCircle
 10
1829.721191
 20
-11.000907
 30
0.0
 40
149.771745
  0
CIRCLE
  5
4266
100
AcDbEntity
  8
V0-OBRYS
  6
CONTINUOUS
 62
    90
100
AcDbCircle
 10
1829.721191
 20
-11.000907
 30
0.0
 40
117.982708
  0
LINE
  5
4267
100
AcDbEntity
  8
V0-OBRYS
  6
CONTINUOUS
 62
    90
100
AcDbLine
 10
1635.702341
 20
102.936293
 30
0.0
 11
1639.905431
 21
99.125665
 31
0.0
  0
LINE
  5
4268
100
AcDbEntity
  8
V0-OBRYS
  6
CONTINUOUS
 62
    90
100
AcDbLine
 10
1720.699938
 20
-157.554415
 30
0.0
 11
1732.463377
 21
-128.569272
 31
0.0
  0
ARC
  5
4269
100
AcDbEntity
  8
VO-OBRYS
  6
CONTINUOUS
100
AcDbCircle
 10
1642.849701
 20
-197.872397
 30
0.0
 40
19.4976
100
AcDbArc
 50
135.0
 51
315.0
  0
ARC
  5
426A
100
AcDbEntity
  8
VO-OBRYS
  6
CONTINUOUS
100
AcDbCircle
 10
1642.849701
 20
-197.872397
 30
0.0
 40
16.686899
100
AcDbArc
 50
135.0
 51
315.0
  0
LINE
  5
426B
100
AcDbEntity
  8
V0-OBRYS
  6
CONTINUOUS
 62
    90
100
AcDbLine
 10
1707.566441
 20
-189.915384
 30
0.0
 11
1719.608468
 21
-160.243799
 31
0.0
  0
LINE
  5
426C
100
AcDbEntity
  8
V0-OBRYS
  6
CONTINUOUS
 62
    90
100
AcDbLine
 10
1704.351745
 20
-197.836401
 30
0.0
 11
1706.485229
 21
-192.579491
 31
0.0
  0
LINE
  5
426D
100
AcDbEntity
  8
V0-OBRYS
  6
CONTINUOUS
 62
    90
100
AcDbLine
 10
1613.677979
 20
-27.047829
 30
0.0
 11
1644.38424
 21
-17.962734
 31
0.0
  0
ARC
  5
426E
100
AcDbEntity
  8
V0-OBRYS
  6
CONTINUOUS
 62
    90
100
AcDbCircle
 10
1829.721191
 20
-11.000907
 30
0.0
 40
225.0
100
AcDbArc
 50
184.709219
 51
201.005067
  0
LINE
  5
426F
100
AcDbEntity
  8
V0-OBRYS
  6
CONTINUOUS
 62
    90
100
AcDbLine
 10
1619.672727
 20
-91.652271
 30
0.0
 11
1625.27258
 21
-90.74205
 31
0.0
  0
LINE
  5
4270
100
AcDbEntity
  8
V0-OBRYS
  6
CONTINUOUS
 62
    90
100
AcDbLine
 10
1605.480749
 20
-29.473152
 30
0.0
 11
1610.920972
 21
-27.863548
 31
0.0
  0
LINE
  5
4271
100
AcDbEntity
  8
V0-OBRYS
  6
CONTINUOUS
 62
    90
100
AcDbLine
 10
1662.582575
 20
-84.677546
 30
0.0
 11
1693.458611
 21
-79.658842
 31
0.0
  0
LINE
  5
4272
100
AcDbEntity
  8
V0-OBRYS
  6
CONTINUOUS
 62
    90
100
AcDbLine
 10
1628.110484
 20
-90.280766
 30
0.0
 11
1659.717745
 21
-85.143206
 31
0.0
  0
LINE
  5
4273
100
AcDbEntity
  8
V0-OBRYS
  6
CONTINUOUS
 62
    90
100
AcDbLine
 10
1733.572742
 20
-125.835794
 30
0.0
 11
1745.16749
 21
-97.266308
 31
0.0
  0
LINE
  5
4274
100
AcDbEntity
  8
V0-OBRYS
  6
CONTINUOUS
 62
    90
100
AcDbLine
 10
1696.370412
 20
-79.185547
 30
0.0
 11
1726.803676
 21
-74.238813
 31
0.0
  0
LINE
  5
4275
100
AcDbEntity
  8
V0-OBRYS
  6
CONTINUOUS
 62
    90
100
AcDbLine
 10
1729.809068
 20
-73.750305
 30
0.0
 11
1754.196967
 21
-69.786207
 31
0.0
  0
LINE
  5
4276
100
AcDbEntity
  8
V0-OBRYS
  6
CONTINUOUS
 62
    90
100
AcDbLine
 10
1679.992084
 20
-7.427404
 30
0.0
 11
1709.557815
 21
1.320241
 31
0.0
  0
LINE
  5
4277
100
AcDbEntity
  8
V0-OBRYS
  6
CONTINUOUS
 62
    90
100
AcDbLine
 10
1667.909252
 20
73.736692
 30
0.0
 11
1691.083927
 21
52.725946
 31
0.0
  0
LINE
  5
4278
100
AcDbEntity
  8
V0-OBRYS
  6
CONTINUOUS
 62
    90
100
AcDbLine
 10
1647.167406
 20
-17.139276
 30
0.0
 11
1677.163287
 21
-8.264363
 31
0.0
  0
LINE
  5
4279
100
AcDbEntity
  8
V0-OBRYS
  6
CONTINUOUS
 62
    90
100
AcDbLine
 10
1642.035481
 20
97.194507
 30
0.0
 11
1665.758992
 21
75.686172
 31
0.0
  0
LINE
  5
427A
100
AcDbEntity
  8
V0-OBRYS
  6
CONTINUOUS
 62
    90
100
AcDbLine
 10
1693.269442
 20
50.744503
 30
0.0
 11
1716.111784
 21
30.035057
 31
0.0
  0
LINE
  5
427B
100
AcDbEntity
  8
V0-OBRYS
  6
CONTINUOUS
 62
    90
100
AcDbLine
 10
1718.367546
 20
27.989927
 30
0.0
 11
1736.67241
 21
11.394275
 31
0.0
  0
LINE
  5
427C
100
AcDbEntity
  8
V0-OBRYS
  6
CONTINUOUS
 62
    90
100
AcDbLine
 10
1712.477535
 20
2.184102
 30
0.0
 11
1736.170231
 21
9.194085
 31
0.0
  0
LINE
  5
427D
100
AcDbEntity
  8
V0-OBRYS
  6
CONTINUOUS
 62
    90
100
AcDbLine
 10
1736.170231
 20
9.194085
 30
0.0
 11
1744.624719
 21
1.177471
 31
0.0
  0
LINE
  5
427E
100
AcDbEntity
  8
V0-OBRYS
  6
CONTINUOUS
 62
    90
100
AcDbLine
 10
1736.67241
 20
11.394275
 30
0.0
 11
1747.767919
 21
14.948729
 31
0.0
  0
ARC
  5
427F
100
AcDbEntity
  8
VO-OBRYS
  6
CONTINUOUS
100
AcDbCircle
 10
1642.849701
 20
175.870584
 30
0.0
 40
19.4976
100
AcDbArc
 50
45.0
 51
225.0
  0
ARC
  5
4280
100
AcDbEntity
  8
VO-OBRYS
  6
CONTINUOUS
100
AcDbCircle
 10
1642.849701
 20
175.870584
 30
0.0
 40
16.686899
100
AcDbArc
 50
45.0
 51
225.0
  0
LINE
  5
4281
100
AcDbEntity
  8
V0-OBRYS
  6
CONTINUOUS
 62
    90
100
AcDbLine
 10
1682.474463
 20
147.903386
 30
0.0
 11
1708.722516
 21
129.560728
 31
0.0
  0
ARC
  5
4282
100
AcDbEntity
  8
V0-OBRYS
  6
CONTINUOUS
 62
    90
100
AcDbCircle
 10
1829.721191
 20
-11.000907
 30
0.0
 40
225.0
100
AcDbArc
 50
133.280648
 51
149.576495
  0
LINE
  5
4283
100
AcDbEntity
  8
V0-OBRYS
  6
CONTINUOUS
 62
    90
100
AcDbLine
 10
1675.467379
 20
152.800074
 30
0.0
 11
1680.117743
 21
149.550308
 31
0.0
  0
LINE
  5
4284
100
AcDbEntity
  8
V0-OBRYS
  6
CONTINUOUS
 62
    90
100
AcDbLine
 10
1711.101597
 20
127.898179
 30
0.0
 11
1736.74241
 21
109.979873
 31
0.0
  0
LINE
  5
4285
100
AcDbEntity
  8
V0-OBRYS
  6
CONTINUOUS
 62
    90
100
AcDbLine
 10
2023.740042
 20
102.936293
 30
0.0
 11
2019.536952
 21
99.125665
 31
0.0
  0
LINE
  5
4286
100
AcDbEntity
  8
V0-OBRYS
  6
CONTINUOUS
 62
    90
100
AcDbLine
 10
1920.281886
 20
108.290066
 30
0.0
 11
1895.00877
 21
90.628714
 31
0.0
  0
LINE
  5
4287
100
AcDbEntity
  8
VO-OBRYS
  6
CONTINUOUS
100
AcDbLine
 10
1887.835865
 20
19.539997
 30
0.0
 11
2030.379567
 21
162.083698
 31
0.0
  0
LINE
  5
4288
100
AcDbEntity
  8
VO-OBRYS
  6
CONTINUOUS
100
AcDbLine
 10
1860.262095
 20
47.113767
 30
0.0
 11
2002.805797
 21
189.657469
 31
0.0
  0
LINE
  5
4289
100
AcDbEntity
  8
VO-OBRYS
  6
CONTINUOUS
100
AcDbLine
 10
1862.819486
 20
45.696227
 30
0.0
 11
2004.793262
 21
187.670003
 31
0.0
  0
LINE
  5
428A
100
AcDbEntity
  8
VO-OBRYS
  6
CONTINUOUS
100
AcDbLine
 10
1886.418325
 20
22.097388
 30
0.0
 11
2028.392101
 21
164.071164
 31
0.0
  0
LINE
  5
428B
100
AcDbEntity
  8
V0-OBRYS
  6
CONTINUOUS
 62
    90
100
AcDbLine
 10
2017.406901
 20
97.194507
 30
0.0
 11
1993.683391
 21
75.686172
 31
0.0
  0
LINE
  5
428C
100
AcDbEntity
  8
V0-OBRYS
  6
CONTINUOUS
 62
    90
100
AcDbLine
 10
2031.331899
 20
-90.280766
 30
0.0
 11
1999.724638
 21
-85.143206
 31
0.0
  0
ARC
  5
428D
100
AcDbEntity
  8
VO-OBRYS
  6
CONTINUOUS
100
AcDbCircle
 10
2016.592682
 20
-197.872397
 30
0.0
 40
16.686899
100
AcDbArc
 50
225.0
 51
45.0
  0
ARC
  5
428E
100
AcDbEntity
  8
VO-OBRYS
  6
CONTINUOUS
100
AcDbCircle
 10
2016.592682
 20
-197.872397
 30
0.0
 40
19.4976
100
AcDbArc
 50
225.0
 51
45.0
  0
LINE
  5
428F
100
AcDbEntity
  8
VO-OBRYS
  6
CONTINUOUS
100
AcDbLine
 10
1887.835865
 20
-41.541811
 30
0.0
 11
2030.379567
 21
-184.085512
 31
0.0
  0
LINE
  5
4290
100
AcDbEntity
  8
VO-OBRYS
  6
CONTINUOUS
100
AcDbLine
 10
1886.418325
 20
-44.099202
 30
0.0
 11
2028.392101
 21
-186.072978
 31
0.0
  0
LINE
  5
4291
100
AcDbEntity
  8
V0-OBRYS
  6
CONTINUOUS
 62
    90
100
AcDbLine
 10
1799.887239
 20
-157.771173
 30
0.0
 11
1814.994556
 21
-130.89325
 31
0.0
  0
LINE
  5
4292
100
AcDbEntity
  8
V0-OBRYS
  6
CONTINUOUS
 62
    90
100
AcDbLine
 10
1859.555144
 20
-157.771173
 30
0.0
 11
1844.447827
 21
-130.89325
 31
0.0
  0
LINE
  5
4293
100
AcDbEntity
  8
VO-OBRYS
  6
CONTINUOUS
100
AcDbLine
 10
1860.262095
 20
-69.115581
 30
0.0
 11
2002.805797
 21
-211.659283
 31
0.0
  0
LINE
  5
4294
100
AcDbEntity
  8
VO-OBRYS
  6
CONTINUOUS
100
AcDbLine
 10
1862.819486
 20
-67.698041
 30
0.0
 11
2004.793262
 21
-209.671817
 31
0.0
  0
LINE
  5
4295
100
AcDbEntity
  8
V0-OBRYS
  6
CONTINUOUS
 62
    90
100
AcDbLine
 10
1938.742445
 20
-157.554415
 30
0.0
 11
1926.979005
 21
-128.569272
 31
0.0
  0
LINE
  5
4296
100
AcDbEntity
  8
V0-OBRYS
  6
CONTINUOUS
 62
    90
100
AcDbLine
 10
1893.439921
 20
-218.056689
 30
0.0
 11
1877.749823
 21
-190.141921
 31
0.0
  0
LINE
  5
4297
100
AcDbEntity
  8
V0-OBRYS
  6
CONTINUOUS
 62
    90
100
AcDbLine
 10
1766.002462
 20
-218.056689
 30
0.0
 11
1781.69256
 21
-190.141921
 31
0.0
  0
LINE
  5
4298
100
AcDbEntity
  8
V0-OBRYS
  6
CONTINUOUS
 62
    90
100
AcDbLine
 10
1761.813891
 20
-225.508712
 30
0.0
 11
1764.593703
 21
-220.563057
 31
0.0
  0
LINE
  5
4299
100
AcDbEntity
  8
V0-OBRYS
  6
CONTINUOUS
 62
    90
100
AcDbLine
 10
1783.114685
 20
-187.611772
 30
0.0
 11
1798.441797
 21
-160.342804
 31
0.0
  0
LINE
  5
429A
100
AcDbEntity
  8
V0-OBRYS
  6
CONTINUOUS
 62
    90
100
AcDbLine
 10
1876.327698
 20
-187.611772
 30
0.0
 11
1861.000585
 21
-160.342804
 31
0.0
  0
LINE
  5
429B
100
AcDbEntity
  8
V0-OBRYS
  6
CONTINUOUS
 62
    90
100
AcDbLine
 10
1951.875942
 20
-189.915384
 30
0.0
 11
1939.833914
 21
-160.243799
 31
0.0
  0
ARC
  5
429C
100
AcDbEntity
  8
V0-OBRYS
  6
CONTINUOUS
 62
    90
100
AcDbCircle
 10
1829.721191
 20
-11.000907
 30
0.0
 40
225.0
100
AcDbArc
 50
287.566362
 51
303.86221
  0
LINE
  5
429D
100
AcDbEntity
  8
V0-OBRYS
  6
CONTINUOUS
 62
    90
100
AcDbLine
 10
1897.628492
 20
-225.508712
 30
0.0
 11
1894.84868
 21
-220.563057
 31
0.0
  0
LINE
  5
429E
100
AcDbEntity
  8
V0-OBRYS
  6
CONTINUOUS
 62
    90
100
AcDbLine
 10
1955.090638
 20
-197.836401
 30
0.0
 11
1952.957153
 21
-192.579491
 31
0.0
  0
LINE
  5
429F
100
AcDbEntity
  8
V0-OBRYS
  6
CONTINUOUS
 62
    90
100
AcDbLine
 10
1892.512961
 20
88.884593
 30
0.0
 11
1872.260181
 21
74.731551
 31
0.0
  0
LINE
  5
42A0
100
AcDbEntity
  8
V0-OBRYS
  6
CONTINUOUS
 62
    90
100
AcDbLine
 10
1872.943148
 20
61.315893
 30
0.0
 11
1885.545223
 21
82.401049
 31
0.0
  0
LINE
  5
42A3
100
AcDbEntity
  8
V0-OBRYS
  6
CONTINUOUS
 62
    90
100
AcDbLine
 10
1872.943148
 20
-83.317707
 30
0.0
 11
1885.545223
 21
-104.402863
 31
0.0
  0
LINE
  5
42A8
100
AcDbEntity
  8
V0-OBRYS
  6
CONTINUOUS
 62
    90
100
AcDbLine
 10
1816.486456
 20
-128.238961
 30
0.0
 11
1828.592806
 21
-106.700158
 31
0.0
  0
ARC
  5
42A9
100
AcDbEntity
  8
V0-OBRYS
  6
CONTINUOUS
 62
    90
100
AcDbCircle
 10
1829.721191
 20
-11.000907
 30
0.0
 40
84.619675
100
AcDbArc
 50
238.716649
 51
301.283351
  0
LINE
  5
42AA
100
AcDbEntity
  8
V0-OBRYS
  6
CONTINUOUS
 62
    90
100
AcDbLine
 10
1814.285471
 20
-74.811569
 30
0.0
 11
1804.393278
 21
-115.705505
 31
0.0
  0
LINE
  5
42AB
100
AcDbEntity
  8
V0-OBRYS
  6
CONTINUOUS
 62
    90
100
AcDbLine
 10
1789.145219
 20
-110.299895
 30
0.0
 11
1804.88784
 21
-71.773983
 31
0.0
  0
LINE
  5
42AC
100
AcDbEntity
  8
V0-OBRYS
  6
CONTINUOUS
 62
    90
100
AcDbLine
 10
1786.499234
 20
-83.317707
 30
0.0
 11
1773.89716
 21
-104.402863
 31
0.0
  0
LINE
  5
42B0
100
AcDbEntity
  8
V0-OBRYS
  6
CONTINUOUS
 62
    90
100
AcDbLine
 10
1845.156912
 20
-74.811569
 30
0.0
 11
1855.049105
 21
-115.705505
 31
0.0
  0
LINE
  5
42B1
100
AcDbEntity
  8
V0-OBRYS
  6
CONTINUOUS
 62
    90
100
AcDbLine
 10
1837.833557
 20
-117.671184
 30
0.0
 11
1834.699635
 21
-76.462936
 31
0.0
  0
LINE
  5
42B2
100
AcDbEntity
  8
V0-OBRYS
  6
CONTINUOUS
 62
    90
100
AcDbLine
 10
1821.608825
 20
-117.671184
 30
0.0
 11
1824.742748
 21
-76.462936
 31
0.0
  0
LINE
  5
42B3
100
AcDbEntity
  8
V0-OBRYS
  6
CONTINUOUS
 62
    90
100
AcDbLine
 10
1870.297164
 20
-110.299895
 30
0.0
 11
1854.554543
 21
-71.773983
 31
0.0
  0
LINE
  5
42B4
100
AcDbEntity
  8
V0-OBRYS
  6
CONTINUOUS
 62
    90
100
AcDbLine
 10
1842.955926
 20
-128.238961
 30
0.0
 11
1830.849577
 21
-106.700158
 31
0.0
  0
LINE
  5
42B5
100
AcDbEntity
  8
V0-OBRYS
  6
CONTINUOUS
 62
    90
100
AcDbLine
 10
1830.849577
 20
-106.700158
 30
0.0
 11
1836.783897
 21
-96.673777
 31
0.0
  0
LINE
  5
42B6
100
AcDbEntity
  8
V0-OBRYS
  6
CONTINUOUS
 62
    90
100
AcDbLine
 10
1828.592806
 20
-106.700158
 30
0.0
 11
1822.658486
 21
-96.673777
 31
0.0
  0
ARC
  5
42B7
100
AcDbEntity
  8
V0-OBRYS
  6
CONTINUOUS
 62
    90
100
AcDbCircle
 10
1829.721191
 20
-11.000907
 30
0.0
 40
84.619675
100
AcDbArc
 50
58.716649
 51
121.283351
  0
LINE
  5
42B9
100
AcDbEntity
  8
V0-OBRYS
  6
CONTINUOUS
 62
    90
100
AcDbLine
 10
1786.499234
 20
61.315893
 30
0.0
 11
1773.89716
 21
82.401049
 31
0.0
  0
LINE
  5
42BA
100
AcDbEntity
  8
V0-OBRYS
  6
CONTINUOUS
 62
    90
100
AcDbLine
 10
1786.499234
 20
61.315893
 30
0.0
 11
1773.89716
 21
82.401049
 31
0.0
  0
LINE
  5
42BB
100
AcDbEntity
  8
V0-OBRYS
  6
CONTINUOUS
 62
    90
100
AcDbLine
 10
1787.182202
 20
74.731551
 30
0.0
 11
1786.185848
 21
63.123289
 31
0.0
  0
LINE
  5
42BD
100
AcDbEntity
  8
V0-OBRYS
  6
CONTINUOUS
 62
    90
100
AcDbLine
 10
1766.929422
 20
88.884593
 30
0.0
 11
1787.182202
 21
74.731551
 31
0.0
  0
LINE
  5
42BE
100
AcDbEntity
  8
V0-OBRYS
  6
CONTINUOUS
 62
    90
100
AcDbLine
 10
1812.227846
 20
61.315893
 30
0.0
 11
1804.393278
 21
93.703691
 31
0.0
  0
LINE
  5
42BF
100
AcDbEntity
  8
V0-OBRYS
  6
CONTINUOUS
 62
    90
100
AcDbLine
 10
1814.285471
 20
52.809756
 30
0.0
 11
1804.393278
 21
93.703691
 31
0.0
  0
LINE
  5
42C0
100
AcDbEntity
  8
V0-OBRYS
  6
CONTINUOUS
 62
    90
100
AcDbLine
 10
1789.145219
 20
88.298081
 30
0.0
 11
1800.170795
 21
61.315893
 31
0.0
  0
LINE
  5
42C1
100
AcDbEntity
  8
V0-OBRYS
  6
CONTINUOUS
 62
    90
100
AcDbLine
 10
1789.145219
 20
88.298081
 30
0.0
 11
1804.88784
 21
49.772169
 31
0.0
  0
LINE
  5
42C2
100
AcDbEntity
  8
V0-OBRYS
  6
CONTINUOUS
 62
    90
100
AcDbLine
 10
1789.215483
 20
75.710727
 30
0.0
 11
1798.912404
 21
69.252075
 31
0.0
  0
LINE
  5
42C3
100
AcDbEntity
  8
V0-OBRYS
  6
CONTINUOUS
 62
    90
100
AcDbLine
 10
1790.77759
 20
100.369266
 30
0.0
 11
1789.215483
 21
75.710727
 31
0.0
  0
LINE
  5
42C4
100
AcDbEntity
  8
V0-OBRYS
  6
CONTINUOUS
 62
    90
100
AcDbLine
 10
1845.156912
 20
52.809756
 30
0.0
 11
1855.049105
 21
93.703691
 31
0.0
  0
LINE
  5
42C5
100
AcDbEntity
  8
V0-OBRYS
  6
CONTINUOUS
 62
    90
100
AcDbLine
 10
1821.608825
 20
95.66937
 30
0.0
 11
1824.221437
 21
61.315893
 31
0.0
  0
LINE
  5
42C6
100
AcDbEntity
  8
V0-OBRYS
  6
CONTINUOUS
 62
    90
100
AcDbLine
 10
1821.608825
 20
95.66937
 30
0.0
 11
1824.742748
 21
54.461122
 31
0.0
  0
LINE
  5
42C7
100
AcDbEntity
  8
V0-OBRYS
  6
CONTINUOUS
 62
    90
100
AcDbLine
 10
1837.833557
 20
95.66937
 30
0.0
 11
1834.699635
 21
54.461122
 31
0.0
  0
LINE
  5
42C8
100
AcDbEntity
  8
V0-OBRYS
  6
CONTINUOUS
 62
    90
100
AcDbLine
 10
1872.260181
 20
74.731551
 30
0.0
 11
1873.256534
 21
63.123289
 31
0.0
  0
LINE
  5
42C9
100
AcDbEntity
  8
V0-OBRYS
  6
CONTINUOUS
 62
    90
100
AcDbLine
 10
1870.297164
 20
88.298081
 30
0.0
 11
1854.554543
 21
49.772169
 31
0.0
  0
LINE
  5
42CA
100
AcDbEntity
  8
V0-OBRYS
  6
CONTINUOUS
 62
    90
100
AcDbLine
 10
1870.2269
 20
75.710727
 30
0.0
 11
1860.529979
 21
69.252075
 31
0.0
  0
LINE
  5
42CB
100
AcDbEntity
  8
V0-OBRYS
  6
CONTINUOUS
 62
    90
100
AcDbLine
 10
1868.664792
 20
100.369266
 30
0.0
 11
1870.2269
 21
75.710727
 31
0.0
  0
ARC
  5
42CD
100
AcDbEntity
  8
V0-OBRYS
  6
CONTINUOUS
 62
    90
100
AcDbCircle
 10
1829.721191
 20
-11.000907
 30
0.0
 40
84.619675
100
AcDbArc
 50
328.716649
 51
31.283351
  0
LINE
  5
42CE
100
AcDbEntity
  8
V0-OBRYS
  6
CONTINUOUS
 62
    90
100
AcDbLine
 10
1963.071971
 20
-79.185547
 30
0.0
 11
1932.638707
 21
-74.238813
 31
0.0
  0
LINE
  5
42CF
100
AcDbEntity
  8
V0-OBRYS
  6
CONTINUOUS
 62
    90
100
AcDbLine
 10
1913.12987
 20
-94.44497
 30
0.0
 11
1903.838342
 21
-71.550622
 31
0.0
  0
LINE
  5
42D0
100
AcDbEntity
  8
V0-OBRYS
  6
CONTINUOUS
 62
    90
100
AcDbLine
 10
1925.86964
 20
-125.835794
 30
0.0
 11
1914.274893
 21
-97.266308
 31
0.0
  0
LINE
  5
42D1
100
AcDbEntity
  8
V0-OBRYS
  6
CONTINUOUS
 62
    90
100
AcDbLine
 10
1929.02018
 20
-51.57688
 30
0.0
 11
1890.494268
 21
-35.834258
 31
0.0
  0
LINE
  5
42D2
100
AcDbEntity
  8
V0-OBRYS
  6
CONTINUOUS
 62
    90
100
AcDbLine
 10
1929.633315
 20
-73.750305
 30
0.0
 11
1905.245416
 21
-69.786207
 31
0.0
  0
LINE
  5
42D3
100
AcDbEntity
  8
V0-OBRYS
  6
CONTINUOUS
 62
    90
100
AcDbLine
 10
1902.037991
 20
-54.222864
 30
0.0
 11
1923.123148
 21
-66.824939
 31
0.0
  0
LINE
  5
42D4
100
AcDbEntity
  8
V0-OBRYS
  6
CONTINUOUS
 62
    90
100
AcDbLine
 10
1893.531854
 20
-26.436628
 30
0.0
 11
1934.42579
 21
-36.328821
 31
0.0
  0
LINE
  5
42D8
100
AcDbEntity
  8
V0-OBRYS
  6
CONTINUOUS
 62
    90
100
AcDbLine
 10
1996.859808
 20
-84.677546
 30
0.0
 11
1965.983772
 21
-79.658842
 31
0.0
  0
LINE
  5
42D9
100
AcDbEntity
  8
V0-OBRYS
  6
CONTINUOUS
 62
    90
100
AcDbLine
 10
1966.172941
 20
50.744503
 30
0.0
 11
1943.330598
 21
30.035057
 31
0.0
  0
LINE
  5
42DA
100
AcDbEntity
  8
V0-OBRYS
  6
CONTINUOUS
 62
    90
100
AcDbLine
 10
1902.037991
 20
32.22105
 30
0.0
 11
1923.123148
 21
44.823125
 31
0.0
  0
LINE
  5
42DB
100
AcDbEntity
  8
V0-OBRYS
  6
CONTINUOUS
 62
    90
100
AcDbLine
 10
1929.02018
 20
29.575066
 30
0.0
 11
1890.494268
 21
13.832445
 31
0.0
  0
LINE
  5
42DC
100
AcDbEntity
  8
V0-OBRYS
  6
CONTINUOUS
 62
    90
100
AcDbLine
 10
1922.769973
 20
11.394275
 30
0.0
 11
1911.674464
 21
14.948729
 31
0.0
  0
LINE
  5
42DD
100
AcDbEntity
  8
V0-OBRYS
  6
CONTINUOUS
 62
    90
100
AcDbLine
 10
1923.272152
 20
9.194085
 30
0.0
 11
1914.817663
 21
1.177471
 31
0.0
  0
LINE
  5
42DE
100
AcDbEntity
  8
V0-OBRYS
  6
CONTINUOUS
 62
    90
100
AcDbLine
 10
1893.531854
 20
4.434814
 30
0.0
 11
1934.42579
 21
14.327007
 31
0.0
  0
LINE
  5
42DF
100
AcDbEntity
  8
V0-OBRYS
  6
CONTINUOUS
 62
    90
100
AcDbLine
 10
1936.391468
 20
-2.888541
 30
0.0
 11
1895.18322
 21
-6.022463
 31
0.0
  0
LINE
  5
42E0
100
AcDbEntity
  8
V0-OBRYS
  6
CONTINUOUS
 62
    90
100
AcDbLine
 10
1936.391468
 20
-19.113273
 30
0.0
 11
1895.18322
 21
-15.97935
 31
0.0
  0
LINE
  5
42E1
100
AcDbEntity
  8
V0-OBRYS
  6
CONTINUOUS
 62
    90
100
AcDbLine
 10
1946.964848
 20
2.184102
 30
0.0
 11
1923.272152
 21
9.194085
 31
0.0
  0
LINE
  5
42E2
100
AcDbEntity
  8
V0-OBRYS
  6
CONTINUOUS
 62
    90
100
AcDbLine
 10
1941.074837
 20
27.989927
 30
0.0
 11
1922.769973
 21
11.394275
 31
0.0
  0
LINE
  5
42E4
100
AcDbEntity
  8
V0-OBRYS
  6
CONTINUOUS
 62
    90
100
AcDbLine
 10
1979.450299
 20
-7.427404
 30
0.0
 11
1949.884568
 21
1.320241
 31
0.0
  0
LINE
  5
42E5
100
AcDbEntity
  8
V0-OBRYS
  6
CONTINUOUS
 62
    90
100
AcDbLine
 10
2012.274977
 20
-17.139276
 30
0.0
 11
1982.279096
 21
-8.264363
 31
0.0
  0
LINE
  5
42E6
100
AcDbEntity
  8
V0-OBRYS
  6
CONTINUOUS
 62
    90
100
AcDbLine
 10
1991.53313
 20
73.736692
 30
0.0
 11
1968.358456
 21
52.725946
 31
0.0
  0
LINE
  5
42E7
100
AcDbEntity
  8
V0-OBRYS
  6
CONTINUOUS
 62
    90
100
AcDbLine
 10
2045.764404
 20
-27.047829
 30
0.0
 11
2015.058143
 21
-17.962734
 31
0.0
  0
ARC
  5
42E8
100
AcDbEntity
  8
V0-OBRYS
  6
CONTINUOUS
 62
    90
100
AcDbCircle
 10
1829.721191
 20
-11.000907
 30
0.0
 40
225.0
100
AcDbArc
 50
338.994933
 51
355.290781
  0
LINE
  5
42E9
100
AcDbEntity
  8
V0-OBRYS
  6
CONTINUOUS
 62
    90
100
AcDbLine
 10
2039.769656
 20
-91.652271
 30
0.0
 11
2034.169803
 21
-90.74205
 31
0.0
  0
LINE
  5
42EA
100
AcDbEntity
  8
V0-OBRYS
  6
CONTINUOUS
 62
    90
100
AcDbLine
 10
2053.961634
 20
-29.473152
 30
0.0
 11
2048.521411
 21
-27.863548
 31
0.0
  0
ARC
  5
42EB
100
AcDbEntity
  8
VO-OBRYS
  6
CONTINUOUS
100
AcDbCircle
 10
2016.592682
 20
175.870584
 30
0.0
 40
19.4976
100
AcDbArc
 50
315.0
 51
135.0
  0
ARC
  5
42EC
100
AcDbEntity
  8
VO-OBRYS
  6
CONTINUOUS
100
AcDbCircle
 10
2016.592682
 20
175.870584
 30
0.0
 40
16.686899
100
AcDbArc
 50
315.0
 51
135.0
  0
ARC
  5
42ED
100
AcDbEntity
  8
V0-OBRYS
  6
CONTINUOUS
 62
    90
100
AcDbCircle
 10
1829.721191
 20
-11.000907
 30
0.0
 40
225.0
100
AcDbArc
 50
30.423505
 51
46.719352
  0
ARC
  5
42EE
100
AcDbEntity
  8
V0-OBRYS
  6
CONTINUOUS
 62
    90
100
AcDbCircle
 10
1829.721191
 20
-11.000907
 30
0.0
 40
225.0
100
AcDbArc
 50
81.852076
 51
98.147924
  0
LINE
  5
42EF
100
AcDbEntity
  8
V0-OBRYS
  6
CONTINUOUS
 62
    90
100
AcDbLine
 10
1795.08362
 20
168.34179
 30
0.0
 11
1793.105931
 21
137.123114
 31
0.0
  0
LINE
  5
42F0
100
AcDbEntity
  8
V0-OBRYS
  6
CONTINUOUS
 62
    90
100
AcDbLine
 10
1792.919422
 20
134.179
 30
0.0
 11
1790.970094
 21
103.408009
 31
0.0
  0
LINE
  5
42F1
100
AcDbEntity
  8
V0-OBRYS
  6
CONTINUOUS
 62
    90
100
AcDbLine
 10
1797.291646
 20
203.196427
 30
0.0
 11
1795.26712
 21
171.238412
 31
0.0
  0
LINE
  5
42F2
100
AcDbEntity
  8
V0-OBRYS
  6
CONTINUOUS
 62
    90
100
AcDbLine
 10
1797.832106
 20
211.727821
 30
0.0
 11
1797.473421
 21
206.065825
 31
0.0
  0
LINE
  5
42F3
100
AcDbEntity
  8
V0-OBRYS
  6
CONTINUOUS
 62
    90
100
AcDbLine
 10
1864.358763
 20
168.34179
 30
0.0
 11
1866.336452
 21
137.123114
 31
0.0
  0
LINE
  5
42F4
100
AcDbEntity
  8
V0-OBRYS
  6
CONTINUOUS
 62
    90
100
AcDbLine
 10
1866.52296
 20
134.179
 30
0.0
 11
1868.472289
 21
103.408009
 31
0.0
  0
LINE
  5
42F5
100
AcDbEntity
  8
V0-OBRYS
  6
CONTINUOUS
 62
    90
100
AcDbLine
 10
1862.150737
 20
203.196427
 30
0.0
 11
1864.175263
 21
171.238412
 31
0.0
  0
LINE
  5
42F6
100
AcDbEntity
  8
V0-OBRYS
  6
CONTINUOUS
 62
    90
100
AcDbLine
 10
1861.610276
 20
211.727821
 30
0.0
 11
1861.968961
 21
206.065825
 31
0.0
  0
LINE
  5
42F7
100
AcDbEntity
  8
V0-OBRYS
  6
CONTINUOUS
 62
    90
100
AcDbLine
 10
1948.340786
 20
127.898179
 30
0.0
 11
1922.699973
 21
109.979873
 31
0.0
  0
LINE
  5
42F8
100
AcDbEntity
  8
V0-OBRYS
  6
CONTINUOUS
 62
    90
100
AcDbLine
 10
1983.975004
 20
152.800074
 30
0.0
 11
1979.32464
 21
149.550308
 31
0.0
  0
LINE
  5
42F9
100
AcDbEntity
  8
V0-OBRYS
  6
CONTINUOUS
 62
    90
100
AcDbLine
 10
1976.96792
 20
147.903386
 30
0.0
 11
1950.719866
 21
129.560728
 31
0.0
  0
CIRCLE
  5
42FA
100
AcDbEntity
  8
V0-OBRYS
  6
CONTINUOUS
 62
    90
100
AcDbCircle
 10
1642.849701
 20
175.870584
 30
0.0
 40
9.019393
  0
LINE
  5
42FB
100
AcDbEntity
  8
V0-VYPLNE
  6
DASHDOT
 62
    63
100
AcDbLine
 10
1829.721191
 20
-11.000907
 30
0.0
 11
1619.47586
 21
199.244425
 31
0.0
  0
CIRCLE
  5
42FC
100
AcDbEntity
  8
V0-OBRYS
  6
CONTINUOUS
 62
    90
100
AcDbCircle
 10
1642.849701
 20
-197.872397
 30
0.0
 40
9.019393
  0
LINE
  5
42FD
100
AcDbEntity
  8
V0-VYPLNE
  6
DASHDOT
 62
    63
100
AcDbLine
 10
1829.721191
 20
-11.000907
 30
0.0
 11
1619.47586
 21
-221.246239
 31
0.0
  0
CIRCLE
  5
42FE
100
AcDbEntity
  8
V0-OBRYS
  6
CONTINUOUS
 62
    90
100
AcDbCircle
 10
2016.592682
 20
-197.872397
 30
0.0
 40
9.019393
  0
LINE
  5
42FF
100
AcDbEntity
  8
V0-VYPLNE
  6
DASHDOT
 62
    63
100
AcDbLine
 10
1829.721191
 20
-11.000907
 30
0.0
 11
2039.966523
 21
-221.246239
 31
0.0
  0
CIRCLE
  5
4300
100
AcDbEntity
  8
V0-OBRYS
  6
CONTINUOUS
 62
    90
100
AcDbCircle
 10
2016.592682
 20
175.870584
 30
0.0
 40
9.019393
  0
LINE
  5
4301
100
AcDbEntity
  8
V0-VYPLNE
  6
DASHDOT
 62
    63
100
AcDbLine
 10
1829.721191
 20
-11.000907
 30
0.0
 11
2039.966523
 21
199.244425
 31
0.0
  0
INSERT
  5
4324
100
AcDbEntity
  8
V0-OBRYS
  6
CONTINUOUS
 62
    90
100
AcDbBlockReference
  2
ASVORKBOK
 10
1829.721191
 20
-11.000907
 30
0.0
  0
CIRCLE
  5
4325
100
AcDbEntity
  8
V0-OBRYS
  6
CONTINUOUS
 62
    90
100
AcDbCircle
 10
1829.721191
 20
-11.000907
 30
0.0
 40
65.651063
  0
LEADER
  5
4326
100
AcDbEntity
  8
V0-OBRYS
  6
CONTINUOUS
 62
    41
100
AcDbLeader
  3
ED30
 73
     0
 75
     1
 40
30.0
 41
252.023622
 76
     3
 10
2066.182052
 20
-257.251841
 30
0.0
 10
2012.262072
 20
-345.431303
 30
0.0
 10
1982.262072
 20
-345.431303
 30
0.0
 77
    90
340
4327
  0
MTEXT
  5
4327
102
{ACAD_REACTORS
330
4326
102
}
100
AcDbEntity
  8
V0-OBRYS
  6
CONTINUOUS
 62
    41
100
AcDbMText
 10
1980.262072
 20
-328.431303
 30
0.0
 40
30.0
 41
0.0
 71
     6
 72
     1
  1
4 OTVORY %%c10
  7
ED30
  0
TEXT
  5
4354
100
AcDbEntity
  8
V0-VYPLNE
 62
     6
100
AcDbText
 10
1195.064865
 20
299.591876
 30
0.0
 40
42.0
  1
HCF- 450
  7
ED30
100
AcDbText
  0
TEXT
  5
4355
100
AcDbEntity
  8
V0-VYPLNE
 62
     6
100
AcDbText
 10
1163.022688
 20
-555.235712
 30
0.0
 40
42.0
  1
HCF- 450
  7
ED30
100
AcDbText
  0
LINE
  5
4356
100
AcDbEntity
  8
V0-OBRYS
  6
CONTINUOUS
 62
    90
 48
2.0
100
AcDbLine
 10
1224.257965
 20
-784.545334
 30
0.0
 11
1194.689883
 21
-806.511577
 31
0.0
  0
LINE
  5
4357
100
AcDbEntity
  8
V0-OBRYS
  6
CONTINUOUS
 62
    90
 48
2.0
100
AcDbLine
 10
1223.499806
 20
-800.451927
 30
0.0
 11
1195.448036
 21
-815.601059
 31
0.0
  0
LINE
  5
4358
100
AcDbEntity
  8
V0-OBRYS
  6
CONTINUOUS
 62
    90
 48
2.0
100
AcDbLine
 10
1224.257965
 20
-819.388344
 30
0.0
 11
1193.931724
 21
-826.205454
 31
0.0
  0
LINE
  5
4359
100
AcDbEntity
  8
V0-OBRYS
  6
CONTINUOUS
 62
    90
 48
2.0
100
AcDbLine
 10
1223.499806
 20
-837.567302
 30
0.0
 11
1194.689883
 21
-840.597131
 31
0.0
  0
LINE
  5
435A
100
AcDbEntity
  8
V0-OBRYS
  6
CONTINUOUS
 62
    90
 48
2.0
100
AcDbLine
 10
1223.499806
 20
-855.746263
 30
0.0
 11
1194.689883
 21
-856.50372
 31
0.0
  0
LINE
  5
435B
100
AcDbEntity
  8
V0-OBRYS
  6
CONTINUOUS
 62
    90
 48
2.0
100
AcDbLine
 10
1223.499806
 20
-882.313932
 30
0.0
 11
1194.689883
 21
-881.556475
 31
0.0
  0
LINE
  5
435C
100
AcDbEntity
  8
V0-OBRYS
  6
CONTINUOUS
 62
    90
 48
2.0
100
AcDbLine
 10
1223.499806
 20
-900.492893
 30
0.0
 11
1194.689883
 21
-897.463064
 31
0.0
  0
LINE
  5
435D
100
AcDbEntity
  8
V0-OBRYS
  6
CONTINUOUS
 62
    90
 48
2.0
100
AcDbLine
 10
1223.499806
 20
-937.608268
 30
0.0
 11
1195.448036
 21
-922.459136
 31
0.0
  0
LINE
  5
435E
100
AcDbEntity
  8
V0-OBRYS
  6
CONTINUOUS
 62
    90
 48
2.0
100
AcDbLine
 10
1224.257965
 20
-953.51486
 30
0.0
 11
1194.689883
 21
-931.548618
 31
0.0
  0
LINE
  5
435F
100
AcDbEntity
  8
V0-OBRYS
  6
CONTINUOUS
 62
    90
 48
2.0
100
AcDbLine
 10
1224.257965
 20
-918.671851
 30
0.0
 11
1193.931724
 21
-911.854741
 31
0.0
  0
LINE
  5
4360
100
AcDbEntity
  8
V0-OBRYS
  6
CONTINUOUS
 62
    90
 48
2.0
100
AcDbLine
 10
1210.29963
 20
-779.029377
 30
0.0
 11
1239.72115
 21
-779.029377
 31
0.0
  0
LINE
  5
4361
100
AcDbEntity
  8
V0-OBRYS
  6
CONTINUOUS
 62
    90
 48
2.0
100
AcDbLine
 10
1210.29963
 20
-959.030817
 30
0.0
 11
1239.72115
 21
-959.030817
 31
0.0
  0
CIRCLE
  5
4362
100
AcDbEntity
  8
V0-OBRYS
  6
CONTINUOUS
 62
    90
 48
2.0
100
AcDbCircle
 10
1219.32239
 20
-644.608764
 30
0.0
 40
2.894689
  0
CIRCLE
  5
4363
100
AcDbEntity
  8
V0-OBRYS
  6
CONTINUOUS
 62
    90
 48
2.0
100
AcDbCircle
 10
1219.32239
 20
-666.208764
 30
0.0
 40
2.894689
  0
CIRCLE
  5
4364
100
AcDbEntity
  8
V0-OBRYS
  6
CONTINUOUS
 62
    90
 48
2.0
100
AcDbCircle
 10
1219.32239
 20
-687.808764
 30
0.0
 40
2.894689
  0
CIRCLE
  5
4365
100
AcDbEntity
  8
V0-OBRYS
  6
CONTINUOUS
 62
    90
 48
2.0
100
AcDbCircle
 10
1219.32239
 20
-709.408764
 30
0.0
 40
2.894689
  0
CIRCLE
  5
4366
100
AcDbEntity
  8
V0-OBRYS
  6
CONTINUOUS
 62
    90
 48
2.0
100
AcDbCircle
 10
1219.32239
 20
-731.008764
 30
0.0
 40
2.894689
  0
CIRCLE
  5
4367
100
AcDbEntity
  8
V0-OBRYS
  6
CONTINUOUS
 62
    90
 48
2.0
100
AcDbCircle
 10
1219.195912
 20
-1007.05143
 30
0.0
 40
2.894689
  0
CIRCLE
  5
4368
100
AcDbEntity
  8
V0-OBRYS
  6
CONTINUOUS
 62
    90
 48
2.0
100
AcDbCircle
 10
1219.195912
 20
-1028.65143
 30
0.0
 40
2.894689
  0
CIRCLE
  5
4369
100
AcDbEntity
  8
V0-OBRYS
  6
CONTINUOUS
 62
    90
 48
2.0
100
AcDbCircle
 10
1219.195912
 20
-1050.25143
 30
0.0
 40
2.894689
  0
CIRCLE
  5
436A
100
AcDbEntity
  8
V0-OBRYS
  6
CONTINUOUS
 62
    90
 48
2.0
100
AcDbCircle
 10
1219.195912
 20
-1071.85143
 30
0.0
 40
2.894689
  0
CIRCLE
  5
436B
100
AcDbEntity
  8
V0-OBRYS
  6
CONTINUOUS
 62
    90
 48
2.0
100
AcDbCircle
 10
1219.195912
 20
-1093.45143
 30
0.0
 40
2.894689
  0
LINE
  5
436C
100
AcDbEntity
  8
V0-OBRYS
  6
CONTINUOUS
 62
    90
 48
2.0
100
AcDbLine
 10
1194.51003
 20
-869.030097
 30
0.0
 11
1194.51003
 21
-943.241217
 31
0.0
  0
ARC
  5
436D
100
AcDbEntity
  8
V0-OBRYS
  6
CONTINUOUS
 62
    90
 48
2.0
100
AcDbCircle
 10
1210.29963
 20
-943.241217
 30
0.0
 40
15.7896
100
AcDbArc
 50
180.0
 51
270.0
  0
LINE
  5
436E
100
AcDbEntity
  8
V0-OBRYS
  6
CONTINUOUS
 62
    90
 48
2.0
100
AcDbLine
 10
1194.51003
 20
-869.030097
 30
0.0
 11
1194.51003
 21
-794.818977
 31
0.0
  0
INSERT
  5
436F
100
AcDbEntity
  8
V0-OBRYS
  6
CONTINUOUS
 62
    90
100
AcDbBlockReference
  2
ASVORK
 10
1194.51003
 20
-869.030097
 30
0.0
  0
ARC
  5
4370
100
AcDbEntity
  8
V0-OBRYS
  6
CONTINUOUS
 62
    90
 48
2.0
100
AcDbCircle
 10
1210.29963
 20
-794.818977
 30
0.0
 40
15.7896
100
AcDbArc
 50
90.0
 51
180.0
  0
ARC
  5
4371
100
AcDbEntity
  8
V0-OBRYS
  6
CONTINUOUS
 62
    90
 48
2.0
100
AcDbCircle
 10
1225.889788
 20
-1120.097597
 30
0.0
 40
13.999557
100
AcDbArc
 50
9.512305
 51
76.109153
  0
LINE
  5
4372
100
AcDbEntity
  8
V0-OBRYS
  6
CONTINUOUS
 62
    90
 48
2.0
100
AcDbLine
 10
1239.721191
 20
-1149.030097
 30
0.0
 11
1239.721191
 21
-869.030097
 31
0.0
  0
ARC
  5
4373
100
AcDbEntity
  8
V0-OBRYS
  6
CONTINUOUS
 62
    90
 48
2.0
100
AcDbCircle
 10
1231.090934
 20
-1100.598062
 30
0.0
 40
9.0
100
AcDbArc
 50
180.0
 51
252.703019
  0
LINE
  5
4374
100
AcDbEntity
  8
V0-OBRYS
  6
CONTINUOUS
 62
    90
 48
2.0
100
AcDbLine
 10
1251.321191
 20
-869.030097
 30
0.0
 11
1251.321191
 21
-1149.030097
 31
0.0
  0
LINE
  5
4375
100
AcDbEntity
  8
V0-OBRYS
  6
CONTINUOUS
 62
    90
 48
2.0
100
AcDbLine
 10
1250.980991
 20
-1129.462647
 30
0.0
 11
1264.204101
 21
-1107.085053
 31
0.0
  0
LINE
  5
4376
100
AcDbEntity
  8
V0-OBRYS
  6
CONTINUOUS
 62
    90
 48
2.0
100
AcDbLine
 10
1236.886152
 20
-1134.576008
 30
0.0
 11
1236.886152
 21
-1117.784038
 31
0.0
  0
LINE
  5
4377
100
AcDbEntity
  8
V0-OBRYS
  6
CONTINUOUS
 62
    90
 48
2.0
100
AcDbLine
 10
1251.321191
 20
-1149.030097
 30
0.0
 11
1239.721191
 21
-1149.030097
 31
0.0
  0
ARC
  5
4378
100
AcDbEntity
  8
V0-OBRYS
  6
CONTINUOUS
 62
    90
 48
2.0
100
AcDbCircle
 10
1238.303672
 20
-1134.576008
 30
0.0
 40
1.41752
100
AcDbArc
 50
180.0
 51
0.0
  0
ARC
  5
4379
100
AcDbEntity
  8
V0-OBRYS
  6
CONTINUOUS
 62
    90
 48
2.0
100
AcDbCircle
 10
1225.874082
 20
-1120.167953
 30
0.0
 40
11.267153
100
AcDbArc
 50
12.215016
 51
76.966739
  0
LINE
  5
437A
100
AcDbEntity
  8
V0-OBRYS
  6
CONTINUOUS
 62
    90
 48
2.0
100
AcDbLine
 10
1239.721191
 20
-589.030097
 30
0.0
 11
1239.721191
 21
-869.030097
 31
0.0
  0
LINE
  5
437B
100
AcDbEntity
  8
V0-OBRYS
  6
CONTINUOUS
 62
    90
 48
2.0
100
AcDbLine
 10
1224.901635
 20
-637.462133
 30
0.0
 11
1224.901635
 21
-740.777354
 31
0.0
  0
LINE
  5
437C
100
AcDbEntity
  8
V0-OBRYS
  6
CONTINUOUS
 62
    90
 48
2.0
100
AcDbLine
 10
1222.090934
 20
-637.462133
 30
0.0
 11
1222.090934
 21
-740.777354
 31
0.0
  0
LINE
  5
437D
100
AcDbEntity
  8
V0-OBRYS
  6
CONTINUOUS
 62
    90
 48
2.0
100
AcDbLine
 10
1251.321191
 20
-869.030097
 30
0.0
 11
1251.321191
 21
-589.030097
 31
0.0
  0
LINE
  5
437E
100
AcDbEntity
  8
V0-VYPLNE
  6
DASHED
 62
    52
100
AcDbLine
 10
1335.760398
 20
-760.15335
 30
0.0
 11
1319.62697
 21
-648.705092
 31
0.0
  0
LINE
  5
437F
100
AcDbEntity
  8
V0-VYPLNE
  6
DASHED
 62
    52
100
AcDbLine
 10
1263.681671
 20
-760.15335
 30
0.0
 11
1279.815098
 21
-648.705092
 31
0.0
  0
LINE
  5
4380
100
AcDbEntity
  8
V0-OBRYS
  6
CONTINUOUS
 62
    90
 48
2.0
100
AcDbLine
 10
1344.878441
 20
-869.030097
 30
0.0
 11
1344.878441
 21
-644.030547
 31
0.0
  0
LINE
  5
4381
100
AcDbEntity
  8
V0-OBRYS
  6
CONTINUOUS
 62
    90
 48
2.0
100
AcDbLine
 10
1224.51027
 20
-869.030097
 30
0.0
 11
1224.51027
 21
-959.030817
 31
0.0
  0
LINE
  5
4382
100
AcDbEntity
  8
V0-VYPLNE
  6
DASHED
 62
    52
100
AcDbLine
 10
1252.733928
 20
-951.136017
 30
0.0
 11
1252.733928
 21
-869.030097
 31
0.0
  0
ELLIPSE
  5
4383
100
AcDbEntity
  8
V0-VYPLNE
  6
DASHED
 62
    52
100
AcDbEllipse
 10
272.99323
 20
-857.172837
 30
0.0
 11
0.0
 21
1174.336946726076
 31
0.0
210
0.0
220
0.0
230
-1.0
 40
0.909091
 41
1.580593751677049
 42
1.660762687017188
  0
LINE
  5
4384
100
AcDbEntity
  8
V0-VYPLNE
  6
DASHED
 62
    52
100
AcDbLine
 10
1263.721034
 20
-868.678131
 30
0.0
 11
1263.721034
 21
-968.998131
 31
0.0
  0
LINE
  5
4385
100
AcDbEntity
  8
V0-VYPLNE
  6
DASHED
 62
    52
100
AcDbLine
 10
1299.721034
 20
-974.027552
 30
0.0
 11
1299.721034
 21
-868.678131
 31
0.0
  0
LINE
  5
4386
100
AcDbEntity
  8
V0-OBRYS
  6
CONTINUOUS
 62
    90
 48
2.0
100
AcDbLine
 10
1344.878441
 20
-869.030097
 30
0.0
 11
1344.878441
 21
-1094.029647
 31
0.0
  0
LINE
  5
4387
100
AcDbEntity
  8
V0-OBRYS
  6
CONTINUOUS
 62
    90
 48
2.0
100
AcDbLine
 10
1222.090934
 20
-1100.598062
 30
0.0
 11
1222.090934
 21
-997.282841
 31
0.0
  0
LINE
  5
4388
100
AcDbEntity
  8
V0-OBRYS
  6
CONTINUOUS
 62
    90
 48
2.0
100
AcDbLine
 10
1224.901635
 20
-1100.598062
 30
0.0
 11
1224.901635
 21
-997.282841
 31
0.0
  0
LINE
  5
4389
100
AcDbEntity
  8
V0-VYPLNE
  6
DASHED
 62
    52
100
AcDbLine
 10
1335.760398
 20
-977.202911
 30
0.0
 11
1319.62697
 21
-1088.651169
 31
0.0
  0
LINE
  5
438A
100
AcDbEntity
  8
V0-VYPLNE
  6
DASHED
 62
    52
100
AcDbLine
 10
1263.681671
 20
-977.202911
 30
0.0
 11
1279.815098
 21
-1088.651169
 31
0.0
  0
LINE
  5
438B
100
AcDbEntity
  8
V0-VYPLNE
  6
DASHED
 62
    52
100
AcDbLine
 10
1279.815098
 20
-1088.651169
 30
0.0
 11
1319.62697
 21
-1088.651169
 31
0.0
  0
LINE
  5
438C
100
AcDbEntity
  8
V0-OBRYS
  6
CONTINUOUS
 62
    90
 48
2.0
100
AcDbLine
 10
1344.878441
 20
-1094.029647
 30
0.0
 11
1287.083015
 21
-1094.029647
 31
0.0
  0
ARC
  5
438D
100
AcDbEntity
  8
V0-OBRYS
  6
CONTINUOUS
 62
    90
 48
2.0
100
AcDbCircle
 10
1287.083015
 20
-1120.604397
 30
0.0
 40
26.57475
100
AcDbArc
 50
90.0
 51
149.420799
  0
ARC
  5
438E
100
AcDbEntity
  8
V0-OBRYS
  6
CONTINUOUS
 62
    90
 48
2.0
100
AcDbCircle
 10
1231.090934
 20
-1100.598062
 30
0.0
 40
6.189299
100
AcDbArc
 50
180.0
 51
252.703019
  0
ELLIPSE
  5
438F
100
AcDbEntity
  8
V0-VYPLNE
  6
DASHED
 62
    52
100
AcDbEllipse
 10
1299.721034
 20
-815.614207
 30
0.0
 11
-0.0000000000005955
 21
158.4133457296311
 31
0.0
210
0.0
220
0.0
230
-1.0
 40
0.909091
 41
2.929991421004501
 42
3.394251156505874
  0
LINE
  5
4390
100
AcDbEntity
  8
V0-VYPLNE
  6
DASHED
 62
    52
100
AcDbLine
 10
1269.827739
 20
-970.448471
 30
0.0
 11
1263.681671
 21
-977.202911
 31
0.0
  0
ARC
  5
4391
100
AcDbEntity
  8
V0-OBRYS
  6
CONTINUOUS
 62
    90
 48
2.0
100
AcDbCircle
 10
1230.721191
 20
-978.286973
 30
0.0
 40
9.0
100
AcDbArc
 50
289.78203
 51
0.0
  0
ARC
  5
4392
100
AcDbEntity
  8
V0-OBRYS
  6
CONTINUOUS
 62
    90
 48
2.0
100
AcDbCircle
 10
1230.721191
 20
-978.286973
 30
0.0
 40
11.810701
100
AcDbArc
 50
289.78203
 51
319.642674
  0
LINE
  5
4393
100
AcDbEntity
  8
V0-OBRYS
  6
CONTINUOUS
 62
    90
 48
2.0
100
AcDbLine
 10
1228.044948
 20
-988.813958
 30
0.0
 11
1233.767177
 21
-986.755856
 31
0.0
  0
LINE
  5
4394
100
AcDbEntity
  8
V0-OBRYS
  6
CONTINUOUS
 62
    90
 48
2.0
100
AcDbLine
 10
1228.99621
 20
-991.458791
 30
0.0
 11
1234.718438
 21
-989.400689
 31
0.0
  0
ARC
  5
4395
100
AcDbEntity
  8
V0-OBRYS
  6
CONTINUOUS
 62
    90
 48
2.0
100
AcDbCircle
 10
1231.090934
 20
-997.282841
 30
0.0
 40
6.189299
100
AcDbArc
 50
109.78203
 51
180.0
  0
ARC
  5
4396
100
AcDbEntity
  8
V0-OBRYS
  6
CONTINUOUS
 62
    90
 48
2.0
100
AcDbCircle
 10
1231.090934
 20
-997.282841
 30
0.0
 40
9.0
100
AcDbArc
 50
109.78203
 51
180.0
  0
LINE
  5
4397
100
AcDbEntity
  8
V0-VYPLNE
  6
DASHED
 62
    52
100
AcDbLine
 10
1239.721237
 20
-953.51486
 30
0.0
 11
1252.733928
 21
-953.51486
 31
0.0
  0
LINE
  5
4398
100
AcDbEntity
  8
V0-VYPLNE
  6
DASHED
 62
    52
100
AcDbLine
 10
1239.721237
 20
-959.030817
 30
0.0
 11
1244.839128
 21
-959.030817
 31
0.0
  0
LINE
  5
4399
100
AcDbEntity
  8
V0-OBRYS
  6
CONTINUOUS
 62
    90
 48
2.0
100
AcDbLine
 10
1224.257965
 20
-953.51486
 30
0.0
 11
1239.72115
 21
-953.51486
 31
0.0
  0
ARC
  5
439A
100
AcDbEntity
  8
V0-VYPLNE
  6
DASHED
 62
    52
 48
2.0
100
AcDbCircle
 10
1244.839128
 20
-951.136017
 30
0.0
 40
7.8948
100
AcDbArc
 50
270.0
 51
0.0
  0
LINE
  5
439B
100
AcDbEntity
  8
V0-VYPLNE
  6
DASHED
 62
    52
100
AcDbLine
 10
1239.721237
 20
-937.608268
 30
0.0
 11
1252.733928
 21
-937.608268
 31
0.0
  0
LINE
  5
439C
100
AcDbEntity
  8
V0-VYPLNE
  6
DASHED
 62
    52
100
AcDbLine
 10
1239.721237
 20
-918.671851
 30
0.0
 11
1251.975775
 21
-918.671851
 31
0.0
  0
LINE
  5
439D
100
AcDbEntity
  8
V0-OBRYS
  6
CONTINUOUS
 62
    90
 48
2.0
100
AcDbLine
 10
1223.499806
 20
-937.608268
 30
0.0
 11
1239.72115
 21
-937.608268
 31
0.0
  0
LINE
  5
439E
100
AcDbEntity
  8
V0-OBRYS
  6
CONTINUOUS
 62
    90
 48
2.0
100
AcDbLine
 10
1224.257965
 20
-918.671851
 30
0.0
 11
1239.72115
 21
-918.671851
 31
0.0
  0
ELLIPSE
  5
439F
100
AcDbEntity
  8
V0-VYPLNE
  6
DASHED
 62
    52
100
AcDbEllipse
 10
1328.287076
 20
-961.890557
 30
0.0
 11
0.0000000000004001
 21
8.799999999999997
 31
0.0
210
0.0
220
0.0
230
-1.0
 40
0.909091
 41
1.660762687017187
 42
2.929991421004503
  0
LINE
  5
43A0
100
AcDbEntity
  8
V0-VYPLNE
  6
DASHED
 62
    52
100
AcDbLine
 10
1329.614329
 20
-970.448471
 30
0.0
 11
1335.760398
 21
-977.202911
 31
0.0
  0
LINE
  5
43A1
100
AcDbEntity
  8
V0-OBRYS
  6
CONTINUOUS
 62
    90
 48
2.0
100
AcDbLine
 10
1224.51027
 20
-869.030097
 30
0.0
 11
1224.51027
 21
-779.029377
 31
0.0
  0
LINE
  5
43A2
100
AcDbEntity
  8
V0-VYPLNE
  6
DASHED
 62
    52
100
AcDbLine
 10
1252.733928
 20
-786.924177
 30
0.0
 11
1252.733928
 21
-869.030097
 31
0.0
  0
LINE
  5
43A3
100
AcDbEntity
  8
V0-VYPLNE
  6
DASHED
 62
    52
100
AcDbLine
 10
1299.721034
 20
-763.328709
 30
0.0
 11
1299.721034
 21
-868.678131
 31
0.0
  0
LINE
  5
43A4
100
AcDbEntity
  8
V0-VYPLNE
  6
DASHED
 62
    52
100
AcDbLine
 10
1263.721034
 20
-868.678131
 30
0.0
 11
1263.721034
 21
-768.358131
 31
0.0
  0
ELLIPSE
  5
43A5
100
AcDbEntity
  8
V0-VYPLNE
  6
DASHED
 62
    52
100
AcDbEllipse
 10
272.99323
 20
-880.183425
 30
0.0
 11
-0.0000000000011424
 21
1174.336946726076
 31
0.0
210
0.0
220
0.0
230
-1.0
 40
0.909091
 41
1.480829966572604
 42
1.560998901912743
  0
LINE
  5
43A6
100
AcDbEntity
  8
V0-VYPLNE
  6
DASHDOT
 62
    63
100
AcDbLine
 10
1223.917908
 20
-869.030204
 30
0.0
 11
1363.902694
 21
-869.030204
 31
0.0
  0
LINE
  5
43A7
100
AcDbEntity
  8
V0-VYPLNE
  6
DASHED
 62
    52
100
AcDbLine
 10
1264.356234
 20
-880.724217
 30
0.0
 11
1338.465076
 21
-856.218782
 31
0.0
  0
ELLIPSE
  5
43AB
100
AcDbEntity
  8
V0-VYPLNE
  6
DASHED
 62
    52
100
AcDbEllipse
 10
1299.721034
 20
-869.030204
 30
0.0
 11
0.0000000000007164
 21
7.458195139447457
 31
0.0
210
0.0
220
0.0
230
-1.0
 40
0.909091
 41
0.0
 42
6.283185307179586
  0
LINE
  5
43AC
100
AcDbEntity
  8
V0-VYPLNE
  6
DASHED
 62
    52
100
AcDbLine
 10
1239.721237
 20
-900.492893
 30
0.0
 11
1252.733928
 21
-900.492893
 31
0.0
  0
LINE
  5
43AD
100
AcDbEntity
  8
V0-OBRYS
  6
CONTINUOUS
 62
    90
 48
2.0
100
AcDbLine
 10
1223.499806
 20
-900.492893
 30
0.0
 11
1228.048742
 21
-900.492893
 31
0.0
  0
LINE
  5
43AE
100
AcDbEntity
  8
V0-OBRYS
  6
CONTINUOUS
 62
    90
 48
2.0
100
AcDbLine
 10
1228.048742
 20
-900.492893
 30
0.0
 11
1239.72115
 21
-900.492893
 31
0.0
  0
LINE
  5
43AF
100
AcDbEntity
  8
V0-VYPLNE
  6
DASHED
 62
    52
100
AcDbLine
 10
1239.721237
 20
-882.313932
 30
0.0
 11
1251.975775
 21
-882.313932
 31
0.0
  0
LINE
  5
43B0
100
AcDbEntity
  8
V0-OBRYS
  6
CONTINUOUS
 62
    90
 48
2.0
100
AcDbLine
 10
1223.499806
 20
-882.313932
 30
0.0
 11
1239.72115
 21
-882.313932
 31
0.0
  0
LINE
  5
43B1
100
AcDbEntity
  8
V0-VYPLNE
  6
DASHED
 62
    52
100
AcDbLine
 10
1239.721237
 20
-855.746263
 30
0.0
 11
1251.975775
 21
-855.746263
 31
0.0
  0
LINE
  5
43B2
100
AcDbEntity
  8
V0-OBRYS
  6
CONTINUOUS
 62
    90
 48
2.0
100
AcDbLine
 10
1223.499806
 20
-855.746263
 30
0.0
 11
1239.72115
 21
-855.746263
 31
0.0
  0
LINE
  5
43B3
100
AcDbEntity
  8
V0-VYPLNE
  6
DASHED
 62
    52
100
AcDbLine
 10
1239.721237
 20
-837.567302
 30
0.0
 11
1252.733928
 21
-837.567302
 31
0.0
  0
LINE
  5
43B4
100
AcDbEntity
  8
V0-VYPLNE
  6
DASHED
 62
    52
100
AcDbLine
 10
1239.721237
 20
-819.388344
 30
0.0
 11
1251.975775
 21
-819.388344
 31
0.0
  0
LINE
  5
43B5
100
AcDbEntity
  8
V0-OBRYS
  6
CONTINUOUS
 62
    90
 48
2.0
100
AcDbLine
 10
1223.499806
 20
-837.567302
 30
0.0
 11
1228.048742
 21
-837.567302
 31
0.0
  0
LINE
  5
43B6
100
AcDbEntity
  8
V0-OBRYS
  6
CONTINUOUS
 62
    90
 48
2.0
100
AcDbLine
 10
1224.257965
 20
-819.388344
 30
0.0
 11
1239.72115
 21
-819.388344
 31
0.0
  0
LINE
  5
43B7
100
AcDbEntity
  8
V0-OBRYS
  6
CONTINUOUS
 62
    90
 48
2.0
100
AcDbLine
 10
1228.048742
 20
-837.567302
 30
0.0
 11
1239.72115
 21
-837.567302
 31
0.0
  0
ELLIPSE
  5
43B8
100
AcDbEntity
  8
V0-VYPLNE
  6
DASHED
 62
    52
100
AcDbEllipse
 10
1299.721034
 20
-921.742054
 30
0.0
 11
-0.0000000000005955
 21
158.4133457296311
 31
0.0
210
0.0
220
0.0
230
-1.0
 40
0.909091
 41
6.030526804263504
 42
6.494786539764878
  0
LINE
  5
43B9
100
AcDbEntity
  8
V0-VYPLNE
  6
DASHED
 62
    52
100
AcDbLine
 10
1239.721237
 20
-800.451927
 30
0.0
 11
1252.733928
 21
-800.451927
 31
0.0
  0
LINE
  5
43BA
100
AcDbEntity
  8
V0-OBRYS
  6
CONTINUOUS
 62
    90
 48
2.0
100
AcDbLine
 10
1223.499806
 20
-800.451927
 30
0.0
 11
1239.72115
 21
-800.451927
 31
0.0
  0
LINE
  5
43BB
100
AcDbEntity
  8
V0-VYPLNE
  6
DASHED
 62
    52
100
AcDbLine
 10
1239.721237
 20
-784.545334
 30
0.0
 11
1252.733928
 21
-784.545334
 31
0.0
  0
LINE
  5
43BC
100
AcDbEntity
  8
V0-VYPLNE
  6
DASHED
 62
    52
100
AcDbLine
 10
1239.721237
 20
-779.029377
 30
0.0
 11
1244.839128
 21
-779.029377
 31
0.0
  0
LINE
  5
43BD
100
AcDbEntity
  8
V0-OBRYS
  6
CONTINUOUS
 62
    90
 48
2.0
100
AcDbLine
 10
1224.257965
 20
-784.545334
 30
0.0
 11
1239.72115
 21
-784.545334
 31
0.0
  0
ARC
  5
43BE
100
AcDbEntity
  8
V0-VYPLNE
  6
DASHED
 62
    52
 48
2.0
100
AcDbCircle
 10
1244.839128
 20
-786.924177
 30
0.0
 40
7.8948
100
AcDbArc
 50
0.0
 51
90.0
  0
LINE
  5
43BF
100
AcDbEntity
  8
V0-VYPLNE
  6
DASHED
 62
    52
100
AcDbLine
 10
1269.827739
 20
-766.90779
 30
0.0
 11
1263.681671
 21
-760.15335
 31
0.0
  0
ARC
  5
43C0
100
AcDbEntity
  8
V0-OBRYS
  6
CONTINUOUS
 62
    90
 48
2.0
100
AcDbCircle
 10
1231.090934
 20
-740.777354
 30
0.0
 40
6.189299
100
AcDbArc
 50
180.0
 51
250.21797
  0
ARC
  5
43C1
100
AcDbEntity
  8
V0-OBRYS
  6
CONTINUOUS
 62
    90
 48
2.0
100
AcDbCircle
 10
1231.090934
 20
-740.777354
 30
0.0
 40
9.0
100
AcDbArc
 50
180.0
 51
250.21797
  0
ARC
  5
43C2
100
AcDbEntity
  8
V0-OBRYS
  6
CONTINUOUS
 62
    90
 48
2.0
100
AcDbCircle
 10
1230.721191
 20
-759.773221
 30
0.0
 40
9.0
100
AcDbArc
 50
0.0
 51
70.21797
  0
LINE
  5
43C3
100
AcDbEntity
  8
V0-OBRYS
  6
CONTINUOUS
 62
    90
 48
2.0
100
AcDbLine
 10
1228.99621
 20
-746.601404
 30
0.0
 11
1234.718438
 21
-748.659506
 31
0.0
  0
LINE
  5
43C4
100
AcDbEntity
  8
V0-OBRYS
  6
CONTINUOUS
 62
    90
 48
2.0
100
AcDbLine
 10
1228.044948
 20
-749.246237
 30
0.0
 11
1233.767177
 21
-751.304339
 31
0.0
  0
ARC
  5
43C5
100
AcDbEntity
  8
V0-OBRYS
  6
CONTINUOUS
 62
    90
 48
2.0
100
AcDbCircle
 10
1230.721191
 20
-759.773221
 30
0.0
 40
11.810701
100
AcDbArc
 50
40.357326
 51
70.21797
  0
LINE
  5
43C6
100
AcDbEntity
  8
V0-VYPLNE
  6
DASHED
 62
    52
100
AcDbLine
 10
1329.614329
 20
-766.90779
 30
0.0
 11
1335.760398
 21
-760.15335
 31
0.0
  0
ARC
  5
43C7
100
AcDbEntity
  8
V0-OBRYS
  6
CONTINUOUS
 62
    90
 48
2.0
100
AcDbCircle
 10
1225.889788
 20
-617.962598
 30
0.0
 40
13.999557
100
AcDbArc
 50
283.890847
 51
350.487695
  0
ARC
  5
43C8
100
AcDbEntity
  8
V0-OBRYS
  6
CONTINUOUS
 62
    90
 48
2.0
100
AcDbCircle
 10
1225.874082
 20
-617.892242
 30
0.0
 40
11.267153
100
AcDbArc
 50
283.033261
 51
347.784984
  0
LINE
  5
43C9
100
AcDbEntity
  8
V0-OBRYS
  6
CONTINUOUS
 62
    90
 48
2.0
100
AcDbLine
 10
1250.980991
 20
-608.597547
 30
0.0
 11
1264.204101
 21
-630.975141
 31
0.0
  0
LINE
  5
43CA
100
AcDbEntity
  8
V0-VYPLNE
  6
DASHED
 62
    52
100
AcDbLine
 10
1279.815098
 20
-648.705092
 30
0.0
 11
1319.62697
 21
-648.705092
 31
0.0
  0
LINE
  5
43CB
100
AcDbEntity
  8
V0-OBRYS
  6
CONTINUOUS
 62
    90
 48
2.0
100
AcDbLine
 10
1344.878441
 20
-644.030547
 30
0.0
 11
1287.083015
 21
-644.030547
 31
0.0
  0
ARC
  5
43CC
100
AcDbEntity
  8
V0-OBRYS
  6
CONTINUOUS
 62
    90
 48
2.0
100
AcDbCircle
 10
1287.083015
 20
-617.455797
 30
0.0
 40
26.57475
100
AcDbArc
 50
210.579201
 51
270.0
  0
ARC
  5
43CD
100
AcDbEntity
  8
V0-OBRYS
  6
CONTINUOUS
 62
    90
 48
2.0
100
AcDbCircle
 10
1231.090934
 20
-637.462133
 30
0.0
 40
6.189299
100
AcDbArc
 50
107.296981
 51
180.0
  0
ARC
  5
43CE
100
AcDbEntity
  8
V0-OBRYS
  6
CONTINUOUS
 62
    90
 48
2.0
100
AcDbCircle
 10
1231.090934
 20
-637.462133
 30
0.0
 40
9.0
100
AcDbArc
 50
107.296981
 51
180.0
  0
ARC
  5
43CF
100
AcDbEntity
  8
V0-OBRYS
  6
CONTINUOUS
 62
    90
 48
2.0
100
AcDbCircle
 10
1238.303672
 20
-603.484187
 30
0.0
 40
1.41752
100
AcDbArc
 50
0.0
 51
180.0
  0
LINE
  5
43D0
100
AcDbEntity
  8
V0-OBRYS
  6
CONTINUOUS
 62
    90
 48
2.0
100
AcDbLine
 10
1236.886152
 20
-603.484187
 30
0.0
 11
1236.886152
 21
-620.276157
 31
0.0
  0
LINE
  5
43D1
100
AcDbEntity
  8
V0-OBRYS
  6
CONTINUOUS
 62
    90
 48
2.0
100
AcDbLine
 10
1251.321191
 20
-589.030097
 30
0.0
 11
1239.721191
 21
-589.030097
 31
0.0
  0
POINT
  5
43D7
100
AcDbEntity
  8
V0-VYPLNE
  6
CONTINUOUS
 62
    41
100
AcDbPoint
 10
1344.878441
 20
-11.000907
 30
0.0
  0
POINT
  5
43D8
100
AcDbEntity
  8
V0-VYPLNE
  6
CONTINUOUS
 62
    41
100
AcDbPoint
 10
1344.878441
 20
-869.030097
 30
0.0
  0
VIEWPORT
  5
22
100
AcDbEntity
 67
     1
  8
0
100
AcDbViewport
 10
261.517699
 20
148.5
 30
0.0
 40
523.035398
 41
297.0
 68
    -1
 69
     1
1001
ACAD
1000
MVIEW
1002
{
1070
    16
1010
0.0
1020
0.0
1030
0.0
1010
0.0
1020
0.0
1030
1.0
1040
0.0
1040
297.0
1040
261.517699
1040
148.5
1040
50.0
1040
0.0
1040
0.0
1070
     0
1070
   100
1070
     1
1070
     1
1070
     0
1070
     0
1070
     0
1070
     0
1040
0.0
1040
0.0
1040
0.0
1040
1.0
1040
1.0
1040
10.0
1040
10.0
1070
     0
1002
{
1002
}
1002
}
  0
ENDSEC
  0
SECTION
  2
OBJECTS
  0
DICTIONARY
  5
C
100
AcDbDictionary
  3
ACAD_GROUP
350
D
  3
ACAD_MLINESTYLE
350
E
  3
ACDBVARIABLEDICTIONARY
350
5D
  0
DICTIONARY
  5
D
102
{ACAD_REACTORS
330
C
102
}
100
AcDbDictionary
  0
DICTIONARY
  5
E
102
{ACAD_REACTORS
330
C
102
}
100
AcDbDictionary
  3
STANDARD
350
13
  0
DICTIONARY
  5
5D
102
{ACAD_REACTORS
330
C
102
}
100
AcDbDictionary
  3
DIMADEC
350
5E
  3
SORTENTS
350
3D8
  0
MLINESTYLE
  5
13
102
{ACAD_REACTORS
330
E
102
}
100
AcDbMlineStyle
  2
STANDARD
 70
     0
  3

 62
     0
 51
90.0
 52
90.0
 71
     2
 49
0.5
 62
   256
  6
BYLAYER
 49
-0.5
 62
   256
  6
BYLAYER
  0
DICTIONARYVAR
  5
5E
102
{ACAD_REACTORS
330
5D
102
}
100
DictionaryVariables
280
     0
  1
0
  0
DICTIONARYVAR
  5
3D8
102
{ACAD_REACTORS
330
5D
102
}
100
DictionaryVariables
280
     0
  1
96
  0
ENDSEC
  0
EOF
