  0
SECTION
  2
HEADER
  9
$ACADVER
  1
AC1014
  9
$ACADMAINTVER
 70
     0
  9
$DWGCODEPAGE
  3
ANSI_1250
  9
$INSBASE
 10
0.0
 20
0.0
 30
0.0
  9
$EXTMIN
 10
947.117359
 20
-868.68401
 30
0.0
  9
$EXTMAX
 10
2026.098804
 20
369.610441
 30
0.0
  9
$LIMMIN
 10
0.0
 20
0.0
  9
$LIMMAX
 10
420.0
 20
297.0
  9
$ORTHOMODE
 70
     1
  9
$REGENMODE
 70
     1
  9
$FILLMODE
 70
     1
  9
$QTEXTMODE
 70
     0
  9
$MIRRTEXT
 70
     1
  9
$DRAGMODE
 70
     2
  9
$LTSCALE
 40
1.0
  9
$OSMODE
 70
     1
  9
$ATTMODE
 70
     1
  9
$TEXTSIZE
 40
40.0
  9
$TRACEWID
 40
1.0
  9
$TEXTSTYLE
  7
ED40
  9
$CLAYER
  8
V0-VYPLNE
  9
$CELTYPE
  6
CONTINUOUS
  9
$CECOLOR
 62
    41
  9
$CELTSCALE
 40
1.0
  9
$DELOBJ
 70
     1
  9
$DISPSILH
 70
     0
  9
$DIMSCALE
 40
1.0
  9
$DIMASZ
 40
30.0
  9
$DIMEXO
 40
1.0
  9
$DIMDLI
 40
3.75
  9
$DIMRND
 40
0.0
  9
$DIMDLE
 40
0.0
  9
$DIMEXE
 40
1.25
  9
$DIMTP
 40
0.0
  9
$DIMTM
 40
0.0
  9
$DIMTXT
 40
30.0
  9
$DIMCEN
 40
3.0
  9
$DIMTSZ
 40
0.0
  9
$DIMTOL
 70
     0
  9
$DIMLIM
 70
     0
  9
$DIMTIH
 70
     0
  9
$DIMTOH
 70
     0
  9
$DIMSE1
 70
     0
  9
$DIMSE2
 70
     0
  9
$DIMTAD
 70
     1
  9
$DIMZIN
 70
     8
  9
$DIMBLK
  1

  9
$DIMASO
 70
     1
  9
$DIMSHO
 70
     1
  9
$DIMPOST
  1

  9
$DIMAPOST
  1

  9
$DIMALT
 70
     0
  9
$DIMALTD
 70
     4
  9
$DIMALTF
 40
0.0394
  9
$DIMLFAC
 40
1.0
  9
$DIMTOFL
 70
     1
  9
$DIMTVP
 40
0.0
  9
$DIMTIX
 70
     0
  9
$DIMSOXD
 70
     0
  9
$DIMSAH
 70
     1
  9
$DIMBLK1
  1
_OPEN
  9
$DIMBLK2
  1
_OPEN
  9
$DIMSTYLE
  2
ED30
  9
$DIMCLRD
 70
    41
  9
$DIMCLRE
 70
    41
  9
$DIMCLRT
 70
    41
  9
$DIMTFAC
 40
1.0
  9
$DIMGAP
 40
2.0
  9
$DIMJUST
 70
     0
  9
$DIMSD1
 70
     0
  9
$DIMSD2
 70
     0
  9
$DIMTOLJ
 70
     1
  9
$DIMTZIN
 70
     8
  9
$DIMALTZ
 70
     0
  9
$DIMALTTZ
 70
     0
  9
$DIMFIT
 70
     3
  9
$DIMUPT
 70
     0
  9
$DIMUNIT
 70
     2
  9
$DIMDEC
 70
     0
  9
$DIMTDEC
 70
     1
  9
$DIMALTU
 70
     8
  9
$DIMALTTD
 70
     4
  9
$DIMTXSTY
  7
ED30
  9
$DIMAUNIT
 70
     0
  9
$LUNITS
 70
     2
  9
$LUPREC
 70
     4
  9
$SKETCHINC
 40
1.0
  9
$FILLETRAD
 40
10.0
  9
$AUNITS
 70
     0
  9
$AUPREC
 70
     0
  9
$MENU
  1
.
  9
$ELEVATION
 40
0.0
  9
$PELEVATION
 40
0.0
  9
$THICKNESS
 40
0.0
  9
$LIMCHECK
 70
     0
  9
$BLIPMODE
 70
     0
  9
$CHAMFERA
 40
0.5
  9
$CHAMFERB
 40
0.5
  9
$CHAMFERC
 40
20.0
  9
$CHAMFERD
 40
0.0
  9
$SKPOLY
 70
     1
  9
$TDCREATE
 40
2451196.643769328
  9
$TDUPDATE
 40
2452915.902807176
  9
$TDINDWG
 40
1.0119087963
  9
$TDUSRTIMER
 40
1.0119087963
  9
$USRTIMER
 70
     1
  9
$ANGBASE
 50
0.0
  9
$ANGDIR
 70
     0
  9
$PDMODE
 70
    35
  9
$PDSIZE
 40
20.0
  9
$PLINEWID
 40
0.0
  9
$COORDS
 70
     1
  9
$SPLFRAME
 70
     0
  9
$SPLINETYPE
 70
     6
  9
$SPLINESEGS
 70
     8
  9
$ATTDIA
 70
     0
  9
$ATTREQ
 70
     1
  9
$HANDLING
 70
     1
  9
$HANDSEED
  5
42FF
  9
$SURFTAB1
 70
     6
  9
$SURFTAB2
 70
     6
  9
$SURFTYPE
 70
     6
  9
$SURFU
 70
     6
  9
$SURFV
 70
     6
  9
$UCSNAME
  2

  9
$UCSORG
 10
1601.628193807053
 20
64.7279990728679
 30
0.0
  9
$UCSXDIR
 10
1.0
 20
0.0
 30
0.0
  9
$UCSYDIR
 10
0.0
 20
1.0
 30
0.0
  9
$PUCSNAME
  2

  9
$PUCSORG
 10
0.0
 20
0.0
 30
0.0
  9
$PUCSXDIR
 10
1.0
 20
0.0
 30
0.0
  9
$PUCSYDIR
 10
0.0
 20
1.0
 30
0.0
  9
$USERI1
 70
     0
  9
$USERI2
 70
     0
  9
$USERI3
 70
     0
  9
$USERI4
 70
     0
  9
$USERI5
 70
     0
  9
$USERR1
 40
0.0
  9
$USERR2
 40
0.0
  9
$USERR3
 40
0.0
  9
$USERR4
 40
0.0
  9
$USERR5
 40
0.0
  9
$WORLDVIEW
 70
     1
  9
$SHADEDGE
 70
     3
  9
$SHADEDIF
 70
    70
  9
$TILEMODE
 70
     1
  9
$MAXACTVP
 70
    48
  9
$PINSBASE
 10
0.0
 20
0.0
 30
0.0
  9
$PLIMCHECK
 70
     0
  9
$PEXTMIN
 10
1.000000E+20
 20
1.000000E+20
 30
1.000000E+20
  9
$PEXTMAX
 10
-1.000000E+20
 20
-1.000000E+20
 30
-1.000000E+20
  9
$PLIMMIN
 10
0.0
 20
0.0
  9
$PLIMMAX
 10
420.0
 20
297.0
  9
$UNITMODE
 70
     0
  9
$VISRETAIN
 70
     1
  9
$PLINEGEN
 70
     0
  9
$PSLTSCALE
 70
     0
  9
$TREEDEPTH
 70
  3020
  9
$PICKSTYLE
 70
     0
  9
$CMLSTYLE
  2
STANDARD
  9
$CMLJUST
 70
     1
  9
$CMLSCALE
 40
3.0
  9
$PROXYGRAPHICS
 70
     1
  9
$MEASUREMENT
 70
     1
  0
ENDSEC
  0
SECTION
  2
CLASSES
  0
CLASS
  1
DICTIONARYVAR
  2
AcDbDictionaryVar
  3
"AutoCAD"
 90
        0
280
     0
281
     0
  0
CLASS
  1
LWPOLYLINE
  2
AcDbPolyline
  3
"AutoCAD"
 90
        0
280
     0
281
     1
  0
CLASS
  1
HATCH
  2
AcDbHatch
  3
"ACAD_SEDONA"
 90
        0
280
     0
281
     1
  0
ENDSEC
  0
SECTION
  2
TABLES
  0
TABLE
  2
VPORT
  5
8
100
AcDbSymbolTable
 70
     2
  0
VPORT
  5
42FE
100
AcDbSymbolTableRecord
100
AcDbViewportTableRecord
  2
*ACTIVE
 70
     0
 10
0.0
 20
0.0
 11
1.0
 21
1.0
 12
1434.27367
 22
-244.00638
 13
0.0
 23
0.0
 14
10.0
 24
10.0
 15
10.0
 25
10.0
 16
0.0
 26
0.0
 36
1.0
 17
0.0
 27
0.0
 37
0.0
 40
1289.716771
 41
1.730469
 42
50.0
 43
0.0
 44
0.0
 50
0.0
 51
0.0
 71
     0
 72
   100
 73
     1
 74
     1
 75
     0
 76
     0
 77
     0
 78
     0
  0
ENDTAB
  0
TABLE
  2
LTYPE
  5
5
100
AcDbSymbolTable
 70
     4
  0
LTYPE
  5
14
100
AcDbSymbolTableRecord
100
AcDbLinetypeTableRecord
  2
BYBLOCK
 70
     0
  3

 72
    65
 73
     0
 40
0.0
  0
LTYPE
  5
15
100
AcDbSymbolTableRecord
100
AcDbLinetypeTableRecord
  2
BYLAYER
 70
     0
  3

 72
    65
 73
     0
 40
0.0
  0
LTYPE
  5
16
100
AcDbSymbolTableRecord
100
AcDbLinetypeTableRecord
  2
CONTINUOUS
 70
     0
  3
Solid line
 72
    65
 73
     0
 40
0.0
  0
LTYPE
  5
7F
100
AcDbSymbolTableRecord
100
AcDbLinetypeTableRecord
  2
DASHDOT
 70
     0
  3
Dash dot __ . __ . __ . __ . __ . __ . __ . __
 72
    65
 73
     4
 40
25.4
 49
12.7
 74
     0
 49
-6.35
 74
     0
 49
0.0
 74
     0
 49
-6.35
 74
     0
  0
LTYPE
  5
1B9E
100
AcDbSymbolTableRecord
100
AcDbLinetypeTableRecord
  2
ACAD_ISO02W100
 70
     0
  3
ISO dash __ __ __ __ __ __ __ __ __ __ __ __ __
 72
    65
 73
     2
 40
15.0
 49
12.0
 74
     0
 49
-3.0
 74
     0
  0
LTYPE
  5
1B9F
100
AcDbSymbolTableRecord
100
AcDbLinetypeTableRecord
  2
DASHED
 70
     0
  3
Dashed __ __ __ __ __ __ __ __ __ __ __ __ __ _
 72
    65
 73
     2
 40
19.05
 49
12.7
 74
     0
 49
-6.35
 74
     0
  0
ENDTAB
  0
TABLE
  2
LAYER
  5
2
100
AcDbSymbolTable
 70
     5
  0
LAYER
  5
F
100
AcDbSymbolTableRecord
100
AcDbLayerTableRecord
  2
0
 70
     0
 62
     7
  6
CONTINUOUS
  0
LAYER
  5
9E
100
AcDbSymbolTableRecord
100
AcDbLayerTableRecord
  2
DEFPOINTS
 70
     0
 62
     7
  6
CONTINUOUS
  0
LAYER
  5
377
100
AcDbSymbolTableRecord
100
AcDbLayerTableRecord
  2
V0-OBRYS
 70
     0
 62
    90
  6
CONTINUOUS
  0
LAYER
  5
378
100
AcDbSymbolTableRecord
100
AcDbLayerTableRecord
  2
V0-VYPLNE
 70
     0
 62
    63
  6
DASHDOT
  0
LAYER
  5
1540
100
AcDbSymbolTableRecord
100
AcDbLayerTableRecord
  2
VO-OBRYS
 70
     0
 62
    90
  6
CONTINUOUS
  0
ENDTAB
  0
TABLE
  2
STYLE
  5
3
100
AcDbSymbolTable
 70
     6
  0
STYLE
  5
10
100
AcDbSymbolTableRecord
100
AcDbTextStyleTableRecord
  2
STANDARD
 70
     0
 40
0.0
 41
1.0
 50
0.0
 71
     0
 42
2.5
  3
ISOCP
  4

  0
STYLE
  5
331
100
AcDbSymbolTableRecord
100
AcDbTextStyleTableRecord
  2
ED20
 70
     0
 40
20.0
 41
1.0
 50
0.0
 71
     0
 42
2.5
  3
ISOCP.shx
  4

  0
STYLE
  5
648
100
AcDbSymbolTableRecord
100
AcDbTextStyleTableRecord
  2
ED10
 70
     0
 40
10.0
 41
1.0
 50
0.0
 71
     0
 42
10.0
  3
ISOCP.shx
  4

  0
STYLE
  5
F38
100
AcDbSymbolTableRecord
100
AcDbTextStyleTableRecord
  2
ED30
 70
     0
 40
30.0
 41
1.0
 50
0.0
 71
     0
 42
2.5
  3
ISOCP.shx
  4

  0
STYLE
  5
F39
100
AcDbSymbolTableRecord
100
AcDbTextStyleTableRecord
  2
ED40
 70
     0
 40
40.0
 41
1.0
 50
0.0
 71
     0
 42
40.0
  3
ISOCP.shx
  4

  0
STYLE
  5
1B9D
100
AcDbSymbolTableRecord
100
AcDbTextStyleTableRecord
  2

 70
     1
 40
0.0
 41
1.0
 50
0.0
 71
     0
 42
40.0
  3
ltypeshp.shx
  4

  0
ENDTAB
  0
TABLE
  2
VIEW
  5
6
100
AcDbSymbolTable
 70
     0
  0
ENDTAB
  0
TABLE
  2
UCS
  5
7
100
AcDbSymbolTable
 70
     0
  0
ENDTAB
  0
TABLE
  2
APPID
  5
9
100
AcDbSymbolTable
 70
     3
  0
APPID
  5
11
100
AcDbSymbolTableRecord
100
AcDbRegAppTableRecord
  2
ACAD
 70
     0
  0
APPID
  5
2570
100
AcDbSymbolTableRecord
100
AcDbRegAppTableRecord
  2
CONTENTBLOCKICON
 70
     0
  0
APPID
  5
2571
100
AcDbSymbolTableRecord
100
AcDbRegAppTableRecord
  2
CONTENTBLOCKDESCRIPTION
 70
     0
  0
ENDTAB
  0
TABLE
  2
DIMSTYLE
  5
A
100
AcDbSymbolTable
 70
     3
  0
DIMSTYLE
105
1D
100
AcDbSymbolTableRecord
100
AcDbDimStyleTableRecord
  2
STANDARD
 70
     0
  3

  4

  5

  6
_OPEN
  7
_OPEN
 40
0.0
 41
15.0
 42
0.625
 43
3.75
 44
1.25
 45
0.0
 46
0.0
 47
0.0
 48
0.0
140
15.0
141
2.5
142
0.0
143
0.0394
144
1.0
145
0.0
146
1.0
147
3.0
 71
     0
 72
     0
 73
     0
 74
     0
 75
     0
 76
     0
 77
     1
 78
     8
170
     0
171
     4
172
     1
173
     1
174
     0
175
     0
176
     0
177
     0
178
     0
270
     2
271
     0
272
     1
273
     8
274
     4
340
331
275
     0
280
     0
281
     0
282
     0
283
     1
284
     8
285
     0
286
     0
287
     3
288
     0
  0
DIMSTYLE
105
FE9
102
{ACAD_REACTORS
330
39FB
330
3A08
102
}
100
AcDbSymbolTableRecord
100
AcDbDimStyleTableRecord
  2
ED20
 70
     0
  3

  4

  5

  6
_OPEN
  7
_OPEN
 40
1.0
 41
20.0
 42
1.0
 43
3.75
 44
1.25
 45
0.0
 46
0.0
 47
0.0
 48
0.0
140
20.0
141
3.0
142
0.0
143
0.0394
144
1.0
145
0.0
146
1.0
147
2.0
 71
     0
 72
     0
 73
     0
 74
     0
 75
     0
 76
     0
 77
     1
 78
     8
170
     0
171
     4
172
     1
173
     1
174
     0
175
     0
176
    41
177
    41
178
    41
270
     2
271
     0
272
     1
273
     8
274
     4
340
331
275
     0
280
     0
281
     0
282
     0
283
     1
284
     8
285
     0
286
     0
287
     3
288
     0
  0
DIMSTYLE
105
320E
102
{ACAD_REACTORS
330
34A0
102
}
100
AcDbSymbolTableRecord
100
AcDbDimStyleTableRecord
  2
ED30
 70
     0
  3

  4

  5

  6
_OPEN
  7
_OPEN
 40
1.0
 41
30.0
 42
1.0
 43
3.75
 44
1.25
 45
0.0
 46
0.0
 47
0.0
 48
0.0
140
30.0
141
3.0
142
0.0
143
0.0394
144
1.0
145
0.0
146
1.0
147
2.0
 71
     0
 72
     0
 73
     0
 74
     0
 75
     0
 76
     0
 77
     1
 78
     8
170
     0
171
     4
172
     1
173
     1
174
     0
175
     0
176
    41
177
    41
178
    41
270
     2
271
     0
272
     1
273
     8
274
     4
340
F38
275
     0
280
     0
281
     0
282
     0
283
     1
284
     8
285
     0
286
     0
287
     3
288
     0
  0
ENDTAB
  0
TABLE
  2
BLOCK_RECORD
  5
1
100
AcDbSymbolTable
 70
     9
  0
BLOCK_RECORD
  5
1A
100
AcDbSymbolTableRecord
100
AcDbBlockTableRecord
  2
*MODEL_SPACE
  0
BLOCK_RECORD
  5
17
100
AcDbSymbolTableRecord
100
AcDbBlockTableRecord
  2
*PAPER_SPACE
  0
BLOCK_RECORD
  5
90
100
AcDbSymbolTableRecord
100
AcDbBlockTableRecord
  2
_OPEN
  0
BLOCK_RECORD
  5
330E
100
AcDbSymbolTableRecord
100
AcDbBlockTableRecord
  2
*D1
  0
BLOCK_RECORD
  5
3401
100
AcDbSymbolTableRecord
100
AcDbBlockTableRecord
  2
*D3
  0
BLOCK_RECORD
  5
3492
100
AcDbSymbolTableRecord
100
AcDbBlockTableRecord
  2
*D4
  0
BLOCK_RECORD
  5
39EF
100
AcDbSymbolTableRecord
100
AcDbBlockTableRecord
  2
*D5
  0
BLOCK_RECORD
  5
39FC
100
AcDbSymbolTableRecord
100
AcDbBlockTableRecord
  2
*D6
  0
BLOCK_RECORD
  5
3BD8
100
AcDbSymbolTableRecord
100
AcDbBlockTableRecord
  2
*D7
  0
BLOCK_RECORD
  5
3BE4
100
AcDbSymbolTableRecord
100
AcDbBlockTableRecord
  2
*D8
  0
ENDTAB
  0
ENDSEC
  0
SECTION
  2
BLOCKS
  0
BLOCK
  5
1B
100
AcDbEntity
  8
0
100
AcDbBlockBegin
  2
*MODEL_SPACE
 70
     0
 10
0.0
 20
0.0
 30
0.0
  3
*MODEL_SPACE
  1

  0
ENDBLK
  5
1C
100
AcDbEntity
  8
0
100
AcDbBlockEnd
  0
BLOCK
  5
18
100
AcDbEntity
 67
     1
  8
0
100
AcDbBlockBegin
  2
*PAPER_SPACE
 70
     0
 10
0.0
 20
0.0
 30
0.0
  3
*PAPER_SPACE
  1

  0
ENDBLK
  5
19
100
AcDbEntity
 67
     1
  8
0
100
AcDbBlockEnd
  0
BLOCK
  5
91
100
AcDbEntity
  8
0
100
AcDbBlockBegin
  2
_OPEN
 70
     0
 10
0.0
 20
0.0
 30
0.0
  3
_OPEN
  1

  0
LINE
  5
92
100
AcDbEntity
  8
0
  6
BYBLOCK
 62
     0
100
AcDbLine
 10
-1.0
 20
0.166667
 30
0.0
 11
0.0
 21
0.0
 31
0.0
  0
LINE
  5
93
100
AcDbEntity
  8
0
  6
BYBLOCK
 62
     0
100
AcDbLine
 10
0.0
 20
0.0
 30
0.0
 11
-1.0
 21
-0.166667
 31
0.0
  0
LINE
  5
94
100
AcDbEntity
  8
0
  6
BYBLOCK
 62
     0
100
AcDbLine
 10
0.0
 20
0.0
 30
0.0
 11
-1.0
 21
0.0
 31
0.0
  0
ENDBLK
  5
95
100
AcDbEntity
  8
0
100
AcDbBlockEnd
  0
BLOCK
  5
3ED8
100
AcDbEntity
  8
0
100
AcDbBlockBegin
  2
*D1
 70
     1
 10
0.0
 20
0.0
 30
0.0
  3
*D1
  1

  0
LINE
  5
3ED9
100
AcDbEntity
  8
0
  6
BYBLOCK
 62
    41
100
AcDbLine
 10
1195.474631
 20
264.727644
 30
0.0
 11
1281.391709
 21
264.727644
 31
0.0
  0
LINE
  5
3EDA
100
AcDbEntity
  8
0
  6
BYBLOCK
 62
    41
100
AcDbLine
 10
1195.474631
 20
-135.271646
 30
0.0
 11
1281.391709
 21
-135.271646
 31
0.0
  0
LINE
  5
3EDB
100
AcDbEntity
  8
0
  6
BYBLOCK
 62
    41
100
AcDbLine
 10
1280.141709
 20
234.727644
 30
0.0
 11
1280.141709
 21
-105.271646
 31
0.0
  0
INSERT
  5
3EDC
100
AcDbEntity
  8
0
  6
BYBLOCK
 62
    41
100
AcDbBlockReference
  2
_OPEN
 10
1280.141709
 20
264.727644
 30
0.0
 41
30.0
 42
30.0
 43
30.0
 50
90.0
  0
INSERT
  5
3EDD
100
AcDbEntity
  8
0
  6
BYBLOCK
 62
    41
100
AcDbBlockReference
  2
_OPEN
 10
1280.141709
 20
-135.271646
 30
0.0
 41
30.0
 42
30.0
 43
30.0
 50
270.0
  0
MTEXT
  5
3EDE
100
AcDbEntity
  8
0
  6
BYBLOCK
 62
    41
100
AcDbMText
 10
1263.141709
 20
57.011499
 30
0.0
 40
30.0
 41
0.0
 71
     5
 72
     1
  1
\A1;\U+2205400
  7
ED30
 11
0.0
 21
1.0
 31
0.0
  0
POINT
  5
3EDF
100
AcDbEntity
  8
DEFPOINTS
  6
BYBLOCK
 62
     0
100
AcDbPoint
 10
1194.474631
 20
264.727644
 30
0.0
  0
POINT
  5
3EE0
100
AcDbEntity
  8
DEFPOINTS
  6
BYBLOCK
 62
     0
100
AcDbPoint
 10
1194.474631
 20
-135.271646
 30
0.0
  0
POINT
  5
3EE1
100
AcDbEntity
  8
DEFPOINTS
  6
BYBLOCK
 62
     0
100
AcDbPoint
 10
1280.141709
 20
-135.271646
 30
0.0
  0
ENDBLK
  5
3EE2
100
AcDbEntity
  8
0
100
AcDbBlockEnd
  0
BLOCK
  5
3EEE
100
AcDbEntity
  8
0
100
AcDbBlockBegin
  2
*D3
 70
     1
 10
0.0
 20
0.0
 30
0.0
  3
*D3
  1

  0
LINE
  5
3EEF
100
AcDbEntity
  8
0
  6
BYBLOCK
 62
    41
100
AcDbLine
 10
1105.628106
 20
121.728455
 30
0.0
 11
976.367359
 21
121.728455
 31
0.0
  0
LINE
  5
3EF0
100
AcDbEntity
  8
0
  6
BYBLOCK
 62
    41
100
AcDbLine
 10
1105.628106
 20
7.727543
 30
0.0
 11
976.367359
 21
7.727543
 31
0.0
  0
LINE
  5
3EF1
100
AcDbEntity
  8
0
  6
BYBLOCK
 62
    41
100
AcDbLine
 10
977.617359
 20
91.728455
 30
0.0
 11
977.617359
 21
37.727543
 31
0.0
  0
INSERT
  5
3EF2
100
AcDbEntity
  8
0
  6
BYBLOCK
 62
    41
100
AcDbBlockReference
  2
_OPEN
 10
977.617359
 20
121.728455
 30
0.0
 41
30.0
 42
30.0
 43
30.0
 50
90.0
  0
INSERT
  5
3EF3
100
AcDbEntity
  8
0
  6
BYBLOCK
 62
    41
100
AcDbBlockReference
  2
_OPEN
 10
977.617359
 20
7.727543
 30
0.0
 41
30.0
 42
30.0
 43
30.0
 50
270.0
  0
MTEXT
  5
3EF4
100
AcDbEntity
  8
0
  6
BYBLOCK
 62
    41
100
AcDbMText
 10
960.617359
 20
57.011499
 30
0.0
 40
30.0
 41
0.0
 71
     5
 72
     1
  1
\A1;\U+2205114
  7
ED30
 11
0.0
 21
1.0
 31
0.0
  0
POINT
  5
3EF5
100
AcDbEntity
  8
DEFPOINTS
  6
BYBLOCK
 62
     0
100
AcDbPoint
 10
1106.628106
 20
121.728455
 30
0.0
  0
POINT
  5
3EF6
100
AcDbEntity
  8
DEFPOINTS
  6
BYBLOCK
 62
     0
100
AcDbPoint
 10
1106.628106
 20
7.727543
 30
0.0
  0
POINT
  5
3EF7
100
AcDbEntity
  8
DEFPOINTS
  6
BYBLOCK
 62
     0
100
AcDbPoint
 10
977.617359
 20
7.727543
 30
0.0
  0
ENDBLK
  5
3EF8
100
AcDbEntity
  8
0
100
AcDbBlockEnd
  0
BLOCK
  5
3EF9
100
AcDbEntity
  8
0
100
AcDbBlockBegin
  2
*D4
 70
     1
 10
0.0
 20
0.0
 30
0.0
  3
*D4
  1

  0
LINE
  5
3EFA
100
AcDbEntity
  8
0
  6
BYBLOCK
 62
    41
100
AcDbLine
 10
1119.668356
 20
-186.422001
 30
0.0
 11
1119.668356
 21
-241.555287
 31
0.0
  0
LINE
  5
3EFB
100
AcDbEntity
  8
0
  6
BYBLOCK
 62
    41
100
AcDbLine
 10
1107.628356
 20
-186.422001
 30
0.0
 11
1107.628356
 21
-241.555287
 31
0.0
  0
LINE
  5
3EFC
100
AcDbEntity
  8
0
  6
BYBLOCK
 62
    41
100
AcDbLine
 10
1149.668356
 20
-240.305287
 30
0.0
 11
1179.668356
 21
-240.305287
 31
0.0
  0
LINE
  5
3EFD
100
AcDbEntity
  8
0
  6
BYBLOCK
 62
    41
100
AcDbLine
 10
1077.628356
 20
-240.305287
 30
0.0
 11
1014.826584
 21
-240.305287
 31
0.0
  0
LINE
  5
3EFE
100
AcDbEntity
  8
0
  6
BYBLOCK
 62
    41
100
AcDbLine
 10
1119.668356
 20
-240.305287
 30
0.0
 11
1107.628356
 21
-240.305287
 31
0.0
  0
INSERT
  5
3EFF
100
AcDbEntity
  8
0
  6
BYBLOCK
 62
    41
100
AcDbBlockReference
  2
_OPEN
 10
1119.668356
 20
-240.305287
 30
0.0
 41
30.0
 42
30.0
 43
30.0
 50
180.0
  0
INSERT
  5
3F00
100
AcDbEntity
  8
0
  6
BYBLOCK
 62
    41
100
AcDbBlockReference
  2
_OPEN
 10
1107.628356
 20
-240.305287
 30
0.0
 41
30.0
 42
30.0
 43
30.0
  0
MTEXT
  5
3F01
100
AcDbEntity
  8
0
  6
BYBLOCK
 62
    41
100
AcDbMText
 10
1031.22747
 20
-223.302334
 30
0.0
 40
30.0
 41
0.0
 71
     5
 72
     1
  1
\A1;12
  7
ED30
  0
POINT
  5
3F02
100
AcDbEntity
  8
DEFPOINTS
  6
BYBLOCK
 62
     0
100
AcDbPoint
 10
1119.668356
 20
-185.422001
 30
0.0
  0
POINT
  5
3F03
100
AcDbEntity
  8
DEFPOINTS
  6
BYBLOCK
 62
     0
100
AcDbPoint
 10
1107.628356
 20
-185.422001
 30
0.0
  0
POINT
  5
3F04
100
AcDbEntity
  8
DEFPOINTS
  6
BYBLOCK
 62
     0
100
AcDbPoint
 10
1107.628356
 20
-240.305287
 30
0.0
  0
ENDBLK
  5
3F05
100
AcDbEntity
  8
0
100
AcDbBlockEnd
  0
BLOCK
  5
3F06
100
AcDbEntity
  8
0
100
AcDbBlockBegin
  2
*D5
 70
     1
 10
0.0
 20
0.0
 30
0.0
  3
*D5
  1

  0
LINE
  5
3F07
100
AcDbEntity
  8
0
  6
BYBLOCK
 62
    41
100
AcDbLine
 10
1194.474631
 20
-136.271646
 30
0.0
 11
1194.474631
 21
-241.477912
 31
0.0
  0
LINE
  5
3F08
100
AcDbEntity
  8
0
  6
BYBLOCK
 62
    41
100
AcDbLine
 10
1119.668356
 20
-186.422001
 30
0.0
 11
1119.668356
 21
-241.477912
 31
0.0
  0
LINE
  5
3F09
100
AcDbEntity
  8
0
  6
BYBLOCK
 62
    41
100
AcDbLine
 10
1164.474631
 20
-240.227912
 30
0.0
 11
1149.668356
 21
-240.227912
 31
0.0
  0
INSERT
  5
3F0A
100
AcDbEntity
  8
0
  6
BYBLOCK
 62
    41
100
AcDbBlockReference
  2
_OPEN
 10
1194.474631
 20
-240.227912
 30
0.0
 41
30.0
 42
30.0
 43
30.0
  0
INSERT
  5
3F0B
100
AcDbEntity
  8
0
  6
BYBLOCK
 62
    41
100
AcDbBlockReference
  2
_OPEN
 10
1119.668356
 20
-240.227912
 30
0.0
 41
30.0
 42
30.0
 43
30.0
 50
180.0
  0
MTEXT
  5
3F0C
100
AcDbEntity
  8
0
  6
BYBLOCK
 62
    41
100
AcDbMText
 10
1159.131971
 20
-223.227912
 30
0.0
 40
30.0
 41
0.0
 71
     5
 72
     1
  1
\A1;75
  7
ED30
  0
POINT
  5
3F0D
100
AcDbEntity
  8
DEFPOINTS
  6
BYBLOCK
 62
     0
100
AcDbPoint
 10
1194.474631
 20
-135.271646
 30
0.0
  0
POINT
  5
3F0E
100
AcDbEntity
  8
DEFPOINTS
  6
BYBLOCK
 62
     0
100
AcDbPoint
 10
1119.668356
 20
-185.422001
 30
0.0
  0
POINT
  5
3F0F
100
AcDbEntity
  8
DEFPOINTS
  6
BYBLOCK
 62
     0
100
AcDbPoint
 10
1119.668356
 20
-240.227912
 30
0.0
  0
ENDBLK
  5
3F10
100
AcDbEntity
  8
0
100
AcDbBlockEnd
  0
BLOCK
  5
3F11
100
AcDbEntity
  8
0
100
AcDbBlockBegin
  2
*D6
 70
     1
 10
0.0
 20
0.0
 30
0.0
  3
*D6
  1

  0
LINE
  5
3F12
100
AcDbEntity
  8
0
  6
BYBLOCK
 62
    41
100
AcDbLine
 10
1194.474631
 20
-136.271646
 30
0.0
 11
1194.474631
 21
-286.819519
 31
0.0
  0
LINE
  5
3F13
100
AcDbEntity
  8
0
  6
BYBLOCK
 62
    41
100
AcDbLine
 10
1065.525734
 20
23.727903
 30
0.0
 11
1065.525734
 21
-286.819519
 31
0.0
  0
LINE
  5
3F14
100
AcDbEntity
  8
0
  6
BYBLOCK
 62
    41
100
AcDbLine
 10
1164.474631
 20
-285.569519
 30
0.0
 11
1095.525734
 21
-285.569519
 31
0.0
  0
INSERT
  5
3F15
100
AcDbEntity
  8
0
  6
BYBLOCK
 62
    41
100
AcDbBlockReference
  2
_OPEN
 10
1194.474631
 20
-285.569519
 30
0.0
 41
30.0
 42
30.0
 43
30.0
  0
INSERT
  5
3F16
100
AcDbEntity
  8
0
  6
BYBLOCK
 62
    41
100
AcDbBlockReference
  2
_OPEN
 10
1065.525734
 20
-285.569519
 30
0.0
 41
30.0
 42
30.0
 43
30.0
 50
180.0
  0
MTEXT
  5
3F17
100
AcDbEntity
  8
0
  6
BYBLOCK
 62
    41
100
AcDbMText
 10
1113.753318
 20
-268.566566
 30
0.0
 40
30.0
 41
0.0
 71
     5
 72
     1
  1
\A1;129
  7
ED30
  0
POINT
  5
3F18
100
AcDbEntity
  8
DEFPOINTS
  6
BYBLOCK
 62
     0
100
AcDbPoint
 10
1194.474631
 20
-135.271646
 30
0.0
  0
POINT
  5
3F19
100
AcDbEntity
  8
DEFPOINTS
  6
BYBLOCK
 62
     0
100
AcDbPoint
 10
1065.525734
 20
24.727903
 30
0.0
  0
POINT
  5
3F1A
100
AcDbEntity
  8
DEFPOINTS
  6
BYBLOCK
 62
     0
100
AcDbPoint
 10
1065.525734
 20
-285.569519
 30
0.0
  0
ENDBLK
  5
3F1B
100
AcDbEntity
  8
0
100
AcDbBlockEnd
  0
BLOCK
  5
3F1C
100
AcDbEntity
  8
0
100
AcDbBlockBegin
  2
*D7
 70
     1
 10
0.0
 20
0.0
 30
0.0
  3
*D7
  1

  0
LINE
  5
3F1D
100
AcDbEntity
  8
0
  6
BYBLOCK
 62
    41
100
AcDbLine
 10
1451.802654
 20
-180.701741
 30
0.0
 11
1451.802654
 21
-319.566233
 31
0.0
  0
LINE
  5
3F1E
100
AcDbEntity
  8
0
  6
BYBLOCK
 62
    41
100
AcDbLine
 10
1951.453734
 20
-180.701741
 30
0.0
 11
1951.453734
 21
-319.566233
 31
0.0
  0
LINE
  5
3F1F
100
AcDbEntity
  8
0
  6
BYBLOCK
 62
    41
100
AcDbLine
 10
1481.802654
 20
-318.316233
 30
0.0
 11
1921.453734
 21
-318.316233
 31
0.0
  0
INSERT
  5
3F20
100
AcDbEntity
  8
0
  6
BYBLOCK
 62
    41
100
AcDbBlockReference
  2
_OPEN
 10
1451.802654
 20
-318.316233
 30
0.0
 41
30.0
 42
30.0
 43
30.0
 50
180.0
  0
INSERT
  5
3F21
100
AcDbEntity
  8
0
  6
BYBLOCK
 62
    41
100
AcDbBlockReference
  2
_OPEN
 10
1951.453734
 20
-318.316233
 30
0.0
 41
30.0
 42
30.0
 43
30.0
  0
MTEXT
  5
3F22
100
AcDbEntity
  8
0
  6
BYBLOCK
 62
    41
100
AcDbMText
 10
1703.675796
 20
-301.316233
 30
0.0
 40
30.0
 41
0.0
 71
     5
 72
     1
  1
\A1;500
  7
ED30
  0
POINT
  5
3F23
100
AcDbEntity
  8
DEFPOINTS
  6
BYBLOCK
 62
     0
100
AcDbPoint
 10
1451.802654
 20
-179.701741
 30
0.0
  0
POINT
  5
3F24
100
AcDbEntity
  8
DEFPOINTS
  6
BYBLOCK
 62
     0
100
AcDbPoint
 10
1951.453734
 20
-179.701741
 30
0.0
  0
POINT
  5
3F25
100
AcDbEntity
  8
DEFPOINTS
  6
BYBLOCK
 62
     0
100
AcDbPoint
 10
1951.453734
 20
-318.316233
 30
0.0
  0
ENDBLK
  5
3F26
100
AcDbEntity
  8
0
100
AcDbBlockEnd
  0
BLOCK
  5
3F27
100
AcDbEntity
  8
0
100
AcDbBlockBegin
  2
*D8
 70
     1
 10
0.0
 20
0.0
 30
0.0
  3
*D8
  1

  0
LINE
  5
3F28
100
AcDbEntity
  8
0
  6
BYBLOCK
 62
    41
100
AcDbLine
 10
1491.628245
 20
-171.271912
 30
0.0
 11
1491.628245
 21
-251.553827
 31
0.0
  0
LINE
  5
3F29
100
AcDbEntity
  8
0
  6
BYBLOCK
 62
    41
100
AcDbLine
 10
1911.628105
 20
-171.27195
 30
0.0
 11
1911.628105
 21
-251.553827
 31
0.0
  0
LINE
  5
3F2A
100
AcDbEntity
  8
0
  6
BYBLOCK
 62
    41
100
AcDbLine
 10
1521.628245
 20
-250.303827
 30
0.0
 11
1881.628105
 21
-250.303827
 31
0.0
  0
INSERT
  5
3F2B
100
AcDbEntity
  8
0
  6
BYBLOCK
 62
    41
100
AcDbBlockReference
  2
_OPEN
 10
1491.628245
 20
-250.303827
 30
0.0
 41
30.0
 42
30.0
 43
30.0
 50
180.0
  0
INSERT
  5
3F2C
100
AcDbEntity
  8
0
  6
BYBLOCK
 62
    41
100
AcDbBlockReference
  2
_OPEN
 10
1911.628105
 20
-250.303827
 30
0.0
 41
30.0
 42
30.0
 43
30.0
  0
MTEXT
  5
3F2D
100
AcDbEntity
  8
0
  6
BYBLOCK
 62
    41
100
AcDbMText
 10
1701.154759
 20
-233.300874
 30
0.0
 40
30.0
 41
0.0
 71
     5
 72
     1
  1
\A1;420
  7
ED30
  0
POINT
  5
3F2E
100
AcDbEntity
  8
DEFPOINTS
  6
BYBLOCK
 62
     0
100
AcDbPoint
 10
1491.628245
 20
-170.271912
 30
0.0
  0
POINT
  5
3F2F
100
AcDbEntity
  8
DEFPOINTS
  6
BYBLOCK
 62
     0
100
AcDbPoint
 10
1911.628105
 20
-170.27195
 30
0.0
  0
POINT
  5
3F30
100
AcDbEntity
  8
DEFPOINTS
  6
BYBLOCK
 62
     0
100
AcDbPoint
 10
1911.628105
 20
-250.303827
 30
0.0
  0
ENDBLK
  5
3F31
100
AcDbEntity
  8
0
100
AcDbBlockEnd
  0
ENDSEC
  0
SECTION
  2
ENTITIES
  0
TEXT
  5
3152
100
AcDbEntity
  8
V0-VYPLNE
  6
CONTINUOUS
 62
    51
100
AcDbText
 10
1538.345021
 20
-595.381354
 30
0.0
 40
36.0
  1
AXIALNI VENTILATOR
  7
ED30
100
AcDbText
  0
TEXT
  5
3153
100
AcDbEntity
  8
V0-VYPLNE
  6
CONTINUOUS
 62
    51
100
AcDbText
 10
1638.518438
 20
-654.520145
 30
0.0
 40
36.0
  1
NA STENU
  7
ED30
100
AcDbText
  0
TEXT
  5
3154
100
AcDbEntity
  8
V0-VYPLNE
 62
     6
100
AcDbText
 10
1635.014069
 20
-528.582359
 30
0.0
 40
48.0
  1
HCF-400
  7
ED40
100
AcDbText
  0
LINE
  5
3304
100
AcDbEntity
  8
V0-OBRYS
  6
CONTINUOUS
 62
    90
 48
2.0
100
AcDbLine
 10
1194.474631
 20
-135.271646
 30
0.0
 11
1148.880461
 21
-135.271646
 31
0.0
  0
LINE
  5
3305
100
AcDbEntity
  8
V0-OBRYS
  6
CONTINUOUS
 62
    90
 48
2.0
100
AcDbLine
 10
1194.474631
 20
264.727644
 30
0.0
 11
1148.880461
 21
264.727644
 31
0.0
  0
ARC
  5
3306
100
AcDbEntity
  8
V0-OBRYS
  6
CONTINUOUS
 62
    90
 48
2.0
100
AcDbCircle
 10
1148.880461
 20
-156.236171
 30
0.0
 40
20.964525
100
AcDbArc
 50
90.0
 51
149.420799
  0
ARC
  5
3309
100
AcDbEntity
  8
V0-OBRYS
  6
CONTINUOUS
 62
    90
 48
2.0
100
AcDbCircle
 10
1148.880461
 20
285.692169
 30
0.0
 40
20.964525
100
AcDbArc
 50
210.579201
 51
270.0
  0
DIMENSION
  5
330B
100
AcDbEntity
  8
V0-VYPLNE
  6
CONTINUOUS
 62
    41
100
AcDbDimension
  2
*D1
 10
1280.141709
 20
-135.271646
 30
0.0
 11
1280.141709
 21
57.011499
 31
0.0
 70
   160
  1
%%c<>
  3
ED30
100
AcDbAlignedDimension
 13
1194.474631
 23
264.727644
 33
0.0
 14
1194.474631
 24
-135.271646
 34
0.0
 50
90.0
100
AcDbRotatedDimension
1001
ACAD
1000
DSTYLE
1002
{
1002
}
  0
LINE
  5
330C
100
AcDbEntity
  8
V0-OBRYS
  6
CONTINUOUS
 62
    90
 48
2.0
100
AcDbLine
 10
1194.474631
 20
64.727999
 30
0.0
 11
1194.474631
 21
264.727644
 31
0.0
  0
LINE
  5
330D
100
AcDbEntity
  8
V0-OBRYS
  6
CONTINUOUS
 62
    90
 48
2.0
100
AcDbLine
 10
1194.474631
 20
64.727999
 30
0.0
 11
1194.474631
 21
-135.271646
 31
0.0
  0
LINE
  5
3326
100
AcDbEntity
  8
V0-VYPLNE
  6
DASHED
 62
    52
100
AcDbLine
 10
1141.598553
 20
0.689748
 30
0.0
 11
1153.698624
 21
-133.468858
 31
0.0
  0
LINE
  5
3327
100
AcDbEntity
  8
V0-VYPLNE
  6
DASHED
 62
    52
100
AcDbLine
 10
1195.657599
 20
0.689748
 30
0.0
 11
1183.557528
 21
-133.468858
 31
0.0
  0
LINE
  5
3335
100
AcDbEntity
  8
V0-VYPLNE
  6
DASHED
 62
    52
100
AcDbLine
 10
1153.698624
 20
-133.468858
 30
0.0
 11
1183.557528
 21
-133.468858
 31
0.0
  0
ELLIPSE
  5
3336
100
AcDbEntity
  8
V0-OBRYS
  6
CONTINUOUS
 62
    90
100
AcDbEllipse
 10
399.329728
 20
33.901191
 30
0.0
 11
797.479895466117
 21
76.20232472790563
 31
0.0
210
0.0
220
0.0
230
-0.9999999999999998
 40
0.822171
 41
-0.0116123588215376
 42
0.0685565765186036
  0
LINE
  5
3337
100
AcDbEntity
  8
V0-VYPLNE
  6
DASHED
 62
    52
100
AcDbLine
 10
1141.628076
 20
65.009573
 30
0.0
 11
1141.628076
 21
122.765573
 31
0.0
  0
LINE
  5
3338
100
AcDbEntity
  8
V0-VYPLNE
  6
DASHED
 62
    52
100
AcDbLine
 10
1168.628076
 20
126.78911
 30
0.0
 11
1168.628076
 21
65.009573
 31
0.0
  0
LINE
  5
3339
100
AcDbEntity
  8
V0-VYPLNE
  6
DASHDOT
 62
    63
100
AcDbLine
 10
1065.525732
 20
64.727914
 30
0.0
 11
1221.112425
 21
64.727914
 31
0.0
  0
ELLIPSE
  5
333A
100
AcDbEntity
  8
V0-VYPLNE
  6
DASHED
 62
    52
100
AcDbEllipse
 10
1168.628076
 20
129.960712
 30
0.0
 11
-0.0000000000005348
 21
126.7306765837048
 31
0.0
210
0.0
220
0.0
230
-1.0
 40
0.852273
 41
2.929991421004502
 42
3.394251156505877
  0
LINE
  5
333B
100
AcDbEntity
  8
V0-VYPLNE
  6
DASHED
 62
    52
100
AcDbLine
 10
1142.104476
 20
55.372703
 30
0.0
 11
1197.686108
 21
74.977051
 31
0.0
  0
LINE
  5
333C
100
AcDbEntity
  8
V0-VYPLNE
  6
DASHED
 62
    52
100
AcDbLine
 10
1168.628076
 20
3.230035
 30
0.0
 11
1168.628076
 21
65.009573
 31
0.0
  0
LINE
  5
333D
100
AcDbEntity
  8
V0-VYPLNE
  6
DASHED
 62
    52
100
AcDbLine
 10
1141.628076
 20
65.009573
 30
0.0
 11
1141.628076
 21
7.253573
 31
0.0
  0
LINE
  5
333E
100
AcDbEntity
  8
V0-VYPLNE
  6
DASHED
 62
    52
100
AcDbLine
 10
1146.208105
 20
6.0933
 30
0.0
 11
1141.598553
 21
0.689748
 31
0.0
  0
ELLIPSE
  5
333F
100
AcDbEntity
  8
V0-VYPLNE
  6
DASHED
 62
    52
100
AcDbEllipse
 10
1168.628076
 20
64.727914
 30
0.0
 11
-0.0000000000000783
 21
5.966556111557961
 31
0.0
210
0.0
220
0.0
230
-1.0
 40
0.852273
 41
0.0
 42
6.283185307179586
  0
ELLIPSE
  5
3340
100
AcDbEntity
  8
V0-OBRYS
  6
CONTINUOUS
 62
    90
100
AcDbEllipse
 10
399.329728
 20
96.117954
 30
0.0
 11
-797.4798954661164
 21
76.20232472790952
 31
0.0
210
0.0
220
0.0
230
-1.0
 40
0.822171
 41
3.073036077071177
 42
3.153205012411314
  0
LINE
  5
3341
100
AcDbEntity
  8
V0-VYPLNE
  6
DASHED
 62
    52
100
AcDbLine
 10
1191.048047
 20
6.0933
 30
0.0
 11
1195.657599
 21
0.689748
 31
0.0
  0
ELLIPSE
  5
3342
100
AcDbEntity
  8
V0-VYPLNE
  6
DASHED
 62
    52
100
AcDbEllipse
 10
1190.052607
 20
12.939632
 30
0.0
 11
-0.0000000000007886
 21
7.039999999999893
 31
0.0
210
0.0
220
0.0
230
-1.0
 40
0.852273
 41
1.660762687017303
 42
2.929991421004685
  0
LINE
  5
3343
100
AcDbEntity
  8
V0-VYPLNE
  6
DASHED
 62
    52
100
AcDbLine
 10
1153.698624
 20
263.488003
 30
0.0
 11
1183.557528
 21
263.488003
 31
0.0
  0
ELLIPSE
  5
3344
100
AcDbEntity
  8
V0-VYPLNE
  6
DASHED
 62
    52
100
AcDbEllipse
 10
1168.628076
 20
0.058433
 30
0.0
 11
0.0000000000005882
 21
126.7306765837048
 31
0.0
210
0.0
220
0.0
230
-1.0
 40
0.852273
 41
-0.2526585029160844
 42
0.2116012325852872
  0
LINE
  5
3345
100
AcDbEntity
  8
V0-VYPLNE
  6
DASHED
 62
    52
100
AcDbLine
 10
1141.598553
 20
129.329397
 30
0.0
 11
1153.698624
 21
263.488003
 31
0.0
  0
LINE
  5
3346
100
AcDbEntity
  8
V0-VYPLNE
  6
DASHED
 62
    52
100
AcDbLine
 10
1146.208105
 20
123.925845
 30
0.0
 11
1141.598553
 21
129.329397
 31
0.0
  0
LINE
  5
3347
100
AcDbEntity
  8
V0-VYPLNE
  6
DASHED
 62
    52
100
AcDbLine
 10
1195.657599
 20
129.329397
 30
0.0
 11
1183.557528
 21
263.488003
 31
0.0
  0
LINE
  5
3348
100
AcDbEntity
  8
V0-VYPLNE
  6
DASHED
 62
    52
100
AcDbLine
 10
1191.048047
 20
123.925845
 30
0.0
 11
1195.657599
 21
129.329397
 31
0.0
  0
LINE
  5
3355
100
AcDbEntity
  8
V0-OBRYS
  6
CONTINUOUS
 62
    90
 48
2.0
100
AcDbLine
 10
1107.628356
 20
314.877999
 30
0.0
 11
1107.628356
 21
64.727999
 31
0.0
  0
LINE
  5
3358
100
AcDbEntity
  8
V0-VYPLNE
  6
DASHDOT
 62
    63
 48
2.0
100
AcDbLine
 10
1106.713274
 20
64.727999
 30
0.0
 11
1211.173052
 21
64.727999
 31
0.0
  0
LINE
  5
335B
100
AcDbEntity
  8
V0-OBRYS
  6
CONTINUOUS
 62
    90
 48
2.0
100
AcDbLine
 10
1107.628356
 20
-210.422001
 30
0.0
 11
1107.628356
 21
63.227999
 31
0.0
  0
LINE
  5
335C
100
AcDbEntity
  8
V0-OBRYS
  6
CONTINUOUS
 62
    90
 48
2.0
100
AcDbLine
 10
1087.720042
 20
-119.453395
 30
0.0
 11
1087.720042
 21
-37.949165
 31
0.0
  0
LINE
  5
335D
100
AcDbEntity
  8
V0-OBRYS
  6
CONTINUOUS
 62
    90
 48
2.0
100
AcDbLine
 10
1089.937372
 20
-119.453395
 30
0.0
 11
1089.937372
 21
-37.949165
 31
0.0
  0
LINE
  5
335E
100
AcDbEntity
  8
V0-OBRYS
  6
CONTINUOUS
 62
    90
 48
2.0
100
AcDbLine
 10
1119.668356
 20
-185.422001
 30
0.0
 11
1107.628356
 21
-185.422001
 31
0.0
  0
ARC
  5
335F
100
AcDbEntity
  8
V0-OBRYS
  6
CONTINUOUS
 62
    90
 48
2.0
100
AcDbCircle
 10
1090.671406
 20
-144.279014
 30
0.0
 40
20.343317
100
AcDbArc
 50
33.633732
 51
82.381915
  0
ARC
  5
3360
100
AcDbEntity
  8
V0-OBRYS
  6
CONTINUOUS
 62
    90
 48
2.0
100
AcDbCircle
 10
1090.556632
 20
-145.512963
 30
0.0
 40
19.400425
100
AcDbArc
 50
40.121121
 51
83.630132
  0
ARC
  5
3361
100
AcDbEntity
  8
V0-OBRYS
  6
CONTINUOUS
 62
    90
 48
2.0
100
AcDbCircle
 10
1094.820042
 20
-119.453395
 30
0.0
 40
4.882669
100
AcDbArc
 50
180.0
 51
252.703019
  0
ARC
  5
3362
100
AcDbEntity
  8
V0-OBRYS
  6
CONTINUOUS
 62
    90
 48
2.0
100
AcDbCircle
 10
1094.820042
 20
-119.453395
 30
0.0
 40
7.1
100
AcDbArc
 50
180.0
 51
252.703019
  0
CIRCLE
  5
3363
100
AcDbEntity
  8
V0-OBRYS
  6
CONTINUOUS
 62
    90
 48
2.0
100
AcDbCircle
 10
1085.436191
 20
-113.815497
 30
0.0
 40
2.283588
  0
CIRCLE
  5
3364
100
AcDbEntity
  8
V0-OBRYS
  6
CONTINUOUS
 62
    90
 48
2.0
100
AcDbCircle
 10
1085.436191
 20
-96.775497
 30
0.0
 40
2.283588
  0
LINE
  5
3365
100
AcDbEntity
  8
V0-OBRYS
  6
CONTINUOUS
 62
    90
 48
2.0
100
AcDbLine
 10
1105.391825
 20
-146.258219
 30
0.0
 11
1105.391825
 21
-133.011221
 31
0.0
  0
ARC
  5
3366
100
AcDbEntity
  8
V0-OBRYS
  6
CONTINUOUS
 62
    90
 48
2.0
100
AcDbCircle
 10
1106.51009
 20
-146.258219
 30
0.0
 40
1.118266
100
AcDbArc
 50
180.0
 51
0.0
  0
ARC
  5
3367
100
AcDbEntity
  8
V0-OBRYS
  6
CONTINUOUS
 62
    90
 48
2.0
100
AcDbCircle
 10
1100.528356
 20
-22.963536
 30
0.0
 40
7.1
100
AcDbArc
 50
289.78203
 51
0.0
  0
LINE
  5
3368
100
AcDbEntity
  8
V0-OBRYS
  6
CONTINUOUS
 62
    90
 48
2.0
100
AcDbLine
 10
1092.417098
 20
-31.268158
 30
0.0
 11
1102.9313
 21
-29.644544
 31
0.0
  0
LINE
  5
3369
100
AcDbEntity
  8
V0-OBRYS
  6
CONTINUOUS
 62
    90
 48
2.0
100
AcDbLine
 10
1093.167537
 20
-33.354637
 30
0.0
 11
1103.68174
 21
-31.731023
 31
0.0
  0
ARC
  5
336A
100
AcDbEntity
  8
V0-OBRYS
  6
CONTINUOUS
 62
    90
 48
2.0
100
AcDbCircle
 10
1094.820042
 20
-37.949165
 30
0.0
 40
4.882669
100
AcDbArc
 50
109.78203
 51
180.0
  0
ARC
  5
336B
100
AcDbEntity
  8
V0-OBRYS
  6
CONTINUOUS
 62
    90
 48
2.0
100
AcDbCircle
 10
1094.820042
 20
-37.949165
 30
0.0
 40
7.1
100
AcDbArc
 50
109.78203
 51
180.0
  0
CIRCLE
  5
336C
100
AcDbEntity
  8
V0-OBRYS
  6
CONTINUOUS
 62
    90
 48
2.0
100
AcDbCircle
 10
1085.436191
 20
-79.735497
 30
0.0
 40
2.283588
  0
CIRCLE
  5
336D
100
AcDbEntity
  8
V0-OBRYS
  6
CONTINUOUS
 62
    90
 48
2.0
100
AcDbCircle
 10
1085.436191
 20
-62.695497
 30
0.0
 40
2.283588
  0
CIRCLE
  5
336E
100
AcDbEntity
  8
V0-OBRYS
  6
CONTINUOUS
 62
    90
 48
2.0
100
AcDbCircle
 10
1085.436191
 20
-45.655497
 30
0.0
 40
2.283588
  0
ARC
  5
336F
100
AcDbEntity
  8
V0-OBRYS
  6
CONTINUOUS
 62
    90
 48
2.0
100
AcDbCircle
 10
1100.528356
 20
-22.963536
 30
0.0
 40
9.317331
100
AcDbArc
 50
289.78203
 51
319.642674
  0
ARC
  5
3370
100
AcDbEntity
  8
V0-OBRYS
  6
CONTINUOUS
 62
    90
 48
2.0
100
AcDbCircle
 10
1094.820042
 20
167.405163
 30
0.0
 40
4.882669
100
AcDbArc
 50
180.0
 51
250.21797
  0
ARC
  5
3371
100
AcDbEntity
  8
V0-OBRYS
  6
CONTINUOUS
 62
    90
 48
2.0
100
AcDbCircle
 10
1094.820042
 20
167.405163
 30
0.0
 40
7.1
100
AcDbArc
 50
180.0
 51
250.21797
  0
LINE
  5
3372
100
AcDbEntity
  8
V0-OBRYS
  6
CONTINUOUS
 62
    90
 48
2.0
100
AcDbLine
 10
1093.167537
 20
162.810635
 30
0.0
 11
1103.68174
 21
161.187021
 31
0.0
  0
LINE
  5
3373
100
AcDbEntity
  8
V0-OBRYS
  6
CONTINUOUS
 62
    90
 48
2.0
100
AcDbLine
 10
1092.417098
 20
160.724156
 30
0.0
 11
1102.9313
 21
159.100542
 31
0.0
  0
ARC
  5
3374
100
AcDbEntity
  8
V0-OBRYS
  6
CONTINUOUS
 62
    90
 48
2.0
100
AcDbCircle
 10
1100.528356
 20
152.419535
 30
0.0
 40
9.317331
100
AcDbArc
 50
40.357326
 51
70.21797
  0
ARC
  5
3375
100
AcDbEntity
  8
V0-OBRYS
  6
CONTINUOUS
 62
    90
 48
2.0
100
AcDbCircle
 10
1100.528356
 20
152.419535
 30
0.0
 40
7.1
100
AcDbArc
 50
0.0
 51
70.21797
  0
CIRCLE
  5
3376
100
AcDbEntity
  8
V0-OBRYS
  6
CONTINUOUS
 62
    90
 48
2.0
100
AcDbCircle
 10
1085.535968
 20
226.231495
 30
0.0
 40
2.283588
  0
LINE
  5
3377
100
AcDbEntity
  8
V0-OBRYS
  6
CONTINUOUS
 62
    90
 48
2.0
100
AcDbLine
 10
1089.937372
 20
248.909393
 30
0.0
 11
1089.937372
 21
167.405163
 31
0.0
  0
LINE
  5
3378
100
AcDbEntity
  8
V0-OBRYS
  6
CONTINUOUS
 62
    90
 48
2.0
100
AcDbLine
 10
1087.720042
 20
248.909393
 30
0.0
 11
1087.720042
 21
167.405163
 31
0.0
  0
CIRCLE
  5
3379
100
AcDbEntity
  8
V0-OBRYS
  6
CONTINUOUS
 62
    90
 48
2.0
100
AcDbCircle
 10
1085.535968
 20
209.191495
 30
0.0
 40
2.283588
  0
CIRCLE
  5
337A
100
AcDbEntity
  8
V0-OBRYS
  6
CONTINUOUS
 62
    90
 48
2.0
100
AcDbCircle
 10
1085.535968
 20
175.111495
 30
0.0
 40
2.283588
  0
CIRCLE
  5
337B
100
AcDbEntity
  8
V0-OBRYS
  6
CONTINUOUS
 62
    90
 48
2.0
100
AcDbCircle
 10
1085.535968
 20
192.151495
 30
0.0
 40
2.283588
  0
ARC
  5
337C
100
AcDbEntity
  8
V0-OBRYS
  6
CONTINUOUS
 62
    90
 48
2.0
100
AcDbCircle
 10
1090.671406
 20
273.735012
 30
0.0
 40
20.343317
100
AcDbArc
 50
277.618085
 51
326.366268
  0
ARC
  5
337D
100
AcDbEntity
  8
V0-OBRYS
  6
CONTINUOUS
 62
    90
 48
2.0
100
AcDbCircle
 10
1090.556632
 20
274.968961
 30
0.0
 40
19.400425
100
AcDbArc
 50
276.369868
 51
319.878879
  0
ARC
  5
337E
100
AcDbEntity
  8
V0-OBRYS
  6
CONTINUOUS
 62
    90
 48
2.0
100
AcDbCircle
 10
1094.820042
 20
248.909393
 30
0.0
 40
4.882669
100
AcDbArc
 50
107.296981
 51
180.0
  0
CIRCLE
  5
337F
100
AcDbEntity
  8
V0-OBRYS
  6
CONTINUOUS
 62
    90
 48
2.0
100
AcDbCircle
 10
1085.535968
 20
243.271495
 30
0.0
 40
2.283588
  0
ARC
  5
3380
100
AcDbEntity
  8
V0-OBRYS
  6
CONTINUOUS
 62
    90
 48
2.0
100
AcDbCircle
 10
1094.820042
 20
248.909393
 30
0.0
 40
7.1
100
AcDbArc
 50
107.296981
 51
180.0
  0
ARC
  5
3381
100
AcDbEntity
  8
V0-OBRYS
  6
CONTINUOUS
 62
    90
 48
2.0
100
AcDbCircle
 10
1106.51009
 20
300.714217
 30
0.0
 40
1.118266
100
AcDbArc
 50
0.0
 51
180.0
  0
LINE
  5
3382
100
AcDbEntity
  8
V0-OBRYS
  6
CONTINUOUS
 62
    90
 48
2.0
100
AcDbLine
 10
1105.391825
 20
300.714217
 30
0.0
 11
1105.391825
 21
262.467219
 31
0.0
  0
LINE
  5
3383
100
AcDbEntity
  8
V0-OBRYS
  6
CONTINUOUS
 62
    90
 48
2.0
100
AcDbLine
 10
1119.668356
 20
314.877999
 30
0.0
 11
1107.628356
 21
314.877999
 31
0.0
  0
LINE
  5
33D3
100
AcDbEntity
  8
V0-OBRYS
  6
CONTINUOUS
 62
    90
100
AcDbLine
 10
1119.668356
 20
314.877999
 30
0.0
 11
1130.831541
 21
275.026909
 31
0.0
  0
LINE
  5
33D4
100
AcDbEntity
  8
V0-OBRYS
  6
CONTINUOUS
 62
    90
100
AcDbLine
 10
1119.668356
 20
-185.422001
 30
0.0
 11
1130.831541
 21
-145.570911
 31
0.0
  0
LINE
  5
33E1
100
AcDbEntity
  8
V0-OBRYS
  6
CONTINUOUS
 62
    90
 48
2.0
100
AcDbLine
 10
1105.988145
 20
108.160841
 30
0.0
 11
1067.222024
 21
98.56639
 31
0.0
  0
LINE
  5
33E2
100
AcDbEntity
  8
V0-OBRYS
  6
CONTINUOUS
 62
    90
 48
2.0
100
AcDbLine
 10
1106.468312
 20
118.235016
 30
0.0
 11
1066.741861
 21
104.323062
 31
0.0
  0
LINE
  5
33E3
100
AcDbEntity
  8
V0-OBRYS
  6
CONTINUOUS
 62
    90
 48
2.0
100
AcDbLine
 10
1105.988145
 20
73.141094
 30
0.0
 11
1066.741861
 21
72.661372
 31
0.0
  0
LINE
  5
33E4
100
AcDbEntity
  8
V0-OBRYS
  6
CONTINUOUS
 62
    90
 48
2.0
100
AcDbLine
 10
1105.988145
 20
84.654436
 30
0.0
 11
1066.741861
 21
82.735545
 31
0.0
  0
LINE
  5
33E5
100
AcDbEntity
  8
V0-OBRYS
  6
CONTINUOUS
 62
    90
 48
2.0
100
AcDbLine
 10
1106.468312
 20
96.167776
 30
0.0
 11
1066.261693
 21
91.850273
 31
0.0
  0
LINE
  5
33E6
100
AcDbEntity
  8
V0-OBRYS
  6
CONTINUOUS
 62
    90
 48
2.0
100
AcDbLine
 10
1105.988145
 20
44.801562
 30
0.0
 11
1066.741861
 21
46.720453
 31
0.0
  0
LINE
  5
33E7
100
AcDbEntity
  8
V0-OBRYS
  6
CONTINUOUS
 62
    90
 48
2.0
100
AcDbLine
 10
1105.988145
 20
56.314904
 30
0.0
 11
1066.741861
 21
56.794626
 31
0.0
  0
LINE
  5
33E8
100
AcDbEntity
  8
V0-OBRYS
  6
CONTINUOUS
 62
    90
 48
2.0
100
AcDbLine
 10
1106.468312
 20
33.288222
 30
0.0
 11
1066.261693
 21
37.605725
 31
0.0
  0
LINE
  5
33E9
100
AcDbEntity
  8
V0-OBRYS
  6
CONTINUOUS
 62
    90
 48
2.0
100
AcDbLine
 10
1106.468312
 20
11.220982
 30
0.0
 11
1066.741861
 21
25.132936
 31
0.0
  0
LINE
  5
33EA
100
AcDbEntity
  8
V0-OBRYS
  6
CONTINUOUS
 62
    90
 48
2.0
100
AcDbLine
 10
1105.988145
 20
21.295158
 30
0.0
 11
1067.222024
 21
30.889608
 31
0.0
  0
DIMENSION
  5
33EB
100
AcDbEntity
  8
V0-VYPLNE
  6
CONTINUOUS
 62
    41
100
AcDbDimension
  2
*D3
 10
977.617359
 20
7.727543
 30
0.0
 11
977.617359
 21
57.011499
 31
0.0
 70
   160
  1
%%c<>
  3
ED30
100
AcDbAlignedDimension
 13
1106.628106
 23
121.728455
 33
0.0
 14
1106.628106
 24
7.727543
 34
0.0
 50
90.0
100
AcDbRotatedDimension
1001
ACAD
1000
DSTYLE
1002
{
1002
}
  0
LINE
  5
33EC
100
AcDbEntity
  8
V0-OBRYS
  6
CONTINUOUS
 62
    90
 48
2.0
100
AcDbLine
 10
1076.628034
 20
7.727543
 30
0.0
 11
1107.62833
 21
7.727543
 31
0.0
  0
LINE
  5
33ED
100
AcDbEntity
  8
V0-OBRYS
  6
CONTINUOUS
 62
    90
 48
2.0
100
AcDbLine
 10
1076.628034
 20
121.728455
 30
0.0
 11
1107.62833
 21
121.728455
 31
0.0
  0
LINE
  5
33EE
100
AcDbEntity
  8
V0-OBRYS
  6
CONTINUOUS
 62
    90
 48
2.0
100
AcDbLine
 10
1066.627954
 20
64.727999
 30
0.0
 11
1066.627954
 21
17.727623
 31
0.0
  0
ARC
  5
33EF
100
AcDbEntity
  8
V0-OBRYS
  6
CONTINUOUS
 62
    90
 48
2.0
100
AcDbCircle
 10
1076.628034
 20
17.727623
 30
0.0
 40
10.00008
100
AcDbArc
 50
180.0
 51
270.0
  0
LINE
  5
33F0
100
AcDbEntity
  8
V0-OBRYS
  6
CONTINUOUS
 62
    90
 48
2.0
100
AcDbLine
 10
1066.627954
 20
64.727999
 30
0.0
 11
1066.627954
 21
111.728375
 31
0.0
  0
ARC
  5
33F1
100
AcDbEntity
  8
V0-OBRYS
  6
CONTINUOUS
 62
    90
 48
2.0
100
AcDbCircle
 10
1076.628034
 20
111.728375
 30
0.0
 40
10.00008
100
AcDbArc
 50
90.0
 51
180.0
  0
LINE
  5
33F3
100
AcDbEntity
  8
V0-OBRYS
  6
CONTINUOUS
 62
    90
 48
2.0
100
AcDbLine
 10
1106.628106
 20
64.727999
 30
0.0
 11
1106.628106
 21
7.727543
 31
0.0
  0
LINE
  5
33F4
100
AcDbEntity
  8
V0-OBRYS
  6
CONTINUOUS
 62
    90
 48
2.0
100
AcDbLine
 10
1106.468312
 20
11.220982
 30
0.0
 11
1107.62833
 21
11.220982
 31
0.0
  0
LINE
  5
33F5
100
AcDbEntity
  8
V0-OBRYS
  6
CONTINUOUS
 62
    90
 48
2.0
100
AcDbLine
 10
1108.869138
 20
44.801562
 30
0.0
 11
1107.62833
 21
44.801562
 31
0.0
  0
LINE
  5
33F6
100
AcDbEntity
  8
V0-OBRYS
  6
CONTINUOUS
 62
    90
 48
2.0
100
AcDbLine
 10
1106.468312
 20
33.288222
 30
0.0
 11
1107.62833
 21
33.288222
 31
0.0
  0
LINE
  5
33F7
100
AcDbEntity
  8
V0-OBRYS
  6
CONTINUOUS
 62
    90
 48
2.0
100
AcDbLine
 10
1105.988145
 20
21.295158
 30
0.0
 11
1107.62833
 21
21.295158
 31
0.0
  0
LINE
  5
33F8
100
AcDbEntity
  8
V0-OBRYS
  6
CONTINUOUS
 62
    90
 48
2.0
100
AcDbLine
 10
1105.988145
 20
44.801562
 30
0.0
 11
1108.869138
 21
44.801562
 31
0.0
  0
LINE
  5
33F9
100
AcDbEntity
  8
V0-OBRYS
  6
CONTINUOUS
 62
    90
 48
2.0
100
AcDbLine
 10
1106.628106
 20
64.727999
 30
0.0
 11
1106.628106
 21
121.728455
 31
0.0
  0
LINE
  5
33FA
100
AcDbEntity
  8
V0-OBRYS
  6
CONTINUOUS
 62
    90
 48
2.0
100
AcDbLine
 10
1108.869138
 20
84.654436
 30
0.0
 11
1107.62833
 21
84.654436
 31
0.0
  0
LINE
  5
33FB
100
AcDbEntity
  8
V0-OBRYS
  6
CONTINUOUS
 62
    90
 48
2.0
100
AcDbLine
 10
1105.988145
 20
56.314904
 30
0.0
 11
1107.62833
 21
56.314904
 31
0.0
  0
LINE
  5
33FC
100
AcDbEntity
  8
V0-OBRYS
  6
CONTINUOUS
 62
    90
 48
2.0
100
AcDbLine
 10
1105.988145
 20
73.141094
 30
0.0
 11
1107.62833
 21
73.141094
 31
0.0
  0
LINE
  5
33FD
100
AcDbEntity
  8
V0-OBRYS
  6
CONTINUOUS
 62
    90
 48
2.0
100
AcDbLine
 10
1106.468312
 20
96.167776
 30
0.0
 11
1107.62833
 21
96.167776
 31
0.0
  0
LINE
  5
33FE
100
AcDbEntity
  8
V0-OBRYS
  6
CONTINUOUS
 62
    90
 48
2.0
100
AcDbLine
 10
1105.988145
 20
84.654436
 30
0.0
 11
1108.869138
 21
84.654436
 31
0.0
  0
LINE
  5
33FF
100
AcDbEntity
  8
V0-OBRYS
  6
CONTINUOUS
 62
    90
 48
2.0
100
AcDbLine
 10
1105.988145
 20
108.160841
 30
0.0
 11
1107.62833
 21
108.160841
 31
0.0
  0
LINE
  5
3400
100
AcDbEntity
  8
V0-OBRYS
  6
CONTINUOUS
 62
    90
 48
2.0
100
AcDbLine
 10
1106.468312
 20
118.235016
 30
0.0
 11
1107.62833
 21
118.235016
 31
0.0
  0
LINE
  5
341A
100
AcDbEntity
  8
V0-VYPLNE
  6
DASHED
 62
    52
100
AcDbLine
 10
1135.535993
 20
12.727583
 30
0.0
 11
1135.535993
 21
64.727999
 31
0.0
  0
LINE
  5
341C
100
AcDbEntity
  8
V0-VYPLNE
  6
DASHED
 62
    52
100
AcDbLine
 10
1107.628385
 20
11.220982
 30
0.0
 11
1135.535993
 21
11.220982
 31
0.0
  0
LINE
  5
341D
100
AcDbEntity
  8
V0-VYPLNE
  6
DASHED
 62
    52
100
AcDbLine
 10
1107.628385
 20
7.727543
 30
0.0
 11
1130.535953
 21
7.727543
 31
0.0
  0
LINE
  5
341E
100
AcDbEntity
  8
V0-VYPLNE
  6
DASHED
 62
    52
100
AcDbLine
 10
1107.628385
 20
21.295158
 30
0.0
 11
1135.535993
 21
21.295158
 31
0.0
  0
LINE
  5
341F
100
AcDbEntity
  8
V0-VYPLNE
  6
DASHED
 62
    52
100
AcDbLine
 10
1107.628385
 20
33.288222
 30
0.0
 11
1135.05583
 21
33.288222
 31
0.0
  0
LINE
  5
3420
100
AcDbEntity
  8
V0-VYPLNE
  6
DASHED
 62
    52
100
AcDbLine
 10
1107.628385
 20
44.801562
 30
0.0
 11
1135.535993
 21
44.801562
 31
0.0
  0
ARC
  5
3421
100
AcDbEntity
  8
V0-VYPLNE
  6
DASHED
 62
    52
 48
2.0
100
AcDbCircle
 10
1130.535953
 20
12.727583
 30
0.0
 40
5.00004
100
AcDbArc
 50
270.0
 51
0.0
  0
LINE
  5
3422
100
AcDbEntity
  8
V0-VYPLNE
  6
DASHED
 62
    52
100
AcDbLine
 10
1107.628385
 20
73.141094
 30
0.0
 11
1135.05583
 21
73.141094
 31
0.0
  0
LINE
  5
3423
100
AcDbEntity
  8
V0-VYPLNE
  6
DASHED
 62
    52
100
AcDbLine
 10
1107.628385
 20
84.654436
 30
0.0
 11
1135.535993
 21
84.654436
 31
0.0
  0
LINE
  5
3424
100
AcDbEntity
  8
V0-VYPLNE
  6
DASHED
 62
    52
100
AcDbLine
 10
1107.628385
 20
96.167776
 30
0.0
 11
1135.05583
 21
96.167776
 31
0.0
  0
LINE
  5
3425
100
AcDbEntity
  8
V0-VYPLNE
  6
DASHED
 62
    52
100
AcDbLine
 10
1107.628385
 20
108.160841
 30
0.0
 11
1135.535993
 21
108.160841
 31
0.0
  0
LINE
  5
3426
100
AcDbEntity
  8
V0-VYPLNE
  6
DASHED
 62
    52
100
AcDbLine
 10
1107.628385
 20
118.235016
 30
0.0
 11
1135.535993
 21
118.235016
 31
0.0
  0
LINE
  5
3427
100
AcDbEntity
  8
V0-VYPLNE
  6
DASHED
 62
    52
100
AcDbLine
 10
1107.628385
 20
121.728455
 30
0.0
 11
1130.535953
 21
121.728455
 31
0.0
  0
LINE
  5
3428
100
AcDbEntity
  8
V0-VYPLNE
  6
DASHED
 62
    52
100
AcDbLine
 10
1107.628385
 20
56.314904
 30
0.0
 11
1135.05583
 21
56.314904
 31
0.0
  0
LINE
  5
3429
100
AcDbEntity
  8
V0-VYPLNE
  6
DASHED
 62
    52
100
AcDbLine
 10
1135.535993
 20
116.728415
 30
0.0
 11
1135.535993
 21
64.727999
 31
0.0
  0
ARC
  5
342A
100
AcDbEntity
  8
V0-VYPLNE
  6
DASHED
 62
    52
 48
2.0
100
AcDbCircle
 10
1130.535953
 20
116.728415
 30
0.0
 40
5.00004
100
AcDbArc
 50
0.0
 51
90.0
  0
LINE
  5
3442
100
AcDbEntity
  8
V0-OBRYS
  6
CONTINUOUS
 62
    90
100
AcDbLine
 10
1119.668356
 20
314.877999
 30
0.0
 11
1119.668356
 21
-185.422001
 31
0.0
  0
LINE
  5
3467
100
AcDbEntity
  8
V0-OBRYS
  6
CONTINUOUS
 62
    90
100
AcDbLine
 10
1020.525734
 20
24.727903
 30
0.0
 11
1065.525734
 21
24.727903
 31
0.0
  0
LINE
  5
3468
100
AcDbEntity
  8
V0-OBRYS
  6
CONTINUOUS
 62
    90
100
AcDbLine
 10
1020.525734
 20
104.727903
 30
0.0
 11
1065.525734
 21
104.727903
 31
0.0
  0
LINE
  5
3469
100
AcDbEntity
  8
V0-OBRYS
  6
CONTINUOUS
 62
    90
100
AcDbLine
 10
1020.525734
 20
64.727903
 30
0.0
 11
1020.525734
 21
24.727903
 31
0.0
  0
LINE
  5
346A
100
AcDbEntity
  8
V0-OBRYS
  6
CONTINUOUS
 62
    90
100
AcDbLine
 10
1035.525734
 20
64.727903
 30
0.0
 11
1035.525734
 21
24.727903
 31
0.0
  0
LINE
  5
346B
100
AcDbEntity
  8
V0-OBRYS
  6
CONTINUOUS
 62
    90
100
AcDbLine
 10
1020.525734
 20
64.727903
 30
0.0
 11
1020.525734
 21
104.727903
 31
0.0
  0
LINE
  5
346C
100
AcDbEntity
  8
V0-OBRYS
  6
CONTINUOUS
 62
    90
100
AcDbLine
 10
1035.525734
 20
64.727903
 30
0.0
 11
1035.525734
 21
104.727903
 31
0.0
  0
LINE
  5
346D
100
AcDbEntity
  8
V0-OBRYS
  6
CONTINUOUS
 62
    90
100
AcDbLine
 10
1065.525734
 20
24.727903
 30
0.0
 11
1065.525734
 21
64.727903
 31
0.0
  0
LINE
  5
346E
100
AcDbEntity
  8
V0-OBRYS
  6
CONTINUOUS
 62
    90
100
AcDbLine
 10
1065.525734
 20
104.727903
 30
0.0
 11
1065.525734
 21
64.727903
 31
0.0
  0
DIMENSION
  5
34A0
100
AcDbEntity
  8
V0-OBRYS
  6
CONTINUOUS
 62
    90
100
AcDbDimension
  2
*D4
 10
1107.628356
 20
-240.305287
 30
0.0
 11
1031.22747
 21
-240.305287
 31
0.0
 70
   160
  3
ED30
100
AcDbAlignedDimension
 13
1119.668356
 23
-185.422001
 33
0.0
 14
1107.628356
 24
-185.422001
 34
0.0
100
AcDbRotatedDimension
1001
ACAD
1000
DSTYLE
1002
{
1002
}
  0
DIMENSION
  5
39FB
100
AcDbEntity
  8
V0-OBRYS
  6
CONTINUOUS
 62
    90
100
AcDbDimension
  2
*D5
 10
1119.668356
 20
-240.227912
 30
0.0
 11
1159.131971
 21
-240.227912
 31
0.0
 70
   160
  3
ED30
100
AcDbAlignedDimension
 13
1194.474631
 23
-135.271646
 33
0.0
 14
1119.668356
 24
-185.422001
 34
0.0
100
AcDbRotatedDimension
  0
DIMENSION
  5
3A08
100
AcDbEntity
  8
V0-OBRYS
  6
CONTINUOUS
 62
    90
100
AcDbDimension
  2
*D6
 10
1065.525734
 20
-285.569519
 30
0.0
 11
1113.753318
 21
-285.569519
 31
0.0
 70
   160
  3
ED30
100
AcDbAlignedDimension
 13
1194.474631
 23
-135.271646
 33
0.0
 14
1065.525734
 24
24.727903
 34
0.0
100
AcDbRotatedDimension
  0
LEADER
  5
3AA9
100
AcDbEntity
  8
V0-OBRYS
  6
CONTINUOUS
 62
    41
100
AcDbLeader
  3
ED20
 73
     0
 75
     1
 40
30.0
 41
252.023622
 76
     3
 10
1559.625331
 20
-149.734608
 30
0.0
 10
1504.797553
 20
-234.126966
 30
0.0
 10
1484.797553
 20
-234.126966
 30
0.0
 77
    90
340
3AAA
  0
MTEXT
  5
3AAA
102
{ACAD_REACTORS
330
3AA9
102
}
100
AcDbEntity
  8
V0-OBRYS
  6
CONTINUOUS
 62
    41
100
AcDbMText
 10
1482.797553
 20
-217.126966
 30
0.0
 40
30.0
 41
0.0
 71
     6
 72
     1
  1
\A1;4 OTVORY %%c10
  7
ED20
  0
LINE
  5
3ABE
100
AcDbEntity
  8
V0-OBRYS
  6
CONTINUOUS
 62
    90
 48
2.0
100
AcDbLine
 10
1119.668356
 20
-775.357809
 30
0.0
 11
1107.628356
 21
-775.357809
 31
0.0
  0
DIMENSION
  5
3BC0
100
AcDbEntity
  8
V0-VYPLNE
  6
CONTINUOUS
 62
    41
100
AcDbDimension
  2
*D7
 10
2022.812019
 20
-318.316233
 30
0.0
 11
1775.034081
 21
-318.316233
 31
0.0
 12
71.358285
 22
0.0
 32
0.0
 70
   160
  3
ED30
100
AcDbAlignedDimension
 13
1523.160939
 23
-179.701741
 33
0.0
 14
2022.812019
 24
-179.701741
 34
0.0
100
AcDbRotatedDimension
  0
DIMENSION
  5
3BC1
100
AcDbEntity
  8
V0-OBRYS
  6
CONTINUOUS
 62
    90
100
AcDbDimension
  2
*D8
 10
1982.98639
 20
-250.303827
 30
0.0
 11
1772.513044
 21
-250.303827
 31
0.0
 12
71.358285
 22
0.0
 32
0.0
 70
   160
  3
ED30
100
AcDbAlignedDimension
 13
1562.98653
 23
-170.271912
 33
0.0
 14
1982.98639
 24
-170.27195
 34
0.0
100
AcDbRotatedDimension
  0
LINE
  5
3BC3
100
AcDbEntity
  8
V0-OBRYS
  6
CONTINUOUS
100
AcDbLine
 10
2022.812019
 20
298.683539
 30
0.0
 11
2022.812019
 21
-169.227541
 31
0.0
  0
LINE
  5
3BC4
100
AcDbEntity
  8
V0-OBRYS
  6
CONTINUOUS
100
AcDbLine
 10
1523.160939
 20
-169.227541
 30
0.0
 11
1523.160939
 21
298.683539
 31
0.0
  0
LINE
  5
3BC5
100
AcDbEntity
  8
V0-OBRYS
  6
CONTINUOUS
100
AcDbLine
 10
2006.942019
 20
-185.097541
 30
0.0
 11
1539.030939
 21
-185.097541
 31
0.0
  0
ARC
  5
3BC6
100
AcDbEntity
  8
V0-OBRYS
  6
CONTINUOUS
100
AcDbCircle
 10
1539.030939
 20
-169.227541
 30
0.0
 40
15.87
100
AcDbArc
 50
180.0
 51
270.0
  0
LINE
  5
3BC7
100
AcDbEntity
  8
V0-VYPLNE
  6
DASHDOT
 62
    63
100
AcDbLine
 10
1562.98653
 20
-170.271912
 30
0.0
 11
1562.98653
 21
-117.659234
 31
0.0
  0
CIRCLE
  5
3BC8
100
AcDbEntity
  8
V0-OBRYS
  6
CONTINUOUS
 62
    90
100
AcDbCircle
 10
1562.98653
 20
-145.271912
 30
0.0
 40
6.25
  0
LINE
  5
3BC9
100
AcDbEntity
  8
V0-VYPLNE
  6
DASHDOT
 62
    63
100
AcDbLine
 10
1537.98653
 20
-145.271912
 30
0.0
 11
1591.119058
 21
-145.271912
 31
0.0
  0
LINE
  5
3BCA
100
AcDbEntity
  8
V0-VYPLNE
  6
DASHDOT
 62
    63
100
AcDbLine
 10
1982.98639
 20
-170.27195
 30
0.0
 11
1982.98639
 21
-117.139422
 31
0.0
  0
LINE
  5
3BCB
100
AcDbEntity
  8
V0-VYPLNE
  6
DASHDOT
 62
    63
100
AcDbLine
 10
2007.98639
 20
-145.27195
 30
0.0
 11
1955.373712
 21
-145.27195
 31
0.0
  0
CIRCLE
  5
3BCC
100
AcDbEntity
  8
V0-OBRYS
  6
CONTINUOUS
 62
    90
100
AcDbCircle
 10
1982.98639
 20
-145.27195
 30
0.0
 40
6.25
  0
ARC
  5
3BCD
100
AcDbEntity
  8
V0-OBRYS
  6
CONTINUOUS
100
AcDbCircle
 10
2006.942019
 20
-169.227541
 30
0.0
 40
15.87
100
AcDbArc
 50
270.0
 51
0.0
  0
TEXT
  5
3BCE
100
AcDbEntity
  8
V0-VYPLNE
 62
     6
100
AcDbText
 10
1679.388032
 20
335.975224
 30
0.0
 40
33.75
  1
HCF- 400
  7
ED30
100
AcDbText
  0
LINE
  5
3BCF
100
AcDbEntity
  8
V0-OBRYS
  6
CONTINUOUS
100
AcDbLine
 10
1539.030939
 20
314.553539
 30
0.0
 11
2006.942019
 21
314.553539
 31
0.0
  0
LINE
  5
3BD0
100
AcDbEntity
  8
V0-VYPLNE
  6
DASHDOT
 62
    63
100
AcDbLine
 10
1537.986568
 20
274.727948
 30
0.0
 11
1590.599246
 21
274.727948
 31
0.0
  0
CIRCLE
  5
3BD1
100
AcDbEntity
  8
V0-OBRYS
  6
CONTINUOUS
 62
    90
100
AcDbCircle
 10
1562.986568
 20
274.727948
 30
0.0
 40
6.25
  0
LINE
  5
3BD2
100
AcDbEntity
  8
V0-VYPLNE
  6
DASHDOT
 62
    63
100
AcDbLine
 10
1562.986568
 20
299.727948
 30
0.0
 11
1562.986568
 21
246.59542
 31
0.0
  0
ARC
  5
3BD3
100
AcDbEntity
  8
V0-OBRYS
  6
CONTINUOUS
100
AcDbCircle
 10
1539.030939
 20
298.683539
 30
0.0
 40
15.87
100
AcDbArc
 50
90.0
 51
180.0
  0
LINE
  5
3BD4
100
AcDbEntity
  8
V0-VYPLNE
  6
DASHDOT
 62
    63
100
AcDbLine
 10
2007.986428
 20
274.72791
 30
0.0
 11
1954.8539
 21
274.72791
 31
0.0
  0
LINE
  5
3BD5
100
AcDbEntity
  8
V0-VYPLNE
  6
DASHDOT
 62
    63
100
AcDbLine
 10
1982.986428
 20
299.72791
 30
0.0
 11
1982.986428
 21
247.115232
 31
0.0
  0
CIRCLE
  5
3BD6
100
AcDbEntity
  8
V0-OBRYS
  6
CONTINUOUS
 62
    90
100
AcDbCircle
 10
1982.986428
 20
274.72791
 30
0.0
 40
6.25
  0
ARC
  5
3BD7
100
AcDbEntity
  8
V0-OBRYS
  6
CONTINUOUS
100
AcDbCircle
 10
2006.942019
 20
298.683539
 30
0.0
 40
15.87
100
AcDbArc
 50
0.0
 51
90.0
  0
CIRCLE
  5
3CED
100
AcDbEntity
  8
V0-OBRYS
  6
CONTINUOUS
 62
    90
100
AcDbCircle
 10
1772.986479
 20
64.727999
 30
0.0
 40
192.567419
  0
CIRCLE
  5
3CEE
100
AcDbEntity
  8
V0-OBRYS
  6
CONTINUOUS
 62
    90
100
AcDbCircle
 10
1772.986479
 20
64.727999
 30
0.0
 40
218.87559
  0
LINE
  5
3CEF
100
AcDbEntity
  8
V0-OBRYS
  6
CONTINUOUS
 62
    90
100
AcDbLine
 10
1678.168455
 20
57.517007
 30
0.0
 11
1722.234371
 21
60.868258
 31
0.0
  0
LINE
  5
3CF0
100
AcDbEntity
  8
V0-OBRYS
  6
CONTINUOUS
 62
    90
100
AcDbLine
 10
1678.168455
 20
71.938991
 30
0.0
 11
1722.234371
 21
68.58774
 31
0.0
  0
LINE
  5
3CF1
100
AcDbEntity
  8
V0-OBRYS
  6
CONTINUOUS
 62
    90
100
AcDbLine
 10
1723.51466
 20
76.695171
 30
0.0
 11
1679.915725
 21
87.2417
 31
0.0
  0
LINE
  5
3CF2
100
AcDbEntity
  8
V0-OBRYS
  6
CONTINUOUS
 62
    90
100
AcDbLine
 10
1684.720712
 20
100.79553
 30
0.0
 11
1725.869673
 21
83.981068
 31
0.0
  0
LINE
  5
3CF3
100
AcDbEntity
  8
V0-OBRYS
  6
CONTINUOUS
 62
    90
100
AcDbLine
 10
1708.704879
 20
103.147516
 30
0.0
 11
1689.962518
 21
114.349361
 31
0.0
  0
LINE
  5
3CF4
100
AcDbEntity
  8
V0-OBRYS
  6
CONTINUOUS
 62
    90
100
AcDbLine
 10
1705.853835
 20
12.474399
 30
0.0
 11
1709.532904
 21
22.155275
 31
0.0
  0
LINE
  5
3CF5
100
AcDbEntity
  8
V0-OBRYS
  6
CONTINUOUS
 62
    90
100
AcDbLine
 10
1698.845431
 20
-9.444502
 30
0.0
 11
1707.104567
 21
10.90603
 31
0.0
  0
LINE
  5
3CF6
100
AcDbEntity
  8
V0-OBRYS
  6
CONTINUOUS
 62
    90
100
AcDbLine
 10
1708.704879
 20
26.308482
 30
0.0
 11
1689.962518
 21
15.106637
 31
0.0
  0
LINE
  5
3CF7
100
AcDbEntity
  8
V0-OBRYS
  6
CONTINUOUS
 62
    90
100
AcDbLine
 10
1684.720712
 20
28.660468
 30
0.0
 11
1725.869673
 21
45.474931
 31
0.0
  0
LINE
  5
3CF8
100
AcDbEntity
  8
V0-OBRYS
  6
CONTINUOUS
 62
    90
100
AcDbLine
 10
1723.51466
 20
52.760827
 30
0.0
 11
1679.915725
 21
42.214298
 31
0.0
  0
ARC
  5
3CF9
100
AcDbEntity
  8
V0-OBRYS
  6
CONTINUOUS
 62
    90
100
AcDbCircle
 10
1772.986479
 20
64.727999
 30
0.0
 40
75.217489
100
AcDbArc
 50
148.716649
 51
211.283351
  0
ARC
  5
3CFA
100
AcDbEntity
  8
V0-OBRYS
  6
CONTINUOUS
 62
    90
100
AcDbCircle
 10
1772.986479
 20
64.727999
 30
0.0
 40
200.0
100
AcDbArc
 50
236.13779
 51
252.433638
  0
LINE
  5
3CFB
100
AcDbEntity
  8
VO-OBRYS
  6
CONTINUOUS
100
AcDbLine
 10
1726.891379
 20
43.142917
 30
0.0
 11
1594.623478
 21
-89.124983
 31
0.0
  0
LINE
  5
3CFC
100
AcDbEntity
  8
VO-OBRYS
  6
CONTINUOUS
100
AcDbLine
 10
1751.401397
 20
18.632899
 30
0.0
 11
1619.133496
 21
-113.635002
 31
0.0
  0
LINE
  5
3CFD
100
AcDbEntity
  8
VO-OBRYS
  6
CONTINUOUS
100
AcDbLine
 10
1728.069469
 20
40.787735
 30
0.0
 11
1596.390115
 21
-90.89162
 31
0.0
  0
LINE
  5
3CFF
100
AcDbEntity
  8
VO-OBRYS
  6
CONTINUOUS
100
AcDbLine
 10
1726.891379
 20
86.313081
 30
0.0
 11
1594.623478
 21
218.580982
 31
0.0
  0
LINE
  5
3D00
100
AcDbEntity
  8
VO-OBRYS
  6
CONTINUOUS
100
AcDbLine
 10
1751.401397
 20
110.823099
 30
0.0
 11
1619.133496
 21
243.091
 31
0.0
  0
LINE
  5
3D02
100
AcDbEntity
  8
VO-OBRYS
  6
CONTINUOUS
100
AcDbLine
 10
1749.046215
 20
109.645009
 30
0.0
 11
1617.36686
 21
241.324364
 31
0.0
  0
LINE
  5
3D03
100
AcDbEntity
  8
V0-OBRYS
  6
CONTINUOUS
 62
    90
100
AcDbLine
 10
1692.488084
 20
170.76442
 30
0.0
 11
1714.953076
 21
155.06544
 31
0.0
  0
CIRCLE
  5
3D04
100
AcDbEntity
  8
V0-OBRYS
  6
CONTINUOUS
 62
    90
100
AcDbCircle
 10
1772.986479
 20
64.727999
 30
0.0
 40
107.371919
  0
CIRCLE
  5
3D05
100
AcDbEntity
  8
V0-OBRYS
  6
CONTINUOUS
 62
    90
100
AcDbCircle
 10
1772.986479
 20
64.727999
 30
0.0
 40
135.628841
  0
CIRCLE
  5
3D06
100
AcDbEntity
  8
V0-OBRYS
  6
CONTINUOUS
 62
    90
100
AcDbCircle
 10
1772.986479
 20
64.727999
 30
0.0
 40
164.860141
  0
CIRCLE
  5
3D07
100
AcDbEntity
  8
V0-OBRYS
  6
CONTINUOUS
 62
    90
100
AcDbCircle
 10
1772.986479
 20
64.727999
 30
0.0
 40
162.36174
  0
CIRCLE
  5
3D08
100
AcDbEntity
  8
V0-OBRYS
  6
CONTINUOUS
 62
    90
100
AcDbCircle
 10
1772.986479
 20
64.727999
 30
0.0
 40
133.13044
  0
CIRCLE
  5
3D09
100
AcDbEntity
  8
V0-OBRYS
  6
CONTINUOUS
 62
    90
100
AcDbCircle
 10
1772.986479
 20
64.727999
 30
0.0
 40
104.873519
  0
LINE
  5
3D0A
100
AcDbEntity
  8
V0-OBRYS
  6
CONTINUOUS
 62
    90
100
AcDbLine
 10
1600.525278
 20
166.00551
 30
0.0
 11
1604.261359
 21
162.618285
 31
0.0
  0
LINE
  5
3D0B
100
AcDbEntity
  8
V0-OBRYS
  6
CONTINUOUS
 62
    90
100
AcDbLine
 10
1676.078698
 20
-65.541786
 30
0.0
 11
1686.535089
 21
-39.777214
 31
0.0
  0
ARC
  5
3D0C
100
AcDbEntity
  8
VO-OBRYS
  6
CONTINUOUS
100
AcDbCircle
 10
1606.878487
 20
-101.379992
 30
0.0
 40
17.3312
100
AcDbArc
 50
135.0
 51
315.0
  0
ARC
  5
3D0D
100
AcDbEntity
  8
VO-OBRYS
  6
CONTINUOUS
100
AcDbCircle
 10
1606.878487
 20
-101.379992
 30
0.0
 40
14.832799
100
AcDbArc
 50
135.0
 51
315.0
  0
LINE
  5
3D0E
100
AcDbEntity
  8
V0-OBRYS
  6
CONTINUOUS
 62
    90
100
AcDbLine
 10
1664.404478
 20
-94.307092
 30
0.0
 11
1675.108503
 21
-67.932349
 31
0.0
  0
LINE
  5
3D0F
100
AcDbEntity
  8
V0-OBRYS
  6
CONTINUOUS
 62
    90
100
AcDbLine
 10
1661.546971
 20
-101.347996
 30
0.0
 11
1663.443402
 21
-96.675187
 31
0.0
  0
LINE
  5
3D10
100
AcDbEntity
  8
V0-OBRYS
  6
CONTINUOUS
 62
    90
100
AcDbLine
 10
1580.948068
 20
50.464068
 30
0.0
 11
1608.242522
 21
58.539708
 31
0.0
  0
ARC
  5
3D11
100
AcDbEntity
  8
V0-OBRYS
  6
CONTINUOUS
 62
    90
100
AcDbCircle
 10
1772.986479
 20
64.727999
 30
0.0
 40
200.0
100
AcDbArc
 50
184.709219
 51
201.005067
  0
LINE
  5
3D12
100
AcDbEntity
  8
V0-OBRYS
  6
CONTINUOUS
 62
    90
100
AcDbLine
 10
1586.276733
 20
-6.962102
 30
0.0
 11
1591.25438
 21
-6.153017
 31
0.0
  0
LINE
  5
3D13
100
AcDbEntity
  8
V0-OBRYS
  6
CONTINUOUS
 62
    90
100
AcDbLine
 10
1573.661641
 20
48.308225
 30
0.0
 11
1578.497395
 21
49.738985
 31
0.0
  0
LINE
  5
3D14
100
AcDbEntity
  8
V0-OBRYS
  6
CONTINUOUS
 62
    90
100
AcDbLine
 10
1624.41882
 20
-0.762347
 30
0.0
 11
1651.864185
 21
3.698723
 31
0.0
  0
LINE
  5
3D15
100
AcDbEntity
  8
V0-OBRYS
  6
CONTINUOUS
 62
    90
100
AcDbLine
 10
1593.776962
 20
-5.742987
 30
0.0
 11
1621.872304
 21
-1.176267
 31
0.0
  0
LINE
  5
3D16
100
AcDbEntity
  8
V0-OBRYS
  6
CONTINUOUS
 62
    90
100
AcDbLine
 10
1687.521191
 20
-37.347456
 30
0.0
 11
1697.827633
 21
-11.952357
 31
0.0
  0
LINE
  5
3D17
100
AcDbEntity
  8
V0-OBRYS
  6
CONTINUOUS
 62
    90
100
AcDbLine
 10
1654.452453
 20
4.11943
 30
0.0
 11
1681.504243
 21
8.516527
 31
0.0
  0
LINE
  5
3D18
100
AcDbEntity
  8
V0-OBRYS
  6
CONTINUOUS
 62
    90
100
AcDbLine
 10
1684.175702
 20
8.950756
 30
0.0
 11
1705.853835
 21
12.474399
 31
0.0
  0
LINE
  5
3D19
100
AcDbEntity
  8
V0-OBRYS
  6
CONTINUOUS
 62
    90
100
AcDbLine
 10
1639.893939
 20
67.904446
 30
0.0
 11
1666.174589
 21
75.680131
 31
0.0
  0
LINE
  5
3D1A
100
AcDbEntity
  8
V0-OBRYS
  6
CONTINUOUS
 62
    90
100
AcDbLine
 10
1629.153644
 20
140.050309
 30
0.0
 11
1649.753355
 21
121.37409
 31
0.0
  0
LINE
  5
3D1B
100
AcDbEntity
  8
V0-OBRYS
  6
CONTINUOUS
 62
    90
100
AcDbLine
 10
1610.716447
 20
59.271671
 30
0.0
 11
1637.379453
 21
67.160483
 31
0.0
  0
LINE
  5
3D1C
100
AcDbEntity
  8
V0-OBRYS
  6
CONTINUOUS
 62
    90
100
AcDbLine
 10
1606.154737
 20
160.9017
 30
0.0
 11
1627.242302
 21
141.783181
 31
0.0
  0
LINE
  5
3D1D
100
AcDbEntity
  8
V0-OBRYS
  6
CONTINUOUS
 62
    90
100
AcDbLine
 10
1651.696035
 20
119.612808
 30
0.0
 11
1672.000339
 21
101.204412
 31
0.0
  0
LINE
  5
3D1E
100
AcDbEntity
  8
V0-OBRYS
  6
CONTINUOUS
 62
    90
100
AcDbLine
 10
1674.005461
 20
99.386518
 30
0.0
 11
1690.276451
 21
84.634827
 31
0.0
  0
LINE
  5
3D1F
100
AcDbEntity
  8
V0-OBRYS
  6
CONTINUOUS
 62
    90
100
AcDbLine
 10
1668.769895
 20
76.448007
 30
0.0
 11
1689.830069
 21
82.679103
 31
0.0
  0
LINE
  5
3D20
100
AcDbEntity
  8
V0-OBRYS
  6
CONTINUOUS
 62
    90
100
AcDbLine
 10
1689.830069
 20
82.679103
 30
0.0
 11
1697.34517
 21
75.553224
 31
0.0
  0
LINE
  5
3D21
100
AcDbEntity
  8
V0-OBRYS
  6
CONTINUOUS
 62
    90
100
AcDbLine
 10
1690.276451
 20
84.634827
 30
0.0
 11
1700.139126
 21
87.794342
 31
0.0
  0
ARC
  5
3D22
100
AcDbEntity
  8
VO-OBRYS
  6
CONTINUOUS
100
AcDbCircle
 10
1606.878487
 20
230.835991
 30
0.0
 40
17.3312
100
AcDbArc
 50
45.0
 51
225.0
  0
ARC
  5
3D23
100
AcDbEntity
  8
VO-OBRYS
  6
CONTINUOUS
100
AcDbCircle
 10
1606.878487
 20
230.835991
 30
0.0
 40
14.832799
100
AcDbArc
 50
45.0
 51
225.0
  0
LINE
  5
3D24
100
AcDbEntity
  8
V0-OBRYS
  6
CONTINUOUS
 62
    90
100
AcDbLine
 10
1642.100498
 20
205.976259
 30
0.0
 11
1665.432101
 21
189.671674
 31
0.0
  0
ARC
  5
3D25
100
AcDbEntity
  8
V0-OBRYS
  6
CONTINUOUS
 62
    90
100
AcDbCircle
 10
1772.986479
 20
64.727999
 30
0.0
 40
200.0
100
AcDbArc
 50
133.280648
 51
149.576495
  0
LINE
  5
3D26
100
AcDbEntity
  8
V0-OBRYS
  6
CONTINUOUS
 62
    90
100
AcDbLine
 10
1635.871979
 20
210.328871
 30
0.0
 11
1640.005636
 21
207.44019
 31
0.0
  0
LINE
  5
3D27
100
AcDbEntity
  8
V0-OBRYS
  6
CONTINUOUS
 62
    90
100
AcDbLine
 10
1667.54684
 20
188.193853
 30
0.0
 11
1690.338674
 21
172.26647
 31
0.0
  0
LINE
  5
3D28
100
AcDbEntity
  8
V0-OBRYS
  6
CONTINUOUS
 62
    90
100
AcDbLine
 10
1945.44768
 20
166.00551
 30
0.0
 11
1941.711599
 21
162.618285
 31
0.0
  0
LINE
  5
3D29
100
AcDbEntity
  8
V0-OBRYS
  6
CONTINUOUS
 62
    90
100
AcDbLine
 10
1853.484874
 20
170.76442
 30
0.0
 11
1831.019882
 21
155.06544
 31
0.0
  0
LINE
  5
3D2A
100
AcDbEntity
  8
VO-OBRYS
  6
CONTINUOUS
100
AcDbLine
 10
1837.268079
 20
104.499581
 30
0.0
 11
1951.34948
 21
218.580982
 31
0.0
  0
LINE
  5
3D2B
100
AcDbEntity
  8
VO-OBRYS
  6
CONTINUOUS
100
AcDbLine
 10
1794.571561
 20
110.823099
 30
0.0
 11
1926.839461
 21
243.091
 31
0.0
  0
LINE
  5
3D2C
100
AcDbEntity
  8
VO-OBRYS
  6
CONTINUOUS
100
AcDbLine
 10
1796.926743
 20
109.645009
 30
0.0
 11
1928.606098
 21
241.324364
 31
0.0
  0
LINE
  5
3D2E
100
AcDbEntity
  8
V0-OBRYS
  6
CONTINUOUS
 62
    90
100
AcDbLine
 10
1939.818221
 20
160.9017
 30
0.0
 11
1918.730656
 21
141.783181
 31
0.0
  0
LINE
  5
3D2F
100
AcDbEntity
  8
V0-OBRYS
  6
CONTINUOUS
 62
    90
100
AcDbLine
 10
1952.195996
 20
-5.742987
 30
0.0
 11
1924.100654
 21
-1.176267
 31
0.0
  0
ARC
  5
3D30
100
AcDbEntity
  8
VO-OBRYS
  6
CONTINUOUS
100
AcDbCircle
 10
1939.094471
 20
-101.379992
 30
0.0
 40
14.832799
100
AcDbArc
 50
225.0
 51
45.0
  0
ARC
  5
3D31
100
AcDbEntity
  8
VO-OBRYS
  6
CONTINUOUS
100
AcDbCircle
 10
1939.094471
 20
-101.379992
 30
0.0
 40
17.3312
100
AcDbArc
 50
225.0
 51
45.0
  0
LINE
  5
3D32
100
AcDbEntity
  8
VO-OBRYS
  6
CONTINUOUS
100
AcDbLine
 10
1819.081579
 20
43.142917
 30
0.0
 11
1951.34948
 21
-89.124983
 31
0.0
  0
LINE
  5
3D33
100
AcDbEntity
  8
VO-OBRYS
  6
CONTINUOUS
100
AcDbLine
 10
1817.903489
 20
40.787735
 30
0.0
 11
1949.582843
 21
-90.89162
 31
0.0
  0
LINE
  5
3D34
100
AcDbEntity
  8
V0-OBRYS
  6
CONTINUOUS
 62
    90
100
AcDbLine
 10
1746.46741
 20
-65.734459
 30
0.0
 11
1759.896136
 21
-41.842973
 31
0.0
  0
LINE
  5
3D35
100
AcDbEntity
  8
V0-OBRYS
  6
CONTINUOUS
 62
    90
100
AcDbLine
 10
1799.505548
 20
-65.734459
 30
0.0
 11
1786.076822
 21
-41.842973
 31
0.0
  0
LINE
  5
3D36
100
AcDbEntity
  8
VO-OBRYS
  6
CONTINUOUS
100
AcDbLine
 10
1794.571561
 20
18.632899
 30
0.0
 11
1926.839461
 21
-113.635002
 31
0.0
  0
LINE
  5
3D37
100
AcDbEntity
  8
VO-OBRYS
  6
CONTINUOUS
100
AcDbLine
 10
1796.926743
 20
19.810989
 30
0.0
 11
1928.606098
 21
-111.868365
 31
0.0
  0
LINE
  5
3D38
100
AcDbEntity
  8
V0-OBRYS
  6
CONTINUOUS
 62
    90
100
AcDbLine
 10
1869.89426
 20
-65.541786
 30
0.0
 11
1859.437869
 21
-39.777214
 31
0.0
  0
LINE
  5
3D39
100
AcDbEntity
  8
V0-OBRYS
  6
CONTINUOUS
 62
    90
100
AcDbLine
 10
1829.62535
 20
-119.321585
 30
0.0
 11
1815.678596
 21
-94.508458
 31
0.0
  0
LINE
  5
3D3A
100
AcDbEntity
  8
V0-OBRYS
  6
CONTINUOUS
 62
    90
100
AcDbLine
 10
1716.347608
 20
-119.321585
 30
0.0
 11
1730.294362
 21
-94.508458
 31
0.0
  0
LINE
  5
3D3B
100
AcDbEntity
  8
V0-OBRYS
  6
CONTINUOUS
 62
    90
100
AcDbLine
 10
1712.624434
 20
-125.945606
 30
0.0
 11
1715.095378
 21
-121.549468
 31
0.0
  0
LINE
  5
3D3C
100
AcDbEntity
  8
V0-OBRYS
  6
CONTINUOUS
 62
    90
100
AcDbLine
 10
1731.558473
 20
-92.259437
 30
0.0
 11
1745.182573
 21
-68.020354
 31
0.0
  0
LINE
  5
3D3D
100
AcDbEntity
  8
V0-OBRYS
  6
CONTINUOUS
 62
    90
100
AcDbLine
 10
1814.414485
 20
-92.259437
 30
0.0
 11
1800.790385
 21
-68.020354
 31
0.0
  0
LINE
  5
3D3E
100
AcDbEntity
  8
V0-OBRYS
  6
CONTINUOUS
 62
    90
100
AcDbLine
 10
1881.56848
 20
-94.307092
 30
0.0
 11
1870.864455
 21
-67.932349
 31
0.0
  0
ARC
  5
3D3F
100
AcDbEntity
  8
V0-OBRYS
  6
CONTINUOUS
 62
    90
100
AcDbCircle
 10
1772.986479
 20
64.727999
 30
0.0
 40
200.0
100
AcDbArc
 50
287.566362
 51
303.86221
  0
LINE
  5
3D40
100
AcDbEntity
  8
V0-OBRYS
  6
CONTINUOUS
 62
    90
100
AcDbLine
 10
1833.348524
 20
-125.945606
 30
0.0
 11
1830.87758
 21
-121.549468
 31
0.0
  0
LINE
  5
3D41
100
AcDbEntity
  8
V0-OBRYS
  6
CONTINUOUS
 62
    90
100
AcDbLine
 10
1884.425987
 20
-101.347996
 30
0.0
 11
1882.529556
 21
-96.675187
 31
0.0
  0
LINE
  5
3D42
100
AcDbEntity
  8
V0-OBRYS
  6
CONTINUOUS
 62
    90
100
AcDbLine
 10
1828.801385
 20
153.51511
 30
0.0
 11
1810.798914
 21
140.934628
 31
0.0
  0
LINE
  5
3D43
100
AcDbEntity
  8
V0-OBRYS
  6
CONTINUOUS
 62
    90
100
AcDbLine
 10
1811.405996
 20
129.009599
 30
0.0
 11
1822.607841
 21
147.75196
 31
0.0
  0
LINE
  5
3D46
100
AcDbEntity
  8
V0-OBRYS
  6
CONTINUOUS
 62
    90
100
AcDbLine
 10
1811.405996
 20
0.446399
 30
0.0
 11
1822.607841
 21
-18.295962
 31
0.0
  0
LINE
  5
3D4B
100
AcDbEntity
  8
V0-OBRYS
  6
CONTINUOUS
 62
    90
100
AcDbLine
 10
1761.22227
 20
-39.483604
 30
0.0
 11
1771.983469
 21
-20.338002
 31
0.0
  0
ARC
  5
3D4C
100
AcDbEntity
  8
V0-OBRYS
  6
CONTINUOUS
 62
    90
100
AcDbCircle
 10
1772.986479
 20
64.727999
 30
0.0
 40
75.217489
100
AcDbArc
 50
238.716649
 51
301.283351
  0
LINE
  5
3D4D
100
AcDbEntity
  8
V0-OBRYS
  6
CONTINUOUS
 62
    90
100
AcDbLine
 10
1761.019307
 20
15.256181
 30
0.0
 11
1750.472778
 21
-28.342755
 31
0.0
  0
LINE
  5
3D4E
100
AcDbEntity
  8
V0-OBRYS
  6
CONTINUOUS
 62
    90
100
AcDbLine
 10
1736.918948
 20
-23.537768
 30
0.0
 11
1753.73341
 21
17.611193
 31
0.0
  0
LINE
  5
3D4F
100
AcDbEntity
  8
V0-OBRYS
  6
CONTINUOUS
 62
    90
100
AcDbLine
 10
1746.874055
 20
21.038008
 30
0.0
 11
1723.365117
 21
-18.295962
 31
0.0
  0
LINE
  5
3D53
100
AcDbEntity
  8
V0-OBRYS
  6
CONTINUOUS
 62
    90
100
AcDbLine
 10
1784.953651
 20
15.256181
 30
0.0
 11
1795.50018
 21
-28.342755
 31
0.0
  0
LINE
  5
3D54
100
AcDbEntity
  8
V0-OBRYS
  6
CONTINUOUS
 62
    90
100
AcDbLine
 10
1780.197471
 20
-30.090025
 30
0.0
 11
1776.84622
 21
13.975891
 31
0.0
  0
LINE
  5
3D55
100
AcDbEntity
  8
V0-OBRYS
  6
CONTINUOUS
 62
    90
100
AcDbLine
 10
1765.775487
 20
-30.090025
 30
0.0
 11
1769.126738
 21
13.975891
 31
0.0
  0
LINE
  5
3D56
100
AcDbEntity
  8
V0-OBRYS
  6
CONTINUOUS
 62
    90
100
AcDbLine
 10
1809.05401
 20
-23.537768
 30
0.0
 11
1792.239548
 21
17.611193
 31
0.0
  0
LINE
  5
3D57
100
AcDbEntity
  8
V0-OBRYS
  6
CONTINUOUS
 62
    90
100
AcDbLine
 10
1784.750688
 20
-39.483604
 30
0.0
 11
1773.989489
 21
-20.338002
 31
0.0
  0
LINE
  5
3D58
100
AcDbEntity
  8
V0-OBRYS
  6
CONTINUOUS
 62
    90
100
AcDbLine
 10
1773.989489
 20
-20.338002
 30
0.0
 11
1779.26444
 21
-11.425663
 31
0.0
  0
LINE
  5
3D59
100
AcDbEntity
  8
V0-OBRYS
  6
CONTINUOUS
 62
    90
100
AcDbLine
 10
1771.983469
 20
-20.338002
 30
0.0
 11
1766.708518
 21
-11.425663
 31
0.0
  0
ARC
  5
3D5A
100
AcDbEntity
  8
V0-OBRYS
  6
CONTINUOUS
 62
    90
100
AcDbCircle
 10
1772.986479
 20
64.727999
 30
0.0
 40
75.217489
100
AcDbArc
 50
58.716649
 51
121.283351
  0
LINE
  5
3D5C
100
AcDbEntity
  8
V0-OBRYS
  6
CONTINUOUS
 62
    90
100
AcDbLine
 10
1734.566962
 20
129.009599
 30
0.0
 11
1723.365117
 21
147.75196
 31
0.0
  0
LINE
  5
3D5D
100
AcDbEntity
  8
V0-OBRYS
  6
CONTINUOUS
 62
    90
100
AcDbLine
 10
1734.566962
 20
129.009599
 30
0.0
 11
1723.365117
 21
147.75196
 31
0.0
  0
LINE
  5
3D5E
100
AcDbEntity
  8
V0-OBRYS
  6
CONTINUOUS
 62
    90
100
AcDbLine
 10
1735.174044
 20
140.934628
 30
0.0
 11
1734.288396
 21
130.616173
 31
0.0
  0
LINE
  5
3D60
100
AcDbEntity
  8
V0-OBRYS
  6
CONTINUOUS
 62
    90
100
AcDbLine
 10
1717.171573
 20
153.51511
 30
0.0
 11
1735.174044
 21
140.934628
 31
0.0
  0
LINE
  5
3D61
100
AcDbEntity
  8
V0-OBRYS
  6
CONTINUOUS
 62
    90
100
AcDbLine
 10
1757.436839
 20
129.009599
 30
0.0
 11
1750.472778
 21
157.798753
 31
0.0
  0
LINE
  5
3D62
100
AcDbEntity
  8
V0-OBRYS
  6
CONTINUOUS
 62
    90
100
AcDbLine
 10
1761.019307
 20
114.199818
 30
0.0
 11
1750.472778
 21
157.798753
 31
0.0
  0
LINE
  5
3D63
100
AcDbEntity
  8
V0-OBRYS
  6
CONTINUOUS
 62
    90
100
AcDbLine
 10
1736.918948
 20
152.993766
 30
0.0
 11
1746.71946
 21
129.009599
 31
0.0
  0
LINE
  5
3D64
100
AcDbEntity
  8
V0-OBRYS
  6
CONTINUOUS
 62
    90
100
AcDbLine
 10
1736.918948
 20
152.993766
 30
0.0
 11
1753.73341
 21
111.844805
 31
0.0
  0
LINE
  5
3D65
100
AcDbEntity
  8
V0-OBRYS
  6
CONTINUOUS
 62
    90
100
AcDbLine
 10
1736.981405
 20
141.805007
 30
0.0
 11
1745.60089
 21
136.063983
 31
0.0
  0
LINE
  5
3D66
100
AcDbEntity
  8
V0-OBRYS
  6
CONTINUOUS
 62
    90
100
AcDbLine
 10
1738.369945
 20
163.723708
 30
0.0
 11
1736.981405
 21
141.805007
 31
0.0
  0
LINE
  5
3D67
100
AcDbEntity
  8
V0-OBRYS
  6
CONTINUOUS
 62
    90
100
AcDbLine
 10
1784.953651
 20
114.199818
 30
0.0
 11
1795.50018
 21
157.798753
 31
0.0
  0
LINE
  5
3D68
100
AcDbEntity
  8
V0-OBRYS
  6
CONTINUOUS
 62
    90
100
AcDbLine
 10
1765.775487
 20
159.546023
 30
0.0
 11
1768.097808
 21
129.009599
 31
0.0
  0
LINE
  5
3D69
100
AcDbEntity
  8
V0-OBRYS
  6
CONTINUOUS
 62
    90
100
AcDbLine
 10
1765.775487
 20
159.546023
 30
0.0
 11
1769.126738
 21
115.480107
 31
0.0
  0
LINE
  5
3D6A
100
AcDbEntity
  8
V0-OBRYS
  6
CONTINUOUS
 62
    90
100
AcDbLine
 10
1780.197471
 20
159.546023
 30
0.0
 11
1776.84622
 21
115.480107
 31
0.0
  0
LINE
  5
3D6B
100
AcDbEntity
  8
V0-OBRYS
  6
CONTINUOUS
 62
    90
100
AcDbLine
 10
1810.798914
 20
140.934628
 30
0.0
 11
1811.684562
 21
130.616173
 31
0.0
  0
LINE
  5
3D6C
100
AcDbEntity
  8
V0-OBRYS
  6
CONTINUOUS
 62
    90
100
AcDbLine
 10
1809.05401
 20
152.993766
 30
0.0
 11
1792.239548
 21
111.844805
 31
0.0
  0
LINE
  5
3D6D
100
AcDbEntity
  8
V0-OBRYS
  6
CONTINUOUS
 62
    90
100
AcDbLine
 10
1808.991553
 20
141.805007
 30
0.0
 11
1800.372068
 21
136.063983
 31
0.0
  0
LINE
  5
3D6E
100
AcDbEntity
  8
V0-OBRYS
  6
CONTINUOUS
 62
    90
100
AcDbLine
 10
1807.603013
 20
163.723708
 30
0.0
 11
1808.991553
 21
141.805007
 31
0.0
  0
ARC
  5
3D70
100
AcDbEntity
  8
V0-OBRYS
  6
CONTINUOUS
 62
    90
100
AcDbCircle
 10
1772.986479
 20
64.727999
 30
0.0
 40
75.217489
100
AcDbArc
 50
328.716649
 51
31.283351
  0
LINE
  5
3D71
100
AcDbEntity
  8
V0-OBRYS
  6
CONTINUOUS
 62
    90
100
AcDbLine
 10
1891.520505
 20
4.11943
 30
0.0
 11
1864.468715
 21
8.516527
 31
0.0
  0
LINE
  5
3D72
100
AcDbEntity
  8
V0-OBRYS
  6
CONTINUOUS
 62
    90
100
AcDbLine
 10
1847.127527
 20
-9.444502
 30
0.0
 11
1838.868391
 21
10.90603
 31
0.0
  0
LINE
  5
3D73
100
AcDbEntity
  8
V0-OBRYS
  6
CONTINUOUS
 62
    90
100
AcDbLine
 10
1858.451767
 20
-37.347456
 30
0.0
 11
1848.145324
 21
-11.952357
 31
0.0
  0
LINE
  5
3D74
100
AcDbEntity
  8
V0-OBRYS
  6
CONTINUOUS
 62
    90
100
AcDbLine
 10
1861.252246
 20
28.660468
 30
0.0
 11
1820.103285
 21
45.474931
 31
0.0
  0
LINE
  5
3D75
100
AcDbEntity
  8
V0-OBRYS
  6
CONTINUOUS
 62
    90
100
AcDbLine
 10
1861.797256
 20
8.950756
 30
0.0
 11
1840.119123
 21
12.474399
 31
0.0
  0
LINE
  5
3D76
100
AcDbEntity
  8
V0-OBRYS
  6
CONTINUOUS
 62
    90
100
AcDbLine
 10
1816.67647
 20
38.615575
 30
0.0
 11
1856.01044
 21
15.106637
 31
0.0
  0
LINE
  5
3D77
100
AcDbEntity
  8
V0-OBRYS
  6
CONTINUOUS
 62
    90
100
AcDbLine
 10
1822.458297
 20
52.760827
 30
0.0
 11
1866.057233
 21
42.214298
 31
0.0
  0
LINE
  5
3D7A
100
AcDbEntity
  8
V0-OBRYS
  6
CONTINUOUS
 62
    90
100
AcDbLine
 10
1840.119123
 20
12.474399
 30
0.0
 11
1836.440054
 21
22.155275
 31
0.0
  0
LINE
  5
3D7B
100
AcDbEntity
  8
V0-OBRYS
  6
CONTINUOUS
 62
    90
100
AcDbLine
 10
1921.554138
 20
-0.762347
 30
0.0
 11
1894.108773
 21
3.698723
 31
0.0
  0
LINE
  5
3D7C
100
AcDbEntity
  8
V0-OBRYS
  6
CONTINUOUS
 62
    90
100
AcDbLine
 10
1894.276923
 20
119.612808
 30
0.0
 11
1873.972618
 21
101.204412
 31
0.0
  0
LINE
  5
3D7D
100
AcDbEntity
  8
V0-OBRYS
  6
CONTINUOUS
 62
    90
100
AcDbLine
 10
1816.67647
 20
90.840423
 30
0.0
 11
1856.01044
 21
114.349361
 31
0.0
  0
LINE
  5
3D7E
100
AcDbEntity
  8
V0-OBRYS
  6
CONTINUOUS
 62
    90
100
AcDbLine
 10
1861.252246
 20
100.79553
 30
0.0
 11
1820.103285
 21
83.981068
 31
0.0
  0
LINE
  5
3D7F
100
AcDbEntity
  8
V0-OBRYS
  6
CONTINUOUS
 62
    90
100
AcDbLine
 10
1855.696507
 20
84.634827
 30
0.0
 11
1845.833832
 21
87.794342
 31
0.0
  0
LINE
  5
3D80
100
AcDbEntity
  8
V0-OBRYS
  6
CONTINUOUS
 62
    90
100
AcDbLine
 10
1856.142888
 20
82.679103
 30
0.0
 11
1848.627787
 21
75.553224
 31
0.0
  0
LINE
  5
3D81
100
AcDbEntity
  8
V0-OBRYS
  6
CONTINUOUS
 62
    90
100
AcDbLine
 10
1822.458297
 20
76.695171
 30
0.0
 11
1866.057233
 21
87.2417
 31
0.0
  0
LINE
  5
3D82
100
AcDbEntity
  8
V0-OBRYS
  6
CONTINUOUS
 62
    90
100
AcDbLine
 10
1867.804503
 20
71.938991
 30
0.0
 11
1823.738587
 21
68.58774
 31
0.0
  0
LINE
  5
3D83
100
AcDbEntity
  8
V0-OBRYS
  6
CONTINUOUS
 62
    90
100
AcDbLine
 10
1867.804503
 20
57.517007
 30
0.0
 11
1823.738587
 21
60.868258
 31
0.0
  0
LINE
  5
3D84
100
AcDbEntity
  8
V0-OBRYS
  6
CONTINUOUS
 62
    90
100
AcDbLine
 10
1877.203063
 20
76.448007
 30
0.0
 11
1856.142888
 21
82.679103
 31
0.0
  0
LINE
  5
3D85
100
AcDbEntity
  8
V0-OBRYS
  6
CONTINUOUS
 62
    90
100
AcDbLine
 10
1871.967497
 20
99.386518
 30
0.0
 11
1855.696507
 21
84.634827
 31
0.0
  0
LINE
  5
3D87
100
AcDbEntity
  8
V0-OBRYS
  6
CONTINUOUS
 62
    90
100
AcDbLine
 10
1906.079019
 20
67.904446
 30
0.0
 11
1879.798369
 21
75.680131
 31
0.0
  0
LINE
  5
3D88
100
AcDbEntity
  8
V0-OBRYS
  6
CONTINUOUS
 62
    90
100
AcDbLine
 10
1935.256511
 20
59.271671
 30
0.0
 11
1908.593505
 21
67.160483
 31
0.0
  0
LINE
  5
3D89
100
AcDbEntity
  8
V0-OBRYS
  6
CONTINUOUS
 62
    90
100
AcDbLine
 10
1916.819314
 20
140.050309
 30
0.0
 11
1896.219603
 21
121.37409
 31
0.0
  0
LINE
  5
3D8A
100
AcDbEntity
  8
V0-OBRYS
  6
CONTINUOUS
 62
    90
100
AcDbLine
 10
1965.02489
 20
50.464068
 30
0.0
 11
1937.730436
 21
58.539708
 31
0.0
  0
ARC
  5
3D8B
100
AcDbEntity
  8
V0-OBRYS
  6
CONTINUOUS
 62
    90
100
AcDbCircle
 10
1772.986479
 20
64.727999
 30
0.0
 40
200.0
100
AcDbArc
 50
338.994933
 51
355.290781
  0
LINE
  5
3D8C
100
AcDbEntity
  8
V0-OBRYS
  6
CONTINUOUS
 62
    90
100
AcDbLine
 10
1959.696225
 20
-6.962102
 30
0.0
 11
1954.718578
 21
-6.153017
 31
0.0
  0
LINE
  5
3D8D
100
AcDbEntity
  8
V0-OBRYS
  6
CONTINUOUS
 62
    90
100
AcDbLine
 10
1972.311317
 20
48.308225
 30
0.0
 11
1967.475563
 21
49.738985
 31
0.0
  0
ARC
  5
3D8E
100
AcDbEntity
  8
VO-OBRYS
  6
CONTINUOUS
100
AcDbCircle
 10
1939.094471
 20
230.835991
 30
0.0
 40
17.3312
100
AcDbArc
 50
315.0
 51
135.0
  0
ARC
  5
3D8F
100
AcDbEntity
  8
VO-OBRYS
  6
CONTINUOUS
100
AcDbCircle
 10
1939.094471
 20
230.835991
 30
0.0
 40
14.832799
100
AcDbArc
 50
315.0
 51
135.0
  0
ARC
  5
3D90
100
AcDbEntity
  8
V0-OBRYS
  6
CONTINUOUS
 62
    90
100
AcDbCircle
 10
1772.986479
 20
64.727999
 30
0.0
 40
200.0
100
AcDbArc
 50
30.423505
 51
46.719352
  0
ARC
  5
3D91
100
AcDbEntity
  8
V0-OBRYS
  6
CONTINUOUS
 62
    90
100
AcDbCircle
 10
1772.986479
 20
64.727999
 30
0.0
 40
200.0
100
AcDbArc
 50
81.852076
 51
98.147924
  0
LINE
  5
3D92
100
AcDbEntity
  8
V0-OBRYS
  6
CONTINUOUS
 62
    90
100
AcDbLine
 10
1742.197527
 20
224.14373
 30
0.0
 11
1740.439581
 21
196.393795
 31
0.0
  0
LINE
  5
3D93
100
AcDbEntity
  8
V0-OBRYS
  6
CONTINUOUS
 62
    90
100
AcDbLine
 10
1740.273795
 20
193.776805
 30
0.0
 11
1738.541059
 21
166.424814
 31
0.0
  0
LINE
  5
3D94
100
AcDbEntity
  8
V0-OBRYS
  6
CONTINUOUS
 62
    90
100
AcDbLine
 10
1744.160217
 20
255.125629
 30
0.0
 11
1742.360638
 21
226.718505
 31
0.0
  0
LINE
  5
3D95
100
AcDbEntity
  8
V0-OBRYS
  6
CONTINUOUS
 62
    90
100
AcDbLine
 10
1744.640626
 20
262.709091
 30
0.0
 11
1744.321794
 21
257.676205
 31
0.0
  0
LINE
  5
3D96
100
AcDbEntity
  8
V0-OBRYS
  6
CONTINUOUS
 62
    90
100
AcDbLine
 10
1803.775431
 20
224.14373
 30
0.0
 11
1805.533377
 21
196.393795
 31
0.0
  0
LINE
  5
3D97
100
AcDbEntity
  8
V0-OBRYS
  6
CONTINUOUS
 62
    90
100
AcDbLine
 10
1805.699163
 20
193.776805
 30
0.0
 11
1807.431899
 21
166.424814
 31
0.0
  0
LINE
  5
3D98
100
AcDbEntity
  8
V0-OBRYS
  6
CONTINUOUS
 62
    90
100
AcDbLine
 10
1801.812741
 20
255.125629
 30
0.0
 11
1803.61232
 21
226.718505
 31
0.0
  0
LINE
  5
3D99
100
AcDbEntity
  8
V0-OBRYS
  6
CONTINUOUS
 62
    90
100
AcDbLine
 10
1801.332332
 20
262.709091
 30
0.0
 11
1801.651163
 21
257.676205
 31
0.0
  0
LINE
  5
3D9A
100
AcDbEntity
  8
V0-OBRYS
  6
CONTINUOUS
 62
    90
100
AcDbLine
 10
1878.426118
 20
188.193853
 30
0.0
 11
1855.634284
 21
172.26647
 31
0.0
  0
LINE
  5
3D9B
100
AcDbEntity
  8
V0-OBRYS
  6
CONTINUOUS
 62
    90
100
AcDbLine
 10
1910.100979
 20
210.328871
 30
0.0
 11
1905.967322
 21
207.44019
 31
0.0
  0
LINE
  5
3D9C
100
AcDbEntity
  8
V0-OBRYS
  6
CONTINUOUS
 62
    90
100
AcDbLine
 10
1903.87246
 20
205.976259
 30
0.0
 11
1880.540857
 21
189.671674
 31
0.0
  0
CIRCLE
  5
3D9D
100
AcDbEntity
  8
V0-OBRYS
  6
CONTINUOUS
 62
    90
100
AcDbCircle
 10
1606.878487
 20
230.835991
 30
0.0
 40
8.017239
  0
LINE
  5
3D9E
100
AcDbEntity
  8
V0-VYPLNE
  6
DASHDOT
 62
    63
100
AcDbLine
 10
1772.986479
 20
64.727999
 30
0.0
 11
1586.10174
 21
251.612738
 31
0.0
  0
CIRCLE
  5
3D9F
100
AcDbEntity
  8
V0-OBRYS
  6
CONTINUOUS
 62
    90
100
AcDbCircle
 10
1606.878487
 20
-101.379992
 30
0.0
 40
8.017239
  0
LINE
  5
3DA0
100
AcDbEntity
  8
V0-VYPLNE
  6
DASHDOT
 62
    63
100
AcDbLine
 10
1772.986479
 20
64.727999
 30
0.0
 11
1586.10174
 21
-122.15674
 31
0.0
  0
CIRCLE
  5
3DA1
100
AcDbEntity
  8
V0-OBRYS
  6
CONTINUOUS
 62
    90
100
AcDbCircle
 10
1939.094471
 20
-101.379992
 30
0.0
 40
8.017239
  0
LINE
  5
3DA2
100
AcDbEntity
  8
V0-VYPLNE
  6
DASHDOT
 62
    63
100
AcDbLine
 10
1772.986479
 20
64.727999
 30
0.0
 11
1959.871218
 21
-122.15674
 31
0.0
  0
CIRCLE
  5
3DA3
100
AcDbEntity
  8
V0-OBRYS
  6
CONTINUOUS
 62
    90
100
AcDbCircle
 10
1939.094471
 20
230.835991
 30
0.0
 40
8.017239
  0
LINE
  5
3DA4
100
AcDbEntity
  8
V0-VYPLNE
  6
DASHDOT
 62
    63
100
AcDbLine
 10
1772.986479
 20
64.727999
 30
0.0
 11
1959.871218
 21
251.612738
 31
0.0
  0
POINT
  5
3DBB
100
AcDbEntity
  8
V0-VYPLNE
  6
DASHED
 62
    52
100
AcDbPoint
 10
1772.986479
 20
64.727999
 30
0.0
  0
LINE
  5
3DBC
100
AcDbEntity
  8
V0-OBRYS
  6
CONTINUOUS
 62
    90
100
AcDbLine
 10
1809.144879
 20
104.903999
 30
0.0
 11
1736.828079
 21
104.903999
 31
0.0
  0
LINE
  5
3DBD
100
AcDbEntity
  8
V0-OBRYS
  6
CONTINUOUS
 62
    90
100
AcDbLine
 10
1736.828079
 20
24.551999
 30
0.0
 11
1809.144879
 21
24.551999
 31
0.0
  0
LINE
  5
3DBE
100
AcDbEntity
  8
V0-OBRYS
  6
CONTINUOUS
 62
    90
100
AcDbLine
 10
1732.810479
 20
100.886399
 30
0.0
 11
1732.810479
 21
28.569599
 31
0.0
  0
CIRCLE
  5
3DBF
100
AcDbEntity
  8
V0-OBRYS
  6
CONTINUOUS
 62
    90
100
AcDbCircle
 10
1742.854479
 20
34.595999
 30
0.0
 40
2.6784
  0
ARC
  5
3DC2
100
AcDbEntity
  8
V0-OBRYS
  6
CONTINUOUS
 62
    90
100
AcDbCircle
 10
1736.828079
 20
28.569599
 30
0.0
 40
4.0176
100
AcDbArc
 50
180.0
 51
270.0
  0
CIRCLE
  5
3DC3
100
AcDbEntity
  8
V0-OBRYS
  6
CONTINUOUS
 62
    90
100
AcDbCircle
 10
1742.854479
 20
94.859999
 30
0.0
 40
2.6784
  0
ARC
  5
3DC4
100
AcDbEntity
  8
V0-OBRYS
  6
CONTINUOUS
 62
    90
100
AcDbCircle
 10
1736.828079
 20
100.886399
 30
0.0
 40
4.0176
100
AcDbArc
 50
90.0
 51
180.0
  0
LINE
  5
3DC5
100
AcDbEntity
  8
V0-OBRYS
  6
CONTINUOUS
 62
    90
100
AcDbLine
 10
1813.162479
 20
28.569599
 30
0.0
 11
1813.162479
 21
100.886399
 31
0.0
  0
ARC
  5
3DC7
100
AcDbEntity
  8
V0-OBRYS
  6
CONTINUOUS
 62
    90
100
AcDbCircle
 10
1809.144879
 20
28.569599
 30
0.0
 40
4.0176
100
AcDbArc
 50
270.0
 51
0.0
  0
CIRCLE
  5
3DC8
100
AcDbEntity
  8
V0-OBRYS
  6
CONTINUOUS
 62
    90
100
AcDbCircle
 10
1803.118479
 20
34.595999
 30
0.0
 40
2.6784
  0
CIRCLE
  5
3DC9
100
AcDbEntity
  8
V0-OBRYS
  6
CONTINUOUS
 62
    90
100
AcDbCircle
 10
1803.118479
 20
94.859999
 30
0.0
 40
2.6784
  0
ARC
  5
3DCA
100
AcDbEntity
  8
V0-OBRYS
  6
CONTINUOUS
 62
    90
100
AcDbCircle
 10
1809.144879
 20
100.886399
 30
0.0
 40
4.0176
100
AcDbArc
 50
0.0
 51
90.0
  0
LINE
  5
3DCB
100
AcDbEntity
  8
VO-OBRYS
  6
CONTINUOUS
100
AcDbLine
 10
1817.903489
 20
88.668263
 30
0.0
 11
1949.582843
 21
220.347618
 31
0.0
  0
LINE
  5
3DCC
100
AcDbEntity
  8
VO-OBRYS
  6
CONTINUOUS
100
AcDbLine
 10
1749.046215
 20
19.810989
 30
0.0
 11
1617.36686
 21
-111.868365
 31
0.0
  0
LINE
  5
3DCD
100
AcDbEntity
  8
VO-OBRYS
  6
CONTINUOUS
100
AcDbLine
 10
1728.069469
 20
88.668263
 30
0.0
 11
1596.390115
 21
220.347618
 31
0.0
  0
ARC
  5
3DCE
100
AcDbEntity
  8
V0-OBRYS
  6
CONTINUOUS
 62
    90
100
AcDbCircle
 10
1772.986479
 20
64.727999
 30
0.0
 40
50.898664
100
AcDbArc
 50
52.123231
 51
127.876769
  0
ARC
  5
3DCF
100
AcDbEntity
  8
V0-OBRYS
  6
CONTINUOUS
 62
    90
100
AcDbCircle
 10
1772.986479
 20
64.727999
 30
0.0
 40
50.898664
100
AcDbArc
 50
142.123231
 51
217.876769
  0
ARC
  5
3DD0
100
AcDbEntity
  8
V0-OBRYS
  6
CONTINUOUS
 62
    90
100
AcDbCircle
 10
1772.986479
 20
64.727999
 30
0.0
 40
50.898664
100
AcDbArc
 50
232.123231
 51
307.876769
  0
ARC
  5
3DD1
100
AcDbEntity
  8
V0-OBRYS
  6
CONTINUOUS
 62
    90
100
AcDbCircle
 10
1772.986479
 20
64.727999
 30
0.0
 40
50.898664
100
AcDbArc
 50
322.123231
 51
37.876769
  0
LINE
  5
3DD2
100
AcDbEntity
  8
V0-VYPLNE
  6
DASHDOT
 62
    63
100
AcDbLine
 10
1065.525732
 20
-618.534095
 30
0.0
 11
1221.112425
 21
-618.534095
 31
0.0
  0
ARC
  5
3DD3
100
AcDbEntity
  8
V0-OBRYS
  6
CONTINUOUS
 62
    90
 48
2.0
100
AcDbCircle
 10
1100.528356
 20
-530.842475
 30
0.0
 40
7.1
100
AcDbArc
 50
0.0
 51
70.21797
  0
LINE
  5
3DD4
100
AcDbEntity
  8
V0-VYPLNE
  6
DASHED
 62
    52
100
AcDbLine
 10
1195.657599
 20
-553.932612
 30
0.0
 11
1183.557528
 21
-419.774006
 31
0.0
  0
LINE
  5
3DD5
100
AcDbEntity
  8
V0-VYPLNE
  6
DASHED
 62
    52
100
AcDbLine
 10
1141.598553
 20
-553.932612
 30
0.0
 11
1153.698624
 21
-419.774006
 31
0.0
  0
LINE
  5
3DD6
100
AcDbEntity
  8
V0-OBRYS
  6
CONTINUOUS
 62
    90
 48
2.0
100
AcDbLine
 10
1194.474631
 20
-618.53401
 30
0.0
 11
1194.474631
 21
-418.534365
 31
0.0
  0
LINE
  5
3DD7
100
AcDbEntity
  8
V0-OBRYS
  6
CONTINUOUS
 62
    90
100
AcDbLine
 10
1119.668356
 20
-368.38401
 30
0.0
 11
1119.668356
 21
-868.68401
 31
0.0
  0
LINE
  5
3DD8
100
AcDbEntity
  8
V0-OBRYS
  6
CONTINUOUS
 62
    90
 48
2.0
100
AcDbLine
 10
1107.628356
 20
-368.38401
 30
0.0
 11
1107.628356
 21
-618.53401
 31
0.0
  0
LINE
  5
3DD9
100
AcDbEntity
  8
V0-VYPLNE
  6
DASHED
 62
    52
100
AcDbLine
 10
1195.657599
 20
-682.572261
 30
0.0
 11
1183.557528
 21
-816.730867
 31
0.0
  0
LINE
  5
3DDA
100
AcDbEntity
  8
V0-VYPLNE
  6
DASHED
 62
    52
100
AcDbLine
 10
1141.598553
 20
-682.572261
 30
0.0
 11
1153.698624
 21
-816.730867
 31
0.0
  0
LINE
  5
3DDB
100
AcDbEntity
  8
V0-OBRYS
  6
CONTINUOUS
 62
    90
 48
2.0
100
AcDbLine
 10
1194.474631
 20
-618.53401
 30
0.0
 11
1194.474631
 21
-818.533655
 31
0.0
  0
LINE
  5
3DDC
100
AcDbEntity
  8
V0-OBRYS
  6
CONTINUOUS
 62
    90
 48
2.0
100
AcDbLine
 10
1089.937372
 20
-802.715404
 30
0.0
 11
1089.937372
 21
-721.211174
 31
0.0
  0
LINE
  5
3DDD
100
AcDbEntity
  8
V0-OBRYS
  6
CONTINUOUS
 62
    90
 48
2.0
100
AcDbLine
 10
1087.720042
 20
-802.715404
 30
0.0
 11
1087.720042
 21
-721.211174
 31
0.0
  0
LINE
  5
3DDE
100
AcDbEntity
  8
V0-OBRYS
  6
CONTINUOUS
 62
    90
100
AcDbLine
 10
1119.668356
 20
-868.68401
 30
0.0
 11
1130.831541
 21
-828.83292
 31
0.0
  0
LINE
  5
3DDF
100
AcDbEntity
  8
V0-OBRYS
  6
CONTINUOUS
 62
    90
 48
2.0
100
AcDbLine
 10
1119.668356
 20
-868.68401
 30
0.0
 11
1107.628356
 21
-868.68401
 31
0.0
  0
LINE
  5
3DE0
100
AcDbEntity
  8
V0-OBRYS
  6
CONTINUOUS
 62
    90
 48
2.0
100
AcDbLine
 10
1105.391825
 20
-829.520229
 30
0.0
 11
1105.391825
 21
-816.27323
 31
0.0
  0
ARC
  5
3DE1
100
AcDbEntity
  8
V0-OBRYS
  6
CONTINUOUS
 62
    90
 48
2.0
100
AcDbCircle
 10
1106.51009
 20
-829.520229
 30
0.0
 40
1.118266
100
AcDbArc
 50
180.0
 51
0.0
  0
ARC
  5
3DE2
100
AcDbEntity
  8
V0-OBRYS
  6
CONTINUOUS
 62
    90
 48
2.0
100
AcDbCircle
 10
1090.556632
 20
-828.774972
 30
0.0
 40
19.400425
100
AcDbArc
 50
40.121121
 51
83.630132
  0
ARC
  5
3DE3
100
AcDbEntity
  8
V0-OBRYS
  6
CONTINUOUS
 62
    90
 48
2.0
100
AcDbCircle
 10
1090.671406
 20
-827.541023
 30
0.0
 40
20.343317
100
AcDbArc
 50
33.633732
 51
82.381915
  0
CIRCLE
  5
3DE4
100
AcDbEntity
  8
V0-OBRYS
  6
CONTINUOUS
 62
    90
 48
2.0
100
AcDbCircle
 10
1085.436191
 20
-797.077506
 30
0.0
 40
2.283588
  0
ARC
  5
3DE5
100
AcDbEntity
  8
V0-OBRYS
  6
CONTINUOUS
 62
    90
 48
2.0
100
AcDbCircle
 10
1094.820042
 20
-802.715404
 30
0.0
 40
7.1
100
AcDbArc
 50
180.0
 51
252.703019
  0
ARC
  5
3DE6
100
AcDbEntity
  8
V0-OBRYS
  6
CONTINUOUS
 62
    90
 48
2.0
100
AcDbCircle
 10
1094.820042
 20
-802.715404
 30
0.0
 40
4.882669
100
AcDbArc
 50
180.0
 51
252.703019
  0
LINE
  5
3DE7
100
AcDbEntity
  8
V0-OBRYS
  6
CONTINUOUS
 62
    90
 48
2.0
100
AcDbLine
 10
1194.474631
 20
-818.533655
 30
0.0
 11
1148.880461
 21
-818.533655
 31
0.0
  0
LINE
  5
3DE8
100
AcDbEntity
  8
V0-VYPLNE
  6
DASHED
 62
    52
100
AcDbLine
 10
1153.698624
 20
-816.730867
 30
0.0
 11
1183.557528
 21
-816.730867
 31
0.0
  0
ARC
  5
3DE9
100
AcDbEntity
  8
V0-OBRYS
  6
CONTINUOUS
 62
    90
 48
2.0
100
AcDbCircle
 10
1148.880461
 20
-839.49818
 30
0.0
 40
20.964525
100
AcDbArc
 50
90.0
 51
149.420799
  0
CIRCLE
  5
3DEA
100
AcDbEntity
  8
V0-OBRYS
  6
CONTINUOUS
 62
    90
 48
2.0
100
AcDbCircle
 10
1085.436191
 20
-780.037506
 30
0.0
 40
2.283588
  0
CIRCLE
  5
3DEB
100
AcDbEntity
  8
V0-OBRYS
  6
CONTINUOUS
 62
    90
 48
2.0
100
AcDbCircle
 10
1085.436191
 20
-762.997506
 30
0.0
 40
2.283588
  0
CIRCLE
  5
3DEC
100
AcDbEntity
  8
V0-OBRYS
  6
CONTINUOUS
 62
    90
 48
2.0
100
AcDbCircle
 10
1085.436191
 20
-728.917506
 30
0.0
 40
2.283588
  0
CIRCLE
  5
3DED
100
AcDbEntity
  8
V0-OBRYS
  6
CONTINUOUS
 62
    90
 48
2.0
100
AcDbCircle
 10
1085.436191
 20
-745.957506
 30
0.0
 40
2.283588
  0
LINE
  5
3DEE
100
AcDbEntity
  8
V0-OBRYS
  6
CONTINUOUS
 62
    90
 48
2.0
100
AcDbLine
 10
1093.167537
 20
-716.616646
 30
0.0
 11
1103.68174
 21
-714.993032
 31
0.0
  0
LINE
  5
3DEF
100
AcDbEntity
  8
V0-OBRYS
  6
CONTINUOUS
 62
    90
 48
2.0
100
AcDbLine
 10
1092.417098
 20
-714.530167
 30
0.0
 11
1102.9313
 21
-712.906553
 31
0.0
  0
ARC
  5
3DF0
100
AcDbEntity
  8
V0-OBRYS
  6
CONTINUOUS
 62
    90
 48
2.0
100
AcDbCircle
 10
1094.820042
 20
-721.211174
 30
0.0
 40
7.1
100
AcDbArc
 50
109.78203
 51
180.0
  0
ARC
  5
3DF1
100
AcDbEntity
  8
V0-OBRYS
  6
CONTINUOUS
 62
    90
 48
2.0
100
AcDbCircle
 10
1094.820042
 20
-721.211174
 30
0.0
 40
4.882669
100
AcDbArc
 50
109.78203
 51
180.0
  0
ARC
  5
3DF2
100
AcDbEntity
  8
V0-OBRYS
  6
CONTINUOUS
 62
    90
 48
2.0
100
AcDbCircle
 10
1100.528356
 20
-706.225546
 30
0.0
 40
9.317331
100
AcDbArc
 50
289.78203
 51
319.642674
  0
ARC
  5
3DF3
100
AcDbEntity
  8
V0-OBRYS
  6
CONTINUOUS
 62
    90
 48
2.0
100
AcDbCircle
 10
1100.528356
 20
-706.225546
 30
0.0
 40
7.1
100
AcDbArc
 50
289.78203
 51
0.0
  0
LINE
  5
3DF4
100
AcDbEntity
  8
V0-OBRYS
  6
CONTINUOUS
 62
    90
100
AcDbLine
 10
1020.525734
 20
-578.534106
 30
0.0
 11
1065.525734
 21
-578.534106
 31
0.0
  0
LINE
  5
3DF5
100
AcDbEntity
  8
V0-OBRYS
  6
CONTINUOUS
 62
    90
100
AcDbLine
 10
1020.525734
 20
-658.534106
 30
0.0
 11
1065.525734
 21
-658.534106
 31
0.0
  0
LINE
  5
3DF6
100
AcDbEntity
  8
V0-OBRYS
  6
CONTINUOUS
 62
    90
100
AcDbLine
 10
1020.525734
 20
-618.534106
 30
0.0
 11
1020.525734
 21
-578.534106
 31
0.0
  0
LINE
  5
3DF7
100
AcDbEntity
  8
V0-OBRYS
  6
CONTINUOUS
 62
    90
100
AcDbLine
 10
1020.525734
 20
-618.534106
 30
0.0
 11
1020.525734
 21
-658.534106
 31
0.0
  0
ELLIPSE
  5
3DF8
100
AcDbEntity
  8
V0-VYPLNE
  6
DASHED
 62
    52
100
AcDbEllipse
 10
1168.628076
 20
-618.534095
 30
0.0
 11
-0.0000000000000783
 21
5.966556111557961
 31
0.0
210
0.0
220
0.0
230
-1.0
 40
0.852273
 41
0.0
 42
6.283185307179586
  0
LINE
  5
3DF9
100
AcDbEntity
  8
V0-VYPLNE
  6
DASHED
 62
    52
100
AcDbLine
 10
1142.104476
 20
-627.889306
 30
0.0
 11
1197.686108
 21
-608.284958
 31
0.0
  0
ELLIPSE
  5
3DFA
100
AcDbEntity
  8
V0-OBRYS
  6
CONTINUOUS
 62
    90
100
AcDbEllipse
 10
399.329728
 20
-649.360819
 30
0.0
 11
797.4798954661168
 21
76.20232472790563
 31
0.0
210
0.0
220
0.0
230
-0.9999999999999998
 40
0.822171
 41
-0.0116123588215376
 42
0.0685565765186036
  0
LINE
  5
3DFB
100
AcDbEntity
  8
V0-VYPLNE
  6
DASHED
 62
    52
100
AcDbLine
 10
1141.628076
 20
-618.252437
 30
0.0
 11
1141.628076
 21
-560.496437
 31
0.0
  0
LINE
  5
3DFC
100
AcDbEntity
  8
V0-VYPLNE
  6
DASHED
 62
    52
100
AcDbLine
 10
1168.628076
 20
-556.472899
 30
0.0
 11
1168.628076
 21
-618.252437
 31
0.0
  0
LINE
  5
3DFD
100
AcDbEntity
  8
V0-VYPLNE
  6
DASHED
 62
    52
100
AcDbLine
 10
1135.535993
 20
-566.533594
 30
0.0
 11
1135.535993
 21
-618.53401
 31
0.0
  0
LINE
  5
3E01
100
AcDbEntity
  8
V0-OBRYS
  6
CONTINUOUS
 62
    90
 48
2.0
100
AcDbLine
 10
1106.628106
 20
-618.53401
 30
0.0
 11
1106.628106
 21
-561.533554
 31
0.0
  0
LINE
  5
3E02
100
AcDbEntity
  8
V0-OBRYS
  6
CONTINUOUS
 62
    90
100
AcDbLine
 10
1065.525734
 20
-578.534106
 30
0.0
 11
1065.525734
 21
-618.534106
 31
0.0
  0
LINE
  5
3E03
100
AcDbEntity
  8
V0-OBRYS
  6
CONTINUOUS
 62
    90
100
AcDbLine
 10
1035.525734
 20
-618.534106
 30
0.0
 11
1035.525734
 21
-578.534106
 31
0.0
  0
LINE
  5
3E04
100
AcDbEntity
  8
V0-OBRYS
  6
CONTINUOUS
 62
    90
 48
2.0
100
AcDbLine
 10
1066.627954
 20
-618.53401
 30
0.0
 11
1066.627954
 21
-571.533634
 31
0.0
  0
LINE
  5
3E05
100
AcDbEntity
  8
V0-VYPLNE
  6
DASHED
 62
    52
100
AcDbLine
 10
1107.628385
 20
-626.947105
 30
0.0
 11
1135.05583
 21
-626.947105
 31
0.0
  0
LINE
  5
3E06
100
AcDbEntity
  8
V0-VYPLNE
  6
DASHDOT
 62
    63
 48
2.0
100
AcDbLine
 10
1106.713274
 20
-618.53401
 30
0.0
 11
1211.173052
 21
-618.53401
 31
0.0
  0
LINE
  5
3E07
100
AcDbEntity
  8
V0-VYPLNE
  6
DASHED
 62
    52
100
AcDbLine
 10
1107.628385
 20
-638.460447
 30
0.0
 11
1135.535993
 21
-638.460447
 31
0.0
  0
LINE
  5
3E08
100
AcDbEntity
  8
V0-VYPLNE
  6
DASHED
 62
    52
100
AcDbLine
 10
1107.628385
 20
-675.534466
 30
0.0
 11
1130.535953
 21
-675.534466
 31
0.0
  0
LINE
  5
3E09
100
AcDbEntity
  8
V0-VYPLNE
  6
DASHED
 62
    52
100
AcDbLine
 10
1107.628385
 20
-649.973787
 30
0.0
 11
1135.05583
 21
-649.973787
 31
0.0
  0
LINE
  5
3E0A
100
AcDbEntity
  8
V0-VYPLNE
  6
DASHED
 62
    52
100
AcDbLine
 10
1107.628385
 20
-661.966852
 30
0.0
 11
1135.535993
 21
-661.966852
 31
0.0
  0
LINE
  5
3E0B
100
AcDbEntity
  8
V0-VYPLNE
  6
DASHED
 62
    52
100
AcDbLine
 10
1107.628385
 20
-672.041027
 30
0.0
 11
1135.535993
 21
-672.041027
 31
0.0
  0
LINE
  5
3E0C
100
AcDbEntity
  8
V0-OBRYS
  6
CONTINUOUS
 62
    90
 48
2.0
100
AcDbLine
 10
1105.988145
 20
-661.966852
 30
0.0
 11
1067.222024
 21
-652.372401
 31
0.0
  0
LINE
  5
3E0D
100
AcDbEntity
  8
V0-OBRYS
  6
CONTINUOUS
 62
    90
 48
2.0
100
AcDbLine
 10
1106.468312
 20
-672.041027
 30
0.0
 11
1066.741861
 21
-658.129073
 31
0.0
  0
LINE
  5
3E0E
100
AcDbEntity
  8
V0-OBRYS
  6
CONTINUOUS
 62
    90
 48
2.0
100
AcDbLine
 10
1106.628106
 20
-618.53401
 30
0.0
 11
1106.628106
 21
-675.534466
 31
0.0
  0
LINE
  5
3E0F
100
AcDbEntity
  8
V0-OBRYS
  6
CONTINUOUS
 62
    90
 48
2.0
100
AcDbLine
 10
1066.627954
 20
-618.53401
 30
0.0
 11
1066.627954
 21
-665.534386
 31
0.0
  0
ARC
  5
3E10
100
AcDbEntity
  8
V0-OBRYS
  6
CONTINUOUS
 62
    90
 48
2.0
100
AcDbCircle
 10
1076.628034
 20
-665.534386
 30
0.0
 40
10.00008
100
AcDbArc
 50
180.0
 51
270.0
  0
LINE
  5
3E11
100
AcDbEntity
  8
V0-OBRYS
  6
CONTINUOUS
 62
    90
 48
2.0
100
AcDbLine
 10
1076.628034
 20
-675.534466
 30
0.0
 11
1107.62833
 21
-675.534466
 31
0.0
  0
LINE
  5
3E12
100
AcDbEntity
  8
V0-OBRYS
  6
CONTINUOUS
 62
    90
 48
2.0
100
AcDbLine
 10
1105.988145
 20
-661.966852
 30
0.0
 11
1107.62833
 21
-661.966852
 31
0.0
  0
LINE
  5
3E13
100
AcDbEntity
  8
V0-OBRYS
  6
CONTINUOUS
 62
    90
 48
2.0
100
AcDbLine
 10
1106.468312
 20
-672.041027
 30
0.0
 11
1107.62833
 21
-672.041027
 31
0.0
  0
LINE
  5
3E14
100
AcDbEntity
  8
V0-OBRYS
  6
CONTINUOUS
 62
    90
 48
2.0
100
AcDbLine
 10
1105.988145
 20
-626.947105
 30
0.0
 11
1066.741861
 21
-626.467383
 31
0.0
  0
LINE
  5
3E15
100
AcDbEntity
  8
V0-OBRYS
  6
CONTINUOUS
 62
    90
 48
2.0
100
AcDbLine
 10
1106.468312
 20
-649.973787
 30
0.0
 11
1066.261693
 21
-645.656284
 31
0.0
  0
LINE
  5
3E16
100
AcDbEntity
  8
V0-OBRYS
  6
CONTINUOUS
 62
    90
 48
2.0
100
AcDbLine
 10
1105.988145
 20
-638.460447
 30
0.0
 11
1066.741861
 21
-636.541556
 31
0.0
  0
LINE
  5
3E17
100
AcDbEntity
  8
V0-OBRYS
  6
CONTINUOUS
 62
    90
100
AcDbLine
 10
1065.525734
 20
-658.534106
 30
0.0
 11
1065.525734
 21
-618.534106
 31
0.0
  0
LINE
  5
3E18
100
AcDbEntity
  8
V0-OBRYS
  6
CONTINUOUS
 62
    90
100
AcDbLine
 10
1035.525734
 20
-618.534106
 30
0.0
 11
1035.525734
 21
-658.534106
 31
0.0
  0
LINE
  5
3E19
100
AcDbEntity
  8
V0-OBRYS
  6
CONTINUOUS
 62
    90
 48
2.0
100
AcDbLine
 10
1105.988145
 20
-638.460447
 30
0.0
 11
1108.869138
 21
-638.460447
 31
0.0
  0
LINE
  5
3E1A
100
AcDbEntity
  8
V0-OBRYS
  6
CONTINUOUS
 62
    90
 48
2.0
100
AcDbLine
 10
1108.869138
 20
-638.460447
 30
0.0
 11
1107.62833
 21
-638.460447
 31
0.0
  0
LINE
  5
3E1B
100
AcDbEntity
  8
V0-OBRYS
  6
CONTINUOUS
 62
    90
 48
2.0
100
AcDbLine
 10
1106.468312
 20
-649.973787
 30
0.0
 11
1107.62833
 21
-649.973787
 31
0.0
  0
LINE
  5
3E1C
100
AcDbEntity
  8
V0-OBRYS
  6
CONTINUOUS
 62
    90
 48
2.0
100
AcDbLine
 10
1105.988145
 20
-626.947105
 30
0.0
 11
1107.62833
 21
-626.947105
 31
0.0
  0
ELLIPSE
  5
3E1D
100
AcDbEntity
  8
V0-OBRYS
  6
CONTINUOUS
 62
    90
100
AcDbEllipse
 10
399.329728
 20
-587.144055
 30
0.0
 11
-797.4798954661164
 21
76.20232472790952
 31
0.0
210
0.0
220
0.0
230
-1.0
 40
0.822171
 41
3.073036077071177
 42
3.153205012411314
  0
LINE
  5
3E1E
100
AcDbEntity
  8
V0-VYPLNE
  6
DASHED
 62
    52
100
AcDbLine
 10
1168.628076
 20
-680.031974
 30
0.0
 11
1168.628076
 21
-618.252437
 31
0.0
  0
LINE
  5
3E1F
100
AcDbEntity
  8
V0-VYPLNE
  6
DASHED
 62
    52
100
AcDbLine
 10
1141.628076
 20
-618.252437
 30
0.0
 11
1141.628076
 21
-676.008437
 31
0.0
  0
LINE
  5
3E20
100
AcDbEntity
  8
V0-VYPLNE
  6
DASHED
 62
    52
100
AcDbLine
 10
1135.535993
 20
-670.534426
 30
0.0
 11
1135.535993
 21
-618.53401
 31
0.0
  0
ELLIPSE
  5
3E21
100
AcDbEntity
  8
V0-VYPLNE
  6
DASHED
 62
    52
100
AcDbEllipse
 10
1168.628076
 20
-553.301298
 30
0.0
 11
-0.0000000000005348
 21
126.7306765837048
 31
0.0
210
0.0
220
0.0
230
-1.0
 40
0.852273
 41
2.929991421004502
 42
3.394251156505877
  0
LINE
  5
3E22
100
AcDbEntity
  8
V0-VYPLNE
  6
DASHED
 62
    52
100
AcDbLine
 10
1146.208105
 20
-677.168709
 30
0.0
 11
1141.598553
 21
-682.572261
 31
0.0
  0
ARC
  5
3E23
100
AcDbEntity
  8
V0-VYPLNE
  6
DASHED
 62
    52
 48
2.0
100
AcDbCircle
 10
1130.535953
 20
-670.534426
 30
0.0
 40
5.00004
100
AcDbArc
 50
270.0
 51
0.0
  0
LINE
  5
3E24
100
AcDbEntity
  8
V0-VYPLNE
  6
DASHED
 62
    52
100
AcDbLine
 10
1191.048047
 20
-677.168709
 30
0.0
 11
1195.657599
 21
-682.572261
 31
0.0
  0
ELLIPSE
  5
3E25
100
AcDbEntity
  8
V0-VYPLNE
  6
DASHED
 62
    52
100
AcDbEllipse
 10
1190.052607
 20
-670.322378
 30
0.0
 11
-0.0000000000007886
 21
7.039999999999893
 31
0.0
210
0.0
220
0.0
230
-1.0
 40
0.852273
 41
1.660762687017303
 42
2.929991421004685
  0
LINE
  5
3E26
100
AcDbEntity
  8
V0-VYPLNE
  6
DASHED
 62
    52
100
AcDbLine
 10
1107.628385
 20
-561.533554
 30
0.0
 11
1130.535953
 21
-561.533554
 31
0.0
  0
LINE
  5
3E27
100
AcDbEntity
  8
V0-VYPLNE
  6
DASHED
 62
    52
100
AcDbLine
 10
1107.628385
 20
-565.026994
 30
0.0
 11
1135.535993
 21
-565.026994
 31
0.0
  0
LINE
  5
3E28
100
AcDbEntity
  8
V0-VYPLNE
  6
DASHED
 62
    52
100
AcDbLine
 10
1107.628385
 20
-575.101169
 30
0.0
 11
1135.535993
 21
-575.101169
 31
0.0
  0
LINE
  5
3E29
100
AcDbEntity
  8
V0-VYPLNE
  6
DASHED
 62
    52
100
AcDbLine
 10
1107.628385
 20
-587.094233
 30
0.0
 11
1135.05583
 21
-587.094233
 31
0.0
  0
LINE
  5
3E2A
100
AcDbEntity
  8
V0-VYPLNE
  6
DASHED
 62
    52
100
AcDbLine
 10
1107.628385
 20
-598.607573
 30
0.0
 11
1135.535993
 21
-598.607573
 31
0.0
  0
LINE
  5
3E2B
100
AcDbEntity
  8
V0-VYPLNE
  6
DASHED
 62
    52
100
AcDbLine
 10
1107.628385
 20
-610.120915
 30
0.0
 11
1135.05583
 21
-610.120915
 31
0.0
  0
ARC
  5
3E2C
100
AcDbEntity
  8
V0-OBRYS
  6
CONTINUOUS
 62
    90
 48
2.0
100
AcDbCircle
 10
1076.628034
 20
-571.533634
 30
0.0
 40
10.00008
100
AcDbArc
 50
90.0
 51
180.0
  0
LINE
  5
3E2D
100
AcDbEntity
  8
V0-OBRYS
  6
CONTINUOUS
 62
    90
 48
2.0
100
AcDbLine
 10
1106.468312
 20
-565.026994
 30
0.0
 11
1066.741861
 21
-578.938947
 31
0.0
  0
LINE
  5
3E2E
100
AcDbEntity
  8
V0-OBRYS
  6
CONTINUOUS
 62
    90
 48
2.0
100
AcDbLine
 10
1106.468312
 20
-587.094233
 30
0.0
 11
1066.261693
 21
-591.411736
 31
0.0
  0
LINE
  5
3E2F
100
AcDbEntity
  8
V0-OBRYS
  6
CONTINUOUS
 62
    90
 48
2.0
100
AcDbLine
 10
1105.988145
 20
-575.101169
 30
0.0
 11
1067.222024
 21
-584.695619
 31
0.0
  0
LINE
  5
3E30
100
AcDbEntity
  8
V0-OBRYS
  6
CONTINUOUS
 62
    90
 48
2.0
100
AcDbLine
 10
1105.988145
 20
-598.607573
 30
0.0
 11
1066.741861
 21
-600.526465
 31
0.0
  0
LINE
  5
3E31
100
AcDbEntity
  8
V0-OBRYS
  6
CONTINUOUS
 62
    90
 48
2.0
100
AcDbLine
 10
1105.988145
 20
-610.120915
 30
0.0
 11
1066.741861
 21
-610.600638
 31
0.0
  0
LINE
  5
3E32
100
AcDbEntity
  8
V0-OBRYS
  6
CONTINUOUS
 62
    90
 48
2.0
100
AcDbLine
 10
1105.988145
 20
-598.607573
 30
0.0
 11
1108.869138
 21
-598.607573
 31
0.0
  0
LINE
  5
3E33
100
AcDbEntity
  8
V0-OBRYS
  6
CONTINUOUS
 62
    90
 48
2.0
100
AcDbLine
 10
1105.988145
 20
-610.120915
 30
0.0
 11
1107.62833
 21
-610.120915
 31
0.0
  0
LINE
  5
3E34
100
AcDbEntity
  8
V0-OBRYS
  6
CONTINUOUS
 62
    90
 48
2.0
100
AcDbLine
 10
1108.869138
 20
-598.607573
 30
0.0
 11
1107.62833
 21
-598.607573
 31
0.0
  0
LINE
  5
3E35
100
AcDbEntity
  8
V0-OBRYS
  6
CONTINUOUS
 62
    90
 48
2.0
100
AcDbLine
 10
1105.988145
 20
-575.101169
 30
0.0
 11
1107.62833
 21
-575.101169
 31
0.0
  0
LINE
  5
3E36
100
AcDbEntity
  8
V0-OBRYS
  6
CONTINUOUS
 62
    90
 48
2.0
100
AcDbLine
 10
1106.468312
 20
-587.094233
 30
0.0
 11
1107.62833
 21
-587.094233
 31
0.0
  0
LINE
  5
3E37
100
AcDbEntity
  8
V0-OBRYS
  6
CONTINUOUS
 62
    90
 48
2.0
100
AcDbLine
 10
1076.628034
 20
-561.533554
 30
0.0
 11
1107.62833
 21
-561.533554
 31
0.0
  0
LINE
  5
3E38
100
AcDbEntity
  8
V0-OBRYS
  6
CONTINUOUS
 62
    90
 48
2.0
100
AcDbLine
 10
1106.468312
 20
-565.026994
 30
0.0
 11
1107.62833
 21
-565.026994
 31
0.0
  0
ELLIPSE
  5
3E39
100
AcDbEntity
  8
V0-VYPLNE
  6
DASHED
 62
    52
100
AcDbEllipse
 10
1168.628076
 20
-683.203576
 30
0.0
 11
0.0000000000005882
 21
126.7306765837048
 31
0.0
210
0.0
220
0.0
230
-1.0
 40
0.852273
 41
-0.2526585029160844
 42
0.2116012325852872
  0
LINE
  5
3E3A
100
AcDbEntity
  8
V0-VYPLNE
  6
DASHED
 62
    52
100
AcDbLine
 10
1146.208105
 20
-559.336164
 30
0.0
 11
1141.598553
 21
-553.932612
 31
0.0
  0
ARC
  5
3E3B
100
AcDbEntity
  8
V0-VYPLNE
  6
DASHED
 62
    52
 48
2.0
100
AcDbCircle
 10
1130.535953
 20
-566.533594
 30
0.0
 40
5.00004
100
AcDbArc
 50
0.0
 51
90.0
  0
LINE
  5
3E3C
100
AcDbEntity
  8
V0-VYPLNE
  6
DASHED
 62
    52
100
AcDbLine
 10
1191.048047
 20
-559.336164
 30
0.0
 11
1195.657599
 21
-553.932612
 31
0.0
  0
LINE
  5
3E3D
100
AcDbEntity
  8
V0-OBRYS
  6
CONTINUOUS
 62
    90
 48
2.0
100
AcDbLine
 10
1087.720042
 20
-434.352616
 30
0.0
 11
1087.720042
 21
-515.856846
 31
0.0
  0
LINE
  5
3E3E
100
AcDbEntity
  8
V0-OBRYS
  6
CONTINUOUS
 62
    90
 48
2.0
100
AcDbLine
 10
1089.937372
 20
-434.352616
 30
0.0
 11
1089.937372
 21
-515.856846
 31
0.0
  0
LINE
  5
3E3F
100
AcDbEntity
  8
V0-OBRYS
  6
CONTINUOUS
 62
    90
 48
2.0
100
AcDbLine
 10
1092.417098
 20
-522.537854
 30
0.0
 11
1102.9313
 21
-524.161467
 31
0.0
  0
LINE
  5
3E40
100
AcDbEntity
  8
V0-OBRYS
  6
CONTINUOUS
 62
    90
 48
2.0
100
AcDbLine
 10
1093.167537
 20
-520.451374
 30
0.0
 11
1103.68174
 21
-522.074988
 31
0.0
  0
ARC
  5
3E41
100
AcDbEntity
  8
V0-OBRYS
  6
CONTINUOUS
 62
    90
 48
2.0
100
AcDbCircle
 10
1094.820042
 20
-515.856846
 30
0.0
 40
7.1
100
AcDbArc
 50
180.0
 51
250.21797
  0
ARC
  5
3E42
100
AcDbEntity
  8
V0-OBRYS
  6
CONTINUOUS
 62
    90
 48
2.0
100
AcDbCircle
 10
1094.820042
 20
-515.856846
 30
0.0
 40
4.882669
100
AcDbArc
 50
180.0
 51
250.21797
  0
CIRCLE
  5
3E43
100
AcDbEntity
  8
V0-OBRYS
  6
CONTINUOUS
 62
    90
 48
2.0
100
AcDbCircle
 10
1085.535968
 20
-508.150514
 30
0.0
 40
2.283588
  0
ARC
  5
3E44
100
AcDbEntity
  8
V0-OBRYS
  6
CONTINUOUS
 62
    90
 48
2.0
100
AcDbCircle
 10
1100.528356
 20
-530.842475
 30
0.0
 40
9.317331
100
AcDbArc
 50
40.357326
 51
70.21797
  0
CIRCLE
  5
3E45
100
AcDbEntity
  8
V0-OBRYS
  6
CONTINUOUS
 62
    90
 48
2.0
100
AcDbCircle
 10
1085.535968
 20
-491.110514
 30
0.0
 40
2.283588
  0
CIRCLE
  5
3E46
100
AcDbEntity
  8
V0-OBRYS
  6
CONTINUOUS
 62
    90
 48
2.0
100
AcDbCircle
 10
1085.535968
 20
-457.030514
 30
0.0
 40
2.283588
  0
CIRCLE
  5
3E47
100
AcDbEntity
  8
V0-OBRYS
  6
CONTINUOUS
 62
    90
 48
2.0
100
AcDbCircle
 10
1085.535968
 20
-474.070514
 30
0.0
 40
2.283588
  0
CIRCLE
  5
3E48
100
AcDbEntity
  8
V0-OBRYS
  6
CONTINUOUS
 62
    90
 48
2.0
100
AcDbCircle
 10
1085.535968
 20
-439.990514
 30
0.0
 40
2.283588
  0
LINE
  5
3E49
100
AcDbEntity
  8
V0-OBRYS
  6
CONTINUOUS
 62
    90
100
AcDbLine
 10
1119.668356
 20
-368.38401
 30
0.0
 11
1130.831541
 21
-408.2351
 31
0.0
  0
LINE
  5
3E4A
100
AcDbEntity
  8
V0-OBRYS
  6
CONTINUOUS
 62
    90
 48
2.0
100
AcDbLine
 10
1105.391825
 20
-382.547792
 30
0.0
 11
1105.391825
 21
-420.79479
 31
0.0
  0
ARC
  5
3E4B
100
AcDbEntity
  8
V0-OBRYS
  6
CONTINUOUS
 62
    90
 48
2.0
100
AcDbCircle
 10
1090.556632
 20
-408.293048
 30
0.0
 40
19.400425
100
AcDbArc
 50
276.369868
 51
319.878879
  0
ARC
  5
3E4C
100
AcDbEntity
  8
V0-OBRYS
  6
CONTINUOUS
 62
    90
 48
2.0
100
AcDbCircle
 10
1090.671406
 20
-409.526997
 30
0.0
 40
20.343317
100
AcDbArc
 50
277.618085
 51
326.366268
  0
ARC
  5
3E4D
100
AcDbEntity
  8
V0-OBRYS
  6
CONTINUOUS
 62
    90
 48
2.0
100
AcDbCircle
 10
1094.820042
 20
-434.352616
 30
0.0
 40
7.1
100
AcDbArc
 50
107.296981
 51
180.0
  0
ARC
  5
3E4E
100
AcDbEntity
  8
V0-OBRYS
  6
CONTINUOUS
 62
    90
 48
2.0
100
AcDbCircle
 10
1094.820042
 20
-434.352616
 30
0.0
 40
4.882669
100
AcDbArc
 50
107.296981
 51
180.0
  0
LINE
  5
3E4F
100
AcDbEntity
  8
V0-OBRYS
  6
CONTINUOUS
 62
    90
 48
2.0
100
AcDbLine
 10
1119.668356
 20
-368.38401
 30
0.0
 11
1107.628356
 21
-368.38401
 31
0.0
  0
ARC
  5
3E50
100
AcDbEntity
  8
V0-OBRYS
  6
CONTINUOUS
 62
    90
 48
2.0
100
AcDbCircle
 10
1106.51009
 20
-382.547792
 30
0.0
 40
1.118266
100
AcDbArc
 50
0.0
 51
180.0
  0
LINE
  5
3E51
100
AcDbEntity
  8
V0-OBRYS
  6
CONTINUOUS
 62
    90
 48
2.0
100
AcDbLine
 10
1194.474631
 20
-418.534365
 30
0.0
 11
1148.880461
 21
-418.534365
 31
0.0
  0
LINE
  5
3E52
100
AcDbEntity
  8
V0-VYPLNE
  6
DASHED
 62
    52
100
AcDbLine
 10
1153.698624
 20
-419.774006
 30
0.0
 11
1183.557528
 21
-419.774006
 31
0.0
  0
ARC
  5
3E53
100
AcDbEntity
  8
V0-OBRYS
  6
CONTINUOUS
 62
    90
 48
2.0
100
AcDbCircle
 10
1148.880461
 20
-397.56984
 30
0.0
 40
20.964525
100
AcDbArc
 50
210.579201
 51
270.0
  0
TEXT
  5
3E54
100
AcDbEntity
  8
V0-VYPLNE
 62
     6
100
AcDbText
 10
1056.561785
 20
335.975224
 30
0.0
 40
33.75
  1
HCF- 400
  7
ED30
100
AcDbText
  0
TEXT
  5
3E55
100
AcDbEntity
  8
V0-VYPLNE
 62
     6
100
AcDbText
 10
1036.708936
 20
-347.286785
 30
0.0
 40
33.75
  1
HCF- 400
  7
ED30
100
AcDbText
  0
LINE
  5
3E56
100
AcDbEntity
  8
V0-OBRYS
  6
CONTINUOUS
 62
    90
100
AcDbLine
 10
1107.628356
 20
-868.68401
 30
0.0
 11
1107.628385
 21
-610.120915
 31
0.0
  0
POINT
  5
3F37
100
AcDbEntity
  8
V0-VYPLNE
  6
CONTINUOUS
 62
    41
100
AcDbPoint
 10
1194.474631
 20
64.727999
 30
0.0
  0
POINT
  5
3F38
100
AcDbEntity
  8
V0-VYPLNE
  6
CONTINUOUS
 62
    41
100
AcDbPoint
 10
1194.474631
 20
-618.53401
 30
0.0
  0
VIEWPORT
  5
22
100
AcDbEntity
 67
     1
  8
0
100
AcDbViewport
 10
261.517699
 20
148.5
 30
0.0
 40
523.035398
 41
297.0
 68
    -1
 69
     1
1001
ACAD
1000
MVIEW
1002
{
1070
    16
1010
0.0
1020
0.0
1030
0.0
1010
0.0
1020
0.0
1030
1.0
1040
0.0
1040
297.0
1040
261.517699
1040
148.5
1040
50.0
1040
0.0
1040
0.0
1070
     0
1070
   100
1070
     1
1070
     1
1070
     0
1070
     0
1070
     0
1070
     0
1040
0.0
1040
0.0
1040
0.0
1040
1.0
1040
1.0
1040
10.0
1040
10.0
1070
     0
1002
{
1002
}
1002
}
  0
ENDSEC
  0
SECTION
  2
OBJECTS
  0
DICTIONARY
  5
C
100
AcDbDictionary
  3
ACAD_GROUP
350
D
  3
ACAD_MLINESTYLE
350
E
  3
ACDBVARIABLEDICTIONARY
350
5D
  0
DICTIONARY
  5
D
102
{ACAD_REACTORS
330
C
102
}
100
AcDbDictionary
  0
DICTIONARY
  5
E
102
{ACAD_REACTORS
330
C
102
}
100
AcDbDictionary
  3
STANDARD
350
13
  0
DICTIONARY
  5
5D
102
{ACAD_REACTORS
330
C
102
}
100
AcDbDictionary
  3
DIMADEC
350
5E
  3
SORTENTS
350
3D8
  0
MLINESTYLE
  5
13
102
{ACAD_REACTORS
330
E
102
}
100
AcDbMlineStyle
  2
STANDARD
 70
     0
  3

 62
     0
 51
90.0
 52
90.0
 71
     2
 49
0.5
 62
   256
  6
BYLAYER
 49
-0.5
 62
   256
  6
BYLAYER
  0
DICTIONARYVAR
  5
5E
102
{ACAD_REACTORS
330
5D
102
}
100
DictionaryVariables
280
     0
  1
0
  0
DICTIONARYVAR
  5
3D8
102
{ACAD_REACTORS
330
5D
102
}
100
DictionaryVariables
280
     0
  1
96
  0
ENDSEC
  0
EOF
