  0
SECTION
  2
HEADER
  9
$ACADVER
  1
AC1014
  9
$ACADMAINTVER
 70
     0
  9
$DWGCODEPAGE
  3
ANSI_1250
  9
$INSBASE
 10
0.0
 20
0.0
 30
0.0
  9
$EXTMIN
 10
971.423703
 20
-775.357809
 30
0.0
  9
$EXTMAX
 10
1897.811242
 20
342.750952
 30
0.0
  9
$LIMMIN
 10
0.0
 20
0.0
  9
$LIMMAX
 10
420.0
 20
297.0
  9
$ORTHOMODE
 70
     1
  9
$REGENMODE
 70
     1
  9
$FILLMODE
 70
     1
  9
$QTEXTMODE
 70
     0
  9
$MIRRTEXT
 70
     1
  9
$DRAGMODE
 70
     2
  9
$LTSCALE
 40
1.0
  9
$OSMODE
 70
     1
  9
$ATTMODE
 70
     1
  9
$TEXTSIZE
 40
40.0
  9
$TRACEWID
 40
1.0
  9
$TEXTSTYLE
  7
ED40
  9
$CLAYER
  8
V0-VYPLNE
  9
$CELTYPE
  6
CONTINUOUS
  9
$CECOLOR
 62
    41
  9
$CELTSCALE
 40
1.0
  9
$DELOBJ
 70
     1
  9
$DISPSILH
 70
     0
  9
$DIMSCALE
 40
1.0
  9
$DIMASZ
 40
20.0
  9
$DIMEXO
 40
1.0
  9
$DIMDLI
 40
3.75
  9
$DIMRND
 40
0.0
  9
$DIMDLE
 40
0.0
  9
$DIMEXE
 40
1.25
  9
$DIMTP
 40
0.0
  9
$DIMTM
 40
0.0
  9
$DIMTXT
 40
20.0
  9
$DIMCEN
 40
3.0
  9
$DIMTSZ
 40
0.0
  9
$DIMTOL
 70
     0
  9
$DIMLIM
 70
     0
  9
$DIMTIH
 70
     0
  9
$DIMTOH
 70
     0
  9
$DIMSE1
 70
     0
  9
$DIMSE2
 70
     0
  9
$DIMTAD
 70
     1
  9
$DIMZIN
 70
     8
  9
$DIMBLK
  1

  9
$DIMASO
 70
     1
  9
$DIMSHO
 70
     1
  9
$DIMPOST
  1

  9
$DIMAPOST
  1

  9
$DIMALT
 70
     0
  9
$DIMALTD
 70
     4
  9
$DIMALTF
 40
0.0394
  9
$DIMLFAC
 40
1.0
  9
$DIMTOFL
 70
     1
  9
$DIMTVP
 40
0.0
  9
$DIMTIX
 70
     0
  9
$DIMSOXD
 70
     0
  9
$DIMSAH
 70
     1
  9
$DIMBLK1
  1
_OPEN
  9
$DIMBLK2
  1
_OPEN
  9
$DIMSTYLE
  2
ED20
  9
$DIMCLRD
 70
    41
  9
$DIMCLRE
 70
    41
  9
$DIMCLRT
 70
    41
  9
$DIMTFAC
 40
1.0
  9
$DIMGAP
 40
2.0
  9
$DIMJUST
 70
     0
  9
$DIMSD1
 70
     0
  9
$DIMSD2
 70
     0
  9
$DIMTOLJ
 70
     1
  9
$DIMTZIN
 70
     8
  9
$DIMALTZ
 70
     0
  9
$DIMALTTZ
 70
     0
  9
$DIMFIT
 70
     3
  9
$DIMUPT
 70
     0
  9
$DIMUNIT
 70
     2
  9
$DIMDEC
 70
     0
  9
$DIMTDEC
 70
     1
  9
$DIMALTU
 70
     8
  9
$DIMALTTD
 70
     4
  9
$DIMTXSTY
  7
ED20
  9
$DIMAUNIT
 70
     0
  9
$LUNITS
 70
     2
  9
$LUPREC
 70
     4
  9
$SKETCHINC
 40
1.0
  9
$FILLETRAD
 40
10.0
  9
$AUNITS
 70
     0
  9
$AUPREC
 70
     0
  9
$MENU
  1
.
  9
$ELEVATION
 40
0.0
  9
$PELEVATION
 40
0.0
  9
$THICKNESS
 40
0.0
  9
$LIMCHECK
 70
     0
  9
$BLIPMODE
 70
     0
  9
$CHAMFERA
 40
0.5
  9
$CHAMFERB
 40
0.5
  9
$CHAMFERC
 40
20.0
  9
$CHAMFERD
 40
0.0
  9
$SKPOLY
 70
     1
  9
$TDCREATE
 40
2451196.643769328
  9
$TDUPDATE
 40
2452915.902232523
  9
$TDINDWG
 40
0.9999464120
  9
$TDUSRTIMER
 40
0.9999464120
  9
$USRTIMER
 70
     1
  9
$ANGBASE
 50
0.0
  9
$ANGDIR
 70
     0
  9
$PDMODE
 70
    35
  9
$PDSIZE
 40
20.0
  9
$PLINEWID
 40
0.0
  9
$COORDS
 70
     1
  9
$SPLFRAME
 70
     0
  9
$SPLINETYPE
 70
     6
  9
$SPLINESEGS
 70
     8
  9
$ATTDIA
 70
     0
  9
$ATTREQ
 70
     1
  9
$HANDLING
 70
     1
  9
$HANDSEED
  5
3F0D
  9
$SURFTAB1
 70
     6
  9
$SURFTAB2
 70
     6
  9
$SURFTYPE
 70
     6
  9
$SURFU
 70
     6
  9
$SURFV
 70
     6
  9
$UCSNAME
  2

  9
$UCSORG
 10
1601.628193807053
 20
64.7279990728679
 30
0.0
  9
$UCSXDIR
 10
1.0
 20
0.0
 30
0.0
  9
$UCSYDIR
 10
0.0
 20
1.0
 30
0.0
  9
$PUCSNAME
  2

  9
$PUCSORG
 10
0.0
 20
0.0
 30
0.0
  9
$PUCSXDIR
 10
1.0
 20
0.0
 30
0.0
  9
$PUCSYDIR
 10
0.0
 20
1.0
 30
0.0
  9
$USERI1
 70
     0
  9
$USERI2
 70
     0
  9
$USERI3
 70
     0
  9
$USERI4
 70
     0
  9
$USERI5
 70
     0
  9
$USERR1
 40
0.0
  9
$USERR2
 40
0.0
  9
$USERR3
 40
0.0
  9
$USERR4
 40
0.0
  9
$USERR5
 40
0.0
  9
$WORLDVIEW
 70
     1
  9
$SHADEDGE
 70
     3
  9
$SHADEDIF
 70
    70
  9
$TILEMODE
 70
     1
  9
$MAXACTVP
 70
    48
  9
$PINSBASE
 10
0.0
 20
0.0
 30
0.0
  9
$PLIMCHECK
 70
     0
  9
$PEXTMIN
 10
1.000000E+20
 20
1.000000E+20
 30
1.000000E+20
  9
$PEXTMAX
 10
-1.000000E+20
 20
-1.000000E+20
 30
-1.000000E+20
  9
$PLIMMIN
 10
0.0
 20
0.0
  9
$PLIMMAX
 10
420.0
 20
297.0
  9
$UNITMODE
 70
     0
  9
$VISRETAIN
 70
     1
  9
$PLINEGEN
 70
     0
  9
$PSLTSCALE
 70
     0
  9
$TREEDEPTH
 70
  3020
  9
$PICKSTYLE
 70
     0
  9
$CMLSTYLE
  2
STANDARD
  9
$CMLJUST
 70
     1
  9
$CMLSCALE
 40
3.0
  9
$PROXYGRAPHICS
 70
     1
  9
$MEASUREMENT
 70
     1
  0
ENDSEC
  0
SECTION
  2
CLASSES
  0
CLASS
  1
DICTIONARYVAR
  2
AcDbDictionaryVar
  3
"AutoCAD"
 90
        0
280
     0
281
     0
  0
CLASS
  1
LWPOLYLINE
  2
AcDbPolyline
  3
"AutoCAD"
 90
        0
280
     0
281
     1
  0
CLASS
  1
HATCH
  2
AcDbHatch
  3
"ACAD_SEDONA"
 90
        0
280
     0
281
     1
  0
ENDSEC
  0
SECTION
  2
TABLES
  0
TABLE
  2
VPORT
  5
8
100
AcDbSymbolTable
 70
     2
  0
VPORT
  5
3F0C
100
AcDbSymbolTableRecord
100
AcDbViewportTableRecord
  2
*ACTIVE
 70
     0
 10
0.0
 20
0.0
 11
1.0
 21
1.0
 12
1392.803093
 22
-208.27973
 13
0.0
 23
0.0
 14
10.0
 24
10.0
 15
10.0
 25
10.0
 16
0.0
 26
0.0
 36
1.0
 17
0.0
 27
0.0
 37
0.0
 40
1184.908562
 41
1.730469
 42
50.0
 43
0.0
 44
0.0
 50
0.0
 51
0.0
 71
     0
 72
   100
 73
     1
 74
     1
 75
     0
 76
     0
 77
     0
 78
     0
  0
ENDTAB
  0
TABLE
  2
LTYPE
  5
5
100
AcDbSymbolTable
 70
     4
  0
LTYPE
  5
14
100
AcDbSymbolTableRecord
100
AcDbLinetypeTableRecord
  2
BYBLOCK
 70
     0
  3

 72
    65
 73
     0
 40
0.0
  0
LTYPE
  5
15
100
AcDbSymbolTableRecord
100
AcDbLinetypeTableRecord
  2
BYLAYER
 70
     0
  3

 72
    65
 73
     0
 40
0.0
  0
LTYPE
  5
16
100
AcDbSymbolTableRecord
100
AcDbLinetypeTableRecord
  2
CONTINUOUS
 70
     0
  3
Solid line
 72
    65
 73
     0
 40
0.0
  0
LTYPE
  5
7F
100
AcDbSymbolTableRecord
100
AcDbLinetypeTableRecord
  2
DASHDOT
 70
     0
  3
Dash dot __ . __ . __ . __ . __ . __ . __ . __
 72
    65
 73
     4
 40
25.4
 49
12.7
 74
     0
 49
-6.35
 74
     0
 49
0.0
 74
     0
 49
-6.35
 74
     0
  0
LTYPE
  5
1B9E
100
AcDbSymbolTableRecord
100
AcDbLinetypeTableRecord
  2
ACAD_ISO02W100
 70
     0
  3
ISO dash __ __ __ __ __ __ __ __ __ __ __ __ __
 72
    65
 73
     2
 40
15.0
 49
12.0
 74
     0
 49
-3.0
 74
     0
  0
LTYPE
  5
1B9F
100
AcDbSymbolTableRecord
100
AcDbLinetypeTableRecord
  2
DASHED
 70
     0
  3
Dashed __ __ __ __ __ __ __ __ __ __ __ __ __ _
 72
    65
 73
     2
 40
19.05
 49
12.7
 74
     0
 49
-6.35
 74
     0
  0
ENDTAB
  0
TABLE
  2
LAYER
  5
2
100
AcDbSymbolTable
 70
     5
  0
LAYER
  5
F
100
AcDbSymbolTableRecord
100
AcDbLayerTableRecord
  2
0
 70
     0
 62
     7
  6
CONTINUOUS
  0
LAYER
  5
9E
100
AcDbSymbolTableRecord
100
AcDbLayerTableRecord
  2
DEFPOINTS
 70
     0
 62
     7
  6
CONTINUOUS
  0
LAYER
  5
377
100
AcDbSymbolTableRecord
100
AcDbLayerTableRecord
  2
V0-OBRYS
 70
     0
 62
    90
  6
CONTINUOUS
  0
LAYER
  5
378
100
AcDbSymbolTableRecord
100
AcDbLayerTableRecord
  2
V0-VYPLNE
 70
     0
 62
    63
  6
DASHDOT
  0
LAYER
  5
1540
100
AcDbSymbolTableRecord
100
AcDbLayerTableRecord
  2
VO-OBRYS
 70
     0
 62
    90
  6
CONTINUOUS
  0
ENDTAB
  0
TABLE
  2
STYLE
  5
3
100
AcDbSymbolTable
 70
     6
  0
STYLE
  5
10
100
AcDbSymbolTableRecord
100
AcDbTextStyleTableRecord
  2
STANDARD
 70
     0
 40
0.0
 41
1.0
 50
0.0
 71
     0
 42
2.5
  3
ISOCP
  4

  0
STYLE
  5
331
100
AcDbSymbolTableRecord
100
AcDbTextStyleTableRecord
  2
ED20
 70
     0
 40
20.0
 41
1.0
 50
0.0
 71
     0
 42
2.5
  3
ISOCP.shx
  4

  0
STYLE
  5
648
100
AcDbSymbolTableRecord
100
AcDbTextStyleTableRecord
  2
ED10
 70
     0
 40
10.0
 41
1.0
 50
0.0
 71
     0
 42
10.0
  3
ISOCP.shx
  4

  0
STYLE
  5
F38
100
AcDbSymbolTableRecord
100
AcDbTextStyleTableRecord
  2
ED30
 70
     0
 40
30.0
 41
1.0
 50
0.0
 71
     0
 42
2.5
  3
ISOCP.shx
  4

  0
STYLE
  5
F39
100
AcDbSymbolTableRecord
100
AcDbTextStyleTableRecord
  2
ED40
 70
     0
 40
40.0
 41
1.0
 50
0.0
 71
     0
 42
40.0
  3
ISOCP.shx
  4

  0
STYLE
  5
1B9D
100
AcDbSymbolTableRecord
100
AcDbTextStyleTableRecord
  2

 70
     1
 40
0.0
 41
1.0
 50
0.0
 71
     0
 42
40.0
  3
ltypeshp.shx
  4

  0
ENDTAB
  0
TABLE
  2
VIEW
  5
6
100
AcDbSymbolTable
 70
     0
  0
ENDTAB
  0
TABLE
  2
UCS
  5
7
100
AcDbSymbolTable
 70
     0
  0
ENDTAB
  0
TABLE
  2
APPID
  5
9
100
AcDbSymbolTable
 70
     3
  0
APPID
  5
11
100
AcDbSymbolTableRecord
100
AcDbRegAppTableRecord
  2
ACAD
 70
     0
  0
APPID
  5
2570
100
AcDbSymbolTableRecord
100
AcDbRegAppTableRecord
  2
CONTENTBLOCKICON
 70
     0
  0
APPID
  5
2571
100
AcDbSymbolTableRecord
100
AcDbRegAppTableRecord
  2
CONTENTBLOCKDESCRIPTION
 70
     0
  0
ENDTAB
  0
TABLE
  2
DIMSTYLE
  5
A
100
AcDbSymbolTable
 70
     3
  0
DIMSTYLE
105
1D
100
AcDbSymbolTableRecord
100
AcDbDimStyleTableRecord
  2
STANDARD
 70
     0
  3

  4

  5

  6
_OPEN
  7
_OPEN
 40
0.0
 41
15.0
 42
0.625
 43
3.75
 44
1.25
 45
0.0
 46
0.0
 47
0.0
 48
0.0
140
15.0
141
2.5
142
0.0
143
0.0394
144
1.0
145
0.0
146
1.0
147
3.0
 71
     0
 72
     0
 73
     0
 74
     0
 75
     0
 76
     0
 77
     1
 78
     8
170
     0
171
     4
172
     1
173
     1
174
     0
175
     0
176
     0
177
     0
178
     0
270
     2
271
     0
272
     1
273
     8
274
     4
340
331
275
     0
280
     0
281
     0
282
     0
283
     1
284
     8
285
     0
286
     0
287
     3
288
     0
  0
DIMSTYLE
105
FE9
102
{ACAD_REACTORS
330
39FB
330
3A08
102
}
100
AcDbSymbolTableRecord
100
AcDbDimStyleTableRecord
  2
ED20
 70
     0
  3

  4

  5

  6
_OPEN
  7
_OPEN
 40
1.0
 41
20.0
 42
1.0
 43
3.75
 44
1.25
 45
0.0
 46
0.0
 47
0.0
 48
0.0
140
20.0
141
3.0
142
0.0
143
0.0394
144
1.0
145
0.0
146
1.0
147
2.0
 71
     0
 72
     0
 73
     0
 74
     0
 75
     0
 76
     0
 77
     1
 78
     8
170
     0
171
     4
172
     1
173
     1
174
     0
175
     0
176
    41
177
    41
178
    41
270
     2
271
     0
272
     1
273
     8
274
     4
340
331
275
     0
280
     0
281
     0
282
     0
283
     1
284
     8
285
     0
286
     0
287
     3
288
     0
  0
DIMSTYLE
105
320E
102
{ACAD_REACTORS
330
34A0
102
}
100
AcDbSymbolTableRecord
100
AcDbDimStyleTableRecord
  2
ED30
 70
     0
  3

  4

  5

  6
_OPEN
  7
_OPEN
 40
1.0
 41
30.0
 42
1.0
 43
3.75
 44
1.25
 45
0.0
 46
0.0
 47
0.0
 48
0.0
140
30.0
141
3.0
142
0.0
143
0.0394
144
1.0
145
0.0
146
1.0
147
2.0
 71
     0
 72
     0
 73
     0
 74
     0
 75
     0
 76
     0
 77
     1
 78
     8
170
     0
171
     4
172
     1
173
     1
174
     0
175
     0
176
    41
177
    41
178
    41
270
     2
271
     0
272
     1
273
     8
274
     4
340
F38
275
     0
280
     0
281
     0
282
     0
283
     1
284
     8
285
     0
286
     0
287
     3
288
     0
  0
ENDTAB
  0
TABLE
  2
BLOCK_RECORD
  5
1
100
AcDbSymbolTable
 70
     9
  0
BLOCK_RECORD
  5
1A
100
AcDbSymbolTableRecord
100
AcDbBlockTableRecord
  2
*MODEL_SPACE
  0
BLOCK_RECORD
  5
17
100
AcDbSymbolTableRecord
100
AcDbBlockTableRecord
  2
*PAPER_SPACE
  0
BLOCK_RECORD
  5
90
100
AcDbSymbolTableRecord
100
AcDbBlockTableRecord
  2
_OPEN
  0
BLOCK_RECORD
  5
330E
100
AcDbSymbolTableRecord
100
AcDbBlockTableRecord
  2
*D1
  0
BLOCK_RECORD
  5
3401
100
AcDbSymbolTableRecord
100
AcDbBlockTableRecord
  2
*D3
  0
BLOCK_RECORD
  5
3492
100
AcDbSymbolTableRecord
100
AcDbBlockTableRecord
  2
*D4
  0
BLOCK_RECORD
  5
39EF
100
AcDbSymbolTableRecord
100
AcDbBlockTableRecord
  2
*D5
  0
BLOCK_RECORD
  5
39FC
100
AcDbSymbolTableRecord
100
AcDbBlockTableRecord
  2
*D6
  0
BLOCK_RECORD
  5
3A44
100
AcDbSymbolTableRecord
100
AcDbBlockTableRecord
  2
*D7
  0
BLOCK_RECORD
  5
3A50
100
AcDbSymbolTableRecord
100
AcDbBlockTableRecord
  2
*D8
  0
ENDTAB
  0
ENDSEC
  0
SECTION
  2
BLOCKS
  0
BLOCK
  5
1B
100
AcDbEntity
  8
0
100
AcDbBlockBegin
  2
*MODEL_SPACE
 70
     0
 10
0.0
 20
0.0
 30
0.0
  3
*MODEL_SPACE
  1

  0
ENDBLK
  5
1C
100
AcDbEntity
  8
0
100
AcDbBlockEnd
  0
BLOCK
  5
18
100
AcDbEntity
 67
     1
  8
0
100
AcDbBlockBegin
  2
*PAPER_SPACE
 70
     0
 10
0.0
 20
0.0
 30
0.0
  3
*PAPER_SPACE
  1

  0
ENDBLK
  5
19
100
AcDbEntity
 67
     1
  8
0
100
AcDbBlockEnd
  0
BLOCK
  5
91
100
AcDbEntity
  8
0
100
AcDbBlockBegin
  2
_OPEN
 70
     0
 10
0.0
 20
0.0
 30
0.0
  3
_OPEN
  1

  0
LINE
  5
92
100
AcDbEntity
  8
0
  6
BYBLOCK
 62
     0
100
AcDbLine
 10
-1.0
 20
0.166667
 30
0.0
 11
0.0
 21
0.0
 31
0.0
  0
LINE
  5
93
100
AcDbEntity
  8
0
  6
BYBLOCK
 62
     0
100
AcDbLine
 10
0.0
 20
0.0
 30
0.0
 11
-1.0
 21
-0.166667
 31
0.0
  0
LINE
  5
94
100
AcDbEntity
  8
0
  6
BYBLOCK
 62
     0
100
AcDbLine
 10
0.0
 20
0.0
 30
0.0
 11
-1.0
 21
0.0
 31
0.0
  0
ENDBLK
  5
95
100
AcDbEntity
  8
0
100
AcDbBlockEnd
  0
BLOCK
  5
39D9
100
AcDbEntity
  8
0
100
AcDbBlockBegin
  2
*D1
 70
     1
 10
0.0
 20
0.0
 30
0.0
  3
*D1
  1

  0
LINE
  5
39DA
100
AcDbEntity
  8
0
  6
BYBLOCK
 62
    41
100
AcDbLine
 10
1195.474631
 20
242.227644
 30
0.0
 11
1254.479267
 21
242.227644
 31
0.0
  0
LINE
  5
39DB
100
AcDbEntity
  8
0
  6
BYBLOCK
 62
    41
100
AcDbLine
 10
1195.474631
 20
-112.771646
 30
0.0
 11
1254.479267
 21
-112.771646
 31
0.0
  0
LINE
  5
39DC
100
AcDbEntity
  8
0
  6
BYBLOCK
 62
    41
100
AcDbLine
 10
1253.229267
 20
222.227644
 30
0.0
 11
1253.229267
 21
-92.771646
 31
0.0
  0
INSERT
  5
39DD
100
AcDbEntity
  8
0
  6
BYBLOCK
 62
    41
100
AcDbBlockReference
  2
_OPEN
 10
1253.229267
 20
242.227644
 30
0.0
 41
20.0
 42
20.0
 43
20.0
 50
90.0
  0
INSERT
  5
39DE
100
AcDbEntity
  8
0
  6
BYBLOCK
 62
    41
100
AcDbBlockReference
  2
_OPEN
 10
1253.229267
 20
-112.771646
 30
0.0
 41
20.0
 42
20.0
 43
20.0
 50
270.0
  0
MTEXT
  5
39DF
100
AcDbEntity
  8
0
  6
BYBLOCK
 62
    41
100
AcDbMText
 10
1241.229267
 20
64.727999
 30
0.0
 40
20.0
 41
0.0
 71
     5
 72
     1
  1
\A1;\U+2205355
  7
ED20
 11
0.0
 21
1.0
 31
0.0
  0
POINT
  5
39E0
100
AcDbEntity
  8
DEFPOINTS
  6
BYBLOCK
 62
     0
100
AcDbPoint
 10
1194.474631
 20
242.227644
 30
0.0
  0
POINT
  5
39E1
100
AcDbEntity
  8
DEFPOINTS
  6
BYBLOCK
 62
     0
100
AcDbPoint
 10
1194.474631
 20
-112.771646
 30
0.0
  0
POINT
  5
39E2
100
AcDbEntity
  8
DEFPOINTS
  6
BYBLOCK
 62
     0
100
AcDbPoint
 10
1253.229267
 20
-112.771646
 30
0.0
  0
ENDBLK
  5
39E3
100
AcDbEntity
  8
0
100
AcDbBlockEnd
  0
BLOCK
  5
3A1F
100
AcDbEntity
  8
0
100
AcDbBlockBegin
  2
*D3
 70
     1
 10
0.0
 20
0.0
 30
0.0
  3
*D3
  1

  0
LINE
  5
3A20
100
AcDbEntity
  8
0
  6
BYBLOCK
 62
    41
100
AcDbLine
 10
1105.628106
 20
121.728455
 30
0.0
 11
991.173703
 21
121.728455
 31
0.0
  0
LINE
  5
3A21
100
AcDbEntity
  8
0
  6
BYBLOCK
 62
    41
100
AcDbLine
 10
1105.628106
 20
7.727543
 30
0.0
 11
991.173703
 21
7.727543
 31
0.0
  0
LINE
  5
3A22
100
AcDbEntity
  8
0
  6
BYBLOCK
 62
    41
100
AcDbLine
 10
992.423703
 20
101.728455
 30
0.0
 11
992.423703
 21
27.727543
 31
0.0
  0
INSERT
  5
3A23
100
AcDbEntity
  8
0
  6
BYBLOCK
 62
    41
100
AcDbBlockReference
  2
_OPEN
 10
992.423703
 20
121.728455
 30
0.0
 41
20.0
 42
20.0
 43
20.0
 50
90.0
  0
INSERT
  5
3A24
100
AcDbEntity
  8
0
  6
BYBLOCK
 62
    41
100
AcDbBlockReference
  2
_OPEN
 10
992.423703
 20
7.727543
 30
0.0
 41
20.0
 42
20.0
 43
20.0
 50
270.0
  0
MTEXT
  5
3A25
100
AcDbEntity
  8
0
  6
BYBLOCK
 62
    41
100
AcDbMText
 10
980.423703
 20
64.379348
 30
0.0
 40
20.0
 41
0.0
 71
     5
 72
     1
  1
\A1;\U+2205114
  7
ED20
 11
0.0
 21
1.0
 31
0.0
  0
POINT
  5
3A26
100
AcDbEntity
  8
DEFPOINTS
  6
BYBLOCK
 62
     0
100
AcDbPoint
 10
1106.628106
 20
121.728455
 30
0.0
  0
POINT
  5
3A27
100
AcDbEntity
  8
DEFPOINTS
  6
BYBLOCK
 62
     0
100
AcDbPoint
 10
1106.628106
 20
7.727543
 30
0.0
  0
POINT
  5
3A28
100
AcDbEntity
  8
DEFPOINTS
  6
BYBLOCK
 62
     0
100
AcDbPoint
 10
992.423703
 20
7.727543
 30
0.0
  0
ENDBLK
  5
3A29
100
AcDbEntity
  8
0
100
AcDbBlockEnd
  0
BLOCK
  5
39C1
100
AcDbEntity
  8
0
100
AcDbBlockBegin
  2
*D4
 70
     1
 10
0.0
 20
0.0
 30
0.0
  3
*D4
  1

  0
LINE
  5
39C2
100
AcDbEntity
  8
0
  6
BYBLOCK
 62
    41
100
AcDbLine
 10
1119.668356
 20
-161.422001
 30
0.0
 11
1119.668356
 21
-199.61141
 31
0.0
  0
LINE
  5
39C3
100
AcDbEntity
  8
0
  6
BYBLOCK
 62
    41
100
AcDbLine
 10
1107.628356
 20
-161.422001
 30
0.0
 11
1107.628356
 21
-199.61141
 31
0.0
  0
LINE
  5
39C4
100
AcDbEntity
  8
0
  6
BYBLOCK
 62
    41
100
AcDbLine
 10
1139.668356
 20
-198.36141
 30
0.0
 11
1159.668356
 21
-198.36141
 31
0.0
  0
LINE
  5
39C5
100
AcDbEntity
  8
0
  6
BYBLOCK
 62
    41
100
AcDbLine
 10
1087.628356
 20
-198.36141
 30
0.0
 11
1040.846947
 21
-198.36141
 31
0.0
  0
LINE
  5
39C6
100
AcDbEntity
  8
0
  6
BYBLOCK
 62
    41
100
AcDbLine
 10
1119.668356
 20
-198.36141
 30
0.0
 11
1107.628356
 21
-198.36141
 31
0.0
  0
INSERT
  5
39C7
100
AcDbEntity
  8
0
  6
BYBLOCK
 62
    41
100
AcDbBlockReference
  2
_OPEN
 10
1119.668356
 20
-198.36141
 30
0.0
 41
20.0
 42
20.0
 43
20.0
 50
180.0
  0
INSERT
  5
39C8
100
AcDbEntity
  8
0
  6
BYBLOCK
 62
    41
100
AcDbBlockReference
  2
_OPEN
 10
1107.628356
 20
-198.36141
 30
0.0
 41
20.0
 42
20.0
 43
20.0
  0
MTEXT
  5
39C9
100
AcDbEntity
  8
0
  6
BYBLOCK
 62
    41
100
AcDbMText
 10
1052.447537
 20
-186.359441
 30
0.0
 40
20.0
 41
0.0
 71
     5
 72
     1
  1
\A1;12
  7
ED20
  0
POINT
  5
39CA
100
AcDbEntity
  8
DEFPOINTS
  6
BYBLOCK
 62
     0
100
AcDbPoint
 10
1119.668356
 20
-160.422001
 30
0.0
  0
POINT
  5
39CB
100
AcDbEntity
  8
DEFPOINTS
  6
BYBLOCK
 62
     0
100
AcDbPoint
 10
1107.628356
 20
-160.422001
 30
0.0
  0
POINT
  5
39CC
100
AcDbEntity
  8
DEFPOINTS
  6
BYBLOCK
 62
     0
100
AcDbPoint
 10
1107.628356
 20
-198.36141
 30
0.0
  0
ENDBLK
  5
39CD
100
AcDbEntity
  8
0
100
AcDbBlockEnd
  0
BLOCK
  5
39F0
100
AcDbEntity
  8
0
100
AcDbBlockBegin
  2
*D5
 70
     1
 10
0.0
 20
0.0
 30
0.0
  3
*D5
  1

  0
LINE
  5
39F1
100
AcDbEntity
  8
0
  6
BYBLOCK
 62
    41
100
AcDbLine
 10
1194.474631
 20
-113.771646
 30
0.0
 11
1194.474631
 21
-199.447829
 31
0.0
  0
LINE
  5
39F2
100
AcDbEntity
  8
0
  6
BYBLOCK
 62
    41
100
AcDbLine
 10
1119.668356
 20
-161.422001
 30
0.0
 11
1119.668356
 21
-199.447829
 31
0.0
  0
LINE
  5
39F3
100
AcDbEntity
  8
0
  6
BYBLOCK
 62
    41
100
AcDbLine
 10
1174.474631
 20
-198.197829
 30
0.0
 11
1139.668356
 21
-198.197829
 31
0.0
  0
INSERT
  5
39F4
100
AcDbEntity
  8
0
  6
BYBLOCK
 62
    41
100
AcDbBlockReference
  2
_OPEN
 10
1194.474631
 20
-198.197829
 30
0.0
 41
20.0
 42
20.0
 43
20.0
  0
INSERT
  5
39F5
100
AcDbEntity
  8
0
  6
BYBLOCK
 62
    41
100
AcDbBlockReference
  2
_OPEN
 10
1119.668356
 20
-198.197829
 30
0.0
 41
20.0
 42
20.0
 43
20.0
 50
180.0
  0
MTEXT
  5
39F6
100
AcDbEntity
  8
0
  6
BYBLOCK
 62
    41
100
AcDbMText
 10
1157.071493
 20
-186.197829
 30
0.0
 40
20.0
 41
0.0
 71
     5
 72
     1
  1
\A1;75
  7
ED20
  0
POINT
  5
39F7
100
AcDbEntity
  8
DEFPOINTS
  6
BYBLOCK
 62
     0
100
AcDbPoint
 10
1194.474631
 20
-112.771646
 30
0.0
  0
POINT
  5
39F8
100
AcDbEntity
  8
DEFPOINTS
  6
BYBLOCK
 62
     0
100
AcDbPoint
 10
1119.668356
 20
-160.422001
 30
0.0
  0
POINT
  5
39F9
100
AcDbEntity
  8
DEFPOINTS
  6
BYBLOCK
 62
     0
100
AcDbPoint
 10
1119.668356
 20
-198.197829
 30
0.0
  0
ENDBLK
  5
39FA
100
AcDbEntity
  8
0
100
AcDbBlockEnd
  0
BLOCK
  5
3A09
100
AcDbEntity
  8
0
100
AcDbBlockBegin
  2
*D6
 70
     1
 10
0.0
 20
0.0
 30
0.0
  3
*D6
  1

  0
LINE
  5
3A0A
100
AcDbEntity
  8
0
  6
BYBLOCK
 62
    41
100
AcDbLine
 10
1194.474631
 20
-113.771646
 30
0.0
 11
1194.474631
 21
-242.220581
 31
0.0
  0
LINE
  5
3A0B
100
AcDbEntity
  8
0
  6
BYBLOCK
 62
    41
100
AcDbLine
 10
1065.525734
 20
23.727903
 30
0.0
 11
1065.525734
 21
-242.220581
 31
0.0
  0
LINE
  5
3A0C
100
AcDbEntity
  8
0
  6
BYBLOCK
 62
    41
100
AcDbLine
 10
1174.474631
 20
-240.970581
 30
0.0
 11
1085.525734
 21
-240.970581
 31
0.0
  0
INSERT
  5
3A0D
100
AcDbEntity
  8
0
  6
BYBLOCK
 62
    41
100
AcDbBlockReference
  2
_OPEN
 10
1194.474631
 20
-240.970581
 30
0.0
 41
20.0
 42
20.0
 43
20.0
  0
INSERT
  5
3A0E
100
AcDbEntity
  8
0
  6
BYBLOCK
 62
    41
100
AcDbBlockReference
  2
_OPEN
 10
1065.525734
 20
-240.970581
 30
0.0
 41
20.0
 42
20.0
 43
20.0
 50
180.0
  0
MTEXT
  5
3A0F
100
AcDbEntity
  8
0
  6
BYBLOCK
 62
    41
100
AcDbMText
 10
1130.000182
 20
-228.968612
 30
0.0
 40
20.0
 41
0.0
 71
     5
 72
     1
  1
\A1;129
  7
ED20
  0
POINT
  5
3A10
100
AcDbEntity
  8
DEFPOINTS
  6
BYBLOCK
 62
     0
100
AcDbPoint
 10
1194.474631
 20
-112.771646
 30
0.0
  0
POINT
  5
3A11
100
AcDbEntity
  8
DEFPOINTS
  6
BYBLOCK
 62
     0
100
AcDbPoint
 10
1065.525734
 20
24.727903
 30
0.0
  0
POINT
  5
3A12
100
AcDbEntity
  8
DEFPOINTS
  6
BYBLOCK
 62
     0
100
AcDbPoint
 10
1065.525734
 20
-240.970581
 30
0.0
  0
ENDBLK
  5
3A13
100
AcDbEntity
  8
0
100
AcDbBlockEnd
  0
BLOCK
  5
3A5C
100
AcDbEntity
  8
0
100
AcDbBlockBegin
  2
*D7
 70
     1
 10
0.0
 20
0.0
 30
0.0
  3
*D7
  1

  0
LINE
  5
3A5D
100
AcDbEntity
  8
0
  6
BYBLOCK
 62
    41
100
AcDbLine
 10
1376.785137
 20
-156.258726
 30
0.0
 11
1376.785137
 21
-253.401477
 31
0.0
  0
LINE
  5
3A5E
100
AcDbEntity
  8
0
  6
BYBLOCK
 62
    41
100
AcDbLine
 10
1826.471109
 20
-156.258726
 30
0.0
 11
1826.471109
 21
-253.401477
 31
0.0
  0
LINE
  5
3A5F
100
AcDbEntity
  8
0
  6
BYBLOCK
 62
    41
100
AcDbLine
 10
1396.785137
 20
-252.151477
 30
0.0
 11
1806.471109
 21
-252.151477
 31
0.0
  0
INSERT
  5
3A60
100
AcDbEntity
  8
0
  6
BYBLOCK
 62
    41
100
AcDbBlockReference
  2
_OPEN
 10
1376.785137
 20
-252.151477
 30
0.0
 41
20.0
 42
20.0
 43
20.0
 50
180.0
  0
INSERT
  5
3A61
100
AcDbEntity
  8
0
  6
BYBLOCK
 62
    41
100
AcDbBlockReference
  2
_OPEN
 10
1826.471109
 20
-252.151477
 30
0.0
 41
20.0
 42
20.0
 43
20.0
  0
MTEXT
  5
3A62
100
AcDbEntity
  8
0
  6
BYBLOCK
 62
    41
100
AcDbMText
 10
1598.982459
 20
-240.151477
 30
0.0
 40
20.0
 41
0.0
 71
     5
 72
     1
  1
\A1;450
  7
ED20
  0
POINT
  5
3A63
100
AcDbEntity
  8
DEFPOINTS
  6
BYBLOCK
 62
     0
100
AcDbPoint
 10
1376.785137
 20
-155.258726
 30
0.0
  0
POINT
  5
3A64
100
AcDbEntity
  8
DEFPOINTS
  6
BYBLOCK
 62
     0
100
AcDbPoint
 10
1826.471109
 20
-155.258726
 30
0.0
  0
POINT
  5
3A65
100
AcDbEntity
  8
DEFPOINTS
  6
BYBLOCK
 62
     0
100
AcDbPoint
 10
1826.471109
 20
-252.151477
 30
0.0
  0
ENDBLK
  5
3A66
100
AcDbEntity
  8
0
100
AcDbBlockEnd
  0
BLOCK
  5
3A9E
100
AcDbEntity
  8
0
100
AcDbBlockBegin
  2
*D8
 70
     1
 10
0.0
 20
0.0
 30
0.0
  3
*D8
  1

  0
LINE
  5
3A9F
100
AcDbEntity
  8
0
  6
BYBLOCK
 62
    41
100
AcDbLine
 10
1411.878169
 20
-148.52188
 30
0.0
 11
1411.878169
 21
-209.189117
 31
0.0
  0
LINE
  5
3AA0
100
AcDbEntity
  8
0
  6
BYBLOCK
 62
    41
100
AcDbLine
 10
1791.378042
 20
-148.521914
 30
0.0
 11
1791.378042
 21
-209.189117
 31
0.0
  0
LINE
  5
3AA1
100
AcDbEntity
  8
0
  6
BYBLOCK
 62
    41
100
AcDbLine
 10
1431.878169
 20
-207.939117
 30
0.0
 11
1771.378042
 21
-207.939117
 31
0.0
  0
INSERT
  5
3AA2
100
AcDbEntity
  8
0
  6
BYBLOCK
 62
    41
100
AcDbBlockReference
  2
_OPEN
 10
1411.878169
 20
-207.939117
 30
0.0
 41
20.0
 42
20.0
 43
20.0
 50
180.0
  0
INSERT
  5
3AA3
100
AcDbEntity
  8
0
  6
BYBLOCK
 62
    41
100
AcDbBlockReference
  2
_OPEN
 10
1791.378042
 20
-207.939117
 30
0.0
 41
20.0
 42
20.0
 43
20.0
  0
MTEXT
  5
3AA4
100
AcDbEntity
  8
0
  6
BYBLOCK
 62
    41
100
AcDbMText
 10
1601.628106
 20
-195.939117
 30
0.0
 40
20.0
 41
0.0
 71
     5
 72
     1
  1
\A1;380
  7
ED20
  0
POINT
  5
3AA5
100
AcDbEntity
  8
DEFPOINTS
  6
BYBLOCK
 62
     0
100
AcDbPoint
 10
1411.878169
 20
-147.52188
 30
0.0
  0
POINT
  5
3AA6
100
AcDbEntity
  8
DEFPOINTS
  6
BYBLOCK
 62
     0
100
AcDbPoint
 10
1791.378042
 20
-147.521914
 30
0.0
  0
POINT
  5
3AA7
100
AcDbEntity
  8
DEFPOINTS
  6
BYBLOCK
 62
     0
100
AcDbPoint
 10
1791.378042
 20
-207.939117
 30
0.0
  0
ENDBLK
  5
3AA8
100
AcDbEntity
  8
0
100
AcDbBlockEnd
  0
ENDSEC
  0
SECTION
  2
ENTITIES
  0
TEXT
  5
314E
100
AcDbEntity
  8
V0-VYPLNE
 62
     6
100
AcDbText
 10
1585.252052
 20
299.638878
 30
0.0
 40
30.0
  1
HCF-355
  7
ED30
100
AcDbText
  0
TEXT
  5
3152
100
AcDbEntity
  8
V0-VYPLNE
  6
CONTINUOUS
 62
    51
100
AcDbText
 10
1503.778719
 20
-488.959733
 30
0.0
 40
30.0
  1
AXIALNI VENTILATOR
  7
ED30
100
AcDbText
  0
TEXT
  5
3153
100
AcDbEntity
  8
V0-VYPLNE
  6
CONTINUOUS
 62
    51
100
AcDbText
 10
1587.256566
 20
-538.242059
 30
0.0
 40
30.0
  1
NA STENU
  7
ED30
100
AcDbText
  0
TEXT
  5
3154
100
AcDbEntity
  8
V0-VYPLNE
 62
     6
100
AcDbText
 10
1584.336259
 20
-433.293904
 30
0.0
 40
40.0
  1
HCF-355
  7
ED40
100
AcDbText
  0
LINE
  5
3304
100
AcDbEntity
  8
V0-OBRYS
  6
CONTINUOUS
 62
    90
 48
2.0
100
AcDbLine
 10
1194.474631
 20
-112.771646
 30
0.0
 11
1148.880461
 21
-112.771646
 31
0.0
  0
LINE
  5
3305
100
AcDbEntity
  8
V0-OBRYS
  6
CONTINUOUS
 62
    90
 48
2.0
100
AcDbLine
 10
1194.474631
 20
242.227644
 30
0.0
 11
1148.880461
 21
242.227644
 31
0.0
  0
ARC
  5
3306
100
AcDbEntity
  8
V0-OBRYS
  6
CONTINUOUS
 62
    90
 48
2.0
100
AcDbCircle
 10
1148.880461
 20
-133.736171
 30
0.0
 40
20.964525
100
AcDbArc
 50
90.0
 51
149.420799
  0
ARC
  5
3309
100
AcDbEntity
  8
V0-OBRYS
  6
CONTINUOUS
 62
    90
 48
2.0
100
AcDbCircle
 10
1148.880461
 20
263.192169
 30
0.0
 40
20.964525
100
AcDbArc
 50
210.579201
 51
270.0
  0
DIMENSION
  5
330B
100
AcDbEntity
  8
V0-VYPLNE
  6
CONTINUOUS
 62
    41
100
AcDbDimension
  2
*D1
 10
1253.229267
 20
-112.771646
 30
0.0
 11
1241.229267
 21
64.727999
 31
0.0
 70
    32
  1
%%c<>
  3
ED20
100
AcDbAlignedDimension
 13
1194.474631
 23
242.227644
 33
0.0
 14
1194.474631
 24
-112.771646
 34
0.0
 50
90.0
100
AcDbRotatedDimension
1001
ACAD
1000
DSTYLE
1002
{
1002
}
  0
LINE
  5
330C
100
AcDbEntity
  8
V0-OBRYS
  6
CONTINUOUS
 62
    90
 48
2.0
100
AcDbLine
 10
1194.474631
 20
64.727999
 30
0.0
 11
1194.474631
 21
242.227644
 31
0.0
  0
LINE
  5
330D
100
AcDbEntity
  8
V0-OBRYS
  6
CONTINUOUS
 62
    90
 48
2.0
100
AcDbLine
 10
1194.474631
 20
64.727999
 30
0.0
 11
1194.474631
 21
-112.771646
 31
0.0
  0
LINE
  5
3326
100
AcDbEntity
  8
V0-VYPLNE
  6
DASHED
 62
    52
100
AcDbLine
 10
1141.598553
 20
-21.810252
 30
0.0
 11
1153.698624
 21
-110.968858
 31
0.0
  0
LINE
  5
3327
100
AcDbEntity
  8
V0-VYPLNE
  6
DASHED
 62
    52
100
AcDbLine
 10
1195.657599
 20
-21.810252
 30
0.0
 11
1183.557528
 21
-110.968858
 31
0.0
  0
LINE
  5
3335
100
AcDbEntity
  8
V0-VYPLNE
  6
DASHED
 62
    52
100
AcDbLine
 10
1153.698624
 20
-110.968858
 30
0.0
 11
1183.557528
 21
-110.968858
 31
0.0
  0
ELLIPSE
  5
3336
100
AcDbEntity
  8
V0-OBRYS
  6
CONTINUOUS
 62
    90
100
AcDbEllipse
 10
398.582222
 20
55.805337
 30
0.0
 11
0.0000000000013764
 21
939.4695573808329
 31
0.0
210
0.0
220
0.0
230
-1.0
 40
0.852273
 41
1.480829966572599
 42
1.560998901912742
  0
LINE
  5
3337
100
AcDbEntity
  8
V0-VYPLNE
  6
DASHED
 62
    52
100
AcDbLine
 10
1141.628076
 20
65.009573
 30
0.0
 11
1141.628076
 21
145.265573
 31
0.0
  0
LINE
  5
3338
100
AcDbEntity
  8
V0-VYPLNE
  6
DASHED
 62
    52
100
AcDbLine
 10
1168.628076
 20
149.28911
 30
0.0
 11
1168.628076
 21
65.009573
 31
0.0
  0
LINE
  5
3339
100
AcDbEntity
  8
V0-VYPLNE
  6
DASHDOT
 62
    63
100
AcDbLine
 10
1065.525732
 20
64.727914
 30
0.0
 11
1221.112425
 21
64.727914
 31
0.0
  0
ELLIPSE
  5
333A
100
AcDbEntity
  8
V0-VYPLNE
  6
DASHED
 62
    52
100
AcDbEllipse
 10
1168.628076
 20
107.460712
 30
0.0
 11
-0.0000000000003973
 21
126.7306765837048
 31
0.0
210
0.0
220
0.0
230
-1.0
 40
0.852273
 41
2.929991421004502
 42
3.394251156505877
  0
LINE
  5
333B
100
AcDbEntity
  8
V0-VYPLNE
  6
DASHED
 62
    52
100
AcDbLine
 10
1142.104476
 20
55.372703
 30
0.0
 11
1197.686108
 21
74.977051
 31
0.0
  0
LINE
  5
333C
100
AcDbEntity
  8
V0-VYPLNE
  6
DASHED
 62
    52
100
AcDbLine
 10
1168.628076
 20
-19.269965
 30
0.0
 11
1168.628076
 21
65.009573
 31
0.0
  0
LINE
  5
333D
100
AcDbEntity
  8
V0-VYPLNE
  6
DASHED
 62
    52
100
AcDbLine
 10
1141.628076
 20
65.009573
 30
0.0
 11
1141.628076
 21
-15.246427
 31
0.0
  0
LINE
  5
333E
100
AcDbEntity
  8
V0-VYPLNE
  6
DASHED
 62
    52
100
AcDbLine
 10
1146.208105
 20
-16.4067
 30
0.0
 11
1141.598553
 21
-21.810252
 31
0.0
  0
ELLIPSE
  5
333F
100
AcDbEntity
  8
V0-VYPLNE
  6
DASHED
 62
    52
100
AcDbEllipse
 10
1168.628076
 20
64.727914
 30
0.0
 11
-0.0000000000000783
 21
5.966556111557961
 31
0.0
210
0.0
220
0.0
230
-1.0
 40
0.852273
 41
0.0
 42
6.283185307179586
  0
ELLIPSE
  5
3340
100
AcDbEntity
  8
V0-OBRYS
  6
CONTINUOUS
 62
    90
100
AcDbEllipse
 10
398.582222
 20
74.213808
 30
0.0
 11
-0.0000000000124734
 21
939.4695573808398
 31
0.0
210
0.0
220
0.0
230
-1.0
 40
0.852273
 41
1.580593751677059
 42
1.6607626870172
  0
LINE
  5
3341
100
AcDbEntity
  8
V0-VYPLNE
  6
DASHED
 62
    52
100
AcDbLine
 10
1191.048047
 20
-16.4067
 30
0.0
 11
1195.657599
 21
-21.810252
 31
0.0
  0
ELLIPSE
  5
3342
100
AcDbEntity
  8
V0-VYPLNE
  6
DASHED
 62
    52
100
AcDbEllipse
 10
1190.052607
 20
-9.560368
 30
0.0
 11
-0.0000000000010917
 21
7.039999999999871
 31
0.0
210
0.0
220
0.0
230
-1.0
 40
0.852273
 41
1.66076268701734
 42
2.929991421004736
  0
LINE
  5
3343
100
AcDbEntity
  8
V0-VYPLNE
  6
DASHED
 62
    52
100
AcDbLine
 10
1153.698624
 20
240.988003
 30
0.0
 11
1183.557528
 21
240.988003
 31
0.0
  0
ELLIPSE
  5
3344
100
AcDbEntity
  8
V0-VYPLNE
  6
DASHED
 62
    52
100
AcDbEllipse
 10
1168.628076
 20
22.558433
 30
0.0
 11
0.000000000000382
 21
126.7306765837048
 31
0.0
210
0.0
220
0.0
230
-1.0
 40
0.852273
 41
-0.252658502916083
 42
0.2116012325852894
  0
LINE
  5
3345
100
AcDbEntity
  8
V0-VYPLNE
  6
DASHED
 62
    52
100
AcDbLine
 10
1141.598553
 20
151.829397
 30
0.0
 11
1153.698624
 21
240.988003
 31
0.0
  0
LINE
  5
3346
100
AcDbEntity
  8
V0-VYPLNE
  6
DASHED
 62
    52
100
AcDbLine
 10
1146.208105
 20
146.425845
 30
0.0
 11
1141.598553
 21
151.829397
 31
0.0
  0
LINE
  5
3347
100
AcDbEntity
  8
V0-VYPLNE
  6
DASHED
 62
    52
100
AcDbLine
 10
1195.657599
 20
151.829397
 30
0.0
 11
1183.557528
 21
240.988003
 31
0.0
  0
LINE
  5
3348
100
AcDbEntity
  8
V0-VYPLNE
  6
DASHED
 62
    52
100
AcDbLine
 10
1191.048047
 20
146.425845
 30
0.0
 11
1195.657599
 21
151.829397
 31
0.0
  0
LINE
  5
3355
100
AcDbEntity
  8
V0-OBRYS
  6
CONTINUOUS
 62
    90
 48
2.0
100
AcDbLine
 10
1107.628356
 20
289.877999
 30
0.0
 11
1107.628356
 21
64.727999
 31
0.0
  0
LINE
  5
3358
100
AcDbEntity
  8
V0-VYPLNE
  6
DASHDOT
 62
    63
 48
2.0
100
AcDbLine
 10
1106.713274
 20
64.727999
 30
0.0
 11
1211.173052
 21
64.727999
 31
0.0
  0
LINE
  5
335B
100
AcDbEntity
  8
V0-OBRYS
  6
CONTINUOUS
 62
    90
 48
2.0
100
AcDbLine
 10
1107.628356
 20
-185.422001
 30
0.0
 11
1107.628356
 21
63.227999
 31
0.0
  0
LINE
  5
335C
100
AcDbEntity
  8
V0-OBRYS
  6
CONTINUOUS
 62
    90
 48
2.0
100
AcDbLine
 10
1087.720042
 20
-119.453395
 30
0.0
 11
1087.720042
 21
-37.949165
 31
0.0
  0
LINE
  5
335D
100
AcDbEntity
  8
V0-OBRYS
  6
CONTINUOUS
 62
    90
 48
2.0
100
AcDbLine
 10
1089.937372
 20
-119.453395
 30
0.0
 11
1089.937372
 21
-37.949165
 31
0.0
  0
LINE
  5
335E
100
AcDbEntity
  8
V0-OBRYS
  6
CONTINUOUS
 62
    90
 48
2.0
100
AcDbLine
 10
1119.668356
 20
-160.422001
 30
0.0
 11
1107.628356
 21
-160.422001
 31
0.0
  0
ARC
  5
335F
100
AcDbEntity
  8
V0-OBRYS
  6
CONTINUOUS
 62
    90
 48
2.0
100
AcDbCircle
 10
1090.671406
 20
-144.279014
 30
0.0
 40
20.343317
100
AcDbArc
 50
33.633732
 51
82.381915
  0
ARC
  5
3360
100
AcDbEntity
  8
V0-OBRYS
  6
CONTINUOUS
 62
    90
 48
2.0
100
AcDbCircle
 10
1090.556632
 20
-145.512963
 30
0.0
 40
19.400425
100
AcDbArc
 50
40.121121
 51
83.630132
  0
ARC
  5
3361
100
AcDbEntity
  8
V0-OBRYS
  6
CONTINUOUS
 62
    90
 48
2.0
100
AcDbCircle
 10
1094.820042
 20
-119.453395
 30
0.0
 40
4.882669
100
AcDbArc
 50
180.0
 51
252.703019
  0
ARC
  5
3362
100
AcDbEntity
  8
V0-OBRYS
  6
CONTINUOUS
 62
    90
 48
2.0
100
AcDbCircle
 10
1094.820042
 20
-119.453395
 30
0.0
 40
7.1
100
AcDbArc
 50
180.0
 51
252.703019
  0
CIRCLE
  5
3363
100
AcDbEntity
  8
V0-OBRYS
  6
CONTINUOUS
 62
    90
 48
2.0
100
AcDbCircle
 10
1085.436191
 20
-113.815497
 30
0.0
 40
2.283588
  0
CIRCLE
  5
3364
100
AcDbEntity
  8
V0-OBRYS
  6
CONTINUOUS
 62
    90
 48
2.0
100
AcDbCircle
 10
1085.436191
 20
-96.775497
 30
0.0
 40
2.283588
  0
LINE
  5
3365
100
AcDbEntity
  8
V0-OBRYS
  6
CONTINUOUS
 62
    90
 48
2.0
100
AcDbLine
 10
1105.391825
 20
-146.258219
 30
0.0
 11
1105.391825
 21
-133.011221
 31
0.0
  0
ARC
  5
3366
100
AcDbEntity
  8
V0-OBRYS
  6
CONTINUOUS
 62
    90
 48
2.0
100
AcDbCircle
 10
1106.51009
 20
-146.258219
 30
0.0
 40
1.118266
100
AcDbArc
 50
180.0
 51
0.0
  0
ARC
  5
3367
100
AcDbEntity
  8
V0-OBRYS
  6
CONTINUOUS
 62
    90
 48
2.0
100
AcDbCircle
 10
1100.528356
 20
-22.963536
 30
0.0
 40
7.1
100
AcDbArc
 50
289.78203
 51
0.0
  0
LINE
  5
3368
100
AcDbEntity
  8
V0-OBRYS
  6
CONTINUOUS
 62
    90
 48
2.0
100
AcDbLine
 10
1092.417098
 20
-31.268158
 30
0.0
 11
1102.9313
 21
-29.644544
 31
0.0
  0
LINE
  5
3369
100
AcDbEntity
  8
V0-OBRYS
  6
CONTINUOUS
 62
    90
 48
2.0
100
AcDbLine
 10
1093.167537
 20
-33.354637
 30
0.0
 11
1103.68174
 21
-31.731023
 31
0.0
  0
ARC
  5
336A
100
AcDbEntity
  8
V0-OBRYS
  6
CONTINUOUS
 62
    90
 48
2.0
100
AcDbCircle
 10
1094.820042
 20
-37.949165
 30
0.0
 40
4.882669
100
AcDbArc
 50
109.78203
 51
180.0
  0
ARC
  5
336B
100
AcDbEntity
  8
V0-OBRYS
  6
CONTINUOUS
 62
    90
 48
2.0
100
AcDbCircle
 10
1094.820042
 20
-37.949165
 30
0.0
 40
7.1
100
AcDbArc
 50
109.78203
 51
180.0
  0
CIRCLE
  5
336C
100
AcDbEntity
  8
V0-OBRYS
  6
CONTINUOUS
 62
    90
 48
2.0
100
AcDbCircle
 10
1085.436191
 20
-79.735497
 30
0.0
 40
2.283588
  0
CIRCLE
  5
336D
100
AcDbEntity
  8
V0-OBRYS
  6
CONTINUOUS
 62
    90
 48
2.0
100
AcDbCircle
 10
1085.436191
 20
-62.695497
 30
0.0
 40
2.283588
  0
CIRCLE
  5
336E
100
AcDbEntity
  8
V0-OBRYS
  6
CONTINUOUS
 62
    90
 48
2.0
100
AcDbCircle
 10
1085.436191
 20
-45.655497
 30
0.0
 40
2.283588
  0
ARC
  5
336F
100
AcDbEntity
  8
V0-OBRYS
  6
CONTINUOUS
 62
    90
 48
2.0
100
AcDbCircle
 10
1100.528356
 20
-22.963536
 30
0.0
 40
9.317331
100
AcDbArc
 50
289.78203
 51
319.642674
  0
ARC
  5
3370
100
AcDbEntity
  8
V0-OBRYS
  6
CONTINUOUS
 62
    90
 48
2.0
100
AcDbCircle
 10
1094.820042
 20
167.405163
 30
0.0
 40
4.882669
100
AcDbArc
 50
180.0
 51
250.21797
  0
ARC
  5
3371
100
AcDbEntity
  8
V0-OBRYS
  6
CONTINUOUS
 62
    90
 48
2.0
100
AcDbCircle
 10
1094.820042
 20
167.405163
 30
0.0
 40
7.1
100
AcDbArc
 50
180.0
 51
250.21797
  0
LINE
  5
3372
100
AcDbEntity
  8
V0-OBRYS
  6
CONTINUOUS
 62
    90
 48
2.0
100
AcDbLine
 10
1093.167537
 20
162.810635
 30
0.0
 11
1103.68174
 21
161.187021
 31
0.0
  0
LINE
  5
3373
100
AcDbEntity
  8
V0-OBRYS
  6
CONTINUOUS
 62
    90
 48
2.0
100
AcDbLine
 10
1092.417098
 20
160.724156
 30
0.0
 11
1102.9313
 21
159.100542
 31
0.0
  0
ARC
  5
3374
100
AcDbEntity
  8
V0-OBRYS
  6
CONTINUOUS
 62
    90
 48
2.0
100
AcDbCircle
 10
1100.528356
 20
152.419535
 30
0.0
 40
9.317331
100
AcDbArc
 50
40.357326
 51
70.21797
  0
ARC
  5
3375
100
AcDbEntity
  8
V0-OBRYS
  6
CONTINUOUS
 62
    90
 48
2.0
100
AcDbCircle
 10
1100.528356
 20
152.419535
 30
0.0
 40
7.1
100
AcDbArc
 50
0.0
 51
70.21797
  0
CIRCLE
  5
3376
100
AcDbEntity
  8
V0-OBRYS
  6
CONTINUOUS
 62
    90
 48
2.0
100
AcDbCircle
 10
1085.535968
 20
226.231495
 30
0.0
 40
2.283588
  0
LINE
  5
3377
100
AcDbEntity
  8
V0-OBRYS
  6
CONTINUOUS
 62
    90
 48
2.0
100
AcDbLine
 10
1089.937372
 20
248.909393
 30
0.0
 11
1089.937372
 21
167.405163
 31
0.0
  0
LINE
  5
3378
100
AcDbEntity
  8
V0-OBRYS
  6
CONTINUOUS
 62
    90
 48
2.0
100
AcDbLine
 10
1087.720042
 20
248.909393
 30
0.0
 11
1087.720042
 21
167.405163
 31
0.0
  0
CIRCLE
  5
3379
100
AcDbEntity
  8
V0-OBRYS
  6
CONTINUOUS
 62
    90
 48
2.0
100
AcDbCircle
 10
1085.535968
 20
209.191495
 30
0.0
 40
2.283588
  0
CIRCLE
  5
337A
100
AcDbEntity
  8
V0-OBRYS
  6
CONTINUOUS
 62
    90
 48
2.0
100
AcDbCircle
 10
1085.535968
 20
175.111495
 30
0.0
 40
2.283588
  0
CIRCLE
  5
337B
100
AcDbEntity
  8
V0-OBRYS
  6
CONTINUOUS
 62
    90
 48
2.0
100
AcDbCircle
 10
1085.535968
 20
192.151495
 30
0.0
 40
2.283588
  0
ARC
  5
337C
100
AcDbEntity
  8
V0-OBRYS
  6
CONTINUOUS
 62
    90
 48
2.0
100
AcDbCircle
 10
1090.671406
 20
273.735012
 30
0.0
 40
20.343317
100
AcDbArc
 50
277.618085
 51
326.366268
  0
ARC
  5
337D
100
AcDbEntity
  8
V0-OBRYS
  6
CONTINUOUS
 62
    90
 48
2.0
100
AcDbCircle
 10
1090.556632
 20
274.968961
 30
0.0
 40
19.400425
100
AcDbArc
 50
276.369868
 51
319.878879
  0
ARC
  5
337E
100
AcDbEntity
  8
V0-OBRYS
  6
CONTINUOUS
 62
    90
 48
2.0
100
AcDbCircle
 10
1094.820042
 20
248.909393
 30
0.0
 40
4.882669
100
AcDbArc
 50
107.296981
 51
180.0
  0
CIRCLE
  5
337F
100
AcDbEntity
  8
V0-OBRYS
  6
CONTINUOUS
 62
    90
 48
2.0
100
AcDbCircle
 10
1085.535968
 20
243.271495
 30
0.0
 40
2.283588
  0
ARC
  5
3380
100
AcDbEntity
  8
V0-OBRYS
  6
CONTINUOUS
 62
    90
 48
2.0
100
AcDbCircle
 10
1094.820042
 20
248.909393
 30
0.0
 40
7.1
100
AcDbArc
 50
107.296981
 51
180.0
  0
ARC
  5
3381
100
AcDbEntity
  8
V0-OBRYS
  6
CONTINUOUS
 62
    90
 48
2.0
100
AcDbCircle
 10
1106.51009
 20
275.714217
 30
0.0
 40
1.118266
100
AcDbArc
 50
0.0
 51
180.0
  0
LINE
  5
3382
100
AcDbEntity
  8
V0-OBRYS
  6
CONTINUOUS
 62
    90
 48
2.0
100
AcDbLine
 10
1105.391825
 20
275.714217
 30
0.0
 11
1105.391825
 21
262.467219
 31
0.0
  0
LINE
  5
3383
100
AcDbEntity
  8
V0-OBRYS
  6
CONTINUOUS
 62
    90
 48
2.0
100
AcDbLine
 10
1119.668356
 20
289.877999
 30
0.0
 11
1107.628356
 21
289.877999
 31
0.0
  0
LINE
  5
33D3
100
AcDbEntity
  8
V0-OBRYS
  6
CONTINUOUS
 62
    90
100
AcDbLine
 10
1119.668356
 20
289.877999
 30
0.0
 11
1130.831541
 21
252.526909
 31
0.0
  0
LINE
  5
33D4
100
AcDbEntity
  8
V0-OBRYS
  6
CONTINUOUS
 62
    90
100
AcDbLine
 10
1119.668356
 20
-160.422001
 30
0.0
 11
1130.831541
 21
-123.070911
 31
0.0
  0
LINE
  5
33E1
100
AcDbEntity
  8
V0-OBRYS
  6
CONTINUOUS
 62
    90
 48
2.0
100
AcDbLine
 10
1105.988145
 20
108.160841
 30
0.0
 11
1067.222024
 21
98.56639
 31
0.0
  0
LINE
  5
33E2
100
AcDbEntity
  8
V0-OBRYS
  6
CONTINUOUS
 62
    90
 48
2.0
100
AcDbLine
 10
1106.468312
 20
118.235016
 30
0.0
 11
1066.741861
 21
104.323062
 31
0.0
  0
LINE
  5
33E3
100
AcDbEntity
  8
V0-OBRYS
  6
CONTINUOUS
 62
    90
 48
2.0
100
AcDbLine
 10
1105.988145
 20
73.141094
 30
0.0
 11
1066.741861
 21
72.661372
 31
0.0
  0
LINE
  5
33E4
100
AcDbEntity
  8
V0-OBRYS
  6
CONTINUOUS
 62
    90
 48
2.0
100
AcDbLine
 10
1105.988145
 20
84.654436
 30
0.0
 11
1066.741861
 21
82.735545
 31
0.0
  0
LINE
  5
33E5
100
AcDbEntity
  8
V0-OBRYS
  6
CONTINUOUS
 62
    90
 48
2.0
100
AcDbLine
 10
1106.468312
 20
96.167776
 30
0.0
 11
1066.261693
 21
91.850273
 31
0.0
  0
LINE
  5
33E6
100
AcDbEntity
  8
V0-OBRYS
  6
CONTINUOUS
 62
    90
 48
2.0
100
AcDbLine
 10
1105.988145
 20
44.801562
 30
0.0
 11
1066.741861
 21
46.720453
 31
0.0
  0
LINE
  5
33E7
100
AcDbEntity
  8
V0-OBRYS
  6
CONTINUOUS
 62
    90
 48
2.0
100
AcDbLine
 10
1105.988145
 20
56.314904
 30
0.0
 11
1066.741861
 21
56.794626
 31
0.0
  0
LINE
  5
33E8
100
AcDbEntity
  8
V0-OBRYS
  6
CONTINUOUS
 62
    90
 48
2.0
100
AcDbLine
 10
1106.468312
 20
33.288222
 30
0.0
 11
1066.261693
 21
37.605725
 31
0.0
  0
LINE
  5
33E9
100
AcDbEntity
  8
V0-OBRYS
  6
CONTINUOUS
 62
    90
 48
2.0
100
AcDbLine
 10
1106.468312
 20
11.220982
 30
0.0
 11
1066.741861
 21
25.132936
 31
0.0
  0
LINE
  5
33EA
100
AcDbEntity
  8
V0-OBRYS
  6
CONTINUOUS
 62
    90
 48
2.0
100
AcDbLine
 10
1105.988145
 20
21.295158
 30
0.0
 11
1067.222024
 21
30.889608
 31
0.0
  0
DIMENSION
  5
33EB
100
AcDbEntity
  8
V0-VYPLNE
  6
CONTINUOUS
 62
    41
100
AcDbDimension
  2
*D3
 10
992.423703
 20
7.727543
 30
0.0
 11
992.423703
 21
64.379348
 31
0.0
 70
   160
  1
%%c<>
  3
ED20
100
AcDbAlignedDimension
 13
1106.628106
 23
121.728455
 33
0.0
 14
1106.628106
 24
7.727543
 34
0.0
 50
90.0
100
AcDbRotatedDimension
1001
ACAD
1000
DSTYLE
1002
{
1002
}
  0
LINE
  5
33EC
100
AcDbEntity
  8
V0-OBRYS
  6
CONTINUOUS
 62
    90
 48
2.0
100
AcDbLine
 10
1076.628034
 20
7.727543
 30
0.0
 11
1107.62833
 21
7.727543
 31
0.0
  0
LINE
  5
33ED
100
AcDbEntity
  8
V0-OBRYS
  6
CONTINUOUS
 62
    90
 48
2.0
100
AcDbLine
 10
1076.628034
 20
121.728455
 30
0.0
 11
1107.62833
 21
121.728455
 31
0.0
  0
LINE
  5
33EE
100
AcDbEntity
  8
V0-OBRYS
  6
CONTINUOUS
 62
    90
 48
2.0
100
AcDbLine
 10
1066.627954
 20
64.727999
 30
0.0
 11
1066.627954
 21
17.727623
 31
0.0
  0
ARC
  5
33EF
100
AcDbEntity
  8
V0-OBRYS
  6
CONTINUOUS
 62
    90
 48
2.0
100
AcDbCircle
 10
1076.628034
 20
17.727623
 30
0.0
 40
10.00008
100
AcDbArc
 50
180.0
 51
270.0
  0
LINE
  5
33F0
100
AcDbEntity
  8
V0-OBRYS
  6
CONTINUOUS
 62
    90
 48
2.0
100
AcDbLine
 10
1066.627954
 20
64.727999
 30
0.0
 11
1066.627954
 21
111.728375
 31
0.0
  0
ARC
  5
33F1
100
AcDbEntity
  8
V0-OBRYS
  6
CONTINUOUS
 62
    90
 48
2.0
100
AcDbCircle
 10
1076.628034
 20
111.728375
 30
0.0
 40
10.00008
100
AcDbArc
 50
90.0
 51
180.0
  0
LINE
  5
33F3
100
AcDbEntity
  8
V0-OBRYS
  6
CONTINUOUS
 62
    90
 48
2.0
100
AcDbLine
 10
1106.628106
 20
64.727999
 30
0.0
 11
1106.628106
 21
7.727543
 31
0.0
  0
LINE
  5
33F4
100
AcDbEntity
  8
V0-OBRYS
  6
CONTINUOUS
 62
    90
 48
2.0
100
AcDbLine
 10
1106.468312
 20
11.220982
 30
0.0
 11
1107.62833
 21
11.220982
 31
0.0
  0
LINE
  5
33F5
100
AcDbEntity
  8
V0-OBRYS
  6
CONTINUOUS
 62
    90
 48
2.0
100
AcDbLine
 10
1108.869138
 20
44.801562
 30
0.0
 11
1107.62833
 21
44.801562
 31
0.0
  0
LINE
  5
33F6
100
AcDbEntity
  8
V0-OBRYS
  6
CONTINUOUS
 62
    90
 48
2.0
100
AcDbLine
 10
1106.468312
 20
33.288222
 30
0.0
 11
1107.62833
 21
33.288222
 31
0.0
  0
LINE
  5
33F7
100
AcDbEntity
  8
V0-OBRYS
  6
CONTINUOUS
 62
    90
 48
2.0
100
AcDbLine
 10
1105.988145
 20
21.295158
 30
0.0
 11
1107.62833
 21
21.295158
 31
0.0
  0
LINE
  5
33F8
100
AcDbEntity
  8
V0-OBRYS
  6
CONTINUOUS
 62
    90
 48
2.0
100
AcDbLine
 10
1105.988145
 20
44.801562
 30
0.0
 11
1108.869138
 21
44.801562
 31
0.0
  0
LINE
  5
33F9
100
AcDbEntity
  8
V0-OBRYS
  6
CONTINUOUS
 62
    90
 48
2.0
100
AcDbLine
 10
1106.628106
 20
64.727999
 30
0.0
 11
1106.628106
 21
121.728455
 31
0.0
  0
LINE
  5
33FA
100
AcDbEntity
  8
V0-OBRYS
  6
CONTINUOUS
 62
    90
 48
2.0
100
AcDbLine
 10
1108.869138
 20
84.654436
 30
0.0
 11
1107.62833
 21
84.654436
 31
0.0
  0
LINE
  5
33FB
100
AcDbEntity
  8
V0-OBRYS
  6
CONTINUOUS
 62
    90
 48
2.0
100
AcDbLine
 10
1105.988145
 20
56.314904
 30
0.0
 11
1107.62833
 21
56.314904
 31
0.0
  0
LINE
  5
33FC
100
AcDbEntity
  8
V0-OBRYS
  6
CONTINUOUS
 62
    90
 48
2.0
100
AcDbLine
 10
1105.988145
 20
73.141094
 30
0.0
 11
1107.62833
 21
73.141094
 31
0.0
  0
LINE
  5
33FD
100
AcDbEntity
  8
V0-OBRYS
  6
CONTINUOUS
 62
    90
 48
2.0
100
AcDbLine
 10
1106.468312
 20
96.167776
 30
0.0
 11
1107.62833
 21
96.167776
 31
0.0
  0
LINE
  5
33FE
100
AcDbEntity
  8
V0-OBRYS
  6
CONTINUOUS
 62
    90
 48
2.0
100
AcDbLine
 10
1105.988145
 20
84.654436
 30
0.0
 11
1108.869138
 21
84.654436
 31
0.0
  0
LINE
  5
33FF
100
AcDbEntity
  8
V0-OBRYS
  6
CONTINUOUS
 62
    90
 48
2.0
100
AcDbLine
 10
1105.988145
 20
108.160841
 30
0.0
 11
1107.62833
 21
108.160841
 31
0.0
  0
LINE
  5
3400
100
AcDbEntity
  8
V0-OBRYS
  6
CONTINUOUS
 62
    90
 48
2.0
100
AcDbLine
 10
1106.468312
 20
118.235016
 30
0.0
 11
1107.62833
 21
118.235016
 31
0.0
  0
LINE
  5
341A
100
AcDbEntity
  8
V0-VYPLNE
  6
DASHED
 62
    52
100
AcDbLine
 10
1135.535993
 20
12.727583
 30
0.0
 11
1135.535993
 21
64.727999
 31
0.0
  0
LINE
  5
341C
100
AcDbEntity
  8
V0-VYPLNE
  6
DASHED
 62
    52
100
AcDbLine
 10
1107.628385
 20
11.220982
 30
0.0
 11
1135.535993
 21
11.220982
 31
0.0
  0
LINE
  5
341D
100
AcDbEntity
  8
V0-VYPLNE
  6
DASHED
 62
    52
100
AcDbLine
 10
1107.628385
 20
7.727543
 30
0.0
 11
1130.535953
 21
7.727543
 31
0.0
  0
LINE
  5
341E
100
AcDbEntity
  8
V0-VYPLNE
  6
DASHED
 62
    52
100
AcDbLine
 10
1107.628385
 20
21.295158
 30
0.0
 11
1135.535993
 21
21.295158
 31
0.0
  0
LINE
  5
341F
100
AcDbEntity
  8
V0-VYPLNE
  6
DASHED
 62
    52
100
AcDbLine
 10
1107.628385
 20
33.288222
 30
0.0
 11
1135.05583
 21
33.288222
 31
0.0
  0
LINE
  5
3420
100
AcDbEntity
  8
V0-VYPLNE
  6
DASHED
 62
    52
100
AcDbLine
 10
1107.628385
 20
44.801562
 30
0.0
 11
1135.535993
 21
44.801562
 31
0.0
  0
ARC
  5
3421
100
AcDbEntity
  8
V0-VYPLNE
  6
DASHED
 62
    52
 48
2.0
100
AcDbCircle
 10
1130.535953
 20
12.727583
 30
0.0
 40
5.00004
100
AcDbArc
 50
270.0
 51
0.0
  0
LINE
  5
3422
100
AcDbEntity
  8
V0-VYPLNE
  6
DASHED
 62
    52
100
AcDbLine
 10
1107.628385
 20
73.141094
 30
0.0
 11
1135.05583
 21
73.141094
 31
0.0
  0
LINE
  5
3423
100
AcDbEntity
  8
V0-VYPLNE
  6
DASHED
 62
    52
100
AcDbLine
 10
1107.628385
 20
84.654436
 30
0.0
 11
1135.535993
 21
84.654436
 31
0.0
  0
LINE
  5
3424
100
AcDbEntity
  8
V0-VYPLNE
  6
DASHED
 62
    52
100
AcDbLine
 10
1107.628385
 20
96.167776
 30
0.0
 11
1135.05583
 21
96.167776
 31
0.0
  0
LINE
  5
3425
100
AcDbEntity
  8
V0-VYPLNE
  6
DASHED
 62
    52
100
AcDbLine
 10
1107.628385
 20
108.160841
 30
0.0
 11
1135.535993
 21
108.160841
 31
0.0
  0
LINE
  5
3426
100
AcDbEntity
  8
V0-VYPLNE
  6
DASHED
 62
    52
100
AcDbLine
 10
1107.628385
 20
118.235016
 30
0.0
 11
1135.535993
 21
118.235016
 31
0.0
  0
LINE
  5
3427
100
AcDbEntity
  8
V0-VYPLNE
  6
DASHED
 62
    52
100
AcDbLine
 10
1107.628385
 20
121.728455
 30
0.0
 11
1130.535953
 21
121.728455
 31
0.0
  0
LINE
  5
3428
100
AcDbEntity
  8
V0-VYPLNE
  6
DASHED
 62
    52
100
AcDbLine
 10
1107.628385
 20
56.314904
 30
0.0
 11
1135.05583
 21
56.314904
 31
0.0
  0
LINE
  5
3429
100
AcDbEntity
  8
V0-VYPLNE
  6
DASHED
 62
    52
100
AcDbLine
 10
1135.535993
 20
116.728415
 30
0.0
 11
1135.535993
 21
64.727999
 31
0.0
  0
ARC
  5
342A
100
AcDbEntity
  8
V0-VYPLNE
  6
DASHED
 62
    52
 48
2.0
100
AcDbCircle
 10
1130.535953
 20
116.728415
 30
0.0
 40
5.00004
100
AcDbArc
 50
0.0
 51
90.0
  0
LINE
  5
3442
100
AcDbEntity
  8
V0-OBRYS
  6
CONTINUOUS
 62
    90
100
AcDbLine
 10
1119.668356
 20
289.877999
 30
0.0
 11
1119.668356
 21
-160.422001
 31
0.0
  0
LINE
  5
3467
100
AcDbEntity
  8
V0-OBRYS
  6
CONTINUOUS
 62
    90
100
AcDbLine
 10
1020.525734
 20
24.727903
 30
0.0
 11
1065.525734
 21
24.727903
 31
0.0
  0
LINE
  5
3468
100
AcDbEntity
  8
V0-OBRYS
  6
CONTINUOUS
 62
    90
100
AcDbLine
 10
1020.525734
 20
104.727903
 30
0.0
 11
1065.525734
 21
104.727903
 31
0.0
  0
LINE
  5
3469
100
AcDbEntity
  8
V0-OBRYS
  6
CONTINUOUS
 62
    90
100
AcDbLine
 10
1020.525734
 20
64.727903
 30
0.0
 11
1020.525734
 21
24.727903
 31
0.0
  0
LINE
  5
346A
100
AcDbEntity
  8
V0-OBRYS
  6
CONTINUOUS
 62
    90
100
AcDbLine
 10
1035.525734
 20
64.727903
 30
0.0
 11
1035.525734
 21
24.727903
 31
0.0
  0
LINE
  5
346B
100
AcDbEntity
  8
V0-OBRYS
  6
CONTINUOUS
 62
    90
100
AcDbLine
 10
1020.525734
 20
64.727903
 30
0.0
 11
1020.525734
 21
104.727903
 31
0.0
  0
LINE
  5
346C
100
AcDbEntity
  8
V0-OBRYS
  6
CONTINUOUS
 62
    90
100
AcDbLine
 10
1035.525734
 20
64.727903
 30
0.0
 11
1035.525734
 21
104.727903
 31
0.0
  0
LINE
  5
346D
100
AcDbEntity
  8
V0-OBRYS
  6
CONTINUOUS
 62
    90
100
AcDbLine
 10
1065.525734
 20
24.727903
 30
0.0
 11
1065.525734
 21
64.727903
 31
0.0
  0
LINE
  5
346E
100
AcDbEntity
  8
V0-OBRYS
  6
CONTINUOUS
 62
    90
100
AcDbLine
 10
1065.525734
 20
104.727903
 30
0.0
 11
1065.525734
 21
64.727903
 31
0.0
  0
DIMENSION
  5
34A0
100
AcDbEntity
  8
V0-OBRYS
  6
CONTINUOUS
 62
    90
100
AcDbDimension
  2
*D4
 10
1107.628356
 20
-198.36141
 30
0.0
 11
1052.447537
 21
-198.36141
 31
0.0
 70
   160
  3
ED20
100
AcDbAlignedDimension
 13
1119.668356
 23
-160.422001
 33
0.0
 14
1107.628356
 24
-160.422001
 34
0.0
100
AcDbRotatedDimension
1001
ACAD
1000
DSTYLE
1002
{
1002
}
  0
POINT
  5
3629
100
AcDbEntity
  8
V0-VYPLNE
  6
DASHED
 62
    52
100
AcDbPoint
 10
1670.010149
 20
64.72804
 30
0.0
  0
LINE
  5
3666
100
AcDbEntity
  8
V0-VYPLNE
  6
DASHDOT
 62
    63
100
AcDbLine
 10
1500.010221
 20
214.727999
 30
0.0
 11
1542.100363
 21
214.727999
 31
0.0
  0
LINE
  5
3667
100
AcDbEntity
  8
V0-VYPLNE
  6
DASHDOT
 62
    63
100
AcDbLine
 10
1520.010221
 20
234.727999
 30
0.0
 11
1520.010221
 21
192.221977
 31
0.0
  0
CIRCLE
  5
3668
100
AcDbEntity
  8
V0-OBRYS
  6
CONTINUOUS
 62
    90
100
AcDbCircle
 10
1520.010221
 20
214.727999
 30
0.0
 40
5.0
  0
CIRCLE
  5
3669
100
AcDbEntity
  8
V0-OBRYS
  6
CONTINUOUS
 62
    90
100
AcDbCircle
 10
1520.010191
 20
-85.271889
 30
0.0
 40
5.0
  0
LINE
  5
366A
100
AcDbEntity
  8
V0-VYPLNE
  6
DASHDOT
 62
    63
100
AcDbLine
 10
1500.010191
 20
-85.271889
 30
0.0
 11
1542.516213
 21
-85.271889
 31
0.0
  0
LINE
  5
366B
100
AcDbEntity
  8
V0-VYPLNE
  6
DASHDOT
 62
    63
100
AcDbLine
 10
1520.010191
 20
-105.271889
 30
0.0
 11
1520.010191
 21
-63.181746
 31
0.0
  0
CIRCLE
  5
366C
100
AcDbEntity
  8
V0-OBRYS
  6
CONTINUOUS
 62
    90
100
AcDbCircle
 10
1820.010078
 20
-85.271919
 30
0.0
 40
5.0
  0
LINE
  5
366D
100
AcDbEntity
  8
V0-VYPLNE
  6
DASHDOT
 62
    63
100
AcDbLine
 10
1820.010078
 20
-105.271919
 30
0.0
 11
1820.010078
 21
-62.765896
 31
0.0
  0
LINE
  5
366E
100
AcDbEntity
  8
V0-VYPLNE
  6
DASHDOT
 62
    63
100
AcDbLine
 10
1840.010078
 20
-85.271919
 30
0.0
 11
1797.919936
 21
-85.271919
 31
0.0
  0
CIRCLE
  5
366F
100
AcDbEntity
  8
V0-OBRYS
  6
CONTINUOUS
 62
    90
100
AcDbCircle
 10
1820.010108
 20
214.727969
 30
0.0
 40
5.0
  0
LINE
  5
3670
100
AcDbEntity
  8
V0-VYPLNE
  6
DASHDOT
 62
    63
100
AcDbLine
 10
1840.010108
 20
214.727969
 30
0.0
 11
1797.504086
 21
214.727969
 31
0.0
  0
LINE
  5
3671
100
AcDbEntity
  8
V0-VYPLNE
  6
DASHDOT
 62
    63
100
AcDbLine
 10
1820.010108
 20
234.727969
 30
0.0
 11
1820.010108
 21
192.637827
 31
0.0
  0
CIRCLE
  5
372E
100
AcDbEntity
  8
V0-OBRYS
  6
CONTINUOUS
 62
    90
100
AcDbCircle
 10
1670.010149
 20
64.72804
 30
0.0
 40
170.903585
  0
CIRCLE
  5
372F
100
AcDbEntity
  8
V0-OBRYS
  6
CONTINUOUS
 62
    90
100
AcDbCircle
 10
1670.010149
 20
64.72804
 30
0.0
 40
194.252086
  0
LINE
  5
3730
100
AcDbEntity
  8
V0-OBRYS
  6
CONTINUOUS
 62
    90
100
AcDbLine
 10
1585.859153
 20
58.328285
 30
0.0
 11
1612.960229
 21
60.389345
 31
0.0
  0
LINE
  5
3731
100
AcDbEntity
  8
V0-OBRYS
  6
CONTINUOUS
 62
    90
100
AcDbLine
 10
1585.859153
 20
71.127796
 30
0.0
 11
1612.960229
 21
69.066736
 31
0.0
  0
LINE
  5
3732
100
AcDbEntity
  8
V0-OBRYS
  6
CONTINUOUS
 62
    90
100
AcDbLine
 10
1612.960229
 20
78.528346
 30
0.0
 11
1587.409855
 21
84.70895
 31
0.0
  0
LINE
  5
3733
100
AcDbEntity
  8
V0-OBRYS
  6
CONTINUOUS
 62
    90
100
AcDbLine
 10
1591.674281
 20
96.737974
 30
0.0
 11
1612.960229
 21
88.04002
 31
0.0
  0
LINE
  5
3734
100
AcDbEntity
  8
V0-OBRYS
  6
CONTINUOUS
 62
    90
100
AcDbLine
 10
1612.960229
 20
98.825362
 30
0.0
 11
1596.326384
 21
108.766999
 31
0.0
  0
LINE
  5
3735
100
AcDbEntity
  8
V0-OBRYS
  6
CONTINUOUS
 62
    90
100
AcDbLine
 10
1610.429928
 20
18.35297
 30
0.0
 11
1613.695102
 21
26.944747
 31
0.0
  0
LINE
  5
3736
100
AcDbEntity
  8
V0-OBRYS
  6
CONTINUOUS
 62
    90
100
AcDbLine
 10
1604.209969
 20
-1.100054
 30
0.0
 11
1611.539953
 21
16.961043
 31
0.0
  0
LINE
  5
3737
100
AcDbEntity
  8
V0-OBRYS
  6
CONTINUOUS
 62
    90
100
AcDbLine
 10
1612.960229
 20
30.630719
 30
0.0
 11
1596.326384
 21
20.689082
 31
0.0
  0
LINE
  5
3738
100
AcDbEntity
  8
V0-OBRYS
  6
CONTINUOUS
 62
    90
100
AcDbLine
 10
1591.674281
 20
32.718106
 30
0.0
 11
1612.960229
 21
41.41606
 31
0.0
  0
LINE
  5
3739
100
AcDbEntity
  8
V0-OBRYS
  6
CONTINUOUS
 62
    90
100
AcDbLine
 10
1612.960229
 20
50.927735
 30
0.0
 11
1587.409855
 21
44.747131
 31
0.0
  0
ARC
  5
373A
100
AcDbEntity
  8
V0-OBRYS
  6
CONTINUOUS
 62
    90
100
AcDbCircle
 10
1670.010149
 20
64.72804
 30
0.0
 40
66.755521
100
AcDbArc
 50
148.716649
 51
211.283351
  0
ARC
  5
373B
100
AcDbEntity
  8
V0-OBRYS
  6
CONTINUOUS
 62
    90
100
AcDbCircle
 10
1670.010149
 20
64.72804
 30
0.0
 40
177.5
100
AcDbArc
 50
236.13779
 51
252.433638
  0
LINE
  5
373C
100
AcDbEntity
  8
VO-OBRYS
  6
CONTINUOUS
100
AcDbLine
 10
1612.960229
 20
29.430761
 30
0.0
 11
1511.712986
 21
-71.816482
 31
0.0
  0
LINE
  5
373D
100
AcDbEntity
  8
VO-OBRYS
  6
CONTINUOUS
100
AcDbLine
 10
1634.71287
 20
7.67812
 30
0.0
 11
1533.465627
 21
-93.569123
 31
0.0
  0
LINE
  5
373E
100
AcDbEntity
  8
VO-OBRYS
  6
CONTINUOUS
100
AcDbLine
 10
1612.774308
 20
26.109061
 30
0.0
 11
1513.280876
 21
-73.384371
 31
0.0
  0
LINE
  5
373F
100
AcDbEntity
  8
VO-OBRYS
  6
CONTINUOUS
100
AcDbLine
 10
1631.39117
 20
7.492199
 30
0.0
 11
1531.897738
 21
-92.001233
 31
0.0
  0
LINE
  5
3740
100
AcDbEntity
  8
VO-OBRYS
  6
CONTINUOUS
100
AcDbLine
 10
1612.960229
 20
100.025319
 30
0.0
 11
1511.712986
 21
201.272562
 31
0.0
  0
LINE
  5
3741
100
AcDbEntity
  8
VO-OBRYS
  6
CONTINUOUS
100
AcDbLine
 10
1634.71287
 20
121.77796
 30
0.0
 11
1533.465627
 21
223.025203
 31
0.0
  0
LINE
  5
3742
100
AcDbEntity
  8
VO-OBRYS
  6
CONTINUOUS
100
AcDbLine
 10
1612.774308
 20
103.34702
 30
0.0
 11
1513.280876
 21
202.840452
 31
0.0
  0
LINE
  5
3743
100
AcDbEntity
  8
VO-OBRYS
  6
CONTINUOUS
100
AcDbLine
 10
1631.39117
 20
121.963882
 30
0.0
 11
1531.897738
 21
221.457314
 31
0.0
  0
LINE
  5
3744
100
AcDbEntity
  8
V0-OBRYS
  6
CONTINUOUS
 62
    90
100
AcDbLine
 10
1598.567824
 20
158.835363
 30
0.0
 11
1618.505504
 21
144.902519
 31
0.0
  0
CIRCLE
  5
3745
100
AcDbEntity
  8
V0-OBRYS
  6
CONTINUOUS
 62
    90
100
AcDbCircle
 10
1670.010149
 20
64.72804
 30
0.0
 40
95.292578
  0
CIRCLE
  5
3746
100
AcDbEntity
  8
V0-OBRYS
  6
CONTINUOUS
 62
    90
100
AcDbCircle
 10
1670.010149
 20
64.72804
 30
0.0
 40
120.370596
  0
CIRCLE
  5
3747
100
AcDbEntity
  8
V0-OBRYS
  6
CONTINUOUS
 62
    90
100
AcDbCircle
 10
1670.010149
 20
64.72804
 30
0.0
 40
146.313375
  0
CIRCLE
  5
3748
100
AcDbEntity
  8
V0-OBRYS
  6
CONTINUOUS
 62
    90
100
AcDbCircle
 10
1670.010149
 20
64.72804
 30
0.0
 40
144.096045
  0
CIRCLE
  5
3749
100
AcDbEntity
  8
V0-OBRYS
  6
CONTINUOUS
 62
    90
100
AcDbCircle
 10
1670.010149
 20
64.72804
 30
0.0
 40
118.153266
  0
CIRCLE
  5
374A
100
AcDbEntity
  8
V0-OBRYS
  6
CONTINUOUS
 62
    90
100
AcDbCircle
 10
1670.010149
 20
64.72804
 30
0.0
 40
93.075248
  0
LINE
  5
374B
100
AcDbEntity
  8
V0-OBRYS
  6
CONTINUOUS
 62
    90
100
AcDbLine
 10
1516.950834
 20
154.611831
 30
0.0
 11
1520.266605
 21
151.605669
 31
0.0
  0
LINE
  5
374C
100
AcDbEntity
  8
V0-OBRYS
  6
CONTINUOUS
 62
    90
100
AcDbLine
 10
1584.004494
 20
-50.886394
 30
0.0
 11
1593.284541
 21
-28.020337
 31
0.0
  0
ARC
  5
374D
100
AcDbEntity
  8
VO-OBRYS
  6
CONTINUOUS
100
AcDbCircle
 10
1522.589307
 20
-82.692802
 30
0.0
 40
15.38144
100
AcDbArc
 50
135.0
 51
315.0
  0
ARC
  5
374E
100
AcDbEntity
  8
VO-OBRYS
  6
CONTINUOUS
100
AcDbCircle
 10
1522.589307
 20
-82.692802
 30
0.0
 40
13.164109
100
AcDbArc
 50
135.0
 51
315.0
  0
LINE
  5
3751
100
AcDbEntity
  8
V0-OBRYS
  6
CONTINUOUS
 62
    90
100
AcDbLine
 10
1573.643624
 20
-76.415603
 30
0.0
 11
1583.143446
 21
-53.008019
 31
0.0
  0
LINE
  5
3752
100
AcDbEntity
  8
V0-OBRYS
  6
CONTINUOUS
 62
    90
100
AcDbLine
 10
1571.107586
 20
-82.664405
 30
0.0
 11
1572.790668
 21
-78.517287
 31
0.0
  0
LINE
  5
3753
100
AcDbEntity
  8
V0-OBRYS
  6
CONTINUOUS
 62
    90
100
AcDbLine
 10
1499.57606
 20
52.068802
 30
0.0
 11
1523.799888
 21
59.235932
 31
0.0
  0
ARC
  5
3754
100
AcDbEntity
  8
V0-OBRYS
  6
CONTINUOUS
 62
    90
100
AcDbCircle
 10
1670.010149
 20
64.72804
 30
0.0
 40
177.5
100
AcDbArc
 50
184.709219
 51
201.005067
  0
LINE
  5
3755
100
AcDbEntity
  8
V0-OBRYS
  6
CONTINUOUS
 62
    90
100
AcDbLine
 10
1504.305249
 20
1.103076
 30
0.0
 11
1508.722911
 21
1.821139
 31
0.0
  0
LINE
  5
3756
100
AcDbEntity
  8
V0-OBRYS
  6
CONTINUOUS
 62
    90
100
AcDbLine
 10
1493.109356
 20
50.155491
 30
0.0
 11
1497.401088
 21
51.42529
 31
0.0
  0
LINE
  5
3757
100
AcDbEntity
  8
V0-OBRYS
  6
CONTINUOUS
 62
    90
100
AcDbLine
 10
1538.156352
 20
6.605358
 30
0.0
 11
1562.514114
 21
10.564558
 31
0.0
  0
LINE
  5
3758
100
AcDbEntity
  8
V0-OBRYS
  6
CONTINUOUS
 62
    90
100
AcDbLine
 10
1510.961703
 20
2.18504
 30
0.0
 11
1535.896319
 21
6.238004
 31
0.0
  0
LINE
  5
3759
100
AcDbEntity
  8
V0-OBRYS
  6
CONTINUOUS
 62
    90
100
AcDbLine
 10
1594.159706
 20
-25.863927
 30
0.0
 11
1603.306674
 21
-3.325776
 31
0.0
  0
LINE
  5
375A
100
AcDbEntity
  8
V0-OBRYS
  6
CONTINUOUS
 62
    90
100
AcDbLine
 10
1564.811201
 20
10.937935
 30
0.0
 11
1588.819665
 21
14.840359
 31
0.0
  0
LINE
  5
375B
100
AcDbEntity
  8
V0-OBRYS
  6
CONTINUOUS
 62
    90
100
AcDbLine
 10
1591.190585
 20
15.225737
 30
0.0
 11
1610.429928
 21
18.35297
 31
0.0
  0
LINE
  5
375C
100
AcDbEntity
  8
V0-OBRYS
  6
CONTINUOUS
 62
    90
100
AcDbLine
 10
1551.89052
 20
67.547137
 30
0.0
 11
1575.214597
 21
74.448057
 31
0.0
  0
LINE
  5
375D
100
AcDbEntity
  8
V0-OBRYS
  6
CONTINUOUS
 62
    90
100
AcDbLine
 10
1542.358509
 20
131.57659
 30
0.0
 11
1560.640752
 21
115.001446
 31
0.0
  0
LINE
  5
375E
100
AcDbEntity
  8
V0-OBRYS
  6
CONTINUOUS
 62
    90
100
AcDbLine
 10
1525.995496
 20
59.885549
 30
0.0
 11
1549.658914
 21
66.88687
 31
0.0
  0
LINE
  5
375F
100
AcDbEntity
  8
V0-OBRYS
  6
CONTINUOUS
 62
    90
100
AcDbLine
 10
1521.946978
 20
150.0822
 30
0.0
 11
1540.662192
 21
133.114514
 31
0.0
  0
LINE
  5
3760
100
AcDbEntity
  8
V0-OBRYS
  6
CONTINUOUS
 62
    90
100
AcDbLine
 10
1562.36488
 20
113.438308
 30
0.0
 11
1580.384951
 21
97.100856
 31
0.0
  0
LINE
  5
3761
100
AcDbEntity
  8
V0-OBRYS
  6
CONTINUOUS
 62
    90
100
AcDbLine
 10
1582.164496
 20
95.487476
 30
0.0
 11
1596.604999
 21
82.39535
 31
0.0
  0
LINE
  5
3762
100
AcDbEntity
  8
V0-OBRYS
  6
CONTINUOUS
 62
    90
100
AcDbLine
 10
1577.517931
 20
75.129547
 30
0.0
 11
1596.208836
 21
80.659645
 31
0.0
  0
LINE
  5
3763
100
AcDbEntity
  8
V0-OBRYS
  6
CONTINUOUS
 62
    90
100
AcDbLine
 10
1596.208836
 20
80.659645
 30
0.0
 11
1602.878488
 21
74.335427
 31
0.0
  0
LINE
  5
3764
100
AcDbEntity
  8
V0-OBRYS
  6
CONTINUOUS
 62
    90
100
AcDbLine
 10
1596.604999
 20
82.39535
 30
0.0
 11
1605.358123
 21
85.19942
 31
0.0
  0
ARC
  5
3765
100
AcDbEntity
  8
VO-OBRYS
  6
CONTINUOUS
100
AcDbCircle
 10
1522.589307
 20
212.148883
 30
0.0
 40
15.38144
100
AcDbArc
 50
45.0
 51
225.0
  0
ARC
  5
3766
100
AcDbEntity
  8
VO-OBRYS
  6
CONTINUOUS
100
AcDbCircle
 10
1522.589307
 20
212.148883
 30
0.0
 40
13.164109
100
AcDbArc
 50
45.0
 51
225.0
  0
LINE
  5
3767
100
AcDbEntity
  8
V0-OBRYS
  6
CONTINUOUS
 62
    90
100
AcDbLine
 10
1553.848841
 20
190.085871
 30
0.0
 11
1574.555639
 21
175.615552
 31
0.0
  0
ARC
  5
3768
100
AcDbEntity
  8
V0-OBRYS
  6
CONTINUOUS
 62
    90
100
AcDbCircle
 10
1670.010149
 20
64.72804
 30
0.0
 40
177.5
100
AcDbArc
 50
133.280648
 51
149.576495
  0
LINE
  5
3769
100
AcDbEntity
  8
V0-OBRYS
  6
CONTINUOUS
 62
    90
100
AcDbLine
 10
1548.321031
 20
193.948814
 30
0.0
 11
1551.989651
 21
191.38511
 31
0.0
  0
LINE
  5
376B
100
AcDbEntity
  8
V0-OBRYS
  6
CONTINUOUS
 62
    90
100
AcDbLine
 10
1576.432469
 20
174.303986
 30
0.0
 11
1596.660222
 21
160.168433
 31
0.0
  0
LINE
  5
376C
100
AcDbEntity
  8
V0-OBRYS
  6
CONTINUOUS
 62
    90
100
AcDbLine
 10
1823.069465
 20
154.611831
 30
0.0
 11
1819.753694
 21
151.605669
 31
0.0
  0
LINE
  5
376D
100
AcDbEntity
  8
V0-OBRYS
  6
CONTINUOUS
 62
    90
100
AcDbLine
 10
1741.452475
 20
158.835363
 30
0.0
 11
1721.514795
 21
144.902519
 31
0.0
  0
LINE
  5
376E
100
AcDbEntity
  8
VO-OBRYS
  6
CONTINUOUS
100
AcDbLine
 10
1727.060069
 20
100.025319
 30
0.0
 11
1828.307312
 21
201.272562
 31
0.0
  0
LINE
  5
376F
100
AcDbEntity
  8
VO-OBRYS
  6
CONTINUOUS
100
AcDbLine
 10
1705.307428
 20
121.77796
 30
0.0
 11
1806.554671
 21
223.025203
 31
0.0
  0
LINE
  5
3770
100
AcDbEntity
  8
VO-OBRYS
  6
CONTINUOUS
100
AcDbLine
 10
1708.629129
 20
121.963882
 30
0.0
 11
1808.122561
 21
221.457314
 31
0.0
  0
LINE
  5
3771
100
AcDbEntity
  8
VO-OBRYS
  6
CONTINUOUS
100
AcDbLine
 10
1727.245991
 20
103.34702
 30
0.0
 11
1826.739423
 21
202.840452
 31
0.0
  0
LINE
  5
3772
100
AcDbEntity
  8
V0-OBRYS
  6
CONTINUOUS
 62
    90
100
AcDbLine
 10
1818.073321
 20
150.0822
 30
0.0
 11
1799.358107
 21
133.114514
 31
0.0
  0
LINE
  5
3773
100
AcDbEntity
  8
V0-OBRYS
  6
CONTINUOUS
 62
    90
100
AcDbLine
 10
1829.058596
 20
2.18504
 30
0.0
 11
1804.12398
 21
6.238004
 31
0.0
  0
ARC
  5
3775
100
AcDbEntity
  8
VO-OBRYS
  6
CONTINUOUS
100
AcDbCircle
 10
1817.430992
 20
-82.692802
 30
0.0
 40
13.164109
100
AcDbArc
 50
225.0
 51
45.0
  0
ARC
  5
3776
100
AcDbEntity
  8
VO-OBRYS
  6
CONTINUOUS
100
AcDbCircle
 10
1817.430992
 20
-82.692802
 30
0.0
 40
15.38144
100
AcDbArc
 50
225.0
 51
45.0
  0
LINE
  5
3777
100
AcDbEntity
  8
VO-OBRYS
  6
CONTINUOUS
100
AcDbLine
 10
1727.060069
 20
29.430761
 30
0.0
 11
1828.307312
 21
-71.816482
 31
0.0
  0
LINE
  5
3778
100
AcDbEntity
  8
VO-OBRYS
  6
CONTINUOUS
100
AcDbLine
 10
1727.245991
 20
26.109061
 30
0.0
 11
1826.739423
 21
-73.384371
 31
0.0
  0
LINE
  5
3779
100
AcDbEntity
  8
V0-OBRYS
  6
CONTINUOUS
 62
    90
100
AcDbLine
 10
1646.474476
 20
-51.057392
 30
0.0
 11
1658.39247
 21
-29.853697
 31
0.0
  0
LINE
  5
377A
100
AcDbEntity
  8
V0-OBRYS
  6
CONTINUOUS
 62
    90
100
AcDbLine
 10
1693.545823
 20
-51.057392
 30
0.0
 11
1681.627829
 21
-29.853697
 31
0.0
  0
LINE
  5
377B
100
AcDbEntity
  8
VO-OBRYS
  6
CONTINUOUS
100
AcDbLine
 10
1705.307428
 20
7.67812
 30
0.0
 11
1806.554671
 21
-93.569123
 31
0.0
  0
LINE
  5
377C
100
AcDbEntity
  8
VO-OBRYS
  6
CONTINUOUS
100
AcDbLine
 10
1708.629129
 20
7.492199
 30
0.0
 11
1808.122561
 21
-92.001233
 31
0.0
  0
LINE
  5
377D
100
AcDbEntity
  8
V0-OBRYS
  6
CONTINUOUS
 62
    90
100
AcDbLine
 10
1756.015805
 20
-50.886394
 30
0.0
 11
1746.735758
 21
-28.020337
 31
0.0
  0
LINE
  5
377E
100
AcDbEntity
  8
V0-OBRYS
  6
CONTINUOUS
 62
    90
100
AcDbLine
 10
1720.277147
 20
-98.615966
 30
0.0
 11
1707.899403
 21
-76.594316
 31
0.0
  0
LINE
  5
377F
100
AcDbEntity
  8
V0-OBRYS
  6
CONTINUOUS
 62
    90
100
AcDbLine
 10
1619.743152
 20
-98.615966
 30
0.0
 11
1632.120896
 21
-76.594316
 31
0.0
  0
LINE
  5
3780
100
AcDbEntity
  8
V0-OBRYS
  6
CONTINUOUS
 62
    90
100
AcDbLine
 10
1616.438835
 20
-104.494784
 30
0.0
 11
1618.631798
 21
-100.593212
 31
0.0
  0
LINE
  5
3781
100
AcDbEntity
  8
V0-OBRYS
  6
CONTINUOUS
 62
    90
100
AcDbLine
 10
1633.242794
 20
-74.598309
 30
0.0
 11
1645.334183
 21
-53.086123
 31
0.0
  0
LINE
  5
3782
100
AcDbEntity
  8
V0-OBRYS
  6
CONTINUOUS
 62
    90
100
AcDbLine
 10
1706.777505
 20
-74.598309
 30
0.0
 11
1694.686116
 21
-53.086123
 31
0.0
  0
LINE
  5
3783
100
AcDbEntity
  8
V0-OBRYS
  6
CONTINUOUS
 62
    90
100
AcDbLine
 10
1766.376675
 20
-76.415603
 30
0.0
 11
1756.876853
 21
-53.008019
 31
0.0
  0
ARC
  5
3784
100
AcDbEntity
  8
V0-OBRYS
  6
CONTINUOUS
 62
    90
100
AcDbCircle
 10
1670.010149
 20
64.72804
 30
0.0
 40
177.5
100
AcDbArc
 50
287.566362
 51
303.86221
  0
LINE
  5
3785
100
AcDbEntity
  8
V0-OBRYS
  6
CONTINUOUS
 62
    90
100
AcDbLine
 10
1723.581464
 20
-104.494784
 30
0.0
 11
1721.388501
 21
-100.593212
 31
0.0
  0
LINE
  5
3786
100
AcDbEntity
  8
V0-OBRYS
  6
CONTINUOUS
 62
    90
100
AcDbLine
 10
1768.912712
 20
-82.664405
 30
0.0
 11
1767.229631
 21
-78.517287
 31
0.0
  0
LINE
  5
3787
100
AcDbEntity
  8
V0-OBRYS
  6
CONTINUOUS
 62
    90
100
AcDbLine
 10
1719.545879
 20
143.526602
 30
0.0
 11
1703.568685
 21
132.361424
 31
0.0
  0
LINE
  5
3788
100
AcDbEntity
  8
V0-OBRYS
  6
CONTINUOUS
 62
    90
100
AcDbLine
 10
1704.107471
 20
121.77796
 30
0.0
 11
1714.049108
 21
138.411806
 31
0.0
  0
CIRCLE
  5
3789
100
AcDbEntity
  8
V0-OBRYS
  6
CONTINUOUS
 62
    90
100
AcDbCircle
 10
1712.797589
 20
107.51548
 30
0.0
 40
3.803328
  0
CIRCLE
  5
378A
100
AcDbEntity
  8
V0-OBRYS
  6
CONTINUOUS
 62
    90
100
AcDbCircle
 10
1712.797589
 20
21.9406
 30
0.0
 40
3.803328
  0
LINE
  5
378B
100
AcDbEntity
  8
V0-OBRYS
  6
CONTINUOUS
 62
    90
100
AcDbLine
 10
1704.107471
 20
7.67812
 30
0.0
 11
1714.049108
 21
-8.955725
 31
0.0
  0
LINE
  5
378C
100
AcDbEntity
  8
V0-OBRYS
  6
CONTINUOUS
 62
    90
100
AcDbLine
 10
1618.665221
 20
7.67812
 30
0.0
 11
1721.355077
 21
7.67812
 31
0.0
  0
LINE
  5
378D
100
AcDbEntity
  8
V0-OBRYS
  6
CONTINUOUS
 62
    90
100
AcDbLine
 10
1721.355077
 20
121.77796
 30
0.0
 11
1618.665221
 21
121.77796
 31
0.0
  0
LINE
  5
378E
100
AcDbEntity
  8
V0-OBRYS
  6
CONTINUOUS
 62
    90
100
AcDbLine
 10
1612.960229
 20
116.072968
 30
0.0
 11
1612.960229
 21
13.383112
 31
0.0
  0
POINT
  5
378F
100
AcDbEntity
  8
V0-VYPLNE
  6
DASHED
 62
    52
100
AcDbPoint
 10
1670.010149
 20
64.72804
 30
0.0
  0
LINE
  5
3790
100
AcDbEntity
  8
V0-OBRYS
  6
CONTINUOUS
 62
    90
100
AcDbLine
 10
1659.569414
 20
-27.759758
 30
0.0
 11
1669.119978
 21
-10.768036
 31
0.0
  0
ARC
  5
3791
100
AcDbEntity
  8
V0-OBRYS
  6
CONTINUOUS
 62
    90
100
AcDbCircle
 10
1670.010149
 20
64.72804
 30
0.0
 40
66.755521
100
AcDbArc
 50
238.716649
 51
301.283351
  0
LINE
  5
3792
100
AcDbEntity
  8
V0-OBRYS
  6
CONTINUOUS
 62
    90
100
AcDbLine
 10
1656.209844
 20
7.67812
 30
0.0
 11
1650.02924
 21
-17.872254
 31
0.0
  0
LINE
  5
3793
100
AcDbEntity
  8
V0-OBRYS
  6
CONTINUOUS
 62
    90
100
AcDbLine
 10
1638.000215
 20
-13.607828
 30
0.0
 11
1646.69817
 21
7.67812
 31
0.0
  0
LINE
  5
3794
100
AcDbEntity
  8
V0-OBRYS
  6
CONTINUOUS
 62
    90
100
AcDbLine
 10
1635.912828
 20
7.67812
 30
0.0
 11
1625.971191
 21
-8.955725
 31
0.0
  0
CIRCLE
  5
3795
100
AcDbEntity
  8
V0-OBRYS
  6
CONTINUOUS
 62
    90
100
AcDbCircle
 10
1627.222709
 20
21.9406
 30
0.0
 40
3.803328
  0
ARC
  5
3796
100
AcDbEntity
  8
V0-OBRYS
  6
CONTINUOUS
 62
    90
100
AcDbCircle
 10
1618.665221
 20
13.383112
 30
0.0
 40
5.704992
100
AcDbArc
 50
180.0
 51
270.0
  0
LINE
  5
3797
100
AcDbEntity
  8
V0-OBRYS
  6
CONTINUOUS
 62
    90
100
AcDbLine
 10
1611.539953
 20
16.961043
 30
0.0
 11
1620.642885
 21
18.232502
 31
0.0
  0
LINE
  5
3798
100
AcDbEntity
  8
V0-OBRYS
  6
CONTINUOUS
 62
    90
100
AcDbLine
 10
1683.810455
 20
7.67812
 30
0.0
 11
1689.991059
 21
-17.872254
 31
0.0
  0
LINE
  5
3799
100
AcDbEntity
  8
V0-OBRYS
  6
CONTINUOUS
 62
    90
100
AcDbLine
 10
1676.409905
 20
-19.422956
 30
0.0
 11
1674.348845
 21
7.67812
 31
0.0
  0
LINE
  5
379A
100
AcDbEntity
  8
V0-OBRYS
  6
CONTINUOUS
 62
    90
100
AcDbLine
 10
1663.610394
 20
-19.422956
 30
0.0
 11
1665.671454
 21
7.67812
 31
0.0
  0
LINE
  5
379B
100
AcDbEntity
  8
V0-OBRYS
  6
CONTINUOUS
 62
    90
100
AcDbLine
 10
1702.020083
 20
-13.607828
 30
0.0
 11
1693.322129
 21
7.67812
 31
0.0
  0
LINE
  5
379C
100
AcDbEntity
  8
V0-OBRYS
  6
CONTINUOUS
 62
    90
100
AcDbLine
 10
1680.450885
 20
-27.759758
 30
0.0
 11
1670.90032
 21
-10.768036
 31
0.0
  0
LINE
  5
379D
100
AcDbEntity
  8
V0-OBRYS
  6
CONTINUOUS
 62
    90
100
AcDbLine
 10
1670.90032
 20
-10.768036
 30
0.0
 11
1675.581839
 21
-2.858335
 31
0.0
  0
LINE
  5
379E
100
AcDbEntity
  8
V0-OBRYS
  6
CONTINUOUS
 62
    90
100
AcDbLine
 10
1669.119978
 20
-10.768036
 30
0.0
 11
1664.438459
 21
-2.858335
 31
0.0
  0
ARC
  5
379F
100
AcDbEntity
  8
V0-OBRYS
  6
CONTINUOUS
 62
    90
100
AcDbCircle
 10
1670.010149
 20
64.72804
 30
0.0
 40
66.755521
100
AcDbArc
 50
58.716649
 51
121.283351
  0
CIRCLE
  5
37A0
100
AcDbEntity
  8
V0-OBRYS
  6
CONTINUOUS
 62
    90
100
AcDbCircle
 10
1627.222709
 20
107.51548
 30
0.0
 40
3.803328
  0
LINE
  5
37A1
100
AcDbEntity
  8
V0-OBRYS
  6
CONTINUOUS
 62
    90
100
AcDbLine
 10
1635.912828
 20
121.77796
 30
0.0
 11
1625.971191
 21
138.411806
 31
0.0
  0
LINE
  5
37A2
100
AcDbEntity
  8
V0-OBRYS
  6
CONTINUOUS
 62
    90
100
AcDbLine
 10
1635.912828
 20
121.77796
 30
0.0
 11
1625.971191
 21
138.411806
 31
0.0
  0
LINE
  5
37A3
100
AcDbEntity
  8
V0-OBRYS
  6
CONTINUOUS
 62
    90
100
AcDbLine
 10
1636.451613
 20
132.361424
 30
0.0
 11
1635.665601
 21
123.203794
 31
0.0
  0
ARC
  5
37A4
100
AcDbEntity
  8
V0-OBRYS
  6
CONTINUOUS
 62
    90
100
AcDbCircle
 10
1618.665221
 20
116.072968
 30
0.0
 40
5.704992
100
AcDbArc
 50
90.0
 51
180.0
  0
LINE
  5
37A5
100
AcDbEntity
  8
V0-OBRYS
  6
CONTINUOUS
 62
    90
100
AcDbLine
 10
1620.47442
 20
143.526602
 30
0.0
 11
1636.451613
 21
132.361424
 31
0.0
  0
LINE
  5
37A6
100
AcDbEntity
  8
V0-OBRYS
  6
CONTINUOUS
 62
    90
100
AcDbLine
 10
1656.209844
 20
121.77796
 30
0.0
 11
1650.02924
 21
147.328334
 31
0.0
  0
LINE
  5
37A7
100
AcDbEntity
  8
V0-OBRYS
  6
CONTINUOUS
 62
    90
100
AcDbLine
 10
1656.209844
 20
121.77796
 30
0.0
 11
1650.02924
 21
147.328334
 31
0.0
  0
LINE
  5
37A8
100
AcDbEntity
  8
V0-OBRYS
  6
CONTINUOUS
 62
    90
100
AcDbLine
 10
1638.000215
 20
143.063909
 30
0.0
 11
1646.69817
 21
121.77796
 31
0.0
  0
LINE
  5
37A9
100
AcDbEntity
  8
V0-OBRYS
  6
CONTINUOUS
 62
    90
100
AcDbLine
 10
1638.000215
 20
143.063909
 30
0.0
 11
1646.69817
 21
121.77796
 31
0.0
  0
LINE
  5
37AA
100
AcDbEntity
  8
V0-OBRYS
  6
CONTINUOUS
 62
    90
100
AcDbLine
 10
1638.055646
 20
133.133885
 30
0.0
 11
1645.70544
 21
128.038726
 31
0.0
  0
LINE
  5
37AB
100
AcDbEntity
  8
V0-OBRYS
  6
CONTINUOUS
 62
    90
100
AcDbLine
 10
1639.287975
 20
152.586732
 30
0.0
 11
1638.055646
 21
133.133885
 31
0.0
  0
LINE
  5
37AC
100
AcDbEntity
  8
V0-OBRYS
  6
CONTINUOUS
 62
    90
100
AcDbLine
 10
1683.810455
 20
121.77796
 30
0.0
 11
1689.991059
 21
147.328334
 31
0.0
  0
LINE
  5
37AD
100
AcDbEntity
  8
V0-OBRYS
  6
CONTINUOUS
 62
    90
100
AcDbLine
 10
1663.610394
 20
148.879036
 30
0.0
 11
1665.671454
 21
121.77796
 31
0.0
  0
LINE
  5
37AE
100
AcDbEntity
  8
V0-OBRYS
  6
CONTINUOUS
 62
    90
100
AcDbLine
 10
1663.610394
 20
148.879036
 30
0.0
 11
1665.671454
 21
121.77796
 31
0.0
  0
LINE
  5
37AF
100
AcDbEntity
  8
V0-OBRYS
  6
CONTINUOUS
 62
    90
100
AcDbLine
 10
1676.409905
 20
148.879036
 30
0.0
 11
1674.348845
 21
121.77796
 31
0.0
  0
LINE
  5
37B0
100
AcDbEntity
  8
V0-OBRYS
  6
CONTINUOUS
 62
    90
100
AcDbLine
 10
1703.568685
 20
132.361424
 30
0.0
 11
1704.354698
 21
123.203794
 31
0.0
  0
LINE
  5
37B1
100
AcDbEntity
  8
V0-OBRYS
  6
CONTINUOUS
 62
    90
100
AcDbLine
 10
1702.020083
 20
143.063909
 30
0.0
 11
1693.322129
 21
121.77796
 31
0.0
  0
LINE
  5
37B2
100
AcDbEntity
  8
V0-OBRYS
  6
CONTINUOUS
 62
    90
100
AcDbLine
 10
1701.964653
 20
133.133885
 30
0.0
 11
1694.314859
 21
128.038726
 31
0.0
  0
LINE
  5
37B3
100
AcDbEntity
  8
V0-OBRYS
  6
CONTINUOUS
 62
    90
100
AcDbLine
 10
1700.732323
 20
152.586732
 30
0.0
 11
1701.964653
 21
133.133885
 31
0.0
  0
LINE
  5
37B4
100
AcDbEntity
  8
V0-OBRYS
  6
CONTINUOUS
 62
    90
100
AcDbLine
 10
1727.060069
 20
13.383112
 30
0.0
 11
1727.060069
 21
116.072968
 31
0.0
  0
ARC
  5
37B5
100
AcDbEntity
  8
V0-OBRYS
  6
CONTINUOUS
 62
    90
100
AcDbCircle
 10
1670.010149
 20
64.72804
 30
0.0
 40
66.755521
100
AcDbArc
 50
328.716649
 51
31.283351
  0
LINE
  5
37B6
100
AcDbEntity
  8
V0-OBRYS
  6
CONTINUOUS
 62
    90
100
AcDbLine
 10
1775.209098
 20
10.937935
 30
0.0
 11
1751.200634
 21
14.840359
 31
0.0
  0
LINE
  5
37B7
100
AcDbEntity
  8
V0-OBRYS
  6
CONTINUOUS
 62
    90
100
AcDbLine
 10
1735.81033
 20
-1.100054
 30
0.0
 11
1728.480346
 21
16.961043
 31
0.0
  0
LINE
  5
37B8
100
AcDbEntity
  8
V0-OBRYS
  6
CONTINUOUS
 62
    90
100
AcDbLine
 10
1745.860593
 20
-25.863927
 30
0.0
 11
1736.713625
 21
-3.325776
 31
0.0
  0
LINE
  5
37B9
100
AcDbEntity
  8
V0-OBRYS
  6
CONTINUOUS
 62
    90
100
AcDbLine
 10
1748.346018
 20
32.718106
 30
0.0
 11
1727.060069
 21
41.41606
 31
0.0
  0
LINE
  5
37BA
100
AcDbEntity
  8
V0-OBRYS
  6
CONTINUOUS
 62
    90
100
AcDbLine
 10
1748.829714
 20
15.225737
 30
0.0
 11
1729.590371
 21
18.35297
 31
0.0
  0
LINE
  5
37BB
100
AcDbEntity
  8
V0-OBRYS
  6
CONTINUOUS
 62
    90
100
AcDbLine
 10
1727.060069
 20
30.630719
 30
0.0
 11
1743.693915
 21
20.689082
 31
0.0
  0
LINE
  5
37BC
100
AcDbEntity
  8
V0-OBRYS
  6
CONTINUOUS
 62
    90
100
AcDbLine
 10
1727.060069
 20
50.927735
 30
0.0
 11
1752.610444
 21
44.747131
 31
0.0
  0
ARC
  5
37BD
100
AcDbEntity
  8
V0-OBRYS
  6
CONTINUOUS
 62
    90
100
AcDbCircle
 10
1721.355077
 20
13.383112
 30
0.0
 40
5.704992
100
AcDbArc
 50
270.0
 51
0.0
  0
LINE
  5
37BE
100
AcDbEntity
  8
V0-OBRYS
  6
CONTINUOUS
 62
    90
100
AcDbLine
 10
1728.480346
 20
16.961043
 30
0.0
 11
1719.377413
 21
18.232502
 31
0.0
  0
LINE
  5
37BF
100
AcDbEntity
  8
V0-OBRYS
  6
CONTINUOUS
 62
    90
100
AcDbLine
 10
1729.590371
 20
18.35297
 30
0.0
 11
1726.325197
 21
26.944747
 31
0.0
  0
LINE
  5
37C0
100
AcDbEntity
  8
V0-OBRYS
  6
CONTINUOUS
 62
    90
100
AcDbLine
 10
1801.863947
 20
6.605358
 30
0.0
 11
1777.506185
 21
10.564558
 31
0.0
  0
LINE
  5
37C1
100
AcDbEntity
  8
V0-OBRYS
  6
CONTINUOUS
 62
    90
100
AcDbLine
 10
1777.655419
 20
113.438308
 30
0.0
 11
1759.635348
 21
97.100856
 31
0.0
  0
LINE
  5
37C2
100
AcDbEntity
  8
V0-OBRYS
  6
CONTINUOUS
 62
    90
100
AcDbLine
 10
1727.060069
 20
98.825362
 30
0.0
 11
1743.693915
 21
108.766999
 31
0.0
  0
LINE
  5
37C3
100
AcDbEntity
  8
V0-OBRYS
  6
CONTINUOUS
 62
    90
100
AcDbLine
 10
1748.346018
 20
96.737974
 30
0.0
 11
1727.060069
 21
88.04002
 31
0.0
  0
LINE
  5
37C4
100
AcDbEntity
  8
V0-OBRYS
  6
CONTINUOUS
 62
    90
100
AcDbLine
 10
1743.415299
 20
82.39535
 30
0.0
 11
1734.662175
 21
85.19942
 31
0.0
  0
LINE
  5
37C5
100
AcDbEntity
  8
V0-OBRYS
  6
CONTINUOUS
 62
    90
100
AcDbLine
 10
1743.811463
 20
80.659645
 30
0.0
 11
1737.141811
 21
74.335427
 31
0.0
  0
LINE
  5
37C6
100
AcDbEntity
  8
V0-OBRYS
  6
CONTINUOUS
 62
    90
100
AcDbLine
 10
1727.060069
 20
78.528346
 30
0.0
 11
1752.610444
 21
84.70895
 31
0.0
  0
LINE
  5
37C7
100
AcDbEntity
  8
V0-OBRYS
  6
CONTINUOUS
 62
    90
100
AcDbLine
 10
1754.161146
 20
71.127796
 30
0.0
 11
1727.060069
 21
69.066736
 31
0.0
  0
LINE
  5
37C8
100
AcDbEntity
  8
V0-OBRYS
  6
CONTINUOUS
 62
    90
100
AcDbLine
 10
1754.161146
 20
58.328285
 30
0.0
 11
1727.060069
 21
60.389345
 31
0.0
  0
LINE
  5
37C9
100
AcDbEntity
  8
V0-OBRYS
  6
CONTINUOUS
 62
    90
100
AcDbLine
 10
1762.502367
 20
75.129547
 30
0.0
 11
1743.811463
 21
80.659645
 31
0.0
  0
LINE
  5
37CA
100
AcDbEntity
  8
V0-OBRYS
  6
CONTINUOUS
 62
    90
100
AcDbLine
 10
1757.855803
 20
95.487476
 30
0.0
 11
1743.415299
 21
82.39535
 31
0.0
  0
ARC
  5
37CB
100
AcDbEntity
  8
V0-OBRYS
  6
CONTINUOUS
 62
    90
100
AcDbCircle
 10
1721.355077
 20
116.072968
 30
0.0
 40
5.704992
100
AcDbArc
 50
0.0
 51
90.0
  0
LINE
  5
37CC
100
AcDbEntity
  8
V0-OBRYS
  6
CONTINUOUS
 62
    90
100
AcDbLine
 10
1788.129779
 20
67.547137
 30
0.0
 11
1764.805702
 21
74.448057
 31
0.0
  0
LINE
  5
37CD
100
AcDbEntity
  8
V0-OBRYS
  6
CONTINUOUS
 62
    90
100
AcDbLine
 10
1814.024803
 20
59.885549
 30
0.0
 11
1790.361385
 21
66.88687
 31
0.0
  0
LINE
  5
37CE
100
AcDbEntity
  8
V0-OBRYS
  6
CONTINUOUS
 62
    90
100
AcDbLine
 10
1797.66179
 20
131.57659
 30
0.0
 11
1779.379547
 21
115.001446
 31
0.0
  0
LINE
  5
37CF
100
AcDbEntity
  8
V0-OBRYS
  6
CONTINUOUS
 62
    90
100
AcDbLine
 10
1840.444239
 20
52.068802
 30
0.0
 11
1816.220411
 21
59.235932
 31
0.0
  0
ARC
  5
37D0
100
AcDbEntity
  8
V0-OBRYS
  6
CONTINUOUS
 62
    90
100
AcDbCircle
 10
1670.010149
 20
64.72804
 30
0.0
 40
177.5
100
AcDbArc
 50
338.994933
 51
355.290781
  0
LINE
  5
37D1
100
AcDbEntity
  8
V0-OBRYS
  6
CONTINUOUS
 62
    90
100
AcDbLine
 10
1835.715049
 20
1.103076
 30
0.0
 11
1831.297387
 21
1.821139
 31
0.0
  0
LINE
  5
37D2
100
AcDbEntity
  8
V0-OBRYS
  6
CONTINUOUS
 62
    90
100
AcDbLine
 10
1846.910943
 20
50.155491
 30
0.0
 11
1842.619211
 21
51.42529
 31
0.0
  0
ARC
  5
37D4
100
AcDbEntity
  8
VO-OBRYS
  6
CONTINUOUS
100
AcDbCircle
 10
1817.430992
 20
212.148883
 30
0.0
 40
15.38144
100
AcDbArc
 50
315.0
 51
135.0
  0
ARC
  5
37D5
100
AcDbEntity
  8
VO-OBRYS
  6
CONTINUOUS
100
AcDbCircle
 10
1817.430992
 20
212.148883
 30
0.0
 40
13.164109
100
AcDbArc
 50
315.0
 51
135.0
  0
ARC
  5
37D6
100
AcDbEntity
  8
V0-OBRYS
  6
CONTINUOUS
 62
    90
100
AcDbCircle
 10
1670.010149
 20
64.72804
 30
0.0
 40
177.5
100
AcDbArc
 50
30.423505
 51
46.719352
  0
ARC
  5
37D7
100
AcDbEntity
  8
V0-OBRYS
  6
CONTINUOUS
 62
    90
100
AcDbCircle
 10
1670.010149
 20
64.72804
 30
0.0
 40
177.5
100
AcDbArc
 50
81.852076
 51
98.147924
  0
LINE
  5
37D8
100
AcDbEntity
  8
V0-OBRYS
  6
CONTINUOUS
 62
    90
100
AcDbLine
 10
1642.684954
 20
206.209501
 30
0.0
 11
1641.124777
 21
181.581434
 31
0.0
  0
LINE
  5
37D9
100
AcDbEntity
  8
V0-OBRYS
  6
CONTINUOUS
 62
    90
100
AcDbLine
 10
1640.977643
 20
179.258856
 30
0.0
 11
1639.439839
 21
154.983963
 31
0.0
  0
LINE
  5
37DA
100
AcDbEntity
  8
V0-OBRYS
  6
CONTINUOUS
 62
    90
100
AcDbLine
 10
1644.426842
 20
233.705937
 30
0.0
 11
1642.829715
 21
208.494614
 31
0.0
  0
LINE
  5
37DB
100
AcDbEntity
  8
V0-OBRYS
  6
CONTINUOUS
 62
    90
100
AcDbLine
 10
1644.853204
 20
240.436259
 30
0.0
 11
1644.570242
 21
235.969573
 31
0.0
  0
LINE
  5
37DC
100
AcDbEntity
  8
V0-OBRYS
  6
CONTINUOUS
 62
    90
100
AcDbLine
 10
1697.335344
 20
206.209501
 30
0.0
 11
1698.895522
 21
181.581434
 31
0.0
  0
LINE
  5
37DD
100
AcDbEntity
  8
V0-OBRYS
  6
CONTINUOUS
 62
    90
100
AcDbLine
 10
1699.042656
 20
179.258856
 30
0.0
 11
1700.58046
 21
154.983963
 31
0.0
  0
LINE
  5
37DE
100
AcDbEntity
  8
V0-OBRYS
  6
CONTINUOUS
 62
    90
100
AcDbLine
 10
1695.593457
 20
233.705937
 30
0.0
 11
1697.190584
 21
208.494614
 31
0.0
  0
LINE
  5
37DF
100
AcDbEntity
  8
V0-OBRYS
  6
CONTINUOUS
 62
    90
100
AcDbLine
 10
1695.167094
 20
240.436259
 30
0.0
 11
1695.450057
 21
235.969573
 31
0.0
  0
LINE
  5
37E0
100
AcDbEntity
  8
V0-OBRYS
  6
CONTINUOUS
 62
    90
100
AcDbLine
 10
1763.587829
 20
174.303986
 30
0.0
 11
1743.360077
 21
160.168433
 31
0.0
  0
LINE
  5
37E1
100
AcDbEntity
  8
V0-OBRYS
  6
CONTINUOUS
 62
    90
100
AcDbLine
 10
1791.699268
 20
193.948814
 30
0.0
 11
1788.030648
 21
191.38511
 31
0.0
  0
LINE
  5
37E2
100
AcDbEntity
  8
V0-OBRYS
  6
CONTINUOUS
 62
    90
100
AcDbLine
 10
1786.171458
 20
190.085871
 30
0.0
 11
1765.46466
 21
175.615552
 31
0.0
  0
TEXT
  5
3889
100
AcDbEntity
  8
V0-VYPLNE
 62
     6
100
AcDbText
 10
1063.250818
 20
312.852981
 30
0.0
 40
30.0
  1
HCF-355
  7
ED30
100
AcDbText
  0
DIMENSION
  5
39FB
100
AcDbEntity
  8
V0-OBRYS
  6
CONTINUOUS
 62
    90
100
AcDbDimension
  2
*D5
 10
1119.668356
 20
-198.197829
 30
0.0
 11
1157.071493
 21
-186.197829
 31
0.0
 70
    32
  3
ED20
100
AcDbAlignedDimension
 13
1194.474631
 23
-112.771646
 33
0.0
 14
1119.668356
 24
-160.422001
 34
0.0
100
AcDbRotatedDimension
  0
DIMENSION
  5
3A08
100
AcDbEntity
  8
V0-OBRYS
  6
CONTINUOUS
 62
    90
100
AcDbDimension
  2
*D6
 10
1065.525734
 20
-240.970581
 30
0.0
 11
1130.000182
 21
-228.968612
 31
0.0
 70
    32
  3
ED20
100
AcDbAlignedDimension
 13
1194.474631
 23
-112.771646
 33
0.0
 14
1065.525734
 24
24.727903
 34
0.0
100
AcDbRotatedDimension
  0
DIMENSION
  5
3A2C
100
AcDbEntity
  8
V0-VYPLNE
  6
CONTINUOUS
 62
    41
100
AcDbDimension
  2
*D7
 10
1894.853135
 20
-252.151477
 30
0.0
 11
1667.364486
 21
-252.151477
 31
0.0
 12
68.382027
 22
0.0
 32
0.0
 70
   160
  3
ED20
100
AcDbAlignedDimension
 13
1445.167163
 23
-155.258726
 33
0.0
 14
1894.853135
 24
-155.258726
 34
0.0
100
AcDbRotatedDimension
  0
DIMENSION
  5
3A2D
100
AcDbEntity
  8
V0-OBRYS
  6
CONTINUOUS
 62
    90
100
AcDbDimension
  2
*D8
 10
1859.760069
 20
-207.939117
 30
0.0
 11
1670.010132
 21
-207.939117
 31
0.0
 12
68.382027
 22
0.0
 32
0.0
 70
   160
  3
ED20
100
AcDbAlignedDimension
 13
1480.260196
 23
-147.52188
 33
0.0
 14
1859.760069
 24
-147.521914
 34
0.0
100
AcDbRotatedDimension
  0
POINT
  5
3A2E
100
AcDbEntity
  8
V0-VYPLNE
  6
DASHED
 62
    52
100
AcDbPoint
 10
1670.010149
 20
64.72804
 30
0.0
  0
LINE
  5
3A2F
100
AcDbEntity
  8
V0-OBRYS
  6
CONTINUOUS
100
AcDbLine
 10
1894.853135
 20
275.288026
 30
0.0
 11
1894.853135
 21
-145.831946
 31
0.0
  0
LINE
  5
3A30
100
AcDbEntity
  8
V0-OBRYS
  6
CONTINUOUS
100
AcDbLine
 10
1445.167163
 20
-145.831946
 30
0.0
 11
1445.167163
 21
275.288026
 31
0.0
  0
LINE
  5
3A31
100
AcDbEntity
  8
V0-OBRYS
  6
CONTINUOUS
100
AcDbLine
 10
1880.570135
 20
-160.114946
 30
0.0
 11
1459.450163
 21
-160.114946
 31
0.0
  0
ARC
  5
3A32
100
AcDbEntity
  8
V0-OBRYS
  6
CONTINUOUS
100
AcDbCircle
 10
1459.450163
 20
-145.831946
 30
0.0
 40
14.283
100
AcDbArc
 50
180.0
 51
270.0
  0
LINE
  5
3A33
100
AcDbEntity
  8
V0-VYPLNE
  6
DASHDOT
 62
    63
100
AcDbLine
 10
1480.260196
 20
-147.52188
 30
0.0
 11
1480.260196
 21
-100.17047
 31
0.0
  0
CIRCLE
  5
3A34
100
AcDbEntity
  8
V0-OBRYS
  6
CONTINUOUS
 62
    90
100
AcDbCircle
 10
1480.260196
 20
-125.02188
 30
0.0
 40
5.625
  0
LINE
  5
3A35
100
AcDbEntity
  8
V0-VYPLNE
  6
DASHDOT
 62
    63
100
AcDbLine
 10
1455.598541
 20
-125.02188
 30
0.0
 11
1503.417816
 21
-125.02188
 31
0.0
  0
LINE
  5
3A36
100
AcDbEntity
  8
V0-VYPLNE
  6
DASHDOT
 62
    63
100
AcDbLine
 10
1859.760069
 20
-147.521914
 30
0.0
 11
1859.760069
 21
-99.702639
 31
0.0
  0
LINE
  5
3A37
100
AcDbEntity
  8
V0-VYPLNE
  6
DASHDOT
 62
    63
100
AcDbLine
 10
1885.386792
 20
-125.021914
 30
0.0
 11
1838.035382
 21
-125.021914
 31
0.0
  0
CIRCLE
  5
3A38
100
AcDbEntity
  8
V0-OBRYS
  6
CONTINUOUS
 62
    90
100
AcDbCircle
 10
1859.760069
 20
-125.021914
 30
0.0
 40
5.625
  0
ARC
  5
3A39
100
AcDbEntity
  8
V0-OBRYS
  6
CONTINUOUS
100
AcDbCircle
 10
1880.570135
 20
-145.831946
 30
0.0
 40
14.283
100
AcDbArc
 50
270.0
 51
0.0
  0
LINE
  5
3A3B
100
AcDbEntity
  8
V0-OBRYS
  6
CONTINUOUS
100
AcDbLine
 10
1459.450163
 20
289.571026
 30
0.0
 11
1880.570135
 21
289.571026
 31
0.0
  0
LINE
  5
3A3C
100
AcDbEntity
  8
V0-VYPLNE
  6
DASHDOT
 62
    63
100
AcDbLine
 10
1457.76023
 20
254.477994
 30
0.0
 11
1505.111639
 21
254.477994
 31
0.0
  0
CIRCLE
  5
3A3D
100
AcDbEntity
  8
V0-OBRYS
  6
CONTINUOUS
 62
    90
100
AcDbCircle
 10
1480.26023
 20
254.477994
 30
0.0
 40
5.625
  0
LINE
  5
3A3E
100
AcDbEntity
  8
V0-VYPLNE
  6
DASHDOT
 62
    63
100
AcDbLine
 10
1480.26023
 20
276.977994
 30
0.0
 11
1480.26023
 21
229.158719
 31
0.0
  0
ARC
  5
3A3F
100
AcDbEntity
  8
V0-OBRYS
  6
CONTINUOUS
100
AcDbCircle
 10
1459.450163
 20
275.288026
 30
0.0
 40
14.283
100
AcDbArc
 50
90.0
 51
180.0
  0
LINE
  5
3A40
100
AcDbEntity
  8
V0-VYPLNE
  6
DASHDOT
 62
    63
100
AcDbLine
 10
1882.260103
 20
254.47796
 30
0.0
 11
1834.440828
 21
254.47796
 31
0.0
  0
LINE
  5
3A41
100
AcDbEntity
  8
V0-VYPLNE
  6
DASHDOT
 62
    63
100
AcDbLine
 10
1859.760103
 20
276.97796
 30
0.0
 11
1859.760103
 21
229.62655
 31
0.0
  0
CIRCLE
  5
3A42
100
AcDbEntity
  8
V0-OBRYS
  6
CONTINUOUS
 62
    90
100
AcDbCircle
 10
1859.760103
 20
254.47796
 30
0.0
 40
5.625
  0
ARC
  5
3A43
100
AcDbEntity
  8
V0-OBRYS
  6
CONTINUOUS
100
AcDbCircle
 10
1880.570135
 20
275.288026
 30
0.0
 40
14.283
100
AcDbArc
 50
0.0
 51
90.0
  0
LEADER
  5
3AA9
100
AcDbEntity
  8
V0-OBRYS
  6
CONTINUOUS
 62
    41
100
AcDbLeader
  3
ED20
 73
     0
 75
     1
 40
20.0
 41
168.015748
 76
     3
 10
1476.381941
 20
-129.83235
 30
0.0
 10
1447.163423
 20
-209.260589
 30
0.0
 10
1427.163423
 20
-209.260589
 30
0.0
 77
    90
340
3AAA
  0
MTEXT
  5
3AAA
102
{ACAD_REACTORS
330
3AA9
102
}
100
AcDbEntity
  8
V0-OBRYS
  6
CONTINUOUS
 62
    41
100
AcDbMText
 10
1425.163423
 20
-197.260589
 30
0.0
 40
20.0
 41
0.0
 71
     6
 72
     1
  1
\A1;4 OTVORY %%c10
  7
ED20
  0
ELLIPSE
  5
3AAB
100
AcDbEntity
  8
V0-OBRYS
  6
CONTINUOUS
 62
    90
100
AcDbEllipse
 10
398.582222
 20
-559.130471
 30
0.0
 11
0.0000000000013764
 21
939.4695573808329
 31
0.0
210
0.0
220
0.0
230
-1.0
 40
0.852273
 41
1.480829966572599
 42
1.560998901912742
  0
LINE
  5
3AAC
100
AcDbEntity
  8
V0-OBRYS
  6
CONTINUOUS
 62
    90
 48
2.0
100
AcDbLine
 10
1194.474631
 20
-550.207809
 30
0.0
 11
1194.474631
 21
-372.708164
 31
0.0
  0
LINE
  5
3AAD
100
AcDbEntity
  8
V0-VYPLNE
  6
DASHED
 62
    52
100
AcDbLine
 10
1141.628076
 20
-549.926236
 30
0.0
 11
1141.628076
 21
-469.670236
 31
0.0
  0
LINE
  5
3AAE
100
AcDbEntity
  8
V0-VYPLNE
  6
DASHED
 62
    52
100
AcDbLine
 10
1168.628076
 20
-465.646698
 30
0.0
 11
1168.628076
 21
-549.926236
 31
0.0
  0
LINE
  5
3AAF
100
AcDbEntity
  8
V0-OBRYS
  6
CONTINUOUS
 62
    90
100
AcDbLine
 10
1119.668356
 20
-325.057809
 30
0.0
 11
1119.668356
 21
-775.357809
 31
0.0
  0
LINE
  5
3AB0
100
AcDbEntity
  8
V0-OBRYS
  6
CONTINUOUS
 62
    90
 48
2.0
100
AcDbLine
 10
1107.628356
 20
-325.057809
 30
0.0
 11
1107.628356
 21
-775.357809
 31
0.0
  0
LINE
  5
3AB1
100
AcDbEntity
  8
V0-VYPLNE
  6
DASHDOT
 62
    63
100
AcDbLine
 10
1065.525732
 20
-550.207894
 30
0.0
 11
1221.112425
 21
-550.207894
 31
0.0
  0
ELLIPSE
  5
3AB2
100
AcDbEntity
  8
V0-VYPLNE
  6
DASHED
 62
    52
100
AcDbEllipse
 10
1168.628076
 20
-507.475096
 30
0.0
 11
-0.0000000000003973
 21
126.7306765837048
 31
0.0
210
0.0
220
0.0
230
-1.0
 40
0.852273
 41
2.929991421004502
 42
3.394251156505877
  0
LINE
  5
3AB3
100
AcDbEntity
  8
V0-VYPLNE
  6
DASHED
 62
    52
100
AcDbLine
 10
1195.657599
 20
-636.74606
 30
0.0
 11
1183.557528
 21
-725.904666
 31
0.0
  0
LINE
  5
3AB4
100
AcDbEntity
  8
V0-OBRYS
  6
CONTINUOUS
 62
    90
 48
2.0
100
AcDbLine
 10
1194.474631
 20
-727.707454
 30
0.0
 11
1148.880461
 21
-727.707454
 31
0.0
  0
LINE
  5
3AB5
100
AcDbEntity
  8
V0-VYPLNE
  6
DASHED
 62
    52
100
AcDbLine
 10
1142.104476
 20
-559.563105
 30
0.0
 11
1197.686108
 21
-539.958757
 31
0.0
  0
LINE
  5
3AB6
100
AcDbEntity
  8
V0-VYPLNE
  6
DASHDOT
 62
    63
 48
2.0
100
AcDbLine
 10
1106.713274
 20
-550.207809
 30
0.0
 11
1211.173052
 21
-550.207809
 31
0.0
  0
LINE
  5
3AB7
100
AcDbEntity
  8
V0-VYPLNE
  6
DASHED
 62
    52
100
AcDbLine
 10
1141.598553
 20
-636.74606
 30
0.0
 11
1153.698624
 21
-725.904666
 31
0.0
  0
CIRCLE
  5
3AB8
100
AcDbEntity
  8
V0-OBRYS
  6
CONTINUOUS
 62
    90
 48
2.0
100
AcDbCircle
 10
1085.436191
 20
-660.591305
 30
0.0
 40
2.283588
  0
LINE
  5
3AB9
100
AcDbEntity
  8
V0-OBRYS
  6
CONTINUOUS
 62
    90
 48
2.0
100
AcDbLine
 10
1087.720042
 20
-734.389203
 30
0.0
 11
1087.720042
 21
-652.884973
 31
0.0
  0
LINE
  5
3ABA
100
AcDbEntity
  8
V0-OBRYS
  6
CONTINUOUS
 62
    90
 48
2.0
100
AcDbLine
 10
1089.937372
 20
-734.389203
 30
0.0
 11
1089.937372
 21
-652.884973
 31
0.0
  0
LINE
  5
3ABB
100
AcDbEntity
  8
V0-OBRYS
  6
CONTINUOUS
 62
    90
100
AcDbLine
 10
1119.668356
 20
-775.357809
 30
0.0
 11
1130.831541
 21
-738.006719
 31
0.0
  0
ARC
  5
3ABC
100
AcDbEntity
  8
V0-OBRYS
  6
CONTINUOUS
 62
    90
 48
2.0
100
AcDbCircle
 10
1090.671406
 20
-759.214822
 30
0.0
 40
20.343317
100
AcDbArc
 50
33.633732
 51
82.381915
  0
ARC
  5
3ABD
100
AcDbEntity
  8
V0-OBRYS
  6
CONTINUOUS
 62
    90
 48
2.0
100
AcDbCircle
 10
1090.556632
 20
-760.448771
 30
0.0
 40
19.400425
100
AcDbArc
 50
40.121121
 51
83.630132
  0
LINE
  5
3ABE
100
AcDbEntity
  8
V0-OBRYS
  6
CONTINUOUS
 62
    90
 48
2.0
100
AcDbLine
 10
1119.668356
 20
-775.357809
 30
0.0
 11
1107.628356
 21
-775.357809
 31
0.0
  0
LINE
  5
3ABF
100
AcDbEntity
  8
V0-OBRYS
  6
CONTINUOUS
 62
    90
 48
2.0
100
AcDbLine
 10
1105.391825
 20
-761.194027
 30
0.0
 11
1105.391825
 21
-747.947029
 31
0.0
  0
ARC
  5
3AC0
100
AcDbEntity
  8
V0-OBRYS
  6
CONTINUOUS
 62
    90
 48
2.0
100
AcDbCircle
 10
1106.51009
 20
-761.194027
 30
0.0
 40
1.118266
100
AcDbArc
 50
180.0
 51
0.0
  0
CIRCLE
  5
3AC1
100
AcDbEntity
  8
V0-OBRYS
  6
CONTINUOUS
 62
    90
 48
2.0
100
AcDbCircle
 10
1085.436191
 20
-728.751305
 30
0.0
 40
2.283588
  0
ARC
  5
3AC2
100
AcDbEntity
  8
V0-OBRYS
  6
CONTINUOUS
 62
    90
 48
2.0
100
AcDbCircle
 10
1094.820042
 20
-734.389203
 30
0.0
 40
4.882669
100
AcDbArc
 50
180.0
 51
252.703019
  0
ARC
  5
3AC3
100
AcDbEntity
  8
V0-OBRYS
  6
CONTINUOUS
 62
    90
 48
2.0
100
AcDbCircle
 10
1094.820042
 20
-734.389203
 30
0.0
 40
7.1
100
AcDbArc
 50
180.0
 51
252.703019
  0
CIRCLE
  5
3AC4
100
AcDbEntity
  8
V0-OBRYS
  6
CONTINUOUS
 62
    90
 48
2.0
100
AcDbCircle
 10
1085.436191
 20
-711.711305
 30
0.0
 40
2.283588
  0
CIRCLE
  5
3AC5
100
AcDbEntity
  8
V0-OBRYS
  6
CONTINUOUS
 62
    90
 48
2.0
100
AcDbCircle
 10
1085.436191
 20
-677.631305
 30
0.0
 40
2.283588
  0
CIRCLE
  5
3AC6
100
AcDbEntity
  8
V0-OBRYS
  6
CONTINUOUS
 62
    90
 48
2.0
100
AcDbCircle
 10
1085.436191
 20
-694.671305
 30
0.0
 40
2.283588
  0
ARC
  5
3AC7
100
AcDbEntity
  8
V0-OBRYS
  6
CONTINUOUS
 62
    90
 48
2.0
100
AcDbCircle
 10
1148.880461
 20
-748.671979
 30
0.0
 40
20.964525
100
AcDbArc
 50
90.0
 51
149.420799
  0
LINE
  5
3AC8
100
AcDbEntity
  8
V0-VYPLNE
  6
DASHED
 62
    52
100
AcDbLine
 10
1153.698624
 20
-725.904666
 30
0.0
 11
1183.557528
 21
-725.904666
 31
0.0
  0
LINE
  5
3AC9
100
AcDbEntity
  8
V0-OBRYS
  6
CONTINUOUS
 62
    90
100
AcDbLine
 10
1020.525734
 20
-590.207905
 30
0.0
 11
1065.525734
 21
-590.207905
 31
0.0
  0
LINE
  5
3ACA
100
AcDbEntity
  8
V0-OBRYS
  6
CONTINUOUS
 62
    90
100
AcDbLine
 10
1020.525734
 20
-510.207905
 30
0.0
 11
1065.525734
 21
-510.207905
 31
0.0
  0
LINE
  5
3ACB
100
AcDbEntity
  8
V0-OBRYS
  6
CONTINUOUS
 62
    90
100
AcDbLine
 10
1035.525734
 20
-550.207905
 30
0.0
 11
1035.525734
 21
-590.207905
 31
0.0
  0
LINE
  5
3ACC
100
AcDbEntity
  8
V0-OBRYS
  6
CONTINUOUS
 62
    90
100
AcDbLine
 10
1020.525734
 20
-550.207905
 30
0.0
 11
1020.525734
 21
-590.207905
 31
0.0
  0
LINE
  5
3ACD
100
AcDbEntity
  8
V0-OBRYS
  6
CONTINUOUS
 62
    90
100
AcDbLine
 10
1035.525734
 20
-550.207905
 30
0.0
 11
1035.525734
 21
-510.207905
 31
0.0
  0
LINE
  5
3ACE
100
AcDbEntity
  8
V0-OBRYS
  6
CONTINUOUS
 62
    90
100
AcDbLine
 10
1020.525734
 20
-550.207905
 30
0.0
 11
1020.525734
 21
-510.207905
 31
0.0
  0
LINE
  5
3ACF
100
AcDbEntity
  8
V0-OBRYS
  6
CONTINUOUS
 62
    90
 48
2.0
100
AcDbLine
 10
1066.627954
 20
-550.207809
 30
0.0
 11
1066.627954
 21
-597.208185
 31
0.0
  0
LINE
  5
3AD0
100
AcDbEntity
  8
V0-OBRYS
  6
CONTINUOUS
 62
    90
100
AcDbLine
 10
1065.525734
 20
-590.207905
 30
0.0
 11
1065.525734
 21
-550.207905
 31
0.0
  0
LINE
  5
3AD1
100
AcDbEntity
  8
V0-VYPLNE
  6
DASHED
 62
    52
100
AcDbLine
 10
1168.628076
 20
-634.205773
 30
0.0
 11
1168.628076
 21
-549.926236
 31
0.0
  0
LINE
  5
3AD2
100
AcDbEntity
  8
V0-VYPLNE
  6
DASHED
 62
    52
100
AcDbLine
 10
1141.628076
 20
-549.926236
 30
0.0
 11
1141.628076
 21
-630.182236
 31
0.0
  0
LINE
  5
3AD3
100
AcDbEntity
  8
V0-VYPLNE
  6
DASHED
 62
    52
100
AcDbLine
 10
1135.535993
 20
-602.208225
 30
0.0
 11
1135.535993
 21
-550.207809
 31
0.0
  0
LINE
  5
3AD4
100
AcDbEntity
  8
V0-OBRYS
  6
CONTINUOUS
 62
    90
 48
2.0
100
AcDbLine
 10
1106.628106
 20
-550.207809
 30
0.0
 11
1106.628106
 21
-607.208265
 31
0.0
  0
LINE
  5
3AD5
100
AcDbEntity
  8
V0-VYPLNE
  6
DASHED
 62
    52
100
AcDbLine
 10
1107.628385
 20
-603.714826
 30
0.0
 11
1135.535993
 21
-603.714826
 31
0.0
  0
LINE
  5
3AD6
100
AcDbEntity
  8
V0-VYPLNE
  6
DASHED
 62
    52
100
AcDbLine
 10
1107.628385
 20
-593.640651
 30
0.0
 11
1135.535993
 21
-593.640651
 31
0.0
  0
LINE
  5
3AD7
100
AcDbEntity
  8
V0-VYPLNE
  6
DASHED
 62
    52
100
AcDbLine
 10
1107.628385
 20
-581.647586
 30
0.0
 11
1135.05583
 21
-581.647586
 31
0.0
  0
LINE
  5
3AD8
100
AcDbEntity
  8
V0-VYPLNE
  6
DASHED
 62
    52
100
AcDbLine
 10
1107.628385
 20
-607.208265
 30
0.0
 11
1130.535953
 21
-607.208265
 31
0.0
  0
ARC
  5
3AD9
100
AcDbEntity
  8
V0-OBRYS
  6
CONTINUOUS
 62
    90
 48
2.0
100
AcDbCircle
 10
1100.528356
 20
-637.899345
 30
0.0
 40
7.1
100
AcDbArc
 50
289.78203
 51
0.0
  0
LINE
  5
3ADA
100
AcDbEntity
  8
V0-OBRYS
  6
CONTINUOUS
 62
    90
 48
2.0
100
AcDbLine
 10
1092.417098
 20
-646.203966
 30
0.0
 11
1102.9313
 21
-644.580352
 31
0.0
  0
LINE
  5
3ADB
100
AcDbEntity
  8
V0-OBRYS
  6
CONTINUOUS
 62
    90
 48
2.0
100
AcDbLine
 10
1093.167537
 20
-648.290445
 30
0.0
 11
1103.68174
 21
-646.666831
 31
0.0
  0
ARC
  5
3ADC
100
AcDbEntity
  8
V0-OBRYS
  6
CONTINUOUS
 62
    90
 48
2.0
100
AcDbCircle
 10
1094.820042
 20
-652.884973
 30
0.0
 40
4.882669
100
AcDbArc
 50
109.78203
 51
180.0
  0
ARC
  5
3ADD
100
AcDbEntity
  8
V0-OBRYS
  6
CONTINUOUS
 62
    90
 48
2.0
100
AcDbCircle
 10
1094.820042
 20
-652.884973
 30
0.0
 40
7.1
100
AcDbArc
 50
109.78203
 51
180.0
  0
ARC
  5
3ADE
100
AcDbEntity
  8
V0-OBRYS
  6
CONTINUOUS
 62
    90
 48
2.0
100
AcDbCircle
 10
1100.528356
 20
-637.899345
 30
0.0
 40
9.317331
100
AcDbArc
 50
289.78203
 51
319.642674
  0
LINE
  5
3ADF
100
AcDbEntity
  8
V0-OBRYS
  6
CONTINUOUS
 62
    90
 48
2.0
100
AcDbLine
 10
1106.468312
 20
-581.647586
 30
0.0
 11
1066.261693
 21
-577.330083
 31
0.0
  0
LINE
  5
3AE0
100
AcDbEntity
  8
V0-OBRYS
  6
CONTINUOUS
 62
    90
 48
2.0
100
AcDbLine
 10
1105.988145
 20
-593.640651
 30
0.0
 11
1067.222024
 21
-584.0462
 31
0.0
  0
LINE
  5
3AE1
100
AcDbEntity
  8
V0-OBRYS
  6
CONTINUOUS
 62
    90
 48
2.0
100
AcDbLine
 10
1076.628034
 20
-607.208265
 30
0.0
 11
1107.62833
 21
-607.208265
 31
0.0
  0
LINE
  5
3AE2
100
AcDbEntity
  8
V0-OBRYS
  6
CONTINUOUS
 62
    90
 48
2.0
100
AcDbLine
 10
1106.468312
 20
-603.714826
 30
0.0
 11
1066.741861
 21
-589.802872
 31
0.0
  0
ARC
  5
3AE3
100
AcDbEntity
  8
V0-OBRYS
  6
CONTINUOUS
 62
    90
 48
2.0
100
AcDbCircle
 10
1076.628034
 20
-597.208185
 30
0.0
 40
10.00008
100
AcDbArc
 50
180.0
 51
270.0
  0
LINE
  5
3AE4
100
AcDbEntity
  8
V0-OBRYS
  6
CONTINUOUS
 62
    90
 48
2.0
100
AcDbLine
 10
1106.468312
 20
-603.714826
 30
0.0
 11
1107.62833
 21
-603.714826
 31
0.0
  0
LINE
  5
3AE5
100
AcDbEntity
  8
V0-OBRYS
  6
CONTINUOUS
 62
    90
 48
2.0
100
AcDbLine
 10
1105.988145
 20
-593.640651
 30
0.0
 11
1107.62833
 21
-593.640651
 31
0.0
  0
LINE
  5
3AE6
100
AcDbEntity
  8
V0-OBRYS
  6
CONTINUOUS
 62
    90
 48
2.0
100
AcDbLine
 10
1106.468312
 20
-581.647586
 30
0.0
 11
1107.62833
 21
-581.647586
 31
0.0
  0
LINE
  5
3AE7
100
AcDbEntity
  8
V0-VYPLNE
  6
DASHED
 62
    52
100
AcDbLine
 10
1146.208105
 20
-631.342508
 30
0.0
 11
1141.598553
 21
-636.74606
 31
0.0
  0
ARC
  5
3AE8
100
AcDbEntity
  8
V0-VYPLNE
  6
DASHED
 62
    52
 48
2.0
100
AcDbCircle
 10
1130.535953
 20
-602.208225
 30
0.0
 40
5.00004
100
AcDbArc
 50
270.0
 51
0.0
  0
LINE
  5
3AE9
100
AcDbEntity
  8
V0-VYPLNE
  6
DASHED
 62
    52
100
AcDbLine
 10
1107.628385
 20
-570.134246
 30
0.0
 11
1135.535993
 21
-570.134246
 31
0.0
  0
LINE
  5
3AEA
100
AcDbEntity
  8
V0-VYPLNE
  6
DASHED
 62
    52
100
AcDbLine
 10
1107.628385
 20
-541.794714
 30
0.0
 11
1135.05583
 21
-541.794714
 31
0.0
  0
LINE
  5
3AEB
100
AcDbEntity
  8
V0-VYPLNE
  6
DASHED
 62
    52
100
AcDbLine
 10
1107.628385
 20
-530.281372
 30
0.0
 11
1135.535993
 21
-530.281372
 31
0.0
  0
LINE
  5
3AEC
100
AcDbEntity
  8
V0-VYPLNE
  6
DASHED
 62
    52
100
AcDbLine
 10
1107.628385
 20
-558.620904
 30
0.0
 11
1135.05583
 21
-558.620904
 31
0.0
  0
LINE
  5
3AED
100
AcDbEntity
  8
V0-VYPLNE
  6
DASHED
 62
    52
100
AcDbLine
 10
1107.628385
 20
-518.768032
 30
0.0
 11
1135.05583
 21
-518.768032
 31
0.0
  0
LINE
  5
3AEE
100
AcDbEntity
  8
V0-VYPLNE
  6
DASHED
 62
    52
100
AcDbLine
 10
1107.628385
 20
-506.774968
 30
0.0
 11
1135.535993
 21
-506.774968
 31
0.0
  0
LINE
  5
3AEF
100
AcDbEntity
  8
V0-VYPLNE
  6
DASHED
 62
    52
100
AcDbLine
 10
1107.628385
 20
-496.700793
 30
0.0
 11
1135.535993
 21
-496.700793
 31
0.0
  0
LINE
  5
3AF0
100
AcDbEntity
  8
V0-VYPLNE
  6
DASHED
 62
    52
100
AcDbLine
 10
1107.628385
 20
-493.207353
 30
0.0
 11
1130.535953
 21
-493.207353
 31
0.0
  0
LINE
  5
3AF4
100
AcDbEntity
  8
V0-OBRYS
  6
CONTINUOUS
 62
    90
 48
2.0
100
AcDbLine
 10
1066.627954
 20
-550.207809
 30
0.0
 11
1066.627954
 21
-503.207433
 31
0.0
  0
LINE
  5
3AF5
100
AcDbEntity
  8
V0-OBRYS
  6
CONTINUOUS
 62
    90
100
AcDbLine
 10
1065.525734
 20
-510.207905
 30
0.0
 11
1065.525734
 21
-550.207905
 31
0.0
  0
LINE
  5
3AF6
100
AcDbEntity
  8
V0-OBRYS
  6
CONTINUOUS
 62
    90
 48
2.0
100
AcDbLine
 10
1106.628106
 20
-550.207809
 30
0.0
 11
1106.628106
 21
-493.207353
 31
0.0
  0
LINE
  5
3AF7
100
AcDbEntity
  8
V0-OBRYS
  6
CONTINUOUS
 62
    90
 48
2.0
100
AcDbLine
 10
1105.988145
 20
-541.794714
 30
0.0
 11
1066.741861
 21
-542.274436
 31
0.0
  0
LINE
  5
3AF8
100
AcDbEntity
  8
V0-OBRYS
  6
CONTINUOUS
 62
    90
 48
2.0
100
AcDbLine
 10
1105.988145
 20
-570.134246
 30
0.0
 11
1066.741861
 21
-568.215355
 31
0.0
  0
LINE
  5
3AF9
100
AcDbEntity
  8
V0-OBRYS
  6
CONTINUOUS
 62
    90
 48
2.0
100
AcDbLine
 10
1105.988145
 20
-558.620904
 30
0.0
 11
1066.741861
 21
-558.141182
 31
0.0
  0
LINE
  5
3AFA
100
AcDbEntity
  8
V0-OBRYS
  6
CONTINUOUS
 62
    90
 48
2.0
100
AcDbLine
 10
1105.988145
 20
-558.620904
 30
0.0
 11
1107.62833
 21
-558.620904
 31
0.0
  0
LINE
  5
3AFB
100
AcDbEntity
  8
V0-OBRYS
  6
CONTINUOUS
 62
    90
 48
2.0
100
AcDbLine
 10
1105.988145
 20
-570.134246
 30
0.0
 11
1108.869138
 21
-570.134246
 31
0.0
  0
LINE
  5
3AFC
100
AcDbEntity
  8
V0-OBRYS
  6
CONTINUOUS
 62
    90
 48
2.0
100
AcDbLine
 10
1108.869138
 20
-570.134246
 30
0.0
 11
1107.62833
 21
-570.134246
 31
0.0
  0
LINE
  5
3AFD
100
AcDbEntity
  8
V0-OBRYS
  6
CONTINUOUS
 62
    90
 48
2.0
100
AcDbLine
 10
1105.988145
 20
-541.794714
 30
0.0
 11
1107.62833
 21
-541.794714
 31
0.0
  0
LINE
  5
3AFE
100
AcDbEntity
  8
V0-OBRYS
  6
CONTINUOUS
 62
    90
 48
2.0
100
AcDbLine
 10
1106.468312
 20
-496.700793
 30
0.0
 11
1066.741861
 21
-510.612746
 31
0.0
  0
LINE
  5
3AFF
100
AcDbEntity
  8
V0-OBRYS
  6
CONTINUOUS
 62
    90
 48
2.0
100
AcDbLine
 10
1076.628034
 20
-493.207353
 30
0.0
 11
1107.62833
 21
-493.207353
 31
0.0
  0
LINE
  5
3B00
100
AcDbEntity
  8
V0-OBRYS
  6
CONTINUOUS
 62
    90
 48
2.0
100
AcDbLine
 10
1105.988145
 20
-530.281372
 30
0.0
 11
1066.741861
 21
-532.200263
 31
0.0
  0
LINE
  5
3B01
100
AcDbEntity
  8
V0-OBRYS
  6
CONTINUOUS
 62
    90
 48
2.0
100
AcDbLine
 10
1106.468312
 20
-518.768032
 30
0.0
 11
1066.261693
 21
-523.085535
 31
0.0
  0
LINE
  5
3B02
100
AcDbEntity
  8
V0-OBRYS
  6
CONTINUOUS
 62
    90
 48
2.0
100
AcDbLine
 10
1105.988145
 20
-506.774968
 30
0.0
 11
1067.222024
 21
-516.369418
 31
0.0
  0
ARC
  5
3B03
100
AcDbEntity
  8
V0-OBRYS
  6
CONTINUOUS
 62
    90
 48
2.0
100
AcDbCircle
 10
1076.628034
 20
-503.207433
 30
0.0
 40
10.00008
100
AcDbArc
 50
90.0
 51
180.0
  0
LINE
  5
3B04
100
AcDbEntity
  8
V0-OBRYS
  6
CONTINUOUS
 62
    90
 48
2.0
100
AcDbLine
 10
1106.468312
 20
-518.768032
 30
0.0
 11
1107.62833
 21
-518.768032
 31
0.0
  0
LINE
  5
3B05
100
AcDbEntity
  8
V0-OBRYS
  6
CONTINUOUS
 62
    90
 48
2.0
100
AcDbLine
 10
1105.988145
 20
-530.281372
 30
0.0
 11
1108.869138
 21
-530.281372
 31
0.0
  0
LINE
  5
3B06
100
AcDbEntity
  8
V0-OBRYS
  6
CONTINUOUS
 62
    90
 48
2.0
100
AcDbLine
 10
1108.869138
 20
-530.281372
 30
0.0
 11
1107.62833
 21
-530.281372
 31
0.0
  0
LINE
  5
3B07
100
AcDbEntity
  8
V0-OBRYS
  6
CONTINUOUS
 62
    90
 48
2.0
100
AcDbLine
 10
1106.468312
 20
-496.700793
 30
0.0
 11
1107.62833
 21
-496.700793
 31
0.0
  0
LINE
  5
3B08
100
AcDbEntity
  8
V0-OBRYS
  6
CONTINUOUS
 62
    90
 48
2.0
100
AcDbLine
 10
1105.988145
 20
-506.774968
 30
0.0
 11
1107.62833
 21
-506.774968
 31
0.0
  0
LINE
  5
3B09
100
AcDbEntity
  8
V0-VYPLNE
  6
DASHED
 62
    52
100
AcDbLine
 10
1135.535993
 20
-498.207393
 30
0.0
 11
1135.535993
 21
-550.207809
 31
0.0
  0
ELLIPSE
  5
3B0A
100
AcDbEntity
  8
V0-VYPLNE
  6
DASHED
 62
    52
100
AcDbEllipse
 10
1168.628076
 20
-550.207894
 30
0.0
 11
-0.0000000000000783
 21
5.966556111557961
 31
0.0
210
0.0
220
0.0
230
-1.0
 40
0.852273
 41
0.0
 42
6.283185307179586
  0
ARC
  5
3B0B
100
AcDbEntity
  8
V0-VYPLNE
  6
DASHED
 62
    52
 48
2.0
100
AcDbCircle
 10
1130.535953
 20
-498.207393
 30
0.0
 40
5.00004
100
AcDbArc
 50
0.0
 51
90.0
  0
LINE
  5
3B0C
100
AcDbEntity
  8
V0-OBRYS
  6
CONTINUOUS
 62
    90
 48
2.0
100
AcDbLine
 10
1194.474631
 20
-550.207809
 30
0.0
 11
1194.474631
 21
-727.707454
 31
0.0
  0
ELLIPSE
  5
3B0D
100
AcDbEntity
  8
V0-OBRYS
  6
CONTINUOUS
 62
    90
100
AcDbEllipse
 10
398.582222
 20
-540.722
 30
0.0
 11
-0.0000000000124734
 21
939.4695573808398
 31
0.0
210
0.0
220
0.0
230
-1.0
 40
0.852273
 41
1.580593751677059
 42
1.6607626870172
  0
ELLIPSE
  5
3B0E
100
AcDbEntity
  8
V0-VYPLNE
  6
DASHED
 62
    52
100
AcDbEllipse
 10
1190.052607
 20
-624.496176
 30
0.0
 11
-0.0000000000010917
 21
7.039999999999871
 31
0.0
210
0.0
220
0.0
230
-1.0
 40
0.852273
 41
1.66076268701734
 42
2.929991421004736
  0
LINE
  5
3B0F
100
AcDbEntity
  8
V0-VYPLNE
  6
DASHED
 62
    52
100
AcDbLine
 10
1191.048047
 20
-631.342508
 30
0.0
 11
1195.657599
 21
-636.74606
 31
0.0
  0
TEXT
  5
3B10
100
AcDbEntity
  8
V0-VYPLNE
 62
     6
100
AcDbText
 10
1063.250818
 20
-302.082827
 30
0.0
 40
30.0
  1
HCF-355
  7
ED30
100
AcDbText
  0
ELLIPSE
  5
3B11
100
AcDbEntity
  8
V0-VYPLNE
  6
DASHED
 62
    52
100
AcDbEllipse
 10
1168.628076
 20
-592.377375
 30
0.0
 11
0.000000000000382
 21
126.7306765837048
 31
0.0
210
0.0
220
0.0
230
-1.0
 40
0.852273
 41
-0.252658502916083
 42
0.2116012325852894
  0
LINE
  5
3B12
100
AcDbEntity
  8
V0-VYPLNE
  6
DASHED
 62
    52
100
AcDbLine
 10
1195.657599
 20
-463.106411
 30
0.0
 11
1183.557528
 21
-373.947805
 31
0.0
  0
LINE
  5
3B13
100
AcDbEntity
  8
V0-OBRYS
  6
CONTINUOUS
 62
    90
 48
2.0
100
AcDbLine
 10
1194.474631
 20
-372.708164
 30
0.0
 11
1148.880461
 21
-372.708164
 31
0.0
  0
LINE
  5
3B14
100
AcDbEntity
  8
V0-VYPLNE
  6
DASHED
 62
    52
100
AcDbLine
 10
1141.598553
 20
-463.106411
 30
0.0
 11
1153.698624
 21
-373.947805
 31
0.0
  0
CIRCLE
  5
3B15
100
AcDbEntity
  8
V0-OBRYS
  6
CONTINUOUS
 62
    90
 48
2.0
100
AcDbCircle
 10
1085.535968
 20
-405.744313
 30
0.0
 40
2.283588
  0
LINE
  5
3B16
100
AcDbEntity
  8
V0-OBRYS
  6
CONTINUOUS
 62
    90
 48
2.0
100
AcDbLine
 10
1089.937372
 20
-366.026415
 30
0.0
 11
1089.937372
 21
-447.530645
 31
0.0
  0
LINE
  5
3B17
100
AcDbEntity
  8
V0-OBRYS
  6
CONTINUOUS
 62
    90
 48
2.0
100
AcDbLine
 10
1087.720042
 20
-366.026415
 30
0.0
 11
1087.720042
 21
-447.530645
 31
0.0
  0
ARC
  5
3B18
100
AcDbEntity
  8
V0-OBRYS
  6
CONTINUOUS
 62
    90
 48
2.0
100
AcDbCircle
 10
1094.820042
 20
-447.530645
 30
0.0
 40
4.882669
100
AcDbArc
 50
180.0
 51
250.21797
  0
ARC
  5
3B19
100
AcDbEntity
  8
V0-OBRYS
  6
CONTINUOUS
 62
    90
 48
2.0
100
AcDbCircle
 10
1094.820042
 20
-447.530645
 30
0.0
 40
7.1
100
AcDbArc
 50
180.0
 51
250.21797
  0
LINE
  5
3B1A
100
AcDbEntity
  8
V0-OBRYS
  6
CONTINUOUS
 62
    90
 48
2.0
100
AcDbLine
 10
1093.167537
 20
-452.125173
 30
0.0
 11
1103.68174
 21
-453.748787
 31
0.0
  0
LINE
  5
3B1B
100
AcDbEntity
  8
V0-OBRYS
  6
CONTINUOUS
 62
    90
 48
2.0
100
AcDbLine
 10
1092.417098
 20
-454.211652
 30
0.0
 11
1102.9313
 21
-455.835266
 31
0.0
  0
ARC
  5
3B1C
100
AcDbEntity
  8
V0-OBRYS
  6
CONTINUOUS
 62
    90
 48
2.0
100
AcDbCircle
 10
1100.528356
 20
-462.516274
 30
0.0
 40
7.1
100
AcDbArc
 50
0.0
 51
70.21797
  0
ARC
  5
3B1D
100
AcDbEntity
  8
V0-OBRYS
  6
CONTINUOUS
 62
    90
 48
2.0
100
AcDbCircle
 10
1100.528356
 20
-462.516274
 30
0.0
 40
9.317331
100
AcDbArc
 50
40.357326
 51
70.21797
  0
CIRCLE
  5
3B1E
100
AcDbEntity
  8
V0-OBRYS
  6
CONTINUOUS
 62
    90
 48
2.0
100
AcDbCircle
 10
1085.535968
 20
-439.824313
 30
0.0
 40
2.283588
  0
CIRCLE
  5
3B1F
100
AcDbEntity
  8
V0-OBRYS
  6
CONTINUOUS
 62
    90
 48
2.0
100
AcDbCircle
 10
1085.535968
 20
-422.784313
 30
0.0
 40
2.283588
  0
LINE
  5
3B20
100
AcDbEntity
  8
V0-VYPLNE
  6
DASHED
 62
    52
100
AcDbLine
 10
1146.208105
 20
-468.509963
 30
0.0
 11
1141.598553
 21
-463.106411
 31
0.0
  0
LINE
  5
3B21
100
AcDbEntity
  8
V0-OBRYS
  6
CONTINUOUS
 62
    90
 48
2.0
100
AcDbLine
 10
1119.668356
 20
-325.057809
 30
0.0
 11
1107.628356
 21
-325.057809
 31
0.0
  0
ARC
  5
3B22
100
AcDbEntity
  8
V0-OBRYS
  6
CONTINUOUS
 62
    90
 48
2.0
100
AcDbCircle
 10
1094.820042
 20
-366.026415
 30
0.0
 40
4.882669
100
AcDbArc
 50
107.296981
 51
180.0
  0
ARC
  5
3B23
100
AcDbEntity
  8
V0-OBRYS
  6
CONTINUOUS
 62
    90
 48
2.0
100
AcDbCircle
 10
1094.820042
 20
-366.026415
 30
0.0
 40
7.1
100
AcDbArc
 50
107.296981
 51
180.0
  0
CIRCLE
  5
3B24
100
AcDbEntity
  8
V0-OBRYS
  6
CONTINUOUS
 62
    90
 48
2.0
100
AcDbCircle
 10
1085.535968
 20
-388.704313
 30
0.0
 40
2.283588
  0
CIRCLE
  5
3B25
100
AcDbEntity
  8
V0-OBRYS
  6
CONTINUOUS
 62
    90
 48
2.0
100
AcDbCircle
 10
1085.535968
 20
-371.664313
 30
0.0
 40
2.283588
  0
LINE
  5
3B26
100
AcDbEntity
  8
V0-OBRYS
  6
CONTINUOUS
 62
    90
 48
2.0
100
AcDbLine
 10
1105.391825
 20
-339.221591
 30
0.0
 11
1105.391825
 21
-352.468589
 31
0.0
  0
ARC
  5
3B27
100
AcDbEntity
  8
V0-OBRYS
  6
CONTINUOUS
 62
    90
 48
2.0
100
AcDbCircle
 10
1090.556632
 20
-339.966847
 30
0.0
 40
19.400425
100
AcDbArc
 50
276.369868
 51
319.878879
  0
ARC
  5
3B28
100
AcDbEntity
  8
V0-OBRYS
  6
CONTINUOUS
 62
    90
 48
2.0
100
AcDbCircle
 10
1090.671406
 20
-341.200796
 30
0.0
 40
20.343317
100
AcDbArc
 50
277.618085
 51
326.366268
  0
ARC
  5
3B29
100
AcDbEntity
  8
V0-OBRYS
  6
CONTINUOUS
 62
    90
 48
2.0
100
AcDbCircle
 10
1106.51009
 20
-339.221591
 30
0.0
 40
1.118266
100
AcDbArc
 50
0.0
 51
180.0
  0
ARC
  5
3B2A
100
AcDbEntity
  8
V0-OBRYS
  6
CONTINUOUS
 62
    90
 48
2.0
100
AcDbCircle
 10
1148.880461
 20
-351.743639
 30
0.0
 40
20.964525
100
AcDbArc
 50
210.579201
 51
270.0
  0
LINE
  5
3B2B
100
AcDbEntity
  8
V0-VYPLNE
  6
DASHED
 62
    52
100
AcDbLine
 10
1153.698624
 20
-373.947805
 30
0.0
 11
1183.557528
 21
-373.947805
 31
0.0
  0
LINE
  5
3B2C
100
AcDbEntity
  8
V0-OBRYS
  6
CONTINUOUS
 62
    90
100
AcDbLine
 10
1119.668356
 20
-325.057809
 30
0.0
 11
1130.831541
 21
-362.408899
 31
0.0
  0
LINE
  5
3B2D
100
AcDbEntity
  8
V0-VYPLNE
  6
DASHED
 62
    52
100
AcDbLine
 10
1191.048047
 20
-468.509963
 30
0.0
 11
1195.657599
 21
-463.106411
 31
0.0
  0
LINE
  5
3B33
100
AcDbEntity
  8
V0-VYPLNE
  6
DASHDOT
 62
    63
100
AcDbLine
 10
1820.010078
 20
-85.271919
 30
0.0
 11
1520.010221
 21
214.727999
 31
0.0
  0
LINE
  5
3B34
100
AcDbEntity
  8
V0-VYPLNE
  6
DASHDOT
 62
    63
100
AcDbLine
 10
1820.010108
 20
214.727969
 30
0.0
 11
1520.010191
 21
-85.271889
 31
0.0
  0
LINE
  5
3B3A
100
AcDbEntity
  8
V0-VYPLNE
  6
DASHDOT
 62
    63
100
AcDbLine
 10
1107.628356
 20
-775.357809
 30
0.0
 11
1107.62833
 21
-607.208265
 31
0.0
  0
POINT
  5
3B3B
100
AcDbEntity
  8
V0-VYPLNE
  6
CONTINUOUS
 62
    41
100
AcDbPoint
 10
1194.474631
 20
64.727999
 30
0.0
  0
POINT
  5
3B3C
100
AcDbEntity
  8
V0-VYPLNE
  6
CONTINUOUS
 62
    41
100
AcDbPoint
 10
1194.474631
 20
-550.207809
 30
0.0
  0
VIEWPORT
  5
22
100
AcDbEntity
 67
     1
  8
0
100
AcDbViewport
 10
261.517699
 20
148.5
 30
0.0
 40
523.035398
 41
297.0
 68
    -1
 69
     1
1001
ACAD
1000
MVIEW
1002
{
1070
    16
1010
0.0
1020
0.0
1030
0.0
1010
0.0
1020
0.0
1030
1.0
1040
0.0
1040
297.0
1040
261.517699
1040
148.5
1040
50.0
1040
0.0
1040
0.0
1070
     0
1070
   100
1070
     1
1070
     1
1070
     0
1070
     0
1070
     0
1070
     0
1040
0.0
1040
0.0
1040
0.0
1040
1.0
1040
1.0
1040
10.0
1040
10.0
1070
     0
1002
{
1002
}
1002
}
  0
ENDSEC
  0
SECTION
  2
OBJECTS
  0
DICTIONARY
  5
C
100
AcDbDictionary
  3
ACAD_GROUP
350
D
  3
ACAD_MLINESTYLE
350
E
  3
ACDBVARIABLEDICTIONARY
350
5D
  0
DICTIONARY
  5
D
102
{ACAD_REACTORS
330
C
102
}
100
AcDbDictionary
  0
DICTIONARY
  5
E
102
{ACAD_REACTORS
330
C
102
}
100
AcDbDictionary
  3
STANDARD
350
13
  0
DICTIONARY
  5
5D
102
{ACAD_REACTORS
330
C
102
}
100
AcDbDictionary
  3
DIMADEC
350
5E
  3
SORTENTS
350
3D8
  0
MLINESTYLE
  5
13
102
{ACAD_REACTORS
330
E
102
}
100
AcDbMlineStyle
  2
STANDARD
 70
     0
  3

 62
     0
 51
90.0
 52
90.0
 71
     2
 49
0.5
 62
   256
  6
BYLAYER
 49
-0.5
 62
   256
  6
BYLAYER
  0
DICTIONARYVAR
  5
5E
102
{ACAD_REACTORS
330
5D
102
}
100
DictionaryVariables
280
     0
  1
0
  0
DICTIONARYVAR
  5
3D8
102
{ACAD_REACTORS
330
5D
102
}
100
DictionaryVariables
280
     0
  1
96
  0
ENDSEC
  0
EOF
