  0
SECTION
  2
HEADER
  9
$ACADVER
  1
AC1014
  9
$ACADMAINTVER
 70
     0
  9
$DWGCODEPAGE
  3
ANSI_1250
  9
$INSBASE
 10
0.0
 20
0.0
 30
0.0
  9
$EXTMIN
 10
870.098313
 20
-749.502559
 30
0.0
  9
$EXTMAX
 10
1713.124478
 20
301.978195
 30
0.0
  9
$LIMMIN
 10
0.0
 20
0.0
  9
$LIMMAX
 10
420.0
 20
297.0
  9
$ORTHOMODE
 70
     0
  9
$REGENMODE
 70
     1
  9
$FILLMODE
 70
     1
  9
$QTEXTMODE
 70
     0
  9
$MIRRTEXT
 70
     1
  9
$DRAGMODE
 70
     2
  9
$LTSCALE
 40
1.0
  9
$OSMODE
 70
     1
  9
$ATTMODE
 70
     1
  9
$TEXTSIZE
 40
40.0
  9
$TRACEWID
 40
1.0
  9
$TEXTSTYLE
  7
ED40
  9
$CLAYER
  8
V0-VYPLNE
  9
$CELTYPE
  6
CONTINUOUS
  9
$CECOLOR
 62
    41
  9
$CELTSCALE
 40
1.0
  9
$DELOBJ
 70
     1
  9
$DISPSILH
 70
     0
  9
$DIMSCALE
 40
1.0
  9
$DIMASZ
 40
30.0
  9
$DIMEXO
 40
1.0
  9
$DIMDLI
 40
3.75
  9
$DIMRND
 40
0.0
  9
$DIMDLE
 40
0.0
  9
$DIMEXE
 40
1.25
  9
$DIMTP
 40
0.0
  9
$DIMTM
 40
0.0
  9
$DIMTXT
 40
30.0
  9
$DIMCEN
 40
3.0
  9
$DIMTSZ
 40
0.0
  9
$DIMTOL
 70
     0
  9
$DIMLIM
 70
     0
  9
$DIMTIH
 70
     0
  9
$DIMTOH
 70
     0
  9
$DIMSE1
 70
     0
  9
$DIMSE2
 70
     0
  9
$DIMTAD
 70
     1
  9
$DIMZIN
 70
     8
  9
$DIMBLK
  1

  9
$DIMASO
 70
     1
  9
$DIMSHO
 70
     1
  9
$DIMPOST
  1

  9
$DIMAPOST
  1

  9
$DIMALT
 70
     0
  9
$DIMALTD
 70
     4
  9
$DIMALTF
 40
0.0394
  9
$DIMLFAC
 40
1.0
  9
$DIMTOFL
 70
     1
  9
$DIMTVP
 40
0.0
  9
$DIMTIX
 70
     0
  9
$DIMSOXD
 70
     0
  9
$DIMSAH
 70
     1
  9
$DIMBLK1
  1
_OPEN
  9
$DIMBLK2
  1
_OPEN
  9
$DIMSTYLE
  2
ED30
  9
$DIMCLRD
 70
    41
  9
$DIMCLRE
 70
    41
  9
$DIMCLRT
 70
    41
  9
$DIMTFAC
 40
1.0
  9
$DIMGAP
 40
2.0
  9
$DIMJUST
 70
     0
  9
$DIMSD1
 70
     0
  9
$DIMSD2
 70
     0
  9
$DIMTOLJ
 70
     1
  9
$DIMTZIN
 70
     8
  9
$DIMALTZ
 70
     0
  9
$DIMALTTZ
 70
     0
  9
$DIMFIT
 70
     3
  9
$DIMUPT
 70
     0
  9
$DIMUNIT
 70
     2
  9
$DIMDEC
 70
     0
  9
$DIMTDEC
 70
     1
  9
$DIMALTU
 70
     8
  9
$DIMALTTD
 70
     4
  9
$DIMTXSTY
  7
ED30
  9
$DIMAUNIT
 70
     0
  9
$LUNITS
 70
     2
  9
$LUPREC
 70
     4
  9
$SKETCHINC
 40
1.0
  9
$FILLETRAD
 40
10.0
  9
$AUNITS
 70
     0
  9
$AUPREC
 70
     0
  9
$MENU
  1
.
  9
$ELEVATION
 40
0.0
  9
$PELEVATION
 40
0.0
  9
$THICKNESS
 40
0.0
  9
$LIMCHECK
 70
     0
  9
$BLIPMODE
 70
     0
  9
$CHAMFERA
 40
0.5
  9
$CHAMFERB
 40
0.5
  9
$CHAMFERC
 40
20.0
  9
$CHAMFERD
 40
0.0
  9
$SKPOLY
 70
     1
  9
$TDCREATE
 40
2451196.643769328
  9
$TDUPDATE
 40
2452943.721520023
  9
$TDINDWG
 40
0.9654292824
  9
$TDUSRTIMER
 40
0.9654292824
  9
$USRTIMER
 70
     1
  9
$ANGBASE
 50
0.0
  9
$ANGDIR
 70
     0
  9
$PDMODE
 70
    35
  9
$PDSIZE
 40
20.0
  9
$PLINEWID
 40
0.0
  9
$COORDS
 70
     1
  9
$SPLFRAME
 70
     0
  9
$SPLINETYPE
 70
     6
  9
$SPLINESEGS
 70
     8
  9
$ATTDIA
 70
     0
  9
$ATTREQ
 70
     1
  9
$HANDLING
 70
     1
  9
$HANDSEED
  5
36F9
  9
$SURFTAB1
 70
     6
  9
$SURFTAB2
 70
     6
  9
$SURFTYPE
 70
     6
  9
$SURFU
 70
     6
  9
$SURFV
 70
     6
  9
$UCSNAME
  2

  9
$UCSORG
 10
1008.915149892454
 20
53.06364063268124
 30
0.0
  9
$UCSXDIR
 10
1.0
 20
0.0
 30
0.0
  9
$UCSYDIR
 10
0.0
 20
1.0
 30
0.0
  9
$PUCSNAME
  2

  9
$PUCSORG
 10
0.0
 20
0.0
 30
0.0
  9
$PUCSXDIR
 10
1.0
 20
0.0
 30
0.0
  9
$PUCSYDIR
 10
0.0
 20
1.0
 30
0.0
  9
$USERI1
 70
     0
  9
$USERI2
 70
     0
  9
$USERI3
 70
     2
  9
$USERI4
 70
     2
  9
$USERI5
 70
     6
  9
$USERR1
 40
281.0
  9
$USERR2
 40
321.0
  9
$USERR3
 40
0.0
  9
$USERR4
 40
0.0
  9
$USERR5
 40
0.0
  9
$WORLDVIEW
 70
     1
  9
$SHADEDGE
 70
     3
  9
$SHADEDIF
 70
    70
  9
$TILEMODE
 70
     1
  9
$MAXACTVP
 70
    48
  9
$PINSBASE
 10
0.0
 20
0.0
 30
0.0
  9
$PLIMCHECK
 70
     0
  9
$PEXTMIN
 10
1.000000E+20
 20
1.000000E+20
 30
1.000000E+20
  9
$PEXTMAX
 10
-1.000000E+20
 20
-1.000000E+20
 30
-1.000000E+20
  9
$PLIMMIN
 10
0.0
 20
0.0
  9
$PLIMMAX
 10
420.0
 20
297.0
  9
$UNITMODE
 70
     0
  9
$VISRETAIN
 70
     1
  9
$PLINEGEN
 70
     0
  9
$PSLTSCALE
 70
     0
  9
$TREEDEPTH
 70
  3020
  9
$PICKSTYLE
 70
     0
  9
$CMLSTYLE
  2
STANDARD
  9
$CMLJUST
 70
     1
  9
$CMLSCALE
 40
3.0
  9
$PROXYGRAPHICS
 70
     1
  9
$MEASUREMENT
 70
     1
  0
ENDSEC
  0
SECTION
  2
CLASSES
  0
CLASS
  1
DICTIONARYVAR
  2
AcDbDictionaryVar
  3
"AutoCAD"
 90
        0
280
     0
281
     0
  0
CLASS
  1
LWPOLYLINE
  2
AcDbPolyline
  3
"AutoCAD"
 90
        0
280
     0
281
     1
  0
CLASS
  1
HATCH
  2
AcDbHatch
  3
"ACAD_SEDONA"
 90
        0
280
     0
281
     1
  0
ENDSEC
  0
SECTION
  2
TABLES
  0
TABLE
  2
VPORT
  5
8
100
AcDbSymbolTable
 70
     2
  0
VPORT
  5
36F8
100
AcDbSymbolTableRecord
100
AcDbViewportTableRecord
  2
*ACTIVE
 70
     0
 10
0.0
 20
0.0
 11
1.0
 21
1.0
 12
1287.983308
 22
-154.52705
 13
0.0
 23
0.0
 14
10.0
 24
10.0
 15
10.0
 25
10.0
 16
0.0
 26
0.0
 36
1.0
 17
0.0
 27
0.0
 37
0.0
 40
1230.383903
 41
1.53876
 42
50.0
 43
0.0
 44
0.0
 50
0.0
 51
0.0
 71
     0
 72
   100
 73
     1
 74
     1
 75
     0
 76
     0
 77
     0
 78
     0
  0
ENDTAB
  0
TABLE
  2
LTYPE
  5
5
100
AcDbSymbolTable
 70
     4
  0
LTYPE
  5
14
100
AcDbSymbolTableRecord
100
AcDbLinetypeTableRecord
  2
BYBLOCK
 70
     0
  3

 72
    65
 73
     0
 40
0.0
  0
LTYPE
  5
15
100
AcDbSymbolTableRecord
100
AcDbLinetypeTableRecord
  2
BYLAYER
 70
     0
  3

 72
    65
 73
     0
 40
0.0
  0
LTYPE
  5
16
100
AcDbSymbolTableRecord
100
AcDbLinetypeTableRecord
  2
CONTINUOUS
 70
     0
  3
Solid line
 72
    65
 73
     0
 40
0.0
  0
LTYPE
  5
7F
100
AcDbSymbolTableRecord
100
AcDbLinetypeTableRecord
  2
DASHDOT
 70
     0
  3
Dash dot __ . __ . __ . __ . __ . __ . __ . __
 72
    65
 73
     4
 40
25.4
 49
12.7
 74
     0
 49
-6.35
 74
     0
 49
0.0
 74
     0
 49
-6.35
 74
     0
  0
LTYPE
  5
1B9E
100
AcDbSymbolTableRecord
100
AcDbLinetypeTableRecord
  2
ACAD_ISO02W100
 70
     0
  3
ISO dash __ __ __ __ __ __ __ __ __ __ __ __ __
 72
    65
 73
     2
 40
15.0
 49
12.0
 74
     0
 49
-3.0
 74
     0
  0
LTYPE
  5
1B9F
100
AcDbSymbolTableRecord
100
AcDbLinetypeTableRecord
  2
DASHED
 70
     0
  3
Dashed __ __ __ __ __ __ __ __ __ __ __ __ __ _
 72
    65
 73
     2
 40
19.05
 49
12.7
 74
     0
 49
-6.35
 74
     0
  0
ENDTAB
  0
TABLE
  2
LAYER
  5
2
100
AcDbSymbolTable
 70
     5
  0
LAYER
  5
F
100
AcDbSymbolTableRecord
100
AcDbLayerTableRecord
  2
0
 70
     0
 62
     7
  6
CONTINUOUS
  0
LAYER
  5
9E
100
AcDbSymbolTableRecord
100
AcDbLayerTableRecord
  2
DEFPOINTS
 70
     0
 62
     7
  6
CONTINUOUS
  0
LAYER
  5
377
100
AcDbSymbolTableRecord
100
AcDbLayerTableRecord
  2
V0-OBRYS
 70
     0
 62
    90
  6
CONTINUOUS
  0
LAYER
  5
378
100
AcDbSymbolTableRecord
100
AcDbLayerTableRecord
  2
V0-VYPLNE
 70
     0
 62
    63
  6
DASHDOT
  0
LAYER
  5
1540
100
AcDbSymbolTableRecord
100
AcDbLayerTableRecord
  2
VO-OBRYS
 70
     0
 62
    90
  6
CONTINUOUS
  0
ENDTAB
  0
TABLE
  2
STYLE
  5
3
100
AcDbSymbolTable
 70
     6
  0
STYLE
  5
10
100
AcDbSymbolTableRecord
100
AcDbTextStyleTableRecord
  2
STANDARD
 70
     0
 40
0.0
 41
1.0
 50
0.0
 71
     0
 42
2.5
  3
ISOCP
  4

  0
STYLE
  5
331
100
AcDbSymbolTableRecord
100
AcDbTextStyleTableRecord
  2
ED20
 70
     0
 40
20.0
 41
1.0
 50
0.0
 71
     0
 42
2.5
  3
ISOCP.shx
  4

  0
STYLE
  5
648
100
AcDbSymbolTableRecord
100
AcDbTextStyleTableRecord
  2
ED10
 70
     0
 40
10.0
 41
1.0
 50
0.0
 71
     0
 42
10.0
  3
ISOCP.shx
  4

  0
STYLE
  5
F38
100
AcDbSymbolTableRecord
100
AcDbTextStyleTableRecord
  2
ED30
 70
     0
 40
30.0
 41
1.0
 50
0.0
 71
     0
 42
2.5
  3
ISOCP.shx
  4

  0
STYLE
  5
F39
100
AcDbSymbolTableRecord
100
AcDbTextStyleTableRecord
  2
ED40
 70
     0
 40
40.0
 41
1.0
 50
0.0
 71
     0
 42
40.0
  3
ISOCP.shx
  4

  0
STYLE
  5
1B9D
100
AcDbSymbolTableRecord
100
AcDbTextStyleTableRecord
  2

 70
     1
 40
0.0
 41
1.0
 50
0.0
 71
     0
 42
40.0
  3
ltypeshp.shx
  4

  0
ENDTAB
  0
TABLE
  2
VIEW
  5
6
100
AcDbSymbolTable
 70
     0
  0
ENDTAB
  0
TABLE
  2
UCS
  5
7
100
AcDbSymbolTable
 70
     0
  0
ENDTAB
  0
TABLE
  2
APPID
  5
9
100
AcDbSymbolTable
 70
     3
  0
APPID
  5
11
100
AcDbSymbolTableRecord
100
AcDbRegAppTableRecord
  2
ACAD
 70
     0
  0
APPID
  5
2570
100
AcDbSymbolTableRecord
100
AcDbRegAppTableRecord
  2
CONTENTBLOCKICON
 70
     0
  0
APPID
  5
2571
100
AcDbSymbolTableRecord
100
AcDbRegAppTableRecord
  2
CONTENTBLOCKDESCRIPTION
 70
     0
  0
ENDTAB
  0
TABLE
  2
DIMSTYLE
  5
A
100
AcDbSymbolTable
 70
     3
  0
DIMSTYLE
105
1D
100
AcDbSymbolTableRecord
100
AcDbDimStyleTableRecord
  2
STANDARD
 70
     0
  3

  4

  5

  6
_OPEN
  7
_OPEN
 40
0.0
 41
15.0
 42
0.625
 43
3.75
 44
1.25
 45
0.0
 46
0.0
 47
0.0
 48
0.0
140
15.0
141
2.5
142
0.0
143
0.0394
144
1.0
145
0.0
146
1.0
147
3.0
 71
     0
 72
     0
 73
     0
 74
     0
 75
     0
 76
     0
 77
     1
 78
     8
170
     0
171
     4
172
     1
173
     1
174
     0
175
     0
176
     0
177
     0
178
     0
270
     2
271
     0
272
     1
273
     8
274
     4
340
331
275
     0
280
     0
281
     0
282
     0
283
     1
284
     8
285
     0
286
     0
287
     3
288
     0
  0
DIMSTYLE
105
FE9
102
{ACAD_REACTORS
330
2E78
330
2E92
330
2FD1
330
3081
330
31BE
102
}
100
AcDbSymbolTableRecord
100
AcDbDimStyleTableRecord
  2
ED20
 70
     0
  3

  4

  5

  6
_OPEN
  7
_OPEN
 40
1.0
 41
20.0
 42
1.0
 43
3.75
 44
1.25
 45
0.0
 46
0.0
 47
0.0
 48
0.0
140
20.0
141
3.0
142
0.0
143
0.0394
144
1.0
145
0.0
146
1.0
147
2.0
 71
     0
 72
     0
 73
     0
 74
     0
 75
     0
 76
     0
 77
     1
 78
     8
170
     0
171
     4
172
     1
173
     1
174
     0
175
     0
176
    41
177
    41
178
    41
270
     2
271
     0
272
     1
273
     8
274
     4
340
331
275
     0
280
     0
281
     0
282
     0
283
     1
284
     8
285
     0
286
     0
287
     3
288
     0
  0
DIMSTYLE
105
320E
100
AcDbSymbolTableRecord
100
AcDbDimStyleTableRecord
  2
ED30
 70
     0
  3

  4

  5

  6
_OPEN
  7
_OPEN
 40
1.0
 41
20.0
 42
1.0
 43
3.75
 44
1.25
 45
0.0
 46
0.0
 47
0.0
 48
0.0
140
20.0
141
3.0
142
0.0
143
0.0394
144
1.0
145
0.0
146
1.0
147
2.0
 71
     0
 72
     0
 73
     0
 74
     0
 75
     0
 76
     0
 77
     1
 78
     8
170
     0
171
     4
172
     1
173
     1
174
     0
175
     0
176
    41
177
    41
178
    41
270
     2
271
     0
272
     1
273
     8
274
     4
340
331
275
     0
280
     0
281
     0
282
     0
283
     1
284
     8
285
     0
286
     0
287
     3
288
     0
  0
ENDTAB
  0
TABLE
  2
BLOCK_RECORD
  5
1
100
AcDbSymbolTable
 70
     8
  0
BLOCK_RECORD
  5
1A
100
AcDbSymbolTableRecord
100
AcDbBlockTableRecord
  2
*MODEL_SPACE
  0
BLOCK_RECORD
  5
17
100
AcDbSymbolTableRecord
100
AcDbBlockTableRecord
  2
*PAPER_SPACE
  0
BLOCK_RECORD
  5
90
100
AcDbSymbolTableRecord
100
AcDbBlockTableRecord
  2
_OPEN
  0
BLOCK_RECORD
  5
2A60
100
AcDbSymbolTableRecord
100
AcDbBlockTableRecord
  2
*D1
  0
BLOCK_RECORD
  5
2E55
100
AcDbSymbolTableRecord
100
AcDbBlockTableRecord
  2
*D2
  0
BLOCK_RECORD
  5
2E6C
100
AcDbSymbolTableRecord
100
AcDbBlockTableRecord
  2
*D3
  0
BLOCK_RECORD
  5
2E84
100
AcDbSymbolTableRecord
100
AcDbBlockTableRecord
  2
*D4
  0
BLOCK_RECORD
  5
2FC5
100
AcDbSymbolTableRecord
100
AcDbBlockTableRecord
  2
*D5
  0
BLOCK_RECORD
  5
3075
100
AcDbSymbolTableRecord
100
AcDbBlockTableRecord
  2
*D6
  0
BLOCK_RECORD
  5
31B2
100
AcDbSymbolTableRecord
100
AcDbBlockTableRecord
  2
*D7
  0
ENDTAB
  0
ENDSEC
  0
SECTION
  2
BLOCKS
  0
BLOCK
  5
1B
100
AcDbEntity
  8
0
100
AcDbBlockBegin
  2
*MODEL_SPACE
 70
     0
 10
0.0
 20
0.0
 30
0.0
  3
*MODEL_SPACE
  1

  0
ENDBLK
  5
1C
100
AcDbEntity
  8
0
100
AcDbBlockEnd
  0
BLOCK
  5
18
100
AcDbEntity
 67
     1
  8
0
100
AcDbBlockBegin
  2
*PAPER_SPACE
 70
     0
 10
0.0
 20
0.0
 30
0.0
  3
*PAPER_SPACE
  1

  0
ENDBLK
  5
19
100
AcDbEntity
 67
     1
  8
0
100
AcDbBlockEnd
  0
BLOCK
  5
91
100
AcDbEntity
  8
0
100
AcDbBlockBegin
  2
_OPEN
 70
     0
 10
0.0
 20
0.0
 30
0.0
  3
_OPEN
  1

  0
LINE
  5
92
100
AcDbEntity
  8
0
  6
BYBLOCK
 62
     0
100
AcDbLine
 10
-1.0
 20
0.166667
 30
0.0
 11
0.0
 21
0.0
 31
0.0
  0
LINE
  5
93
100
AcDbEntity
  8
0
  6
BYBLOCK
 62
     0
100
AcDbLine
 10
0.0
 20
0.0
 30
0.0
 11
-1.0
 21
-0.166667
 31
0.0
  0
LINE
  5
94
100
AcDbEntity
  8
0
  6
BYBLOCK
 62
     0
100
AcDbLine
 10
0.0
 20
0.0
 30
0.0
 11
-1.0
 21
0.0
 31
0.0
  0
ENDBLK
  5
95
100
AcDbEntity
  8
0
100
AcDbBlockEnd
  0
BLOCK
  5
328C
100
AcDbEntity
  8
0
100
AcDbBlockBegin
  2
*D1
 70
     1
 10
0.0
 20
0.0
 30
0.0
  3
*D1
  1

  0
LINE
  5
328D
100
AcDbEntity
  8
0
  6
BYBLOCK
 62
    41
100
AcDbLine
 10
1310.774186
 20
-143.48011
 30
0.0
 11
1310.774186
 21
-248.504746
 31
0.0
  0
LINE
  5
328E
100
AcDbEntity
  8
0
  6
BYBLOCK
 62
    41
100
AcDbLine
 10
1710.49505
 20
-143.48011
 30
0.0
 11
1710.49505
 21
-248.504746
 31
0.0
  0
LINE
  5
328F
100
AcDbEntity
  8
0
  6
BYBLOCK
 62
    41
100
AcDbLine
 10
1340.774186
 20
-247.254746
 30
0.0
 11
1680.49505
 21
-247.254746
 31
0.0
  0
INSERT
  5
3290
100
AcDbEntity
  8
0
  6
BYBLOCK
 62
    41
100
AcDbBlockReference
  2
_OPEN
 10
1310.774186
 20
-247.254746
 30
0.0
 41
30.0
 42
30.0
 43
30.0
 50
180.0
  0
INSERT
  5
3291
100
AcDbEntity
  8
0
  6
BYBLOCK
 62
    41
100
AcDbBlockReference
  2
_OPEN
 10
1710.49505
 20
-247.254746
 30
0.0
 41
30.0
 42
30.0
 43
30.0
  0
MTEXT
  5
3292
100
AcDbEntity
  8
0
  6
BYBLOCK
 62
    41
100
AcDbMText
 10
1505.826098
 20
-230.254746
 30
0.0
 40
30.0
 41
0.0
 71
     5
 72
     1
  1
\A1;400
  7
ED30
  0
POINT
  5
3293
100
AcDbEntity
  8
DEFPOINTS
  6
BYBLOCK
 62
     0
100
AcDbPoint
 10
1310.774186
 20
-142.48011
 30
0.0
  0
POINT
  5
3294
100
AcDbEntity
  8
DEFPOINTS
  6
BYBLOCK
 62
     0
100
AcDbPoint
 10
1710.49505
 20
-142.48011
 30
0.0
  0
POINT
  5
3295
100
AcDbEntity
  8
DEFPOINTS
  6
BYBLOCK
 62
     0
100
AcDbPoint
 10
1710.49505
 20
-247.254746
 30
0.0
  0
ENDBLK
  5
3296
100
AcDbEntity
  8
0
100
AcDbBlockEnd
  0
BLOCK
  5
3232
100
AcDbEntity
  8
0
100
AcDbBlockBegin
  2
*D2
 70
     1
 10
0.0
 20
0.0
 30
0.0
  3
*D2
  1

  0
LINE
  5
3233
100
AcDbEntity
  8
0
  6
BYBLOCK
 62
    41
100
AcDbLine
 10
1097.525369
 20
210.563326
 30
0.0
 11
1177.287233
 21
210.563326
 31
0.0
  0
LINE
  5
3234
100
AcDbEntity
  8
0
  6
BYBLOCK
 62
    41
100
AcDbLine
 10
1097.525369
 20
-104.436044
 30
0.0
 11
1177.287233
 21
-104.436044
 31
0.0
  0
LINE
  5
3235
100
AcDbEntity
  8
0
  6
BYBLOCK
 62
    41
100
AcDbLine
 10
1176.037233
 20
180.563326
 30
0.0
 11
1176.037233
 21
-74.436044
 31
0.0
  0
INSERT
  5
3236
100
AcDbEntity
  8
0
  6
BYBLOCK
 62
    41
100
AcDbBlockReference
  2
_OPEN
 10
1176.037233
 20
210.563326
 30
0.0
 41
30.0
 42
30.0
 43
30.0
 50
90.0
  0
INSERT
  5
3237
100
AcDbEntity
  8
0
  6
BYBLOCK
 62
    41
100
AcDbBlockReference
  2
_OPEN
 10
1176.037233
 20
-104.436044
 30
0.0
 41
30.0
 42
30.0
 43
30.0
 50
270.0
  0
MTEXT
  5
3238
100
AcDbEntity
  8
0
  6
BYBLOCK
 62
    41
100
AcDbMText
 10
1159.037233
 20
50.17286
 30
0.0
 40
30.0
 41
0.0
 71
     5
 72
     1
  1
\A1;\U+2205315
  7
ED30
 11
0.0
 21
1.0
 31
0.0
  0
POINT
  5
3239
100
AcDbEntity
  8
DEFPOINTS
  6
BYBLOCK
 62
     0
100
AcDbPoint
 10
1096.525369
 20
210.563326
 30
0.0
  0
POINT
  5
323A
100
AcDbEntity
  8
DEFPOINTS
  6
BYBLOCK
 62
     0
100
AcDbPoint
 10
1096.525369
 20
-104.436044
 30
0.0
  0
POINT
  5
323B
100
AcDbEntity
  8
DEFPOINTS
  6
BYBLOCK
 62
     0
100
AcDbPoint
 10
1176.037233
 20
-104.436044
 30
0.0
  0
ENDBLK
  5
323C
100
AcDbEntity
  8
0
100
AcDbBlockEnd
  0
BLOCK
  5
3281
100
AcDbEntity
  8
0
100
AcDbBlockBegin
  2
*D3
 70
     1
 10
0.0
 20
0.0
 30
0.0
  3
*D3
  1

  0
LINE
  5
3282
100
AcDbEntity
  8
0
  6
BYBLOCK
 62
    41
100
AcDbLine
 10
1024.03515
 20
-147.886359
 30
0.0
 11
1024.03515
 21
-235.683539
 31
0.0
  0
LINE
  5
3283
100
AcDbEntity
  8
0
  6
BYBLOCK
 62
    41
100
AcDbLine
 10
1096.525369
 20
-105.436044
 30
0.0
 11
1096.525369
 21
-235.683539
 31
0.0
  0
LINE
  5
3284
100
AcDbEntity
  8
0
  6
BYBLOCK
 62
    41
100
AcDbLine
 10
1054.03515
 20
-234.433539
 30
0.0
 11
1066.525369
 21
-234.433539
 31
0.0
  0
INSERT
  5
3285
100
AcDbEntity
  8
0
  6
BYBLOCK
 62
    41
100
AcDbBlockReference
  2
_OPEN
 10
1024.03515
 20
-234.433539
 30
0.0
 41
30.0
 42
30.0
 43
30.0
 50
180.0
  0
INSERT
  5
3286
100
AcDbEntity
  8
0
  6
BYBLOCK
 62
    41
100
AcDbBlockReference
  2
_OPEN
 10
1096.525369
 20
-234.433539
 30
0.0
 41
30.0
 42
30.0
 43
30.0
  0
MTEXT
  5
3287
100
AcDbEntity
  8
0
  6
BYBLOCK
 62
    41
100
AcDbMText
 10
1056.717139
 20
-217.433539
 30
0.0
 40
30.0
 41
0.0
 71
     5
 72
     1
  1
\A1;73
  7
ED30
  0
POINT
  5
3288
100
AcDbEntity
  8
DEFPOINTS
  6
BYBLOCK
 62
     0
100
AcDbPoint
 10
1024.03515
 20
-146.886359
 30
0.0
  0
POINT
  5
3289
100
AcDbEntity
  8
DEFPOINTS
  6
BYBLOCK
 62
     0
100
AcDbPoint
 10
1096.525369
 20
-104.436044
 30
0.0
  0
POINT
  5
328A
100
AcDbEntity
  8
DEFPOINTS
  6
BYBLOCK
 62
     0
100
AcDbPoint
 10
1096.525369
 20
-234.433539
 30
0.0
  0
ENDBLK
  5
328B
100
AcDbEntity
  8
0
100
AcDbBlockEnd
  0
BLOCK
  5
3269
100
AcDbEntity
  8
0
100
AcDbBlockBegin
  2
*D4
 70
     1
 10
0.0
 20
0.0
 30
0.0
  3
*D4
  1

  0
LINE
  5
326A
100
AcDbEntity
  8
0
  6
BYBLOCK
 62
    41
100
AcDbLine
 10
1011.91515
 20
-147.886359
 30
0.0
 11
1011.91515
 21
-188.672438
 31
0.0
  0
LINE
  5
326B
100
AcDbEntity
  8
0
  6
BYBLOCK
 62
    41
100
AcDbLine
 10
1024.03515
 20
-147.886359
 30
0.0
 11
1024.03515
 21
-188.672438
 31
0.0
  0
LINE
  5
326C
100
AcDbEntity
  8
0
  6
BYBLOCK
 62
    41
100
AcDbLine
 10
1054.03515
 20
-187.422438
 30
0.0
 11
1084.03515
 21
-187.422438
 31
0.0
  0
LINE
  5
326D
100
AcDbEntity
  8
0
  6
BYBLOCK
 62
    41
100
AcDbLine
 10
981.91515
 20
-187.422438
 30
0.0
 11
919.113378
 21
-187.422438
 31
0.0
  0
LINE
  5
326E
100
AcDbEntity
  8
0
  6
BYBLOCK
 62
    41
100
AcDbLine
 10
1024.03515
 20
-187.422438
 30
0.0
 11
1011.91515
 21
-187.422438
 31
0.0
  0
INSERT
  5
326F
100
AcDbEntity
  8
0
  6
BYBLOCK
 62
    41
100
AcDbBlockReference
  2
_OPEN
 10
1024.03515
 20
-187.422438
 30
0.0
 41
30.0
 42
30.0
 43
30.0
 50
180.0
  0
INSERT
  5
3270
100
AcDbEntity
  8
0
  6
BYBLOCK
 62
    41
100
AcDbBlockReference
  2
_OPEN
 10
1011.91515
 20
-187.422438
 30
0.0
 41
30.0
 42
30.0
 43
30.0
  0
MTEXT
  5
3271
100
AcDbEntity
  8
0
  6
BYBLOCK
 62
    41
100
AcDbMText
 10
935.514264
 20
-170.419486
 30
0.0
 40
30.0
 41
0.0
 71
     5
 72
     1
  1
\A1;12
  7
ED30
  0
POINT
  5
3272
100
AcDbEntity
  8
DEFPOINTS
  6
BYBLOCK
 62
     0
100
AcDbPoint
 10
1011.91515
 20
-146.886359
 30
0.0
  0
POINT
  5
3273
100
AcDbEntity
  8
DEFPOINTS
  6
BYBLOCK
 62
     0
100
AcDbPoint
 10
1024.03515
 20
-146.886359
 30
0.0
  0
POINT
  5
3274
100
AcDbEntity
  8
DEFPOINTS
  6
BYBLOCK
 62
     0
100
AcDbPoint
 10
1024.03515
 20
-187.422438
 30
0.0
  0
ENDBLK
  5
3275
100
AcDbEntity
  8
0
100
AcDbBlockEnd
  0
BLOCK
  5
32AD
100
AcDbEntity
  8
0
100
AcDbBlockBegin
  2
*D5
 70
     1
 10
0.0
 20
0.0
 30
0.0
  3
*D5
  1

  0
LINE
  5
32AE
100
AcDbEntity
  8
0
  6
BYBLOCK
 62
    41
100
AcDbLine
 10
1001.915043
 20
110.064097
 30
0.0
 11
899.348313
 21
110.064097
 31
0.0
  0
LINE
  5
32AF
100
AcDbEntity
  8
0
  6
BYBLOCK
 62
    41
100
AcDbLine
 10
1001.915043
 20
-3.936815
 30
0.0
 11
899.348313
 21
-3.936815
 31
0.0
  0
LINE
  5
32B0
100
AcDbEntity
  8
0
  6
BYBLOCK
 62
    41
100
AcDbLine
 10
900.598313
 20
80.064097
 30
0.0
 11
900.598313
 21
26.063185
 31
0.0
  0
INSERT
  5
32B1
100
AcDbEntity
  8
0
  6
BYBLOCK
 62
    41
100
AcDbBlockReference
  2
_OPEN
 10
900.598313
 20
110.064097
 30
0.0
 41
30.0
 42
30.0
 43
30.0
 50
90.0
  0
INSERT
  5
32B2
100
AcDbEntity
  8
0
  6
BYBLOCK
 62
    41
100
AcDbBlockReference
  2
_OPEN
 10
900.598313
 20
-3.936815
 30
0.0
 41
30.0
 42
30.0
 43
30.0
 50
270.0
  0
MTEXT
  5
32B3
100
AcDbEntity
  8
0
  6
BYBLOCK
 62
    41
100
AcDbMText
 10
883.598313
 20
51.90679
 30
0.0
 40
30.0
 41
0.0
 71
     5
 72
     1
  1
\A1;\U+2205114
  7
ED30
 11
0.0
 21
1.0
 31
0.0
  0
POINT
  5
32B4
100
AcDbEntity
  8
DEFPOINTS
  6
BYBLOCK
 62
     0
100
AcDbPoint
 10
1002.915043
 20
110.064097
 30
0.0
  0
POINT
  5
32B5
100
AcDbEntity
  8
DEFPOINTS
  6
BYBLOCK
 62
     0
100
AcDbPoint
 10
1002.915043
 20
-3.936815
 30
0.0
  0
POINT
  5
32B6
100
AcDbEntity
  8
DEFPOINTS
  6
BYBLOCK
 62
     0
100
AcDbPoint
 10
900.598313
 20
-3.936815
 30
0.0
  0
ENDBLK
  5
32B7
100
AcDbEntity
  8
0
100
AcDbBlockEnd
  0
BLOCK
  5
3297
100
AcDbEntity
  8
0
100
AcDbBlockBegin
  2
*D6
 70
     1
 10
0.0
 20
0.0
 30
0.0
  3
*D6
  1

  0
LINE
  5
3298
100
AcDbEntity
  8
0
  6
BYBLOCK
 62
    41
100
AcDbLine
 10
1345.408874
 20
-113.162062
 30
0.0
 11
1345.408874
 21
-199.356779
 31
0.0
  0
LINE
  5
3299
100
AcDbEntity
  8
0
  6
BYBLOCK
 62
    41
100
AcDbLine
 10
1675.860362
 20
-113.162062
 30
0.0
 11
1675.860362
 21
-199.356779
 31
0.0
  0
LINE
  5
329A
100
AcDbEntity
  8
0
  6
BYBLOCK
 62
    41
100
AcDbLine
 10
1375.408874
 20
-198.106779
 30
0.0
 11
1645.860362
 21
-198.106779
 31
0.0
  0
INSERT
  5
329B
100
AcDbEntity
  8
0
  6
BYBLOCK
 62
    41
100
AcDbBlockReference
  2
_OPEN
 10
1345.408874
 20
-198.106779
 30
0.0
 41
30.0
 42
30.0
 43
30.0
 50
180.0
  0
INSERT
  5
329C
100
AcDbEntity
  8
0
  6
BYBLOCK
 62
    41
100
AcDbBlockReference
  2
_OPEN
 10
1675.860362
 20
-198.106779
 30
0.0
 41
30.0
 42
30.0
 43
30.0
  0
MTEXT
  5
329D
100
AcDbEntity
  8
0
  6
BYBLOCK
 62
    41
100
AcDbMText
 10
1510.103325
 20
-181.106779
 30
0.0
 40
30.0
 41
0.0
 71
     5
 72
     1
  1
\A1;330
  7
ED30
  0
POINT
  5
329E
100
AcDbEntity
  8
DEFPOINTS
  6
BYBLOCK
 62
     0
100
AcDbPoint
 10
1345.408874
 20
-112.162062
 30
0.0
  0
POINT
  5
329F
100
AcDbEntity
  8
DEFPOINTS
  6
BYBLOCK
 62
     0
100
AcDbPoint
 10
1675.860362
 20
-112.162062
 30
0.0
  0
POINT
  5
32A0
100
AcDbEntity
  8
DEFPOINTS
  6
BYBLOCK
 62
     0
100
AcDbPoint
 10
1675.860362
 20
-198.106779
 30
0.0
  0
ENDBLK
  5
32A1
100
AcDbEntity
  8
0
100
AcDbBlockEnd
  0
BLOCK
  5
3276
100
AcDbEntity
  8
0
100
AcDbBlockBegin
  2
*D7
 70
     1
 10
0.0
 20
0.0
 30
0.0
  3
*D7
  1

  0
LINE
  5
3277
100
AcDbEntity
  8
0
  6
BYBLOCK
 62
    41
100
AcDbLine
 10
984.032515
 20
-7.521735
 30
0.0
 11
984.032515
 21
-280.557769
 31
0.0
  0
LINE
  5
3278
100
AcDbEntity
  8
0
  6
BYBLOCK
 62
    41
100
AcDbLine
 10
1096.237272
 20
-107.710174
 30
0.0
 11
1096.237272
 21
-280.557769
 31
0.0
  0
LINE
  5
3279
100
AcDbEntity
  8
0
  6
BYBLOCK
 62
    41
100
AcDbLine
 10
1014.032515
 20
-279.307769
 30
0.0
 11
1066.237272
 21
-279.307769
 31
0.0
  0
INSERT
  5
327A
100
AcDbEntity
  8
0
  6
BYBLOCK
 62
    41
100
AcDbBlockReference
  2
_OPEN
 10
984.032515
 20
-279.307769
 30
0.0
 41
30.0
 42
30.0
 43
30.0
 50
180.0
  0
INSERT
  5
327B
100
AcDbEntity
  8
0
  6
BYBLOCK
 62
    41
100
AcDbBlockReference
  2
_OPEN
 10
1096.237272
 20
-279.307769
 30
0.0
 41
30.0
 42
30.0
 43
30.0
  0
MTEXT
  5
327C
100
AcDbEntity
  8
0
  6
BYBLOCK
 62
    41
100
AcDbMText
 10
1043.885456
 20
-262.304816
 30
0.0
 40
30.0
 41
0.0
 71
     5
 72
     1
  1
\A1;112
  7
ED30
  0
POINT
  5
327D
100
AcDbEntity
  8
DEFPOINTS
  6
BYBLOCK
 62
     0
100
AcDbPoint
 10
984.032515
 20
-6.521735
 30
0.0
  0
POINT
  5
327E
100
AcDbEntity
  8
DEFPOINTS
  6
BYBLOCK
 62
     0
100
AcDbPoint
 10
1096.237272
 20
-106.710174
 30
0.0
  0
POINT
  5
327F
100
AcDbEntity
  8
DEFPOINTS
  6
BYBLOCK
 62
     0
100
AcDbPoint
 10
1096.237272
 20
-279.307769
 30
0.0
  0
ENDBLK
  5
3280
100
AcDbEntity
  8
0
100
AcDbBlockEnd
  0
ENDSEC
  0
SECTION
  2
ENTITIES
  0
LINE
  5
2A41
100
AcDbEntity
  8
V0-OBRYS
  6
CONTINUOUS
100
AcDbLine
 10
1697.79905
 20
-146.79675
 30
0.0
 11
1323.470186
 21
-146.79675
 31
0.0
  0
DIMENSION
  5
2A43
100
AcDbEntity
  8
V0-VYPLNE
  6
CONTINUOUS
 62
    41
100
AcDbDimension
  2
*D1
 10
1710.49505
 20
-247.254746
 30
0.0
 11
1505.826098
 21
-247.254746
 31
0.0
 70
   160
  3
ED30
100
AcDbAlignedDimension
 13
1310.774186
 23
-142.48011
 33
0.0
 14
1710.49505
 24
-142.48011
 34
0.0
100
AcDbRotatedDimension
1001
ACAD
1000
DSTYLE
1002
{
1070
   140
1040
30.0
1070
   340
1005
F38
1070
    41
1040
30.0
1002
}
  0
LINE
  5
2A44
100
AcDbEntity
  8
V0-OBRYS
  6
CONTINUOUS
100
AcDbLine
 10
1323.470186
 20
252.924114
 30
0.0
 11
1697.79905
 21
252.924114
 31
0.0
  0
LINE
  5
2A45
100
AcDbEntity
  8
V0-OBRYS
  6
CONTINUOUS
100
AcDbLine
 10
1310.774186
 20
-134.10075
 30
0.0
 11
1310.774186
 21
240.228114
 31
0.0
  0
ARC
  5
2A48
100
AcDbEntity
  8
V0-OBRYS
  6
CONTINUOUS
100
AcDbCircle
 10
1323.470186
 20
-134.10075
 30
0.0
 40
12.696
100
AcDbArc
 50
180.0
 51
270.0
  0
CIRCLE
  5
2A49
100
AcDbEntity
  8
V0-OBRYS
  6
CONTINUOUS
 62
    90
100
AcDbCircle
 10
1345.408874
 20
218.289426
 30
0.0
 40
5.058239
  0
ARC
  5
2A4A
100
AcDbEntity
  8
V0-VYPLNE
100
AcDbCircle
 10
1514.765841
 20
61.879779
 30
0.0
 40
230.533641
100
AcDbArc
 50
132.153029
 51
142.398921
  0
ARC
  5
2A4B
100
AcDbEntity
  8
V0-OBRYS
  6
CONTINUOUS
100
AcDbCircle
 10
1323.470186
 20
240.228114
 30
0.0
 40
12.696
100
AcDbArc
 50
90.0
 51
180.0
  0
LINE
  5
2A4C
100
AcDbEntity
  8
V0-OBRYS
  6
CONTINUOUS
100
AcDbLine
 10
1710.49505
 20
240.228114
 30
0.0
 11
1710.49505
 21
-134.10075
 31
0.0
  0
ARC
  5
2A4D
100
AcDbEntity
  8
V0-OBRYS
  6
CONTINUOUS
100
AcDbCircle
 10
1697.79905
 20
-134.10075
 30
0.0
 40
12.696
100
AcDbArc
 50
270.0
 51
0.0
  0
POINT
  5
2A51
100
AcDbEntity
  8
V0-VYPLNE
  6
DASHED
 62
    52
100
AcDbPoint
 10
1510.634618
 20
53.063682
 30
0.0
  0
ARC
  5
2A52
100
AcDbEntity
  8
V0-OBRYS
  6
CONTINUOUS
100
AcDbCircle
 10
1697.79905
 20
240.228114
 30
0.0
 40
12.696
100
AcDbArc
 50
0.0
 51
90.0
  0
CIRCLE
  5
2C08
100
AcDbEntity
  8
V0-OBRYS
  6
CONTINUOUS
 62
    90
100
AcDbCircle
 10
1510.634618
 20
53.063682
 30
0.0
 40
151.646843
  0
CIRCLE
  5
2C09
100
AcDbEntity
  8
V0-OBRYS
  6
CONTINUOUS
 62
    90
100
AcDbCircle
 10
1510.634618
 20
53.063682
 30
0.0
 40
172.364527
  0
LINE
  5
2C0A
100
AcDbEntity
  8
V0-OBRYS
  6
CONTINUOUS
 62
    90
100
AcDbLine
 10
1435.965424
 20
47.385025
 30
0.0
 11
1460.012858
 21
49.213853
 31
0.0
  0
LINE
  5
2C0B
100
AcDbEntity
  8
V0-OBRYS
  6
CONTINUOUS
 62
    90
100
AcDbLine
 10
1435.965424
 20
58.742338
 30
0.0
 11
1460.012858
 21
56.91351
 31
0.0
  0
LINE
  5
2C0C
100
AcDbEntity
  8
V0-OBRYS
  6
CONTINUOUS
 62
    90
100
AcDbLine
 10
1460.012858
 20
65.309023
 30
0.0
 11
1437.341399
 21
70.793221
 31
0.0
  0
LINE
  5
2C0D
100
AcDbEntity
  8
V0-OBRYS
  6
CONTINUOUS
 62
    90
100
AcDbLine
 10
1441.125327
 20
81.466863
 30
0.0
 11
1460.012858
 21
73.74896
 31
0.0
  0
LINE
  5
2C0E
100
AcDbEntity
  8
V0-OBRYS
  6
CONTINUOUS
 62
    90
100
AcDbLine
 10
1460.012858
 20
83.319052
 30
0.0
 11
1445.253249
 21
92.140504
 31
0.0
  0
LINE
  5
2C0F
100
AcDbEntity
  8
V0-OBRYS
  6
CONTINUOUS
 62
    90
100
AcDbLine
 10
1457.767661
 20
11.913972
 30
0.0
 11
1460.664928
 21
19.537661
 31
0.0
  0
LINE
  5
2C10
100
AcDbEntity
  8
V0-OBRYS
  6
CONTINUOUS
 62
    90
100
AcDbLine
 10
1452.248543
 20
-5.347163
 30
0.0
 11
1458.752613
 21
10.678881
 31
0.0
  0
LINE
  5
2C11
100
AcDbEntity
  8
V0-OBRYS
  6
CONTINUOUS
 62
    90
100
AcDbLine
 10
1460.012858
 20
22.808312
 30
0.0
 11
1445.253249
 21
13.986859
 31
0.0
  0
LINE
  5
2C12
100
AcDbEntity
  8
V0-OBRYS
  6
CONTINUOUS
 62
    90
100
AcDbLine
 10
1441.125327
 20
24.660501
 30
0.0
 11
1460.012858
 21
32.378404
 31
0.0
  0
LINE
  5
2C13
100
AcDbEntity
  8
V0-OBRYS
  6
CONTINUOUS
 62
    90
100
AcDbLine
 10
1460.012858
 20
40.81834
 30
0.0
 11
1437.341399
 21
35.334142
 31
0.0
  0
ARC
  5
2C14
100
AcDbEntity
  8
V0-OBRYS
  6
CONTINUOUS
 62
    90
100
AcDbCircle
 10
1510.634618
 20
53.063682
 30
0.0
 40
59.233773
100
AcDbArc
 50
148.716649
 51
211.283351
  0
ARC
  5
2C15
100
AcDbEntity
  8
V0-OBRYS
  6
CONTINUOUS
 62
    90
100
AcDbCircle
 10
1510.634618
 20
53.063682
 30
0.0
 40
157.5
100
AcDbArc
 50
236.13779
 51
252.433638
  0
LINE
  5
2C16
100
AcDbEntity
  8
VO-OBRYS
  6
CONTINUOUS
100
AcDbLine
 10
1460.012858
 20
21.743561
 30
0.0
 11
1370.173755
 21
-68.095542
 31
0.0
  0
LINE
  5
2C17
100
AcDbEntity
  8
VO-OBRYS
  6
CONTINUOUS
100
AcDbLine
 10
1479.314498
 20
2.441922
 30
0.0
 11
1389.475395
 21
-87.397181
 31
0.0
  0
LINE
  5
2C18
100
AcDbEntity
  8
VO-OBRYS
  6
CONTINUOUS
100
AcDbLine
 10
1459.847886
 20
18.796136
 30
0.0
 11
1371.564981
 21
-69.486768
 31
0.0
  0
LINE
  5
2C19
100
AcDbEntity
  8
VO-OBRYS
  6
CONTINUOUS
100
AcDbLine
 10
1476.367073
 20
2.276949
 30
0.0
 11
1388.084169
 21
-86.005955
 31
0.0
  0
LINE
  5
2C1A
100
AcDbEntity
  8
VO-OBRYS
  6
CONTINUOUS
100
AcDbLine
 10
1460.012858
 20
84.383803
 30
0.0
 11
1370.173755
 21
174.222905
 31
0.0
  0
LINE
  5
2C1B
100
AcDbEntity
  8
VO-OBRYS
  6
CONTINUOUS
100
AcDbLine
 10
1479.314498
 20
103.685442
 30
0.0
 11
1389.475395
 21
193.524545
 31
0.0
  0
LINE
  5
2C1C
100
AcDbEntity
  8
VO-OBRYS
  6
CONTINUOUS
100
AcDbLine
 10
1459.847886
 20
87.331227
 30
0.0
 11
1371.564981
 21
175.614131
 31
0.0
  0
LINE
  5
2C1D
100
AcDbEntity
  8
VO-OBRYS
  6
CONTINUOUS
100
AcDbLine
 10
1476.367073
 20
103.850414
 30
0.0
 11
1388.084169
 21
192.133319
 31
0.0
  0
LINE
  5
2C1E
100
AcDbEntity
  8
V0-OBRYS
  6
CONTINUOUS
 62
    90
100
AcDbLine
 10
1447.242132
 20
136.567363
 30
0.0
 11
1464.933313
 21
124.204416
 31
0.0
  0
CIRCLE
  5
2C1F
100
AcDbEntity
  8
V0-OBRYS
  6
CONTINUOUS
 62
    90
100
AcDbCircle
 10
1510.634618
 20
53.063682
 30
0.0
 40
84.555386
  0
CIRCLE
  5
2C20
100
AcDbEntity
  8
V0-OBRYS
  6
CONTINUOUS
 62
    90
100
AcDbCircle
 10
1510.634618
 20
53.063682
 30
0.0
 40
106.807712
  0
CIRCLE
  5
2C21
100
AcDbEntity
  8
V0-OBRYS
  6
CONTINUOUS
 62
    90
100
AcDbCircle
 10
1510.634618
 20
53.063682
 30
0.0
 40
129.827361
  0
CIRCLE
  5
2C22
100
AcDbEntity
  8
V0-OBRYS
  6
CONTINUOUS
 62
    90
100
AcDbCircle
 10
1510.634618
 20
53.063682
 30
0.0
 40
127.859871
  0
CIRCLE
  5
2C23
100
AcDbEntity
  8
V0-OBRYS
  6
CONTINUOUS
 62
    90
100
AcDbCircle
 10
1510.634618
 20
53.063682
 30
0.0
 40
104.840222
  0
CIRCLE
  5
2C24
100
AcDbEntity
  8
V0-OBRYS
  6
CONTINUOUS
 62
    90
100
AcDbCircle
 10
1510.634618
 20
53.063682
 30
0.0
 40
82.587896
  0
LINE
  5
2C25
100
AcDbEntity
  8
V0-OBRYS
  6
CONTINUOUS
 62
    90
100
AcDbLine
 10
1374.821423
 20
132.819722
 30
0.0
 11
1377.763586
 21
130.152282
 31
0.0
  0
LINE
  5
2C26
100
AcDbEntity
  8
V0-OBRYS
  6
CONTINUOUS
 62
    90
100
AcDbLine
 10
1434.319741
 20
-49.523774
 30
0.0
 11
1442.554148
 21
-29.234174
 31
0.0
  0
ARC
  5
2C27
100
AcDbEntity
  8
VO-OBRYS
  6
CONTINUOUS
100
AcDbCircle
 10
1379.824575
 20
-77.746362
 30
0.0
 40
13.64832
100
AcDbArc
 50
135.0
 51
315.0
  0
ARC
  5
2C28
100
AcDbEntity
  8
VO-OBRYS
  6
CONTINUOUS
100
AcDbCircle
 10
1379.824575
 20
-77.746362
 30
0.0
 40
11.680829
100
AcDbArc
 50
135.0
 51
315.0
  0
LINE
  5
2C29
100
AcDbEntity
  8
V0-VYPLNE
  6
DASHED
 62
    52
100
AcDbLine
 10
1378.744566
 20
-62.34369
 30
0.0
 11
1395.225536
 21
-78.82466
 31
0.0
  0
CIRCLE
  5
2C2A
100
AcDbEntity
  8
V0-OBRYS
  6
CONTINUOUS
 62
    90
100
AcDbCircle
 10
1379.824575
 20
-77.746362
 30
0.0
 40
5.04
  0
LINE
  5
2C2B
100
AcDbEntity
  8
V0-OBRYS
  6
CONTINUOUS
 62
    90
100
AcDbLine
 10
1425.126293
 20
-72.176452
 30
0.0
 11
1433.555712
 21
-51.406342
 31
0.0
  0
LINE
  5
2C2C
100
AcDbEntity
  8
V0-OBRYS
  6
CONTINUOUS
 62
    90
100
AcDbLine
 10
1422.876006
 20
-77.721164
 30
0.0
 11
1424.369445
 21
-74.041327
 31
0.0
  0
LINE
  5
2C2D
100
AcDbEntity
  8
V0-OBRYS
  6
CONTINUOUS
 62
    90
100
AcDbLine
 10
1359.40437
 20
41.830836
 30
0.0
 11
1380.898752
 21
48.190402
 31
0.0
  0
ARC
  5
2C2E
100
AcDbEntity
  8
V0-OBRYS
  6
CONTINUOUS
 62
    90
100
AcDbCircle
 10
1510.634618
 20
53.063682
 30
0.0
 40
157.5
100
AcDbArc
 50
184.709219
 51
201.005067
  0
LINE
  5
2C2F
100
AcDbEntity
  8
V0-OBRYS
  6
CONTINUOUS
 62
    90
100
AcDbLine
 10
1363.600693
 20
-3.392273
 30
0.0
 11
1367.52059
 21
-2.755118
 31
0.0
  0
LINE
  5
2C30
100
AcDbEntity
  8
V0-OBRYS
  6
CONTINUOUS
 62
    90
100
AcDbLine
 10
1353.666308
 20
40.13311
 30
0.0
 11
1357.474465
 21
41.259833
 31
0.0
  0
LINE
  5
2C31
100
AcDbEntity
  8
V0-OBRYS
  6
CONTINUOUS
 62
    90
100
AcDbLine
 10
1393.637587
 20
1.490034
 30
0.0
 11
1415.250812
 21
5.003127
 31
0.0
  0
LINE
  5
2C32
100
AcDbEntity
  8
V0-OBRYS
  6
CONTINUOUS
 62
    90
100
AcDbLine
 10
1369.507123
 20
-2.43222
 30
0.0
 11
1391.632205
 21
1.164072
 31
0.0
  0
LINE
  5
2C33
100
AcDbEntity
  8
V0-OBRYS
  6
CONTINUOUS
 62
    90
100
AcDbLine
 10
1443.330704
 20
-27.320739
 30
0.0
 11
1451.447027
 21
-7.322099
 31
0.0
  0
LINE
  5
2C34
100
AcDbEntity
  8
V0-OBRYS
  6
CONTINUOUS
 62
    90
100
AcDbLine
 10
1417.289072
 20
5.334434
 30
0.0
 11
1438.592357
 21
8.797148
 31
0.0
  0
LINE
  5
2C35
100
AcDbEntity
  8
V0-OBRYS
  6
CONTINUOUS
 62
    90
100
AcDbLine
 10
1440.696132
 20
9.139103
 30
0.0
 11
1457.767661
 21
11.913972
 31
0.0
  0
LINE
  5
2C36
100
AcDbEntity
  8
V0-OBRYS
  6
CONTINUOUS
 62
    90
100
AcDbLine
 10
1405.824243
 20
55.565134
 30
0.0
 11
1426.520255
 21
61.688485
 31
0.0
  0
LINE
  5
2C37
100
AcDbEntity
  8
V0-OBRYS
  6
CONTINUOUS
 62
    90
100
AcDbLine
 10
1397.366261
 20
112.380001
 30
0.0
 11
1413.588533
 21
97.672479
 31
0.0
  0
LINE
  5
2C38
100
AcDbEntity
  8
V0-OBRYS
  6
CONTINUOUS
 62
    90
100
AcDbLine
 10
1382.846968
 20
48.766823
 30
0.0
 11
1403.844085
 21
54.979263
 31
0.0
  0
LINE
  5
2C39
100
AcDbEntity
  8
V0-OBRYS
  6
CONTINUOUS
 62
    90
100
AcDbLine
 10
1379.254621
 20
128.800472
 30
0.0
 11
1395.861079
 21
113.744637
 31
0.0
  0
LINE
  5
2C3A
100
AcDbEntity
  8
V0-OBRYS
  6
CONTINUOUS
 62
    90
100
AcDbLine
 10
1415.118393
 20
96.285469
 30
0.0
 11
1431.108033
 21
81.788857
 31
0.0
  0
LINE
  5
2C3B
100
AcDbEntity
  8
V0-OBRYS
  6
CONTINUOUS
 62
    90
100
AcDbLine
 10
1432.687066
 20
80.357265
 30
0.0
 11
1445.500471
 21
68.740309
 31
0.0
  0
LINE
  5
2C3C
100
AcDbEntity
  8
V0-OBRYS
  6
CONTINUOUS
 62
    90
100
AcDbLine
 10
1428.564059
 20
62.293188
 30
0.0
 11
1445.148946
 21
67.200176
 31
0.0
  0
LINE
  5
2C3D
100
AcDbEntity
  8
V0-OBRYS
  6
CONTINUOUS
 62
    90
100
AcDbLine
 10
1445.148946
 20
67.200176
 30
0.0
 11
1451.067088
 21
61.588546
 31
0.0
  0
LINE
  5
2C3E
100
AcDbEntity
  8
V0-OBRYS
  6
CONTINUOUS
 62
    90
100
AcDbLine
 10
1445.500471
 20
68.740309
 30
0.0
 11
1453.267328
 21
71.228427
 31
0.0
  0
ARC
  5
2C3F
100
AcDbEntity
  8
VO-OBRYS
  6
CONTINUOUS
100
AcDbCircle
 10
1379.824575
 20
183.873725
 30
0.0
 40
13.64832
100
AcDbArc
 50
45.0
 51
225.0
  0
ARC
  5
2C40
100
AcDbEntity
  8
VO-OBRYS
  6
CONTINUOUS
100
AcDbCircle
 10
1379.824575
 20
183.873725
 30
0.0
 40
11.680829
100
AcDbArc
 50
45.0
 51
225.0
  0
LINE
  5
2C41
100
AcDbEntity
  8
V0-OBRYS
  6
CONTINUOUS
 62
    90
100
AcDbLine
 10
1407.561908
 20
164.296687
 30
0.0
 11
1425.935546
 21
151.456826
 31
0.0
  0
ARC
  5
2C42
100
AcDbEntity
  8
V0-OBRYS
  6
CONTINUOUS
 62
    90
100
AcDbCircle
 10
1510.634618
 20
53.063682
 30
0.0
 40
157.5
100
AcDbArc
 50
133.280648
 51
149.576495
  0
LINE
  5
2C43
100
AcDbEntity
  8
V0-OBRYS
  6
CONTINUOUS
 62
    90
100
AcDbLine
 10
1402.65695
 20
167.724369
 30
0.0
 11
1405.912204
 21
165.449532
 31
0.0
  0
CIRCLE
  5
2C44
100
AcDbEntity
  8
V0-OBRYS
  6
CONTINUOUS
 62
    90
100
AcDbCircle
 10
1379.824575
 20
183.873725
 30
0.0
 40
5.04
  0
LINE
  5
2C45
100
AcDbEntity
  8
V0-OBRYS
  6
CONTINUOUS
 62
    90
100
AcDbLine
 10
1427.600902
 20
150.293042
 30
0.0
 11
1445.549471
 21
137.750228
 31
0.0
  0
LINE
  5
2C46
100
AcDbEntity
  8
V0-OBRYS
  6
CONTINUOUS
 62
    90
100
AcDbLine
 10
1646.447814
 20
132.819722
 30
0.0
 11
1643.50565
 21
130.152282
 31
0.0
  0
LINE
  5
2C47
100
AcDbEntity
  8
V0-OBRYS
  6
CONTINUOUS
 62
    90
100
AcDbLine
 10
1574.027104
 20
136.567363
 30
0.0
 11
1556.335923
 21
124.204416
 31
0.0
  0
LINE
  5
2C48
100
AcDbEntity
  8
VO-OBRYS
  6
CONTINUOUS
100
AcDbLine
 10
1561.256378
 20
84.383803
 30
0.0
 11
1651.095481
 21
174.222905
 31
0.0
  0
LINE
  5
2C49
100
AcDbEntity
  8
VO-OBRYS
  6
CONTINUOUS
100
AcDbLine
 10
1541.954739
 20
103.685442
 30
0.0
 11
1631.793842
 21
193.524545
 31
0.0
  0
LINE
  5
2C4A
100
AcDbEntity
  8
VO-OBRYS
  6
CONTINUOUS
100
AcDbLine
 10
1544.902164
 20
103.850414
 30
0.0
 11
1633.185068
 21
192.133319
 31
0.0
  0
LINE
  5
2C4B
100
AcDbEntity
  8
VO-OBRYS
  6
CONTINUOUS
100
AcDbLine
 10
1561.421351
 20
87.331227
 30
0.0
 11
1649.704255
 21
175.614131
 31
0.0
  0
LINE
  5
2C4C
100
AcDbEntity
  8
V0-OBRYS
  6
CONTINUOUS
 62
    90
100
AcDbLine
 10
1642.014615
 20
128.800472
 30
0.0
 11
1625.408158
 21
113.744637
 31
0.0
  0
LINE
  5
2C4D
100
AcDbEntity
  8
V0-OBRYS
  6
CONTINUOUS
 62
    90
100
AcDbLine
 10
1651.762113
 20
-2.43222
 30
0.0
 11
1629.637031
 21
1.164072
 31
0.0
  0
CIRCLE
  5
2C4E
100
AcDbEntity
  8
V0-OBRYS
  6
CONTINUOUS
 62
    90
100
AcDbCircle
 10
1641.444662
 20
-77.746362
 30
0.0
 40
5.04
  0
ARC
  5
2C4F
100
AcDbEntity
  8
VO-OBRYS
  6
CONTINUOUS
100
AcDbCircle
 10
1641.444662
 20
-77.746362
 30
0.0
 40
11.680829
100
AcDbArc
 50
225.0
 51
45.0
  0
ARC
  5
2C50
100
AcDbEntity
  8
VO-OBRYS
  6
CONTINUOUS
100
AcDbCircle
 10
1641.444662
 20
-77.746362
 30
0.0
 40
13.64832
100
AcDbArc
 50
225.0
 51
45.0
  0
LINE
  5
2C51
100
AcDbEntity
  8
VO-OBRYS
  6
CONTINUOUS
100
AcDbLine
 10
1561.256378
 20
21.743561
 30
0.0
 11
1651.095481
 21
-68.095542
 31
0.0
  0
LINE
  5
2C52
100
AcDbEntity
  8
VO-OBRYS
  6
CONTINUOUS
100
AcDbLine
 10
1561.421351
 20
18.796136
 30
0.0
 11
1649.704255
 21
-69.486768
 31
0.0
  0
LINE
  5
2C53
100
AcDbEntity
  8
V0-OBRYS
  6
CONTINUOUS
 62
    90
100
AcDbLine
 10
1489.750851
 20
-49.675504
 30
0.0
 11
1500.325973
 21
-30.860958
 31
0.0
  0
LINE
  5
2C54
100
AcDbEntity
  8
V0-OBRYS
  6
CONTINUOUS
 62
    90
100
AcDbLine
 10
1531.518385
 20
-49.675504
 30
0.0
 11
1520.943263
 21
-30.860958
 31
0.0
  0
LINE
  5
2C55
100
AcDbEntity
  8
VO-OBRYS
  6
CONTINUOUS
100
AcDbLine
 10
1541.954739
 20
2.441922
 30
0.0
 11
1631.793842
 21
-87.397181
 31
0.0
  0
LINE
  5
2C56
100
AcDbEntity
  8
VO-OBRYS
  6
CONTINUOUS
100
AcDbLine
 10
1544.902164
 20
2.276949
 30
0.0
 11
1633.185068
 21
-86.005955
 31
0.0
  0
LINE
  5
2C57
100
AcDbEntity
  8
V0-OBRYS
  6
CONTINUOUS
 62
    90
100
AcDbLine
 10
1586.949496
 20
-49.523774
 30
0.0
 11
1578.715088
 21
-29.234174
 31
0.0
  0
LINE
  5
2C58
100
AcDbEntity
  8
V0-OBRYS
  6
CONTINUOUS
 62
    90
100
AcDbLine
 10
1555.237729
 20
-91.875366
 30
0.0
 11
1544.25466
 21
-72.335028
 31
0.0
  0
LINE
  5
2C59
100
AcDbEntity
  8
V0-OBRYS
  6
CONTINUOUS
 62
    90
100
AcDbLine
 10
1466.031507
 20
-91.875366
 30
0.0
 11
1477.014576
 21
-72.335028
 31
0.0
  0
LINE
  5
2C5A
100
AcDbEntity
  8
V0-OBRYS
  6
CONTINUOUS
 62
    90
100
AcDbLine
 10
1463.099508
 20
-97.091782
 30
0.0
 11
1465.045377
 21
-93.629824
 31
0.0
  0
LINE
  5
2C5B
100
AcDbEntity
  8
V0-OBRYS
  6
CONTINUOUS
 62
    90
100
AcDbLine
 10
1478.010064
 20
-70.563924
 30
0.0
 11
1488.739042
 21
-51.475646
 31
0.0
  0
LINE
  5
2C5C
100
AcDbEntity
  8
V0-OBRYS
  6
CONTINUOUS
 62
    90
100
AcDbLine
 10
1543.259173
 20
-70.563924
 30
0.0
 11
1532.530194
 21
-51.475646
 31
0.0
  0
LINE
  5
2C5D
100
AcDbEntity
  8
V0-OBRYS
  6
CONTINUOUS
 62
    90
100
AcDbLine
 10
1596.142944
 20
-72.176452
 30
0.0
 11
1587.713524
 21
-51.406342
 31
0.0
  0
ARC
  5
2C5E
100
AcDbEntity
  8
V0-OBRYS
  6
CONTINUOUS
 62
    90
100
AcDbCircle
 10
1510.634618
 20
53.063682
 30
0.0
 40
157.5
100
AcDbArc
 50
287.566362
 51
303.86221
  0
LINE
  5
2C5F
100
AcDbEntity
  8
V0-OBRYS
  6
CONTINUOUS
 62
    90
100
AcDbLine
 10
1558.169729
 20
-97.091782
 30
0.0
 11
1556.22386
 21
-93.629824
 31
0.0
  0
LINE
  5
2C60
100
AcDbEntity
  8
V0-OBRYS
  6
CONTINUOUS
 62
    90
100
AcDbLine
 10
1598.393231
 20
-77.721164
 30
0.0
 11
1596.899792
 21
-74.041327
 31
0.0
  0
LINE
  5
2C61
100
AcDbEntity
  8
V0-OBRYS
  6
CONTINUOUS
 62
    90
100
AcDbLine
 10
1554.588857
 20
122.983532
 30
0.0
 11
1540.411911
 21
113.076402
 31
0.0
  0
LINE
  5
2C62
100
AcDbEntity
  8
V0-OBRYS
  6
CONTINUOUS
 62
    90
100
AcDbLine
 10
1540.889988
 20
103.685442
 30
0.0
 11
1549.711441
 21
118.445051
 31
0.0
  0
CIRCLE
  5
2C63
100
AcDbEntity
  8
V0-OBRYS
  6
CONTINUOUS
 62
    90
100
AcDbCircle
 10
1548.600938
 20
91.030002
 30
0.0
 40
3.374784
  0
CIRCLE
  5
2C64
100
AcDbEntity
  8
V0-OBRYS
  6
CONTINUOUS
 62
    90
100
AcDbCircle
 10
1548.600938
 20
15.097362
 30
0.0
 40
3.374784
  0
LINE
  5
2C65
100
AcDbEntity
  8
V0-OBRYS
  6
CONTINUOUS
 62
    90
100
AcDbLine
 10
1540.889988
 20
2.441922
 30
0.0
 11
1549.711441
 21
-12.317688
 31
0.0
  0
LINE
  5
2C66
100
AcDbEntity
  8
V0-OBRYS
  6
CONTINUOUS
 62
    90
100
AcDbLine
 10
1465.075034
 20
2.441922
 30
0.0
 11
1556.194202
 21
2.441922
 31
0.0
  0
LINE
  5
2C67
100
AcDbEntity
  8
V0-OBRYS
  6
CONTINUOUS
 62
    90
100
AcDbLine
 10
1556.194202
 20
103.685442
 30
0.0
 11
1465.075034
 21
103.685442
 31
0.0
  0
LINE
  5
2C68
100
AcDbEntity
  8
V0-OBRYS
  6
CONTINUOUS
 62
    90
100
AcDbLine
 10
1460.012858
 20
98.623266
 30
0.0
 11
1460.012858
 21
7.504098
 31
0.0
  0
LINE
  5
2C6A
100
AcDbEntity
  8
V0-OBRYS
  6
CONTINUOUS
 62
    90
100
AcDbLine
 10
1501.370304
 20
-29.002956
 30
0.0
 11
1509.844748
 21
-13.925794
 31
0.0
  0
ARC
  5
2C6B
100
AcDbEntity
  8
V0-OBRYS
  6
CONTINUOUS
 62
    90
100
AcDbCircle
 10
1510.634618
 20
53.063682
 30
0.0
 40
59.233773
100
AcDbArc
 50
238.716649
 51
301.283351
  0
LINE
  5
2C6C
100
AcDbEntity
  8
V0-OBRYS
  6
CONTINUOUS
 62
    90
100
AcDbLine
 10
1498.389277
 20
2.441922
 30
0.0
 11
1492.905079
 21
-20.229537
 31
0.0
  0
LINE
  5
2C6D
100
AcDbEntity
  8
V0-OBRYS
  6
CONTINUOUS
 62
    90
100
AcDbLine
 10
1482.231437
 20
-16.44561
 30
0.0
 11
1489.94934
 21
2.441922
 31
0.0
  0
LINE
  5
2C6E
100
AcDbEntity
  8
V0-OBRYS
  6
CONTINUOUS
 62
    90
100
AcDbLine
 10
1480.379248
 20
2.441922
 30
0.0
 11
1471.557796
 21
-12.317688
 31
0.0
  0
CIRCLE
  5
2C6F
100
AcDbEntity
  8
V0-OBRYS
  6
CONTINUOUS
 62
    90
100
AcDbCircle
 10
1472.668298
 20
15.097362
 30
0.0
 40
3.374784
  0
ARC
  5
2C70
100
AcDbEntity
  8
V0-OBRYS
  6
CONTINUOUS
 62
    90
100
AcDbCircle
 10
1465.075034
 20
7.504098
 30
0.0
 40
5.062176
100
AcDbArc
 50
180.0
 51
270.0
  0
LINE
  5
2C71
100
AcDbEntity
  8
V0-OBRYS
  6
CONTINUOUS
 62
    90
100
AcDbLine
 10
1458.752613
 20
10.678881
 30
0.0
 11
1466.829863
 21
11.807077
 31
0.0
  0
LINE
  5
2C72
100
AcDbEntity
  8
V0-OBRYS
  6
CONTINUOUS
 62
    90
100
AcDbLine
 10
1522.87996
 20
2.441922
 30
0.0
 11
1528.364158
 21
-20.229537
 31
0.0
  0
LINE
  5
2C73
100
AcDbEntity
  8
V0-OBRYS
  6
CONTINUOUS
 62
    90
100
AcDbLine
 10
1516.313275
 20
-21.605512
 30
0.0
 11
1514.484447
 21
2.441922
 31
0.0
  0
LINE
  5
2C74
100
AcDbEntity
  8
V0-OBRYS
  6
CONTINUOUS
 62
    90
100
AcDbLine
 10
1504.955962
 20
-21.605512
 30
0.0
 11
1506.78479
 21
2.441922
 31
0.0
  0
LINE
  5
2C75
100
AcDbEntity
  8
V0-OBRYS
  6
CONTINUOUS
 62
    90
100
AcDbLine
 10
1539.037799
 20
-16.44561
 30
0.0
 11
1531.319896
 21
2.441922
 31
0.0
  0
LINE
  5
2C76
100
AcDbEntity
  8
V0-OBRYS
  6
CONTINUOUS
 62
    90
100
AcDbLine
 10
1519.898933
 20
-29.002956
 30
0.0
 11
1511.424488
 21
-13.925794
 31
0.0
  0
LINE
  5
2C77
100
AcDbEntity
  8
V0-OBRYS
  6
CONTINUOUS
 62
    90
100
AcDbLine
 10
1511.424488
 20
-13.925794
 30
0.0
 11
1515.578512
 21
-6.907327
 31
0.0
  0
LINE
  5
2C78
100
AcDbEntity
  8
V0-OBRYS
  6
CONTINUOUS
 62
    90
100
AcDbLine
 10
1509.844748
 20
-13.925794
 30
0.0
 11
1505.690724
 21
-6.907327
 31
0.0
  0
ARC
  5
2C79
100
AcDbEntity
  8
V0-OBRYS
  6
CONTINUOUS
 62
    90
100
AcDbCircle
 10
1510.634618
 20
53.063682
 30
0.0
 40
59.233773
100
AcDbArc
 50
58.716649
 51
121.283351
  0
CIRCLE
  5
2C7A
100
AcDbEntity
  8
V0-OBRYS
  6
CONTINUOUS
 62
    90
100
AcDbCircle
 10
1472.668298
 20
91.030002
 30
0.0
 40
3.374784
  0
LINE
  5
2C7B
100
AcDbEntity
  8
V0-OBRYS
  6
CONTINUOUS
 62
    90
100
AcDbLine
 10
1480.379248
 20
103.685442
 30
0.0
 11
1471.557796
 21
118.445051
 31
0.0
  0
LINE
  5
2C7C
100
AcDbEntity
  8
V0-OBRYS
  6
CONTINUOUS
 62
    90
100
AcDbLine
 10
1480.379248
 20
103.685442
 30
0.0
 11
1471.557796
 21
118.445051
 31
0.0
  0
LINE
  5
2C7D
100
AcDbEntity
  8
V0-OBRYS
  6
CONTINUOUS
 62
    90
100
AcDbLine
 10
1480.857326
 20
113.076402
 30
0.0
 11
1480.159878
 21
104.950619
 31
0.0
  0
ARC
  5
2C7E
100
AcDbEntity
  8
V0-OBRYS
  6
CONTINUOUS
 62
    90
100
AcDbCircle
 10
1465.075034
 20
98.623266
 30
0.0
 40
5.062176
100
AcDbArc
 50
90.0
 51
180.0
  0
LINE
  5
2C7F
100
AcDbEntity
  8
V0-OBRYS
  6
CONTINUOUS
 62
    90
100
AcDbLine
 10
1466.68038
 20
122.983532
 30
0.0
 11
1480.857326
 21
113.076402
 31
0.0
  0
LINE
  5
2C80
100
AcDbEntity
  8
V0-OBRYS
  6
CONTINUOUS
 62
    90
100
AcDbLine
 10
1498.389277
 20
103.685442
 30
0.0
 11
1492.905079
 21
126.356901
 31
0.0
  0
LINE
  5
2C81
100
AcDbEntity
  8
V0-OBRYS
  6
CONTINUOUS
 62
    90
100
AcDbLine
 10
1498.389277
 20
103.685442
 30
0.0
 11
1492.905079
 21
126.356901
 31
0.0
  0
LINE
  5
2C82
100
AcDbEntity
  8
V0-OBRYS
  6
CONTINUOUS
 62
    90
100
AcDbLine
 10
1482.231437
 20
122.572973
 30
0.0
 11
1489.94934
 21
103.685442
 31
0.0
  0
LINE
  5
2C83
100
AcDbEntity
  8
V0-OBRYS
  6
CONTINUOUS
 62
    90
100
AcDbLine
 10
1482.231437
 20
122.572973
 30
0.0
 11
1489.94934
 21
103.685442
 31
0.0
  0
LINE
  5
2C84
100
AcDbEntity
  8
V0-OBRYS
  6
CONTINUOUS
 62
    90
100
AcDbLine
 10
1482.280622
 20
113.761826
 30
0.0
 11
1489.068467
 21
109.240769
 31
0.0
  0
LINE
  5
2C85
100
AcDbEntity
  8
V0-OBRYS
  6
CONTINUOUS
 62
    90
100
AcDbLine
 10
1483.374098
 20
131.022803
 30
0.0
 11
1482.280622
 21
113.761826
 31
0.0
  0
LINE
  5
2C86
100
AcDbEntity
  8
V0-OBRYS
  6
CONTINUOUS
 62
    90
100
AcDbLine
 10
1522.87996
 20
103.685442
 30
0.0
 11
1528.364158
 21
126.356901
 31
0.0
  0
LINE
  5
2C87
100
AcDbEntity
  8
V0-OBRYS
  6
CONTINUOUS
 62
    90
100
AcDbLine
 10
1504.955962
 20
127.732876
 30
0.0
 11
1506.78479
 21
103.685442
 31
0.0
  0
LINE
  5
2C88
100
AcDbEntity
  8
V0-OBRYS
  6
CONTINUOUS
 62
    90
100
AcDbLine
 10
1504.955962
 20
127.732876
 30
0.0
 11
1506.78479
 21
103.685442
 31
0.0
  0
LINE
  5
2C89
100
AcDbEntity
  8
V0-OBRYS
  6
CONTINUOUS
 62
    90
100
AcDbLine
 10
1516.313275
 20
127.732876
 30
0.0
 11
1514.484447
 21
103.685442
 31
0.0
  0
LINE
  5
2C8A
100
AcDbEntity
  8
V0-OBRYS
  6
CONTINUOUS
 62
    90
100
AcDbLine
 10
1540.411911
 20
113.076402
 30
0.0
 11
1541.109358
 21
104.950619
 31
0.0
  0
LINE
  5
2C8B
100
AcDbEntity
  8
V0-OBRYS
  6
CONTINUOUS
 62
    90
100
AcDbLine
 10
1539.037799
 20
122.572973
 30
0.0
 11
1531.319896
 21
103.685442
 31
0.0
  0
LINE
  5
2C8C
100
AcDbEntity
  8
V0-OBRYS
  6
CONTINUOUS
 62
    90
100
AcDbLine
 10
1538.988614
 20
113.761826
 30
0.0
 11
1532.200769
 21
109.240769
 31
0.0
  0
LINE
  5
2C8D
100
AcDbEntity
  8
V0-OBRYS
  6
CONTINUOUS
 62
    90
100
AcDbLine
 10
1537.895139
 20
131.022803
 30
0.0
 11
1538.988614
 21
113.761826
 31
0.0
  0
LINE
  5
2C8E
100
AcDbEntity
  8
V0-OBRYS
  6
CONTINUOUS
 62
    90
100
AcDbLine
 10
1561.256378
 20
7.504098
 30
0.0
 11
1561.256378
 21
98.623266
 31
0.0
  0
ARC
  5
2C8F
100
AcDbEntity
  8
V0-OBRYS
  6
CONTINUOUS
 62
    90
100
AcDbCircle
 10
1510.634618
 20
53.063682
 30
0.0
 40
59.233773
100
AcDbArc
 50
328.716649
 51
31.283351
  0
LINE
  5
2C90
100
AcDbEntity
  8
V0-OBRYS
  6
CONTINUOUS
 62
    90
100
AcDbLine
 10
1603.980164
 20
5.334434
 30
0.0
 11
1582.676879
 21
8.797148
 31
0.0
  0
LINE
  5
2C91
100
AcDbEntity
  8
V0-OBRYS
  6
CONTINUOUS
 62
    90
100
AcDbLine
 10
1569.020694
 20
-5.347163
 30
0.0
 11
1562.516624
 21
10.678881
 31
0.0
  0
LINE
  5
2C92
100
AcDbEntity
  8
V0-OBRYS
  6
CONTINUOUS
 62
    90
100
AcDbLine
 10
1577.938533
 20
-27.320739
 30
0.0
 11
1569.822209
 21
-7.322099
 31
0.0
  0
LINE
  5
2C93
100
AcDbEntity
  8
V0-OBRYS
  6
CONTINUOUS
 62
    90
100
AcDbLine
 10
1580.14391
 20
24.660501
 30
0.0
 11
1561.256378
 21
32.378404
 31
0.0
  0
LINE
  5
2C94
100
AcDbEntity
  8
V0-OBRYS
  6
CONTINUOUS
 62
    90
100
AcDbLine
 10
1580.573105
 20
9.139103
 30
0.0
 11
1563.501575
 21
11.913972
 31
0.0
  0
LINE
  5
2C95
100
AcDbEntity
  8
V0-OBRYS
  6
CONTINUOUS
 62
    90
100
AcDbLine
 10
1561.256378
 20
22.808312
 30
0.0
 11
1576.015988
 21
13.986859
 31
0.0
  0
LINE
  5
2C96
100
AcDbEntity
  8
V0-OBRYS
  6
CONTINUOUS
 62
    90
100
AcDbLine
 10
1561.256378
 20
40.81834
 30
0.0
 11
1583.927837
 21
35.334142
 31
0.0
  0
ARC
  5
2C97
100
AcDbEntity
  8
V0-OBRYS
  6
CONTINUOUS
 62
    90
100
AcDbCircle
 10
1556.194202
 20
7.504098
 30
0.0
 40
5.062176
100
AcDbArc
 50
270.0
 51
0.0
  0
LINE
  5
2C98
100
AcDbEntity
  8
V0-OBRYS
  6
CONTINUOUS
 62
    90
100
AcDbLine
 10
1562.516624
 20
10.678881
 30
0.0
 11
1554.439374
 21
11.807077
 31
0.0
  0
LINE
  5
2C99
100
AcDbEntity
  8
V0-OBRYS
  6
CONTINUOUS
 62
    90
100
AcDbLine
 10
1563.501575
 20
11.913972
 30
0.0
 11
1560.604309
 21
19.537661
 31
0.0
  0
LINE
  5
2C9A
100
AcDbEntity
  8
V0-OBRYS
  6
CONTINUOUS
 62
    90
100
AcDbLine
 10
1627.63165
 20
1.490034
 30
0.0
 11
1606.018424
 21
5.003127
 31
0.0
  0
LINE
  5
2C9B
100
AcDbEntity
  8
V0-OBRYS
  6
CONTINUOUS
 62
    90
100
AcDbLine
 10
1606.150843
 20
96.285469
 30
0.0
 11
1590.161203
 21
81.788857
 31
0.0
  0
LINE
  5
2C9C
100
AcDbEntity
  8
V0-OBRYS
  6
CONTINUOUS
 62
    90
100
AcDbLine
 10
1561.256378
 20
83.319052
 30
0.0
 11
1576.015988
 21
92.140504
 31
0.0
  0
LINE
  5
2C9D
100
AcDbEntity
  8
V0-OBRYS
  6
CONTINUOUS
 62
    90
100
AcDbLine
 10
1580.14391
 20
81.466863
 30
0.0
 11
1561.256378
 21
73.74896
 31
0.0
  0
LINE
  5
2C9E
100
AcDbEntity
  8
V0-OBRYS
  6
CONTINUOUS
 62
    90
100
AcDbLine
 10
1575.768766
 20
68.740309
 30
0.0
 11
1568.001909
 21
71.228427
 31
0.0
  0
LINE
  5
2C9F
100
AcDbEntity
  8
V0-OBRYS
  6
CONTINUOUS
 62
    90
100
AcDbLine
 10
1576.120291
 20
67.200176
 30
0.0
 11
1570.202149
 21
61.588546
 31
0.0
  0
LINE
  5
2CA0
100
AcDbEntity
  8
V0-OBRYS
  6
CONTINUOUS
 62
    90
100
AcDbLine
 10
1561.256378
 20
65.309023
 30
0.0
 11
1583.927837
 21
70.793221
 31
0.0
  0
LINE
  5
2CA1
100
AcDbEntity
  8
V0-OBRYS
  6
CONTINUOUS
 62
    90
100
AcDbLine
 10
1585.303812
 20
58.742338
 30
0.0
 11
1561.256378
 21
56.91351
 31
0.0
  0
LINE
  5
2CA2
100
AcDbEntity
  8
V0-OBRYS
  6
CONTINUOUS
 62
    90
100
AcDbLine
 10
1585.303812
 20
47.385025
 30
0.0
 11
1561.256378
 21
49.213853
 31
0.0
  0
LINE
  5
2CA3
100
AcDbEntity
  8
V0-OBRYS
  6
CONTINUOUS
 62
    90
100
AcDbLine
 10
1592.705178
 20
62.293188
 30
0.0
 11
1576.120291
 21
67.200176
 31
0.0
  0
LINE
  5
2CA4
100
AcDbEntity
  8
V0-OBRYS
  6
CONTINUOUS
 62
    90
100
AcDbLine
 10
1588.58217
 20
80.357265
 30
0.0
 11
1575.768766
 21
68.740309
 31
0.0
  0
ARC
  5
2CA5
100
AcDbEntity
  8
V0-OBRYS
  6
CONTINUOUS
 62
    90
100
AcDbCircle
 10
1556.194202
 20
98.623266
 30
0.0
 40
5.062176
100
AcDbArc
 50
0.0
 51
90.0
  0
LINE
  5
2CA6
100
AcDbEntity
  8
V0-OBRYS
  6
CONTINUOUS
 62
    90
100
AcDbLine
 10
1615.444994
 20
55.565134
 30
0.0
 11
1594.748982
 21
61.688485
 31
0.0
  0
LINE
  5
2CA7
100
AcDbEntity
  8
V0-OBRYS
  6
CONTINUOUS
 62
    90
100
AcDbLine
 10
1638.422268
 20
48.766823
 30
0.0
 11
1617.425151
 21
54.979263
 31
0.0
  0
LINE
  5
2CA8
100
AcDbEntity
  8
V0-OBRYS
  6
CONTINUOUS
 62
    90
100
AcDbLine
 10
1623.902976
 20
112.380001
 30
0.0
 11
1607.680703
 21
97.672479
 31
0.0
  0
LINE
  5
2CA9
100
AcDbEntity
  8
V0-OBRYS
  6
CONTINUOUS
 62
    90
100
AcDbLine
 10
1661.864867
 20
41.830836
 30
0.0
 11
1640.370484
 21
48.190402
 31
0.0
  0
ARC
  5
2CAA
100
AcDbEntity
  8
V0-OBRYS
  6
CONTINUOUS
 62
    90
100
AcDbCircle
 10
1510.634618
 20
53.063682
 30
0.0
 40
157.5
100
AcDbArc
 50
338.994933
 51
355.290781
  0
LINE
  5
2CAB
100
AcDbEntity
  8
V0-OBRYS
  6
CONTINUOUS
 62
    90
100
AcDbLine
 10
1657.668544
 20
-3.392273
 30
0.0
 11
1653.748646
 21
-2.755118
 31
0.0
  0
LINE
  5
2CAC
100
AcDbEntity
  8
V0-OBRYS
  6
CONTINUOUS
 62
    90
100
AcDbLine
 10
1667.602928
 20
40.13311
 30
0.0
 11
1663.794772
 21
41.259833
 31
0.0
  0
CIRCLE
  5
2CAD
100
AcDbEntity
  8
V0-OBRYS
  6
CONTINUOUS
 62
    90
100
AcDbCircle
 10
1641.444662
 20
183.873725
 30
0.0
 40
5.04
  0
ARC
  5
2CAE
100
AcDbEntity
  8
VO-OBRYS
  6
CONTINUOUS
100
AcDbCircle
 10
1641.444662
 20
183.873725
 30
0.0
 40
13.64832
100
AcDbArc
 50
315.0
 51
135.0
  0
ARC
  5
2CAF
100
AcDbEntity
  8
VO-OBRYS
  6
CONTINUOUS
100
AcDbCircle
 10
1641.444662
 20
183.873725
 30
0.0
 40
11.680829
100
AcDbArc
 50
315.0
 51
135.0
  0
ARC
  5
2CB0
100
AcDbEntity
  8
V0-OBRYS
  6
CONTINUOUS
 62
    90
100
AcDbCircle
 10
1510.634618
 20
53.063682
 30
0.0
 40
157.5
100
AcDbArc
 50
30.423505
 51
46.719352
  0
ARC
  5
2CB1
100
AcDbEntity
  8
V0-OBRYS
  6
CONTINUOUS
 62
    90
100
AcDbCircle
 10
1510.634618
 20
53.063682
 30
0.0
 40
157.5
100
AcDbArc
 50
81.852076
 51
98.147924
  0
LINE
  5
2CB2
100
AcDbEntity
  8
V0-OBRYS
  6
CONTINUOUS
 62
    90
100
AcDbLine
 10
1486.388318
 20
178.60357
 30
0.0
 11
1485.003936
 21
156.750496
 31
0.0
  0
LINE
  5
2CB3
100
AcDbEntity
  8
V0-OBRYS
  6
CONTINUOUS
 62
    90
100
AcDbLine
 10
1484.87338
 20
154.689617
 30
0.0
 11
1483.50885
 21
133.149923
 31
0.0
  0
LINE
  5
2CB4
100
AcDbEntity
  8
V0-OBRYS
  6
CONTINUOUS
 62
    90
100
AcDbLine
 10
1487.933937
 20
203.001816
 30
0.0
 11
1486.516768
 21
180.631205
 31
0.0
  0
LINE
  5
2CB5
100
AcDbEntity
  8
V0-OBRYS
  6
CONTINUOUS
 62
    90
100
AcDbLine
 10
1488.312259
 20
208.973791
 30
0.0
 11
1488.061179
 21
205.010394
 31
0.0
  0
LINE
  5
2CB6
100
AcDbEntity
  8
V0-OBRYS
  6
CONTINUOUS
 62
    90
100
AcDbLine
 10
1534.880918
 20
178.60357
 30
0.0
 11
1536.265301
 21
156.750496
 31
0.0
  0
LINE
  5
2CB7
100
AcDbEntity
  8
V0-OBRYS
  6
CONTINUOUS
 62
    90
100
AcDbLine
 10
1536.395857
 20
154.689617
 30
0.0
 11
1537.760387
 21
133.149923
 31
0.0
  0
LINE
  5
2CB8
100
AcDbEntity
  8
V0-OBRYS
  6
CONTINUOUS
 62
    90
100
AcDbLine
 10
1533.3353
 20
203.001816
 30
0.0
 11
1534.752468
 21
180.631205
 31
0.0
  0
LINE
  5
2CB9
100
AcDbEntity
  8
V0-OBRYS
  6
CONTINUOUS
 62
    90
100
AcDbLine
 10
1532.956978
 20
208.973791
 30
0.0
 11
1533.208057
 21
205.010394
 31
0.0
  0
LINE
  5
2CBA
100
AcDbEntity
  8
V0-OBRYS
  6
CONTINUOUS
 62
    90
100
AcDbLine
 10
1593.668334
 20
150.293042
 30
0.0
 11
1575.719765
 21
137.750228
 31
0.0
  0
LINE
  5
2CBB
100
AcDbEntity
  8
V0-OBRYS
  6
CONTINUOUS
 62
    90
100
AcDbLine
 10
1618.612287
 20
167.724369
 30
0.0
 11
1615.357032
 21
165.449532
 31
0.0
  0
LINE
  5
2CBC
100
AcDbEntity
  8
V0-OBRYS
  6
CONTINUOUS
 62
    90
100
AcDbLine
 10
1613.707328
 20
164.296687
 30
0.0
 11
1595.333691
 21
151.456826
 31
0.0
  0
LINE
  5
2DBF
100
AcDbEntity
  8
V0-OBRYS
  6
CONTINUOUS
 62
    90
 48
2.0
100
AcDbLine
 10
1011.91515
 20
253.013641
 30
0.0
 11
1011.91515
 21
53.063641
 31
0.0
  0
LINE
  5
2DC2
100
AcDbEntity
  8
V0-VYPLNE
  6
DASHDOT
 62
    63
 48
2.0
100
AcDbLine
 10
980.908346
 20
53.063641
 30
0.0
 11
1111.342133
 21
53.063641
 31
0.0
  0
LINE
  5
2DC5
100
AcDbEntity
  8
V0-OBRYS
  6
CONTINUOUS
 62
    90
 48
2.0
100
AcDbLine
 10
1011.91515
 20
-146.886359
 30
0.0
 11
1011.91515
 21
53.063641
 31
0.0
  0
LINE
  5
2DC6
100
AcDbEntity
  8
V0-OBRYS
  6
CONTINUOUS
 62
    90
 48
2.0
100
AcDbLine
 10
999.57397
 20
-109.033935
 30
0.0
 11
999.57397
 21
-36.71328
 31
0.0
  0
LINE
  5
2DC7
100
AcDbEntity
  8
V0-OBRYS
  6
CONTINUOUS
 62
    90
 48
2.0
100
AcDbLine
 10
1001.54146
 20
-109.033935
 30
0.0
 11
1001.54146
 21
-36.71328
 31
0.0
  0
LINE
  5
2DC8
100
AcDbEntity
  8
V0-OBRYS
  6
CONTINUOUS
 62
    90
 48
2.0
100
AcDbLine
 10
1024.03515
 20
-146.886359
 30
0.0
 11
1011.91515
 21
-146.886359
 31
0.0
  0
ARC
  5
2DC9
100
AcDbEntity
  8
V0-OBRYS
  6
CONTINUOUS
 62
    90
 48
2.0
100
AcDbCircle
 10
1002.233167
 20
-122.683609
 30
0.0
 40
9.79969
100
AcDbArc
 50
9.512305
 51
76.109153
  0
ARC
  5
2DCA
100
AcDbEntity
  8
V0-OBRYS
  6
CONTINUOUS
 62
    90
 48
2.0
100
AcDbCircle
 10
1002.222173
 20
-122.732858
 30
0.0
 40
7.887007
100
AcDbArc
 50
12.215016
 51
76.966739
  0
ARC
  5
2DCB
100
AcDbEntity
  8
V0-OBRYS
  6
CONTINUOUS
 62
    90
 48
2.0
100
AcDbCircle
 10
1005.87397
 20
-109.033935
 30
0.0
 40
4.332509
100
AcDbArc
 50
180.0
 51
252.703019
  0
ARC
  5
2DCC
100
AcDbEntity
  8
V0-OBRYS
  6
CONTINUOUS
 62
    90
 48
2.0
100
AcDbCircle
 10
1005.87397
 20
-109.033935
 30
0.0
 40
6.3
100
AcDbArc
 50
180.0
 51
252.703019
  0
CIRCLE
  5
2DCD
100
AcDbEntity
  8
V0-OBRYS
  6
CONTINUOUS
 62
    90
 48
2.0
100
AcDbCircle
 10
997.547454
 20
-104.031292
 30
0.0
 40
2.026282
  0
CIRCLE
  5
2DCE
100
AcDbEntity
  8
V0-OBRYS
  6
CONTINUOUS
 62
    90
 48
2.0
100
AcDbCircle
 10
997.547454
 20
-88.911292
 30
0.0
 40
2.026282
  0
LINE
  5
2DCF
100
AcDbEntity
  8
V0-OBRYS
  6
CONTINUOUS
 62
    90
 48
2.0
100
AcDbLine
 10
1009.930622
 20
-132.818497
 30
0.0
 11
1009.930622
 21
-121.064118
 31
0.0
  0
ARC
  5
2DD0
100
AcDbEntity
  8
V0-OBRYS
  6
CONTINUOUS
 62
    90
 48
2.0
100
AcDbCircle
 10
1010.922886
 20
-132.818497
 30
0.0
 40
0.992264
100
AcDbArc
 50
180.0
 51
0.0
  0
ARC
  5
2DD1
100
AcDbEntity
  8
V0-OBRYS
  6
CONTINUOUS
 62
    90
 48
2.0
100
AcDbCircle
 10
1005.61515
 20
-23.416173
 30
0.0
 40
6.3
100
AcDbArc
 50
289.78203
 51
0.0
  0
LINE
  5
2DD2
100
AcDbEntity
  8
V0-OBRYS
  6
CONTINUOUS
 62
    90
 48
2.0
100
AcDbLine
 10
1003.74178
 20
-30.785062
 30
0.0
 11
1007.74734
 21
-29.34439
 31
0.0
  0
LINE
  5
2DD3
100
AcDbEntity
  8
V0-OBRYS
  6
CONTINUOUS
 62
    90
 48
2.0
100
AcDbLine
 10
1004.407663
 20
-32.636445
 30
0.0
 11
1008.413223
 21
-31.195773
 31
0.0
  0
ARC
  5
2DD4
100
AcDbEntity
  8
V0-OBRYS
  6
CONTINUOUS
 62
    90
 48
2.0
100
AcDbCircle
 10
1005.87397
 20
-36.71328
 30
0.0
 40
4.332509
100
AcDbArc
 50
109.78203
 51
180.0
  0
ARC
  5
2DD5
100
AcDbEntity
  8
V0-OBRYS
  6
CONTINUOUS
 62
    90
 48
2.0
100
AcDbCircle
 10
1005.87397
 20
-36.71328
 30
0.0
 40
6.3
100
AcDbArc
 50
109.78203
 51
180.0
  0
CIRCLE
  5
2DD6
100
AcDbEntity
  8
V0-OBRYS
  6
CONTINUOUS
 62
    90
 48
2.0
100
AcDbCircle
 10
997.547454
 20
-73.791292
 30
0.0
 40
2.026282
  0
CIRCLE
  5
2DD7
100
AcDbEntity
  8
V0-OBRYS
  6
CONTINUOUS
 62
    90
 48
2.0
100
AcDbCircle
 10
997.547454
 20
-58.671292
 30
0.0
 40
2.026282
  0
CIRCLE
  5
2DD8
100
AcDbEntity
  8
V0-OBRYS
  6
CONTINUOUS
 62
    90
 48
2.0
100
AcDbCircle
 10
997.547454
 20
-43.551292
 30
0.0
 40
2.026282
  0
ARC
  5
2DD9
100
AcDbEntity
  8
V0-OBRYS
  6
CONTINUOUS
 62
    90
 48
2.0
100
AcDbCircle
 10
1005.61515
 20
-23.416173
 30
0.0
 40
8.267491
100
AcDbArc
 50
289.78203
 51
319.642674
  0
ARC
  5
2DDA
100
AcDbEntity
  8
V0-OBRYS
  6
CONTINUOUS
 62
    90
 48
2.0
100
AcDbCircle
 10
1005.87397
 20
142.840561
 30
0.0
 40
4.332509
100
AcDbArc
 50
180.0
 51
250.21797
  0
ARC
  5
2DDB
100
AcDbEntity
  8
V0-OBRYS
  6
CONTINUOUS
 62
    90
 48
2.0
100
AcDbCircle
 10
1005.87397
 20
142.840561
 30
0.0
 40
6.3
100
AcDbArc
 50
180.0
 51
250.21797
  0
LINE
  5
2DDC
100
AcDbEntity
  8
V0-OBRYS
  6
CONTINUOUS
 62
    90
 48
2.0
100
AcDbLine
 10
1004.407663
 20
138.763726
 30
0.0
 11
1008.413223
 21
137.323055
 31
0.0
  0
LINE
  5
2DDD
100
AcDbEntity
  8
V0-OBRYS
  6
CONTINUOUS
 62
    90
 48
2.0
100
AcDbLine
 10
1003.74178
 20
136.912343
 30
0.0
 11
1007.74734
 21
135.471672
 31
0.0
  0
ARC
  5
2DDE
100
AcDbEntity
  8
V0-OBRYS
  6
CONTINUOUS
 62
    90
 48
2.0
100
AcDbCircle
 10
1005.61515
 20
129.543454
 30
0.0
 40
8.267491
100
AcDbArc
 50
40.357326
 51
70.21797
  0
ARC
  5
2DDF
100
AcDbEntity
  8
V0-OBRYS
  6
CONTINUOUS
 62
    90
 48
2.0
100
AcDbCircle
 10
1005.61515
 20
129.543454
 30
0.0
 40
6.3
100
AcDbArc
 50
0.0
 51
70.21797
  0
CIRCLE
  5
2DE0
100
AcDbEntity
  8
V0-OBRYS
  6
CONTINUOUS
 62
    90
 48
2.0
100
AcDbCircle
 10
997.635989
 20
195.038574
 30
0.0
 40
2.026282
  0
LINE
  5
2DE1
100
AcDbEntity
  8
V0-OBRYS
  6
CONTINUOUS
 62
    90
 48
2.0
100
AcDbLine
 10
1001.54146
 20
215.161216
 30
0.0
 11
1001.54146
 21
142.840561
 31
0.0
  0
LINE
  5
2DE2
100
AcDbEntity
  8
V0-OBRYS
  6
CONTINUOUS
 62
    90
 48
2.0
100
AcDbLine
 10
999.57397
 20
215.161216
 30
0.0
 11
999.57397
 21
142.840561
 31
0.0
  0
CIRCLE
  5
2DE3
100
AcDbEntity
  8
V0-OBRYS
  6
CONTINUOUS
 62
    90
 48
2.0
100
AcDbCircle
 10
997.635989
 20
179.918574
 30
0.0
 40
2.026282
  0
CIRCLE
  5
2DE4
100
AcDbEntity
  8
V0-OBRYS
  6
CONTINUOUS
 62
    90
 48
2.0
100
AcDbCircle
 10
997.635989
 20
149.678574
 30
0.0
 40
2.026282
  0
CIRCLE
  5
2DE5
100
AcDbEntity
  8
V0-OBRYS
  6
CONTINUOUS
 62
    90
 48
2.0
100
AcDbCircle
 10
997.635989
 20
164.798574
 30
0.0
 40
2.026282
  0
ARC
  5
2DE6
100
AcDbEntity
  8
V0-OBRYS
  6
CONTINUOUS
 62
    90
 48
2.0
100
AcDbCircle
 10
1002.233167
 20
228.81089
 30
0.0
 40
9.79969
100
AcDbArc
 50
283.890847
 51
350.487695
  0
ARC
  5
2DE7
100
AcDbEntity
  8
V0-OBRYS
  6
CONTINUOUS
 62
    90
 48
2.0
100
AcDbCircle
 10
1002.222173
 20
228.86014
 30
0.0
 40
7.887007
100
AcDbArc
 50
283.033261
 51
347.784984
  0
ARC
  5
2DE8
100
AcDbEntity
  8
V0-OBRYS
  6
CONTINUOUS
 62
    90
 48
2.0
100
AcDbCircle
 10
1005.87397
 20
215.161216
 30
0.0
 40
4.332509
100
AcDbArc
 50
107.296981
 51
180.0
  0
CIRCLE
  5
2DE9
100
AcDbEntity
  8
V0-OBRYS
  6
CONTINUOUS
 62
    90
 48
2.0
100
AcDbCircle
 10
997.635989
 20
210.158574
 30
0.0
 40
2.026282
  0
ARC
  5
2DEA
100
AcDbEntity
  8
V0-OBRYS
  6
CONTINUOUS
 62
    90
 48
2.0
100
AcDbCircle
 10
1005.87397
 20
215.161216
 30
0.0
 40
6.3
100
AcDbArc
 50
107.296981
 51
180.0
  0
ARC
  5
2DEB
100
AcDbEntity
  8
V0-OBRYS
  6
CONTINUOUS
 62
    90
 48
2.0
100
AcDbCircle
 10
1010.922886
 20
238.945778
 30
0.0
 40
0.992264
100
AcDbArc
 50
0.0
 51
180.0
  0
LINE
  5
2DEC
100
AcDbEntity
  8
V0-OBRYS
  6
CONTINUOUS
 62
    90
 48
2.0
100
AcDbLine
 10
1009.930622
 20
238.945778
 30
0.0
 11
1009.930622
 21
227.191399
 31
0.0
  0
LINE
  5
2DED
100
AcDbEntity
  8
V0-OBRYS
  6
CONTINUOUS
 62
    90
 48
2.0
100
AcDbLine
 10
1024.03515
 20
253.013641
 30
0.0
 11
1011.91515
 21
253.013641
 31
0.0
  0
LINE
  5
2E4B
100
AcDbEntity
  8
V0-OBRYS
  6
CONTINUOUS
 62
    90
 48
2.0
100
AcDbLine
 10
1096.525369
 20
-104.436044
 30
0.0
 11
1049.06857
 21
-104.436044
 31
0.0
  0
LINE
  5
2E4C
100
AcDbEntity
  8
V0-OBRYS
  6
CONTINUOUS
 62
    90
 48
2.0
100
AcDbLine
 10
1096.525369
 20
210.563326
 30
0.0
 11
1049.06857
 21
210.563326
 31
0.0
  0
ARC
  5
2E4D
100
AcDbEntity
  8
V0-OBRYS
  6
CONTINUOUS
 62
    90
 48
2.0
100
AcDbCircle
 10
1049.06857
 20
-123.038369
 30
0.0
 40
18.602325
100
AcDbArc
 50
90.0
 51
149.420799
  0
LINE
  5
2E4E
100
AcDbEntity
  8
V0-OBRYS
  6
CONTINUOUS
 62
    90
 48
2.0
100
AcDbLine
 10
1023.797154
 20
-129.239144
 30
0.0
 11
1033.053331
 21
-113.574829
 31
0.0
  0
ARC
  5
2E50
100
AcDbEntity
  8
V0-OBRYS
  6
CONTINUOUS
 62
    90
 48
2.0
100
AcDbCircle
 10
1049.06857
 20
229.165651
 30
0.0
 40
18.602325
100
AcDbArc
 50
210.579201
 51
270.0
  0
LINE
  5
2E51
100
AcDbEntity
  8
V0-OBRYS
  6
CONTINUOUS
 62
    90
 48
2.0
100
AcDbLine
 10
1023.797154
 20
235.366426
 30
0.0
 11
1033.053331
 21
219.70211
 31
0.0
  0
DIMENSION
  5
2E52
100
AcDbEntity
  8
V0-VYPLNE
  6
CONTINUOUS
 62
    41
100
AcDbDimension
  2
*D2
 10
1176.037233
 20
-104.436044
 30
0.0
 11
1176.037233
 21
50.17286
 31
0.0
 70
   160
  1
%%c<>
  3
ED30
100
AcDbAlignedDimension
 13
1096.525369
 23
210.563326
 33
0.0
 14
1096.525369
 24
-104.436044
 34
0.0
 50
90.0
100
AcDbRotatedDimension
1001
ACAD
1000
DSTYLE
1002
{
1070
   140
1040
30.0
1070
   340
1005
F38
1070
    41
1040
30.0
1002
}
  0
LINE
  5
2E53
100
AcDbEntity
  8
V0-OBRYS
  6
CONTINUOUS
 62
    90
 48
2.0
100
AcDbLine
 10
1096.525369
 20
53.063641
 30
0.0
 11
1096.525369
 21
210.563326
 31
0.0
  0
LINE
  5
2E54
100
AcDbEntity
  8
V0-OBRYS
  6
CONTINUOUS
 62
    90
 48
2.0
100
AcDbLine
 10
1096.525369
 20
53.063641
 30
0.0
 11
1096.525369
 21
-104.436044
 31
0.0
  0
DIMENSION
  5
2E78
100
AcDbEntity
  8
V0-OBRYS
  6
CONTINUOUS
 62
    90
100
AcDbDimension
  2
*D3
 10
1096.525369
 20
-234.433539
 30
0.0
 11
1056.717139
 21
-234.433539
 31
0.0
 70
   160
  3
ED30
100
AcDbAlignedDimension
 13
1024.03515
 23
-146.886359
 33
0.0
 14
1096.525369
 24
-104.436044
 34
0.0
100
AcDbRotatedDimension
1001
ACAD
1000
DSTYLE
1002
{
1070
   140
1040
30.0
1070
   340
1005
F38
1070
    41
1040
30.0
1002
}
  0
DIMENSION
  5
2E92
100
AcDbEntity
  8
V0-OBRYS
  6
CONTINUOUS
 62
    90
100
AcDbDimension
  2
*D4
 10
1024.03515
 20
-187.422438
 30
0.0
 11
935.514264
 21
-187.422438
 31
0.0
 70
   160
  3
ED30
100
AcDbAlignedDimension
 13
1011.91515
 23
-146.886359
 33
0.0
 14
1024.03515
 24
-146.886359
 34
0.0
100
AcDbRotatedDimension
1001
ACAD
1000
DSTYLE
1002
{
1070
   140
1040
30.0
1070
   340
1005
F38
1070
    41
1040
30.0
1002
}
  0
LINE
  5
2F2A
100
AcDbEntity
  8
V0-OBRYS
  6
CONTINUOUS
 62
    90
 48
2.0
100
AcDbLine
 10
1002.275083
 20
96.496482
 30
0.0
 11
984.508962
 21
86.902031
 31
0.0
  0
LINE
  5
2F2B
100
AcDbEntity
  8
V0-OBRYS
  6
CONTINUOUS
 62
    90
 48
2.0
100
AcDbLine
 10
1002.75525
 20
106.570657
 30
0.0
 11
984.028799
 21
92.658704
 31
0.0
  0
LINE
  5
2F2C
100
AcDbEntity
  8
V0-OBRYS
  6
CONTINUOUS
 62
    90
 48
2.0
100
AcDbLine
 10
1002.275083
 20
61.476736
 30
0.0
 11
984.028799
 21
60.997013
 31
0.0
  0
LINE
  5
2F2D
100
AcDbEntity
  8
V0-OBRYS
  6
CONTINUOUS
 62
    90
 48
2.0
100
AcDbLine
 10
1002.275083
 20
72.990078
 30
0.0
 11
984.028799
 21
71.071186
 31
0.0
  0
LINE
  5
2F2E
100
AcDbEntity
  8
V0-OBRYS
  6
CONTINUOUS
 62
    90
 48
2.0
100
AcDbLine
 10
1002.75525
 20
84.503418
 30
0.0
 11
983.548631
 21
80.185915
 31
0.0
  0
LINE
  5
2F2F
100
AcDbEntity
  8
V0-OBRYS
  6
CONTINUOUS
 62
    90
 48
2.0
100
AcDbLine
 10
1002.275083
 20
33.137204
 30
0.0
 11
984.028799
 21
35.056095
 31
0.0
  0
LINE
  5
2F30
100
AcDbEntity
  8
V0-OBRYS
  6
CONTINUOUS
 62
    90
 48
2.0
100
AcDbLine
 10
1002.275083
 20
44.650546
 30
0.0
 11
984.028799
 21
45.130268
 31
0.0
  0
LINE
  5
2F31
100
AcDbEntity
  8
V0-OBRYS
  6
CONTINUOUS
 62
    90
 48
2.0
100
AcDbLine
 10
1002.75525
 20
21.623864
 30
0.0
 11
983.548631
 21
25.941367
 31
0.0
  0
LINE
  5
2F32
100
AcDbEntity
  8
V0-OBRYS
  6
CONTINUOUS
 62
    90
 48
2.0
100
AcDbLine
 10
1002.75525
 20
-0.443376
 30
0.0
 11
984.028799
 21
13.468578
 31
0.0
  0
LINE
  5
2F33
100
AcDbEntity
  8
V0-OBRYS
  6
CONTINUOUS
 62
    90
 48
2.0
100
AcDbLine
 10
1002.275083
 20
9.630799
 30
0.0
 11
984.508962
 21
19.22525
 31
0.0
  0
LINE
  5
2F35
100
AcDbEntity
  8
V0-OBRYS
  6
CONTINUOUS
 62
    90
 48
2.0
100
AcDbLine
 10
993.914971
 20
-3.936815
 30
0.0
 11
1011.915267
 21
-3.936815
 31
0.0
  0
LINE
  5
2F36
100
AcDbEntity
  8
V0-OBRYS
  6
CONTINUOUS
 62
    90
 48
2.0
100
AcDbLine
 10
993.914971
 20
110.064097
 30
0.0
 11
1011.915267
 21
110.064097
 31
0.0
  0
LINE
  5
2F37
100
AcDbEntity
  8
V0-OBRYS
  6
CONTINUOUS
 62
    90
 48
2.0
100
AcDbLine
 10
983.914891
 20
53.063641
 30
0.0
 11
983.914891
 21
6.063265
 31
0.0
  0
ARC
  5
2F38
100
AcDbEntity
  8
V0-OBRYS
  6
CONTINUOUS
 62
    90
 48
2.0
100
AcDbCircle
 10
993.914971
 20
6.063265
 30
0.0
 40
10.00008
100
AcDbArc
 50
180.0
 51
270.0
  0
LINE
  5
2F39
100
AcDbEntity
  8
V0-OBRYS
  6
CONTINUOUS
 62
    90
 48
2.0
100
AcDbLine
 10
983.914891
 20
53.063641
 30
0.0
 11
983.914891
 21
100.064017
 31
0.0
  0
ARC
  5
2F3A
100
AcDbEntity
  8
V0-OBRYS
  6
CONTINUOUS
 62
    90
 48
2.0
100
AcDbCircle
 10
993.914971
 20
100.064017
 30
0.0
 40
10.00008
100
AcDbArc
 50
90.0
 51
180.0
  0
LINE
  5
2F3C
100
AcDbEntity
  8
V0-OBRYS
  6
CONTINUOUS
 62
    90
 48
2.0
100
AcDbLine
 10
1002.915043
 20
53.063641
 30
0.0
 11
1002.915043
 21
-3.936815
 31
0.0
  0
LINE
  5
2F3D
100
AcDbEntity
  8
V0-OBRYS
  6
CONTINUOUS
 62
    90
 48
2.0
100
AcDbLine
 10
1002.75525
 20
-0.443376
 30
0.0
 11
1011.915267
 21
-0.443376
 31
0.0
  0
LINE
  5
2F3E
100
AcDbEntity
  8
V0-OBRYS
  6
CONTINUOUS
 62
    90
 48
2.0
100
AcDbLine
 10
1005.156076
 20
33.137204
 30
0.0
 11
1011.915267
 21
33.137204
 31
0.0
  0
LINE
  5
2F3F
100
AcDbEntity
  8
V0-OBRYS
  6
CONTINUOUS
 62
    90
 48
2.0
100
AcDbLine
 10
1002.75525
 20
21.623864
 30
0.0
 11
1011.915267
 21
21.623864
 31
0.0
  0
LINE
  5
2F40
100
AcDbEntity
  8
V0-OBRYS
  6
CONTINUOUS
 62
    90
 48
2.0
100
AcDbLine
 10
1002.275083
 20
9.630799
 30
0.0
 11
1011.915267
 21
9.630799
 31
0.0
  0
LINE
  5
2F41
100
AcDbEntity
  8
V0-OBRYS
  6
CONTINUOUS
 62
    90
 48
2.0
100
AcDbLine
 10
1002.275083
 20
33.137204
 30
0.0
 11
1005.156076
 21
33.137204
 31
0.0
  0
LINE
  5
2F42
100
AcDbEntity
  8
V0-OBRYS
  6
CONTINUOUS
 62
    90
 48
2.0
100
AcDbLine
 10
1002.915043
 20
53.063641
 30
0.0
 11
1002.915043
 21
110.064097
 31
0.0
  0
LINE
  5
2F43
100
AcDbEntity
  8
V0-OBRYS
  6
CONTINUOUS
 62
    90
 48
2.0
100
AcDbLine
 10
1005.156076
 20
72.990078
 30
0.0
 11
1011.915267
 21
72.990078
 31
0.0
  0
LINE
  5
2F44
100
AcDbEntity
  8
V0-OBRYS
  6
CONTINUOUS
 62
    90
 48
2.0
100
AcDbLine
 10
1002.275083
 20
44.650546
 30
0.0
 11
1011.915267
 21
44.650546
 31
0.0
  0
LINE
  5
2F45
100
AcDbEntity
  8
V0-OBRYS
  6
CONTINUOUS
 62
    90
 48
2.0
100
AcDbLine
 10
1002.275083
 20
61.476736
 30
0.0
 11
1011.915267
 21
61.476736
 31
0.0
  0
LINE
  5
2F46
100
AcDbEntity
  8
V0-OBRYS
  6
CONTINUOUS
 62
    90
 48
2.0
100
AcDbLine
 10
1002.75525
 20
84.503418
 30
0.0
 11
1011.915267
 21
84.503418
 31
0.0
  0
LINE
  5
2F47
100
AcDbEntity
  8
V0-OBRYS
  6
CONTINUOUS
 62
    90
 48
2.0
100
AcDbLine
 10
1002.275083
 20
72.990078
 30
0.0
 11
1005.156076
 21
72.990078
 31
0.0
  0
LINE
  5
2F48
100
AcDbEntity
  8
V0-OBRYS
  6
CONTINUOUS
 62
    90
 48
2.0
100
AcDbLine
 10
1002.275083
 20
96.496482
 30
0.0
 11
1011.915267
 21
96.496482
 31
0.0
  0
LINE
  5
2F49
100
AcDbEntity
  8
V0-OBRYS
  6
CONTINUOUS
 62
    90
 48
2.0
100
AcDbLine
 10
1002.75525
 20
106.570657
 30
0.0
 11
1011.915267
 21
106.570657
 31
0.0
  0
LINE
  5
2F62
100
AcDbEntity
  8
V0-VYPLNE
  6
DASHED
 62
    52
 48
2.0
100
AcDbLine
 10
1030.692355
 20
1.063225
 30
0.0
 11
1030.692355
 21
53.063641
 31
0.0
  0
LINE
  5
2F64
100
AcDbEntity
  8
V0-VYPLNE
  6
DASHED
 62
    52
100
AcDbLine
 10
1011.915349
 20
-0.443376
 30
0.0
 11
1030.692355
 21
-0.443376
 31
0.0
  0
LINE
  5
2F65
100
AcDbEntity
  8
V0-VYPLNE
  6
DASHED
 62
    52
100
AcDbLine
 10
1011.915349
 20
-3.936815
 30
0.0
 11
1025.692315
 21
-3.936815
 31
0.0
  0
LINE
  5
2F66
100
AcDbEntity
  8
V0-VYPLNE
  6
DASHED
 62
    52
100
AcDbLine
 10
1011.915349
 20
9.630799
 30
0.0
 11
1030.692355
 21
9.630799
 31
0.0
  0
LINE
  5
2F67
100
AcDbEntity
  8
V0-VYPLNE
  6
DASHED
 62
    52
100
AcDbLine
 10
1011.915349
 20
21.623864
 30
0.0
 11
1030.212191
 21
21.623864
 31
0.0
  0
LINE
  5
2F68
100
AcDbEntity
  8
V0-VYPLNE
  6
DASHED
 62
    52
100
AcDbLine
 10
1011.915349
 20
33.137204
 30
0.0
 11
1030.692355
 21
33.137204
 31
0.0
  0
ARC
  5
2F69
100
AcDbEntity
  8
V0-VYPLNE
  6
DASHED
 62
    52
 48
2.0
100
AcDbCircle
 10
1025.692315
 20
1.063225
 30
0.0
 40
5.00004
100
AcDbArc
 50
270.0
 51
0.0
  0
LINE
  5
2F6A
100
AcDbEntity
  8
V0-VYPLNE
  6
DASHED
 62
    52
100
AcDbLine
 10
1011.915349
 20
61.476736
 30
0.0
 11
1030.212191
 21
61.476736
 31
0.0
  0
LINE
  5
2F6B
100
AcDbEntity
  8
V0-VYPLNE
  6
DASHED
 62
    52
100
AcDbLine
 10
1011.915349
 20
72.990078
 30
0.0
 11
1030.692355
 21
72.990078
 31
0.0
  0
LINE
  5
2F6C
100
AcDbEntity
  8
V0-VYPLNE
  6
DASHED
 62
    52
100
AcDbLine
 10
1011.915349
 20
84.503418
 30
0.0
 11
1030.212191
 21
84.503418
 31
0.0
  0
LINE
  5
2F6D
100
AcDbEntity
  8
V0-VYPLNE
  6
DASHED
 62
    52
100
AcDbLine
 10
1011.915349
 20
96.496482
 30
0.0
 11
1030.692355
 21
96.496482
 31
0.0
  0
LINE
  5
2F6E
100
AcDbEntity
  8
V0-VYPLNE
  6
DASHED
 62
    52
100
AcDbLine
 10
1011.915349
 20
106.570657
 30
0.0
 11
1030.692355
 21
106.570657
 31
0.0
  0
LINE
  5
2F6F
100
AcDbEntity
  8
V0-VYPLNE
  6
DASHED
 62
    52
100
AcDbLine
 10
1011.915349
 20
110.064097
 30
0.0
 11
1025.692315
 21
110.064097
 31
0.0
  0
LINE
  5
2F70
100
AcDbEntity
  8
V0-VYPLNE
  6
DASHED
 62
    52
100
AcDbLine
 10
1011.915349
 20
44.650546
 30
0.0
 11
1030.212191
 21
44.650546
 31
0.0
  0
LINE
  5
2F71
100
AcDbEntity
  8
V0-VYPLNE
  6
DASHED
 62
    52
 48
2.0
100
AcDbLine
 10
1030.692355
 20
105.064057
 30
0.0
 11
1030.692355
 21
53.063641
 31
0.0
  0
ARC
  5
2F72
100
AcDbEntity
  8
V0-VYPLNE
  6
DASHED
 62
    52
 48
2.0
100
AcDbCircle
 10
1025.692315
 20
105.064057
 30
0.0
 40
5.00004
100
AcDbArc
 50
0.0
 51
90.0
  0
LINE
  5
2F8B
100
AcDbEntity
  8
V0-VYPLNE
  6
DASHED
 62
    52
 48
2.0
100
AcDbLine
 10
1088.852765
 20
129.52426
 30
0.0
 11
1076.349358
 21
208.044623
 31
0.0
  0
LINE
  5
2F8C
100
AcDbEntity
  8
V0-VYPLNE
  6
DASHED
 62
    52
 48
2.0
100
AcDbLine
 10
1032.991751
 20
129.52426
 30
0.0
 11
1045.495157
 21
208.044623
 31
0.0
  0
LINE
  5
2F8D
100
AcDbEntity
  8
V0-VYPLNE
  6
DASHED
 62
    52
 48
2.0
100
AcDbLine
 10
1088.852765
 20
-23.397022
 30
0.0
 11
1076.349358
 21
-101.917385
 31
0.0
  0
LINE
  5
2F8E
100
AcDbEntity
  8
V0-VYPLNE
  6
DASHED
 62
    52
 48
2.0
100
AcDbLine
 10
1032.991751
 20
-23.397022
 30
0.0
 11
1045.495157
 21
-101.917385
 31
0.0
  0
LINE
  5
2F8F
100
AcDbEntity
  8
V0-VYPLNE
  6
DASHED
 62
    52
 48
2.0
100
AcDbLine
 10
1045.495157
 20
-101.917385
 30
0.0
 11
1076.349358
 21
-101.917385
 31
0.0
  0
LINE
  5
2F90
100
AcDbEntity
  8
V0-VYPLNE
  6
DASHED
 62
    52
 48
2.0
100
AcDbLine
 10
1033.022258
 20
53.063619
 30
0.0
 11
1033.022258
 21
-17.616381
 31
0.0
  0
ARC
  5
2F91
100
AcDbEntity
  8
V0-VYPLNE
  6
DASHED
 62
    52
 48
2.0
100
AcDbCircle
 10
265.208209
 20
61.169622
 30
0.0
 40
827.373758
100
AcDbArc
 50
354.845307
 51
359.438649
  0
LINE
  5
2F92
100
AcDbEntity
  8
V0-VYPLNE
  6
DASHED
 62
    52
 48
2.0
100
AcDbLine
 10
1060.922258
 20
-21.159837
 30
0.0
 11
1060.922258
 21
53.063619
 31
0.0
  0
LINE
  5
2F93
100
AcDbEntity
  8
V0-VYPLNE
  6
DASHED
 62
    52
 48
2.0
100
AcDbLine
 10
1033.514538
 20
44.576604
 30
0.0
 11
1090.94889
 21
61.841796
 31
0.0
  0
ARC
  5
2F94
100
AcDbEntity
  8
V0-VYPLNE
  6
DASHED
 62
    52
 48
2.0
100
AcDbCircle
 10
1060.922258
 20
90.449565
 30
0.0
 40
111.609403
100
AcDbArc
 50
255.523734
 51
282.123858
  0
LINE
  5
2F95
100
AcDbEntity
  8
V0-VYPLNE
  6
DASHED
 62
    52
 48
2.0
100
AcDbLine
 10
1037.754954
 20
-18.638212
 30
0.0
 11
1032.991751
 21
-23.397022
 31
0.0
  0
ARC
  5
2F96
100
AcDbEntity
  8
V0-VYPLNE
  6
DASHED
 62
    52
 48
2.0
100
AcDbCircle
 10
1083.06094
 20
-12.608772
 30
0.0
 40
6.2
100
AcDbArc
 50
282.123858
 51
354.845307
  0
LINE
  5
2F97
100
AcDbEntity
  8
V0-VYPLNE
  6
DASHED
 62
    52
 48
2.0
100
AcDbLine
 10
1084.089561
 20
-18.638212
 30
0.0
 11
1088.852765
 21
-23.397022
 31
0.0
  0
ARC
  5
2F98
100
AcDbEntity
  8
V0-VYPLNE
  6
DASHED
 62
    52
 48
2.0
100
AcDbCircle
 10
1060.922258
 20
15.677673
 30
0.0
 40
111.609403
100
AcDbArc
 50
77.876142
 51
104.476266
  0
LINE
  5
2F99
100
AcDbEntity
  8
V0-VYPLNE
  6
DASHED
 62
    52
 48
2.0
100
AcDbLine
 10
1060.922258
 20
127.287075
 30
0.0
 11
1060.922258
 21
53.063619
 31
0.0
  0
LINE
  5
2F9A
100
AcDbEntity
  8
V0-VYPLNE
  6
DASHED
 62
    52
 48
2.0
100
AcDbLine
 10
1033.022258
 20
53.063619
 30
0.0
 11
1033.022258
 21
123.743619
 31
0.0
  0
CIRCLE
  5
2F9B
100
AcDbEntity
  8
V0-VYPLNE
  6
DASHED
 62
    52
 48
2.0
100
AcDbCircle
 10
1060.922258
 20
52.815568
 30
0.0
 40
5.254637
  0
LINE
  5
2F9C
100
AcDbEntity
  8
V0-VYPLNE
  6
DASHED
 62
    52
 48
2.0
100
AcDbLine
 10
1037.754954
 20
124.76545
 30
0.0
 11
1032.991751
 21
129.52426
 31
0.0
  0
ARC
  5
2F9D
100
AcDbEntity
  8
V0-VYPLNE
  6
DASHED
 62
    52
 48
2.0
100
AcDbCircle
 10
265.208209
 20
44.957616
 30
0.0
 40
827.373758
100
AcDbArc
 50
0.561351
 51
5.154693
  0
LINE
  5
2F9E
100
AcDbEntity
  8
V0-VYPLNE
  6
DASHED
 62
    52
 48
2.0
100
AcDbLine
 10
1084.089561
 20
124.76545
 30
0.0
 11
1088.852765
 21
129.52426
 31
0.0
  0
LINE
  5
2F9F
100
AcDbEntity
  8
V0-VYPLNE
  6
DASHED
 62
    52
 48
2.0
100
AcDbLine
 10
1045.495157
 20
208.044623
 30
0.0
 11
1076.349358
 21
208.044623
 31
0.0
  0
LINE
  5
2FB9
100
AcDbEntity
  8
V0-OBRYS
  6
CONTINUOUS
 62
    90
100
AcDbLine
 10
1024.03515
 20
253.013641
 30
0.0
 11
1024.03515
 21
-146.886359
 31
0.0
  0
DIMENSION
  5
2FD1
100
AcDbEntity
  8
V0-OBRYS
  6
CONTINUOUS
 62
    90
100
AcDbDimension
  2
*D5
 10
900.598313
 20
-3.936815
 30
0.0
 11
900.598313
 21
51.90679
 31
0.0
 70
   160
  1
%%c<>
  3
ED30
100
AcDbAlignedDimension
 13
1002.915043
 23
110.064097
 33
0.0
 14
1002.915043
 24
-3.936815
 34
0.0
 50
90.0
100
AcDbRotatedDimension
1001
ACAD
1000
DSTYLE
1002
{
1070
   140
1040
30.0
1070
   340
1005
F38
1070
    41
1040
30.0
1002
}
  0
ARC
  5
306F
100
AcDbEntity
  8
V0-VYPLNE
100
AcDbCircle
 10
1501.818521
 20
57.194904
 30
0.0
 40
230.533641
100
AcDbArc
 50
222.153029
 51
232.398921
  0
CIRCLE
  5
3070
100
AcDbEntity
  8
V0-OBRYS
  6
CONTINUOUS
 62
    90
100
AcDbCircle
 10
1345.408874
 20
-112.162062
 30
0.0
 40
5.058239
  0
ARC
  5
3071
100
AcDbEntity
  8
V0-VYPLNE
100
AcDbCircle
 10
1506.503396
 20
44.247584
 30
0.0
 40
230.533641
100
AcDbArc
 50
312.153029
 51
322.398921
  0
CIRCLE
  5
3072
100
AcDbEntity
  8
V0-OBRYS
  6
CONTINUOUS
 62
    90
100
AcDbCircle
 10
1675.860362
 20
-112.162062
 30
0.0
 40
5.058239
  0
ARC
  5
3073
100
AcDbEntity
  8
V0-VYPLNE
100
AcDbCircle
 10
1519.450716
 20
48.932459
 30
0.0
 40
230.533641
100
AcDbArc
 50
42.153029
 51
52.398921
  0
CIRCLE
  5
3074
100
AcDbEntity
  8
V0-OBRYS
  6
CONTINUOUS
 62
    90
100
AcDbCircle
 10
1675.860362
 20
218.289426
 30
0.0
 40
5.058239
  0
DIMENSION
  5
3081
100
AcDbEntity
  8
V0-OBRYS
  6
CONTINUOUS
 62
    90
100
AcDbDimension
  2
*D6
 10
1675.860362
 20
-198.106779
 30
0.0
 11
1510.103325
 21
-198.106779
 31
0.0
 70
   160
  1
330
  3
ED30
100
AcDbAlignedDimension
 13
1345.408874
 23
-112.162062
 33
0.0
 14
1675.860362
 24
-112.162062
 34
0.0
100
AcDbRotatedDimension
1001
ACAD
1000
DSTYLE
1002
{
1070
   140
1040
30.0
1070
   340
1005
F38
1070
    41
1040
30.0
1002
}
  0
LEADER
  5
308D
100
AcDbEntity
  8
V0-OBRYS
  6
CONTINUOUS
 62
    41
100
AcDbLeader
  3
ED20
 73
     0
 75
     1
 40
20.0
 41
168.015748
 76
     3
 10
1345.408874
 20
-112.162062
 30
0.0
 10
1297.453255
 20
-170.96039
 30
0.0
 10
1277.453255
 20
-170.96039
 30
0.0
 77
    90
340
308E
  0
MTEXT
  5
308E
102
{ACAD_REACTORS
330
308D
102
}
100
AcDbEntity
  8
V0-OBRYS
  6
CONTINUOUS
 62
    41
100
AcDbMText
 10
1275.453255
 20
-158.96039
 30
0.0
 40
20.0
 41
0.0
 71
     6
 72
     1
  1
\A1;4 OTVORY %%c10
  7
ED20
  0
LINE
  5
30AE
100
AcDbEntity
  8
V0-OBRYS
  6
CONTINUOUS
 62
    90
100
AcDbLine
 10
938.914891
 20
13.063641
 30
0.0
 11
983.914891
 21
13.063641
 31
0.0
  0
LINE
  5
30AF
100
AcDbEntity
  8
V0-OBRYS
  6
CONTINUOUS
 62
    90
100
AcDbLine
 10
938.914891
 20
93.063641
 30
0.0
 11
983.914891
 21
93.063641
 31
0.0
  0
LINE
  5
30B0
100
AcDbEntity
  8
V0-OBRYS
  6
CONTINUOUS
 62
    90
100
AcDbLine
 10
938.914891
 20
53.063641
 30
0.0
 11
938.914891
 21
13.063641
 31
0.0
  0
LINE
  5
30B1
100
AcDbEntity
  8
V0-OBRYS
  6
CONTINUOUS
 62
    90
100
AcDbLine
 10
938.914891
 20
53.063641
 30
0.0
 11
938.914891
 21
93.063641
 31
0.0
  0
LINE
  5
30B2
100
AcDbEntity
  8
V0-OBRYS
  6
CONTINUOUS
 62
    90
100
AcDbLine
 10
983.914891
 20
13.063641
 30
0.0
 11
983.914891
 21
53.063641
 31
0.0
  0
LINE
  5
30B3
100
AcDbEntity
  8
V0-OBRYS
  6
CONTINUOUS
 62
    90
100
AcDbLine
 10
953.914891
 20
53.063641
 30
0.0
 11
953.914891
 21
13.063641
 31
0.0
  0
LINE
  5
30B4
100
AcDbEntity
  8
V0-OBRYS
  6
CONTINUOUS
 62
    90
100
AcDbLine
 10
953.914891
 20
53.063641
 30
0.0
 11
953.914891
 21
93.063641
 31
0.0
  0
LINE
  5
30B5
100
AcDbEntity
  8
V0-OBRYS
  6
CONTINUOUS
 62
    90
100
AcDbLine
 10
983.914891
 20
93.063641
 30
0.0
 11
983.914891
 21
53.063641
 31
0.0
  0
LINE
  5
30CC
100
AcDbEntity
  8
V0-OBRYS
  6
CONTINUOUS
 62
    90
100
AcDbLine
 10
1024.03515
 20
-349.602559
 30
0.0
 11
1024.03515
 21
-749.502559
 31
0.0
  0
LINE
  5
30CD
100
AcDbEntity
  8
V0-OBRYS
  6
CONTINUOUS
 62
    90
 48
2.0
100
AcDbLine
 10
1009.930622
 20
-735.434697
 30
0.0
 11
1009.930622
 21
-723.680318
 31
0.0
  0
LINE
  5
30CE
100
AcDbEntity
  8
V0-OBRYS
  6
CONTINUOUS
 62
    90
 48
2.0
100
AcDbLine
 10
1011.91515
 20
-749.502559
 30
0.0
 11
1011.91515
 21
-549.552559
 31
0.0
  0
ARC
  5
30CF
100
AcDbEntity
  8
V0-OBRYS
  6
CONTINUOUS
 62
    90
 48
2.0
100
AcDbCircle
 10
1010.922886
 20
-735.434697
 30
0.0
 40
0.992264
100
AcDbArc
 50
180.0
 51
0.0
  0
LINE
  5
30D0
100
AcDbEntity
  8
V0-OBRYS
  6
CONTINUOUS
 62
    90
 48
2.0
100
AcDbLine
 10
1024.03515
 20
-749.502559
 30
0.0
 11
1011.91515
 21
-749.502559
 31
0.0
  0
LINE
  5
30D1
100
AcDbEntity
  8
V0-VYPLNE
  6
DASHED
 62
    52
 48
2.0
100
AcDbLine
 10
1088.852765
 20
-473.09194
 30
0.0
 11
1076.349358
 21
-394.571577
 31
0.0
  0
LINE
  5
30D2
100
AcDbEntity
  8
V0-VYPLNE
  6
DASHED
 62
    52
 48
2.0
100
AcDbLine
 10
1032.991751
 20
-473.09194
 30
0.0
 11
1045.495157
 21
-394.571577
 31
0.0
  0
ARC
  5
30D3
100
AcDbEntity
  8
V0-OBRYS
  6
CONTINUOUS
 62
    90
 48
2.0
100
AcDbCircle
 10
1005.87397
 20
-459.775639
 30
0.0
 40
4.332509
100
AcDbArc
 50
180.0
 51
250.21797
  0
ARC
  5
30D4
100
AcDbEntity
  8
V0-OBRYS
  6
CONTINUOUS
 62
    90
 48
2.0
100
AcDbCircle
 10
1005.87397
 20
-459.775639
 30
0.0
 40
6.3
100
AcDbArc
 50
180.0
 51
250.21797
  0
LINE
  5
30D5
100
AcDbEntity
  8
V0-OBRYS
  6
CONTINUOUS
 62
    90
 48
2.0
100
AcDbLine
 10
1011.91515
 20
-349.602559
 30
0.0
 11
1011.91515
 21
-549.552559
 31
0.0
  0
LINE
  5
30D6
100
AcDbEntity
  8
V0-OBRYS
  6
CONTINUOUS
 62
    90
 48
2.0
100
AcDbLine
 10
1096.525369
 20
-549.552559
 30
0.0
 11
1096.525369
 21
-392.052874
 31
0.0
  0
LINE
  5
30D7
100
AcDbEntity
  8
V0-VYPLNE
  6
DASHED
 62
    52
 48
2.0
100
AcDbLine
 10
1033.022258
 20
-549.552581
 30
0.0
 11
1033.022258
 21
-620.232581
 31
0.0
  0
ARC
  5
30D8
100
AcDbEntity
  8
V0-VYPLNE
  6
DASHED
 62
    52
 48
2.0
100
AcDbCircle
 10
265.208209
 20
-541.446578
 30
0.0
 40
827.373758
100
AcDbArc
 50
354.845307
 51
359.438649
  0
LINE
  5
30D9
100
AcDbEntity
  8
V0-VYPLNE
  6
DASHED
 62
    52
 48
2.0
100
AcDbLine
 10
1060.922258
 20
-623.776037
 30
0.0
 11
1060.922258
 21
-549.552581
 31
0.0
  0
LINE
  5
30DA
100
AcDbEntity
  8
V0-VYPLNE
  6
DASHED
 62
    52
 48
2.0
100
AcDbLine
 10
1030.692355
 20
-601.552975
 30
0.0
 11
1030.692355
 21
-549.552559
 31
0.0
  0
LINE
  5
30DB
100
AcDbEntity
  8
V0-OBRYS
  6
CONTINUOUS
 62
    90
 48
2.0
100
AcDbLine
 10
1002.915043
 20
-549.552559
 30
0.0
 11
1002.915043
 21
-606.553015
 31
0.0
  0
ARC
  5
30DC
100
AcDbEntity
  8
V0-OBRYS
  6
CONTINUOUS
 62
    90
 48
2.0
100
AcDbCircle
 10
993.914971
 20
-596.552935
 30
0.0
 40
10.00008
100
AcDbArc
 50
180.0
 51
270.0
  0
LINE
  5
30DD
100
AcDbEntity
  8
V0-OBRYS
  6
CONTINUOUS
 62
    90
 48
2.0
100
AcDbLine
 10
1002.75525
 20
-603.059576
 30
0.0
 11
984.028799
 21
-589.147622
 31
0.0
  0
LINE
  5
30DE
100
AcDbEntity
  8
V0-OBRYS
  6
CONTINUOUS
 62
    90
 48
2.0
100
AcDbLine
 10
1096.525369
 20
-549.552559
 30
0.0
 11
1096.525369
 21
-707.052244
 31
0.0
  0
LINE
  5
30DF
100
AcDbEntity
  8
V0-VYPLNE
  6
DASHED
 62
    52
 48
2.0
100
AcDbLine
 10
1088.852765
 20
-626.013222
 30
0.0
 11
1076.349358
 21
-704.533585
 31
0.0
  0
ARC
  5
30E0
100
AcDbEntity
  8
V0-VYPLNE
  6
DASHED
 62
    52
 48
2.0
100
AcDbCircle
 10
1060.922258
 20
-512.166634
 30
0.0
 40
111.609403
100
AcDbArc
 50
255.523734
 51
282.123858
  0
LINE
  5
30E1
100
AcDbEntity
  8
V0-OBRYS
  6
CONTINUOUS
 62
    90
 48
2.0
100
AcDbLine
 10
1096.525369
 20
-707.052244
 30
0.0
 11
1049.06857
 21
-707.052244
 31
0.0
  0
LINE
  5
30E2
100
AcDbEntity
  8
V0-VYPLNE
  6
DASHED
 62
    52
 48
2.0
100
AcDbLine
 10
1032.991751
 20
-626.013222
 30
0.0
 11
1045.495157
 21
-704.533585
 31
0.0
  0
LINE
  5
30E3
100
AcDbEntity
  8
V0-OBRYS
  6
CONTINUOUS
 62
    90
 48
2.0
100
AcDbLine
 10
999.57397
 20
-711.650134
 30
0.0
 11
999.57397
 21
-639.329479
 31
0.0
  0
LINE
  5
30E4
100
AcDbEntity
  8
V0-OBRYS
  6
CONTINUOUS
 62
    90
 48
2.0
100
AcDbLine
 10
1001.54146
 20
-711.650134
 30
0.0
 11
1001.54146
 21
-639.329479
 31
0.0
  0
ARC
  5
30E5
100
AcDbEntity
  8
V0-OBRYS
  6
CONTINUOUS
 62
    90
 48
2.0
100
AcDbCircle
 10
1049.06857
 20
-725.654569
 30
0.0
 40
18.602325
100
AcDbArc
 50
90.0
 51
149.420799
  0
ARC
  5
30E6
100
AcDbEntity
  8
V0-OBRYS
  6
CONTINUOUS
 62
    90
 48
2.0
100
AcDbCircle
 10
1002.233167
 20
-725.299809
 30
0.0
 40
9.79969
100
AcDbArc
 50
9.512305
 51
76.109153
  0
ARC
  5
30E7
100
AcDbEntity
  8
V0-OBRYS
  6
CONTINUOUS
 62
    90
 48
2.0
100
AcDbCircle
 10
1002.222173
 20
-725.349058
 30
0.0
 40
7.887007
100
AcDbArc
 50
12.215016
 51
76.966739
  0
ARC
  5
30E8
100
AcDbEntity
  8
V0-OBRYS
  6
CONTINUOUS
 62
    90
 48
2.0
100
AcDbCircle
 10
1005.87397
 20
-711.650134
 30
0.0
 40
6.3
100
AcDbArc
 50
180.0
 51
252.703019
  0
LINE
  5
30E9
100
AcDbEntity
  8
V0-OBRYS
  6
CONTINUOUS
 62
    90
 48
2.0
100
AcDbLine
 10
1023.797154
 20
-731.855344
 30
0.0
 11
1033.053331
 21
-716.191028
 31
0.0
  0
ARC
  5
30EA
100
AcDbEntity
  8
V0-OBRYS
  6
CONTINUOUS
 62
    90
 48
2.0
100
AcDbCircle
 10
1005.87397
 20
-711.650134
 30
0.0
 40
4.332509
100
AcDbArc
 50
180.0
 51
252.703019
  0
CIRCLE
  5
30EB
100
AcDbEntity
  8
V0-OBRYS
  6
CONTINUOUS
 62
    90
 48
2.0
100
AcDbCircle
 10
997.547454
 20
-706.647492
 30
0.0
 40
2.026282
  0
LINE
  5
30EC
100
AcDbEntity
  8
V0-VYPLNE
  6
DASHED
 62
    52
 48
2.0
100
AcDbLine
 10
1045.495157
 20
-704.533585
 30
0.0
 11
1076.349358
 21
-704.533585
 31
0.0
  0
CIRCLE
  5
30ED
100
AcDbEntity
  8
V0-OBRYS
  6
CONTINUOUS
 62
    90
 48
2.0
100
AcDbCircle
 10
997.547454
 20
-691.527492
 30
0.0
 40
2.026282
  0
CIRCLE
  5
30EE
100
AcDbEntity
  8
V0-OBRYS
  6
CONTINUOUS
 62
    90
 48
2.0
100
AcDbCircle
 10
997.547454
 20
-676.407492
 30
0.0
 40
2.026282
  0
LINE
  5
30EF
100
AcDbEntity
  8
V0-OBRYS
  6
CONTINUOUS
 62
    90
 48
2.0
100
AcDbLine
 10
1002.75525
 20
-603.059576
 30
0.0
 11
1011.915267
 21
-603.059576
 31
0.0
  0
LINE
  5
30F0
100
AcDbEntity
  8
V0-OBRYS
  6
CONTINUOUS
 62
    90
 48
2.0
100
AcDbLine
 10
993.914971
 20
-606.553015
 30
0.0
 11
1011.915267
 21
-606.553015
 31
0.0
  0
ARC
  5
30F1
100
AcDbEntity
  8
V0-OBRYS
  6
CONTINUOUS
 62
    90
 48
2.0
100
AcDbCircle
 10
1005.61515
 20
-626.032372
 30
0.0
 40
6.3
100
AcDbArc
 50
289.78203
 51
0.0
  0
LINE
  5
30F2
100
AcDbEntity
  8
V0-OBRYS
  6
CONTINUOUS
 62
    90
 48
2.0
100
AcDbLine
 10
1003.74178
 20
-633.401262
 30
0.0
 11
1007.74734
 21
-631.96059
 31
0.0
  0
ARC
  5
30F3
100
AcDbEntity
  8
V0-OBRYS
  6
CONTINUOUS
 62
    90
 48
2.0
100
AcDbCircle
 10
1005.61515
 20
-626.032372
 30
0.0
 40
8.267491
100
AcDbArc
 50
289.78203
 51
319.642674
  0
CIRCLE
  5
30F4
100
AcDbEntity
  8
V0-OBRYS
  6
CONTINUOUS
 62
    90
 48
2.0
100
AcDbCircle
 10
997.547454
 20
-661.287492
 30
0.0
 40
2.026282
  0
LINE
  5
30F5
100
AcDbEntity
  8
V0-OBRYS
  6
CONTINUOUS
 62
    90
 48
2.0
100
AcDbLine
 10
1004.407663
 20
-635.252645
 30
0.0
 11
1008.413223
 21
-633.811973
 31
0.0
  0
ARC
  5
30F6
100
AcDbEntity
  8
V0-OBRYS
  6
CONTINUOUS
 62
    90
 48
2.0
100
AcDbCircle
 10
1005.87397
 20
-639.329479
 30
0.0
 40
4.332509
100
AcDbArc
 50
109.78203
 51
180.0
  0
ARC
  5
30F7
100
AcDbEntity
  8
V0-OBRYS
  6
CONTINUOUS
 62
    90
 48
2.0
100
AcDbCircle
 10
1005.87397
 20
-639.329479
 30
0.0
 40
6.3
100
AcDbArc
 50
109.78203
 51
180.0
  0
CIRCLE
  5
30F8
100
AcDbEntity
  8
V0-OBRYS
  6
CONTINUOUS
 62
    90
 48
2.0
100
AcDbCircle
 10
997.547454
 20
-646.167492
 30
0.0
 40
2.026282
  0
LINE
  5
30F9
100
AcDbEntity
  8
V0-VYPLNE
  6
DASHED
 62
    52
 48
2.0
100
AcDbLine
 10
1037.754954
 20
-621.254412
 30
0.0
 11
1032.991751
 21
-626.013222
 31
0.0
  0
LINE
  5
30FA
100
AcDbEntity
  8
V0-VYPLNE
  6
DASHED
 62
    52
100
AcDbLine
 10
1011.915349
 20
-603.059576
 30
0.0
 11
1030.692355
 21
-603.059576
 31
0.0
  0
LINE
  5
30FB
100
AcDbEntity
  8
V0-VYPLNE
  6
DASHED
 62
    52
100
AcDbLine
 10
1011.915349
 20
-606.553015
 30
0.0
 11
1025.692315
 21
-606.553015
 31
0.0
  0
ARC
  5
30FC
100
AcDbEntity
  8
V0-VYPLNE
  6
DASHED
 62
    52
 48
2.0
100
AcDbCircle
 10
1025.692315
 20
-601.552975
 30
0.0
 40
5.00004
100
AcDbArc
 50
270.0
 51
0.0
  0
ARC
  5
30FD
100
AcDbEntity
  8
V0-VYPLNE
  6
DASHED
 62
    52
 48
2.0
100
AcDbCircle
 10
1083.06094
 20
-615.224972
 30
0.0
 40
6.2
100
AcDbArc
 50
282.123858
 51
354.845307
  0
LINE
  5
30FE
100
AcDbEntity
  8
V0-VYPLNE
  6
DASHED
 62
    52
 48
2.0
100
AcDbLine
 10
1084.089561
 20
-621.254412
 30
0.0
 11
1088.852765
 21
-626.013222
 31
0.0
  0
LINE
  5
30FF
100
AcDbEntity
  8
V0-VYPLNE
  6
DASHDOT
 62
    63
 48
2.0
100
AcDbLine
 10
980.908346
 20
-549.552559
 30
0.0
 11
1111.342133
 21
-549.552559
 31
0.0
  0
LINE
  5
3100
100
AcDbEntity
  8
V0-VYPLNE
  6
DASHED
 62
    52
 48
2.0
100
AcDbLine
 10
1033.514538
 20
-558.039596
 30
0.0
 11
1090.94889
 21
-540.774404
 31
0.0
  0
ARC
  5
3101
100
AcDbEntity
  8
V0-VYPLNE
  6
DASHED
 62
    52
 48
2.0
100
AcDbCircle
 10
1060.922258
 20
-586.938527
 30
0.0
 40
111.609403
100
AcDbArc
 50
77.876142
 51
104.476266
  0
LINE
  5
3102
100
AcDbEntity
  8
V0-OBRYS
  6
CONTINUOUS
 62
    90
100
AcDbLine
 10
938.914891
 20
-549.552559
 30
0.0
 11
938.914891
 21
-509.552559
 31
0.0
  0
LINE
  5
3103
100
AcDbEntity
  8
V0-OBRYS
  6
CONTINUOUS
 62
    90
100
AcDbLine
 10
953.914891
 20
-549.552559
 30
0.0
 11
953.914891
 21
-509.552559
 31
0.0
  0
LINE
  5
3104
100
AcDbEntity
  8
V0-OBRYS
  6
CONTINUOUS
 62
    90
100
AcDbLine
 10
983.914891
 20
-509.552559
 30
0.0
 11
983.914891
 21
-549.552559
 31
0.0
  0
LINE
  5
3105
100
AcDbEntity
  8
V0-VYPLNE
  6
DASHED
 62
    52
 48
2.0
100
AcDbLine
 10
1060.922258
 20
-475.329125
 30
0.0
 11
1060.922258
 21
-549.552581
 31
0.0
  0
LINE
  5
3106
100
AcDbEntity
  8
V0-VYPLNE
  6
DASHED
 62
    52
 48
2.0
100
AcDbLine
 10
1033.022258
 20
-549.552581
 30
0.0
 11
1033.022258
 21
-478.872581
 31
0.0
  0
LINE
  5
3107
100
AcDbEntity
  8
V0-VYPLNE
  6
DASHED
 62
    52
 48
2.0
100
AcDbLine
 10
1030.692355
 20
-497.552143
 30
0.0
 11
1030.692355
 21
-549.552559
 31
0.0
  0
LINE
  5
3108
100
AcDbEntity
  8
V0-OBRYS
  6
CONTINUOUS
 62
    90
 48
2.0
100
AcDbLine
 10
1002.915043
 20
-549.552559
 30
0.0
 11
1002.915043
 21
-492.552103
 31
0.0
  0
LINE
  5
3109
100
AcDbEntity
  8
V0-OBRYS
  6
CONTINUOUS
 62
    90
 48
2.0
100
AcDbLine
 10
983.914891
 20
-549.552559
 30
0.0
 11
983.914891
 21
-502.552183
 31
0.0
  0
LINE
  5
310A
100
AcDbEntity
  8
V0-OBRYS
  6
CONTINUOUS
 62
    90
 48
2.0
100
AcDbLine
 10
1002.275083
 20
-529.626122
 30
0.0
 11
984.028799
 21
-531.545014
 31
0.0
  0
LINE
  5
310B
100
AcDbEntity
  8
V0-OBRYS
  6
CONTINUOUS
 62
    90
 48
2.0
100
AcDbLine
 10
1002.275083
 20
-541.139464
 30
0.0
 11
1011.915267
 21
-541.139464
 31
0.0
  0
LINE
  5
310C
100
AcDbEntity
  8
V0-OBRYS
  6
CONTINUOUS
 62
    90
 48
2.0
100
AcDbLine
 10
1002.275083
 20
-557.965654
 30
0.0
 11
1011.915267
 21
-557.965654
 31
0.0
  0
LINE
  5
310D
100
AcDbEntity
  8
V0-OBRYS
  6
CONTINUOUS
 62
    90
 48
2.0
100
AcDbLine
 10
1002.275083
 20
-592.985401
 30
0.0
 11
1011.915267
 21
-592.985401
 31
0.0
  0
LINE
  5
310E
100
AcDbEntity
  8
V0-OBRYS
  6
CONTINUOUS
 62
    90
 48
2.0
100
AcDbLine
 10
1002.75525
 20
-580.992336
 30
0.0
 11
1011.915267
 21
-580.992336
 31
0.0
  0
LINE
  5
310F
100
AcDbEntity
  8
V0-OBRYS
  6
CONTINUOUS
 62
    90
 48
2.0
100
AcDbLine
 10
1005.156076
 20
-569.478996
 30
0.0
 11
1011.915267
 21
-569.478996
 31
0.0
  0
LINE
  5
3110
100
AcDbEntity
  8
V0-OBRYS
  6
CONTINUOUS
 62
    90
100
AcDbLine
 10
938.914891
 20
-549.552559
 30
0.0
 11
938.914891
 21
-589.552559
 31
0.0
  0
LINE
  5
3111
100
AcDbEntity
  8
V0-OBRYS
  6
CONTINUOUS
 62
    90
100
AcDbLine
 10
953.914891
 20
-549.552559
 30
0.0
 11
953.914891
 21
-589.552559
 31
0.0
  0
LINE
  5
3112
100
AcDbEntity
  8
V0-OBRYS
  6
CONTINUOUS
 62
    90
100
AcDbLine
 10
983.914891
 20
-589.552559
 30
0.0
 11
983.914891
 21
-549.552559
 31
0.0
  0
LINE
  5
3113
100
AcDbEntity
  8
V0-OBRYS
  6
CONTINUOUS
 62
    90
 48
2.0
100
AcDbLine
 10
983.914891
 20
-549.552559
 30
0.0
 11
983.914891
 21
-596.552935
 31
0.0
  0
LINE
  5
3114
100
AcDbEntity
  8
V0-OBRYS
  6
CONTINUOUS
 62
    90
100
AcDbLine
 10
938.914891
 20
-589.552559
 30
0.0
 11
983.914891
 21
-589.552559
 31
0.0
  0
LINE
  5
3115
100
AcDbEntity
  8
V0-OBRYS
  6
CONTINUOUS
 62
    90
 48
2.0
100
AcDbLine
 10
1002.275083
 20
-592.985401
 30
0.0
 11
984.508962
 21
-583.39095
 31
0.0
  0
LINE
  5
3116
100
AcDbEntity
  8
V0-OBRYS
  6
CONTINUOUS
 62
    90
 48
2.0
100
AcDbLine
 10
1002.75525
 20
-580.992336
 30
0.0
 11
983.548631
 21
-576.674833
 31
0.0
  0
LINE
  5
3117
100
AcDbEntity
  8
V0-OBRYS
  6
CONTINUOUS
 62
    90
 48
2.0
100
AcDbLine
 10
1002.275083
 20
-569.478996
 30
0.0
 11
984.028799
 21
-567.560105
 31
0.0
  0
LINE
  5
3118
100
AcDbEntity
  8
V0-OBRYS
  6
CONTINUOUS
 62
    90
 48
2.0
100
AcDbLine
 10
1002.275083
 20
-569.478996
 30
0.0
 11
1005.156076
 21
-569.478996
 31
0.0
  0
LINE
  5
3119
100
AcDbEntity
  8
V0-OBRYS
  6
CONTINUOUS
 62
    90
 48
2.0
100
AcDbLine
 10
1002.275083
 20
-557.965654
 30
0.0
 11
984.028799
 21
-557.485932
 31
0.0
  0
LINE
  5
311A
100
AcDbEntity
  8
V0-OBRYS
  6
CONTINUOUS
 62
    90
 48
2.0
100
AcDbLine
 10
1002.275083
 20
-541.139464
 30
0.0
 11
984.028799
 21
-541.619187
 31
0.0
  0
LINE
  5
311B
100
AcDbEntity
  8
V0-VYPLNE
  6
DASHED
 62
    52
100
AcDbLine
 10
1011.915349
 20
-592.985401
 30
0.0
 11
1030.692355
 21
-592.985401
 31
0.0
  0
LINE
  5
311C
100
AcDbEntity
  8
V0-VYPLNE
  6
DASHED
 62
    52
100
AcDbLine
 10
1011.915349
 20
-580.992336
 30
0.0
 11
1030.212191
 21
-580.992336
 31
0.0
  0
LINE
  5
311D
100
AcDbEntity
  8
V0-VYPLNE
  6
DASHED
 62
    52
100
AcDbLine
 10
1011.915349
 20
-569.478996
 30
0.0
 11
1030.692355
 21
-569.478996
 31
0.0
  0
LINE
  5
3121
100
AcDbEntity
  8
V0-VYPLNE
  6
DASHED
 62
    52
100
AcDbLine
 10
1011.915349
 20
-557.965654
 30
0.0
 11
1030.212191
 21
-557.965654
 31
0.0
  0
LINE
  5
3122
100
AcDbEntity
  8
V0-VYPLNE
  6
DASHED
 62
    52
100
AcDbLine
 10
1011.915349
 20
-541.139464
 30
0.0
 11
1030.212191
 21
-541.139464
 31
0.0
  0
CIRCLE
  5
3123
100
AcDbEntity
  8
V0-VYPLNE
  6
DASHED
 62
    52
 48
2.0
100
AcDbCircle
 10
1060.922258
 20
-549.800632
 30
0.0
 40
5.254637
  0
LINE
  5
3124
100
AcDbEntity
  8
V0-OBRYS
  6
CONTINUOUS
 62
    90
 48
2.0
100
AcDbLine
 10
1002.75525
 20
-496.045543
 30
0.0
 11
1011.915267
 21
-496.045543
 31
0.0
  0
LINE
  5
3125
100
AcDbEntity
  8
V0-OBRYS
  6
CONTINUOUS
 62
    90
 48
2.0
100
AcDbLine
 10
1002.275083
 20
-506.119718
 30
0.0
 11
1011.915267
 21
-506.119718
 31
0.0
  0
LINE
  5
3126
100
AcDbEntity
  8
V0-OBRYS
  6
CONTINUOUS
 62
    90
 48
2.0
100
AcDbLine
 10
1002.75525
 20
-518.112782
 30
0.0
 11
1011.915267
 21
-518.112782
 31
0.0
  0
LINE
  5
3127
100
AcDbEntity
  8
V0-OBRYS
  6
CONTINUOUS
 62
    90
 48
2.0
100
AcDbLine
 10
1005.156076
 20
-529.626122
 30
0.0
 11
1011.915267
 21
-529.626122
 31
0.0
  0
LINE
  5
3128
100
AcDbEntity
  8
V0-OBRYS
  6
CONTINUOUS
 62
    90
 48
2.0
100
AcDbLine
 10
993.914971
 20
-492.552103
 30
0.0
 11
1011.915267
 21
-492.552103
 31
0.0
  0
ARC
  5
3129
100
AcDbEntity
  8
V0-OBRYS
  6
CONTINUOUS
 62
    90
 48
2.0
100
AcDbCircle
 10
993.914971
 20
-502.552183
 30
0.0
 40
10.00008
100
AcDbArc
 50
90.0
 51
180.0
  0
LINE
  5
312A
100
AcDbEntity
  8
V0-OBRYS
  6
CONTINUOUS
 62
    90
 48
2.0
100
AcDbLine
 10
1002.75525
 20
-496.045543
 30
0.0
 11
984.028799
 21
-509.957496
 31
0.0
  0
LINE
  5
312B
100
AcDbEntity
  8
V0-OBRYS
  6
CONTINUOUS
 62
    90
100
AcDbLine
 10
938.914891
 20
-509.552559
 30
0.0
 11
983.914891
 21
-509.552559
 31
0.0
  0
LINE
  5
312C
100
AcDbEntity
  8
V0-OBRYS
  6
CONTINUOUS
 62
    90
 48
2.0
100
AcDbLine
 10
1002.275083
 20
-506.119718
 30
0.0
 11
984.508962
 21
-515.714168
 31
0.0
  0
LINE
  5
312D
100
AcDbEntity
  8
V0-OBRYS
  6
CONTINUOUS
 62
    90
 48
2.0
100
AcDbLine
 10
1002.75525
 20
-518.112782
 30
0.0
 11
983.548631
 21
-522.430285
 31
0.0
  0
LINE
  5
312E
100
AcDbEntity
  8
V0-OBRYS
  6
CONTINUOUS
 62
    90
 48
2.0
100
AcDbLine
 10
1002.275083
 20
-529.626122
 30
0.0
 11
1005.156076
 21
-529.626122
 31
0.0
  0
ARC
  5
312F
100
AcDbEntity
  8
V0-VYPLNE
  6
DASHED
 62
    52
 48
2.0
100
AcDbCircle
 10
1025.692315
 20
-497.552143
 30
0.0
 40
5.00004
100
AcDbArc
 50
0.0
 51
90.0
  0
LINE
  5
3130
100
AcDbEntity
  8
V0-VYPLNE
  6
DASHED
 62
    52
100
AcDbLine
 10
1011.915349
 20
-529.626122
 30
0.0
 11
1030.692355
 21
-529.626122
 31
0.0
  0
LINE
  5
3131
100
AcDbEntity
  8
V0-VYPLNE
  6
DASHED
 62
    52
100
AcDbLine
 10
1011.915349
 20
-518.112782
 30
0.0
 11
1030.212191
 21
-518.112782
 31
0.0
  0
LINE
  5
3132
100
AcDbEntity
  8
V0-VYPLNE
  6
DASHED
 62
    52
100
AcDbLine
 10
1011.915349
 20
-506.119718
 30
0.0
 11
1030.692355
 21
-506.119718
 31
0.0
  0
LINE
  5
3133
100
AcDbEntity
  8
V0-VYPLNE
  6
DASHED
 62
    52
 48
2.0
100
AcDbLine
 10
1037.754954
 20
-477.85075
 30
0.0
 11
1032.991751
 21
-473.09194
 31
0.0
  0
LINE
  5
3134
100
AcDbEntity
  8
V0-VYPLNE
  6
DASHED
 62
    52
100
AcDbLine
 10
1011.915349
 20
-496.045543
 30
0.0
 11
1030.692355
 21
-496.045543
 31
0.0
  0
LINE
  5
3135
100
AcDbEntity
  8
V0-VYPLNE
  6
DASHED
 62
    52
100
AcDbLine
 10
1011.915349
 20
-492.552103
 30
0.0
 11
1025.692315
 21
-492.552103
 31
0.0
  0
ARC
  5
3136
100
AcDbEntity
  8
V0-OBRYS
  6
CONTINUOUS
 62
    90
 48
2.0
100
AcDbCircle
 10
1005.61515
 20
-473.072746
 30
0.0
 40
8.267491
100
AcDbArc
 50
40.357326
 51
70.21797
  0
ARC
  5
3137
100
AcDbEntity
  8
V0-OBRYS
  6
CONTINUOUS
 62
    90
 48
2.0
100
AcDbCircle
 10
1005.61515
 20
-473.072746
 30
0.0
 40
6.3
100
AcDbArc
 50
0.0
 51
70.21797
  0
LINE
  5
3138
100
AcDbEntity
  8
V0-OBRYS
  6
CONTINUOUS
 62
    90
 48
2.0
100
AcDbLine
 10
1004.407663
 20
-463.852474
 30
0.0
 11
1008.413223
 21
-465.293145
 31
0.0
  0
LINE
  5
3139
100
AcDbEntity
  8
V0-OBRYS
  6
CONTINUOUS
 62
    90
 48
2.0
100
AcDbLine
 10
1003.74178
 20
-465.703857
 30
0.0
 11
1007.74734
 21
-467.144528
 31
0.0
  0
ARC
  5
313A
100
AcDbEntity
  8
V0-VYPLNE
  6
DASHED
 62
    52
 48
2.0
100
AcDbCircle
 10
265.208209
 20
-557.658583
 30
0.0
 40
827.373758
100
AcDbArc
 50
0.561351
 51
5.154693
  0
LINE
  5
313B
100
AcDbEntity
  8
V0-VYPLNE
  6
DASHED
 62
    52
 48
2.0
100
AcDbLine
 10
1084.089561
 20
-477.85075
 30
0.0
 11
1088.852765
 21
-473.09194
 31
0.0
  0
LINE
  5
313C
100
AcDbEntity
  8
V0-OBRYS
  6
CONTINUOUS
 62
    90
 48
2.0
100
AcDbLine
 10
1096.525369
 20
-392.052874
 30
0.0
 11
1049.06857
 21
-392.052874
 31
0.0
  0
LINE
  5
313D
100
AcDbEntity
  8
V0-OBRYS
  6
CONTINUOUS
 62
    90
 48
2.0
100
AcDbLine
 10
1001.54146
 20
-387.454984
 30
0.0
 11
1001.54146
 21
-459.775639
 31
0.0
  0
LINE
  5
313E
100
AcDbEntity
  8
V0-OBRYS
  6
CONTINUOUS
 62
    90
 48
2.0
100
AcDbLine
 10
999.57397
 20
-387.454984
 30
0.0
 11
999.57397
 21
-459.775639
 31
0.0
  0
CIRCLE
  5
313F
100
AcDbEntity
  8
V0-OBRYS
  6
CONTINUOUS
 62
    90
 48
2.0
100
AcDbCircle
 10
997.635989
 20
-452.937626
 30
0.0
 40
2.026282
  0
CIRCLE
  5
3140
100
AcDbEntity
  8
V0-OBRYS
  6
CONTINUOUS
 62
    90
 48
2.0
100
AcDbCircle
 10
997.635989
 20
-437.817626
 30
0.0
 40
2.026282
  0
CIRCLE
  5
3141
100
AcDbEntity
  8
V0-OBRYS
  6
CONTINUOUS
 62
    90
 48
2.0
100
AcDbCircle
 10
997.635989
 20
-422.697626
 30
0.0
 40
2.026282
  0
CIRCLE
  5
3142
100
AcDbEntity
  8
V0-OBRYS
  6
CONTINUOUS
 62
    90
 48
2.0
100
AcDbCircle
 10
997.635989
 20
-407.577626
 30
0.0
 40
2.026282
  0
ARC
  5
3143
100
AcDbEntity
  8
V0-OBRYS
  6
CONTINUOUS
 62
    90
 48
2.0
100
AcDbCircle
 10
1049.06857
 20
-373.450549
 30
0.0
 40
18.602325
100
AcDbArc
 50
210.579201
 51
270.0
  0
ARC
  5
3144
100
AcDbEntity
  8
V0-OBRYS
  6
CONTINUOUS
 62
    90
 48
2.0
100
AcDbCircle
 10
1002.233167
 20
-373.80531
 30
0.0
 40
9.79969
100
AcDbArc
 50
283.890847
 51
350.487695
  0
ARC
  5
3145
100
AcDbEntity
  8
V0-OBRYS
  6
CONTINUOUS
 62
    90
 48
2.0
100
AcDbCircle
 10
1002.222173
 20
-373.75606
 30
0.0
 40
7.887007
100
AcDbArc
 50
283.033261
 51
347.784984
  0
LINE
  5
3146
100
AcDbEntity
  8
V0-OBRYS
  6
CONTINUOUS
 62
    90
 48
2.0
100
AcDbLine
 10
1023.797154
 20
-367.249774
 30
0.0
 11
1033.053331
 21
-382.91409
 31
0.0
  0
ARC
  5
3147
100
AcDbEntity
  8
V0-OBRYS
  6
CONTINUOUS
 62
    90
 48
2.0
100
AcDbCircle
 10
1005.87397
 20
-387.454984
 30
0.0
 40
4.332509
100
AcDbArc
 50
107.296981
 51
180.0
  0
CIRCLE
  5
3148
100
AcDbEntity
  8
V0-OBRYS
  6
CONTINUOUS
 62
    90
 48
2.0
100
AcDbCircle
 10
997.635989
 20
-392.457626
 30
0.0
 40
2.026282
  0
ARC
  5
3149
100
AcDbEntity
  8
V0-OBRYS
  6
CONTINUOUS
 62
    90
 48
2.0
100
AcDbCircle
 10
1005.87397
 20
-387.454984
 30
0.0
 40
6.3
100
AcDbArc
 50
107.296981
 51
180.0
  0
ARC
  5
314A
100
AcDbEntity
  8
V0-OBRYS
  6
CONTINUOUS
 62
    90
 48
2.0
100
AcDbCircle
 10
1010.922886
 20
-363.670422
 30
0.0
 40
0.992264
100
AcDbArc
 50
0.0
 51
180.0
  0
LINE
  5
314B
100
AcDbEntity
  8
V0-OBRYS
  6
CONTINUOUS
 62
    90
 48
2.0
100
AcDbLine
 10
1009.930622
 20
-363.670422
 30
0.0
 11
1009.930622
 21
-375.424801
 31
0.0
  0
LINE
  5
314C
100
AcDbEntity
  8
V0-VYPLNE
  6
DASHED
 62
    52
 48
2.0
100
AcDbLine
 10
1045.495157
 20
-394.571577
 30
0.0
 11
1076.349358
 21
-394.571577
 31
0.0
  0
LINE
  5
314D
100
AcDbEntity
  8
V0-OBRYS
  6
CONTINUOUS
 62
    90
 48
2.0
100
AcDbLine
 10
1024.03515
 20
-349.602559
 30
0.0
 11
1011.91515
 21
-349.602559
 31
0.0
  0
TEXT
  5
3152
100
AcDbEntity
  8
V0-VYPLNE
  6
CONTINUOUS
 62
    51
100
AcDbText
 10
1304.02592
 20
-491.602554
 30
0.0
 40
30.0
  1
AXIALNI VENTILATOR
  7
ED30
100
AcDbText
  0
TEXT
  5
3153
100
AcDbEntity
  8
V0-VYPLNE
  6
CONTINUOUS
 62
    51
100
AcDbText
 10
1387.503767
 20
-540.88488
 30
0.0
 40
30.0
  1
NA STENU
  7
ED30
100
AcDbText
  0
TEXT
  5
3154
100
AcDbEntity
  8
V0-VYPLNE
 62
     6
100
AcDbText
 10
1384.58346
 20
-435.936725
 30
0.0
 40
40.0
  1
HCF-315
  7
ED40
100
AcDbText
  0
DIMENSION
  5
31BE
100
AcDbEntity
  8
V0-OBRYS
  6
CONTINUOUS
 62
    90
100
AcDbDimension
  2
*D7
 10
1096.237272
 20
-279.307769
 30
0.0
 11
1043.885456
 21
-279.307769
 31
0.0
 70
   160
  3
ED30
100
AcDbAlignedDimension
 13
984.032515
 23
-6.521735
 33
0.0
 14
1096.237272
 24
-106.710174
 34
0.0
100
AcDbRotatedDimension
1001
ACAD
1000
DSTYLE
1002
{
1070
   140
1040
30.0
1070
   340
1005
F38
1070
    41
1040
30.0
1002
}
  0
POINT
  5
32BD
100
AcDbEntity
  8
V0-VYPLNE
  6
CONTINUOUS
 62
    41
100
AcDbPoint
 10
1096.525369
 20
53.063641
 30
0.0
  0
POINT
  5
32BE
100
AcDbEntity
  8
V0-VYPLNE
  6
CONTINUOUS
 62
    41
100
AcDbPoint
 10
1096.525369
 20
-549.552559
 30
0.0
  0
VIEWPORT
  5
22
100
AcDbEntity
 67
     1
  8
0
100
AcDbViewport
 10
261.517699
 20
148.5
 30
0.0
 40
523.035398
 41
297.0
 68
    -1
 69
     1
1001
ACAD
1000
MVIEW
1002
{
1070
    16
1010
0.0
1020
0.0
1030
0.0
1010
0.0
1020
0.0
1030
1.0
1040
0.0
1040
297.0
1040
261.517699
1040
148.5
1040
50.0
1040
0.0
1040
0.0
1070
     0
1070
   100
1070
     1
1070
     1
1070
     0
1070
     0
1070
     0
1070
     0
1040
0.0
1040
0.0
1040
0.0
1040
1.0
1040
1.0
1040
10.0
1040
10.0
1070
     0
1002
{
1002
}
1002
}
  0
ENDSEC
  0
SECTION
  2
OBJECTS
  0
DICTIONARY
  5
C
100
AcDbDictionary
  3
ACAD_GROUP
350
D
  3
ACAD_MLINESTYLE
350
E
  3
ACDBVARIABLEDICTIONARY
350
5D
  0
DICTIONARY
  5
D
102
{ACAD_REACTORS
330
C
102
}
100
AcDbDictionary
  0
DICTIONARY
  5
E
102
{ACAD_REACTORS
330
C
102
}
100
AcDbDictionary
  3
STANDARD
350
13
  0
DICTIONARY
  5
5D
102
{ACAD_REACTORS
330
C
102
}
100
AcDbDictionary
  3
DIMADEC
350
5E
  3
SORTENTS
350
3D8
  0
MLINESTYLE
  5
13
102
{ACAD_REACTORS
330
E
102
}
100
AcDbMlineStyle
  2
STANDARD
 70
     0
  3

 62
     0
 51
90.0
 52
90.0
 71
     2
 49
0.5
 62
   256
  6
BYLAYER
 49
-0.5
 62
   256
  6
BYLAYER
  0
DICTIONARYVAR
  5
5E
102
{ACAD_REACTORS
330
5D
102
}
100
DictionaryVariables
280
     0
  1
0
  0
DICTIONARYVAR
  5
3D8
102
{ACAD_REACTORS
330
5D
102
}
100
DictionaryVariables
280
     0
  1
96
  0
ENDSEC
  0
EOF
