  0
SECTION
  2
HEADER
  9
$ACADVER
  1
AC1014
  9
$ACADMAINTVER
 70
     0
  9
$DWGCODEPAGE
  3
ANSI_1250
  9
$INSBASE
 10
0.0
 20
0.0
 30
0.0
  9
$EXTMIN
 10
-246.767301
 20
-564.740613
 30
0.0
  9
$EXTMAX
 10
526.365235
 20
302.086129
 30
0.0
  9
$LIMMIN
 10
0.0
 20
0.0
  9
$LIMMAX
 10
420.0
 20
297.0
  9
$ORTHOMODE
 70
     0
  9
$REGENMODE
 70
     1
  9
$FILLMODE
 70
     1
  9
$QTEXTMODE
 70
     0
  9
$MIRRTEXT
 70
     1
  9
$DRAGMODE
 70
     2
  9
$LTSCALE
 40
1.0
  9
$OSMODE
 70
     1
  9
$ATTMODE
 70
     1
  9
$TEXTSIZE
 40
40.0
  9
$TRACEWID
 40
1.0
  9
$TEXTSTYLE
  7
ED40
  9
$CLAYER
  8
V0-VYPLNE
  9
$CELTYPE
  6
CONTINUOUS
  9
$CECOLOR
 62
    41
  9
$CELTSCALE
 40
1.0
  9
$DELOBJ
 70
     1
  9
$DISPSILH
 70
     0
  9
$DIMSCALE
 40
1.0
  9
$DIMASZ
 40
20.0
  9
$DIMEXO
 40
1.0
  9
$DIMDLI
 40
3.75
  9
$DIMRND
 40
0.0
  9
$DIMDLE
 40
0.0
  9
$DIMEXE
 40
1.25
  9
$DIMTP
 40
0.0
  9
$DIMTM
 40
0.0
  9
$DIMTXT
 40
20.0
  9
$DIMCEN
 40
3.0
  9
$DIMTSZ
 40
0.0
  9
$DIMTOL
 70
     0
  9
$DIMLIM
 70
     0
  9
$DIMTIH
 70
     0
  9
$DIMTOH
 70
     0
  9
$DIMSE1
 70
     0
  9
$DIMSE2
 70
     0
  9
$DIMTAD
 70
     1
  9
$DIMZIN
 70
     8
  9
$DIMBLK
  1

  9
$DIMASO
 70
     1
  9
$DIMSHO
 70
     1
  9
$DIMPOST
  1

  9
$DIMAPOST
  1

  9
$DIMALT
 70
     0
  9
$DIMALTD
 70
     4
  9
$DIMALTF
 40
0.0394
  9
$DIMLFAC
 40
1.0
  9
$DIMTOFL
 70
     1
  9
$DIMTVP
 40
0.0
  9
$DIMTIX
 70
     0
  9
$DIMSOXD
 70
     0
  9
$DIMSAH
 70
     1
  9
$DIMBLK1
  1
_OPEN
  9
$DIMBLK2
  1
_OPEN
  9
$DIMSTYLE
  2
ED20
  9
$DIMCLRD
 70
    41
  9
$DIMCLRE
 70
    41
  9
$DIMCLRT
 70
    41
  9
$DIMTFAC
 40
1.0
  9
$DIMGAP
 40
2.0
  9
$DIMJUST
 70
     0
  9
$DIMSD1
 70
     0
  9
$DIMSD2
 70
     0
  9
$DIMTOLJ
 70
     1
  9
$DIMTZIN
 70
     8
  9
$DIMALTZ
 70
     0
  9
$DIMALTTZ
 70
     0
  9
$DIMFIT
 70
     3
  9
$DIMUPT
 70
     0
  9
$DIMUNIT
 70
     2
  9
$DIMDEC
 70
     0
  9
$DIMTDEC
 70
     1
  9
$DIMALTU
 70
     8
  9
$DIMALTTD
 70
     4
  9
$DIMTXSTY
  7
ED20
  9
$DIMAUNIT
 70
     0
  9
$LUNITS
 70
     2
  9
$LUPREC
 70
     4
  9
$SKETCHINC
 40
1.0
  9
$FILLETRAD
 40
10.0
  9
$AUNITS
 70
     0
  9
$AUPREC
 70
     0
  9
$MENU
  1
.
  9
$ELEVATION
 40
0.0
  9
$PELEVATION
 40
0.0
  9
$THICKNESS
 40
0.0
  9
$LIMCHECK
 70
     0
  9
$BLIPMODE
 70
     0
  9
$CHAMFERA
 40
0.5
  9
$CHAMFERB
 40
0.5
  9
$CHAMFERC
 40
20.0
  9
$CHAMFERD
 40
0.0
  9
$SKPOLY
 70
     1
  9
$TDCREATE
 40
2451196.643769328
  9
$TDUPDATE
 40
2452943.719825810
  9
$TDINDWG
 40
0.9371489583
  9
$TDUSRTIMER
 40
0.9371489583
  9
$USRTIMER
 70
     1
  9
$ANGBASE
 50
0.0
  9
$ANGDIR
 70
     0
  9
$PDMODE
 70
    35
  9
$PDSIZE
 40
20.0
  9
$PLINEWID
 40
0.0
  9
$COORDS
 70
     1
  9
$SPLFRAME
 70
     0
  9
$SPLINETYPE
 70
     6
  9
$SPLINESEGS
 70
     8
  9
$ATTDIA
 70
     0
  9
$ATTREQ
 70
     1
  9
$HANDLING
 70
     1
  9
$HANDSEED
  5
2D74
  9
$SURFTAB1
 70
     6
  9
$SURFTAB2
 70
     6
  9
$SURFTYPE
 70
     6
  9
$SURFU
 70
     6
  9
$SURFV
 70
     6
  9
$UCSNAME
  2

  9
$UCSORG
 10
-147.1258323449287
 20
89.37358462115859
 30
0.0
  9
$UCSXDIR
 10
1.0
 20
0.0
 30
0.0
  9
$UCSYDIR
 10
0.0
 20
1.0
 30
0.0
  9
$PUCSNAME
  2

  9
$PUCSORG
 10
0.0
 20
0.0
 30
0.0
  9
$PUCSXDIR
 10
1.0
 20
0.0
 30
0.0
  9
$PUCSYDIR
 10
0.0
 20
1.0
 30
0.0
  9
$USERI1
 70
     0
  9
$USERI2
 70
     0
  9
$USERI3
 70
     2
  9
$USERI4
 70
     2
  9
$USERI5
 70
     6
  9
$USERR1
 40
281.0
  9
$USERR2
 40
321.0
  9
$USERR3
 40
0.0
  9
$USERR4
 40
0.0
  9
$USERR5
 40
0.0
  9
$WORLDVIEW
 70
     1
  9
$SHADEDGE
 70
     3
  9
$SHADEDIF
 70
    70
  9
$TILEMODE
 70
     1
  9
$MAXACTVP
 70
    48
  9
$PINSBASE
 10
0.0
 20
0.0
 30
0.0
  9
$PLIMCHECK
 70
     0
  9
$PEXTMIN
 10
1.000000E+20
 20
1.000000E+20
 30
1.000000E+20
  9
$PEXTMAX
 10
-1.000000E+20
 20
-1.000000E+20
 30
-1.000000E+20
  9
$PLIMMIN
 10
0.0
 20
0.0
  9
$PLIMMAX
 10
420.0
 20
297.0
  9
$UNITMODE
 70
     0
  9
$VISRETAIN
 70
     1
  9
$PLINEGEN
 70
     0
  9
$PSLTSCALE
 70
     0
  9
$TREEDEPTH
 70
  3020
  9
$PICKSTYLE
 70
     0
  9
$CMLSTYLE
  2
STANDARD
  9
$CMLJUST
 70
     1
  9
$CMLSCALE
 40
3.0
  9
$PROXYGRAPHICS
 70
     1
  9
$MEASUREMENT
 70
     1
  0
ENDSEC
  0
SECTION
  2
CLASSES
  0
CLASS
  1
DICTIONARYVAR
  2
AcDbDictionaryVar
  3
"AutoCAD"
 90
        0
280
     0
281
     0
  0
CLASS
  1
LWPOLYLINE
  2
AcDbPolyline
  3
"AutoCAD"
 90
        0
280
     0
281
     1
  0
CLASS
  1
HATCH
  2
AcDbHatch
  3
"ACAD_SEDONA"
 90
        0
280
     0
281
     1
  0
ENDSEC
  0
SECTION
  2
TABLES
  0
TABLE
  2
VPORT
  5
8
100
AcDbSymbolTable
 70
     2
  0
VPORT
  5
2D73
100
AcDbSymbolTableRecord
100
AcDbViewportTableRecord
  2
*ACTIVE
 70
     0
 10
0.0
 20
0.0
 11
1.0
 21
1.0
 12
165.457858
 22
-76.662456
 13
0.0
 23
0.0
 14
10.0
 24
10.0
 15
10.0
 25
10.0
 16
0.0
 26
0.0
 36
1.0
 17
0.0
 27
0.0
 37
0.0
 40
986.319827
 41
1.53876
 42
50.0
 43
0.0
 44
0.0
 50
0.0
 51
0.0
 71
     0
 72
   100
 73
     1
 74
     1
 75
     0
 76
     0
 77
     0
 78
     0
  0
ENDTAB
  0
TABLE
  2
LTYPE
  5
5
100
AcDbSymbolTable
 70
     4
  0
LTYPE
  5
14
100
AcDbSymbolTableRecord
100
AcDbLinetypeTableRecord
  2
BYBLOCK
 70
     0
  3

 72
    65
 73
     0
 40
0.0
  0
LTYPE
  5
15
100
AcDbSymbolTableRecord
100
AcDbLinetypeTableRecord
  2
BYLAYER
 70
     0
  3

 72
    65
 73
     0
 40
0.0
  0
LTYPE
  5
16
100
AcDbSymbolTableRecord
100
AcDbLinetypeTableRecord
  2
CONTINUOUS
 70
     0
  3
Solid line
 72
    65
 73
     0
 40
0.0
  0
LTYPE
  5
7F
100
AcDbSymbolTableRecord
100
AcDbLinetypeTableRecord
  2
DASHDOT
 70
     0
  3
Dash dot __ . __ . __ . __ . __ . __ . __ . __
 72
    65
 73
     4
 40
25.4
 49
12.7
 74
     0
 49
-6.35
 74
     0
 49
0.0
 74
     0
 49
-6.35
 74
     0
  0
LTYPE
  5
1B9E
100
AcDbSymbolTableRecord
100
AcDbLinetypeTableRecord
  2
ACAD_ISO02W100
 70
     0
  3
ISO dash __ __ __ __ __ __ __ __ __ __ __ __ __
 72
    65
 73
     2
 40
15.0
 49
12.0
 74
     0
 49
-3.0
 74
     0
  0
LTYPE
  5
1B9F
100
AcDbSymbolTableRecord
100
AcDbLinetypeTableRecord
  2
DASHED
 70
     0
  3
Dashed __ __ __ __ __ __ __ __ __ __ __ __ __ _
 72
    65
 73
     2
 40
19.05
 49
12.7
 74
     0
 49
-6.35
 74
     0
  0
ENDTAB
  0
TABLE
  2
LAYER
  5
2
100
AcDbSymbolTable
 70
     5
  0
LAYER
  5
F
100
AcDbSymbolTableRecord
100
AcDbLayerTableRecord
  2
0
 70
     0
 62
     7
  6
CONTINUOUS
  0
LAYER
  5
9E
100
AcDbSymbolTableRecord
100
AcDbLayerTableRecord
  2
DEFPOINTS
 70
     0
 62
     7
  6
CONTINUOUS
  0
LAYER
  5
377
100
AcDbSymbolTableRecord
100
AcDbLayerTableRecord
  2
V0-OBRYS
 70
     0
 62
    90
  6
CONTINUOUS
  0
LAYER
  5
378
100
AcDbSymbolTableRecord
100
AcDbLayerTableRecord
  2
V0-VYPLNE
 70
     0
 62
    63
  6
DASHDOT
  0
LAYER
  5
1540
100
AcDbSymbolTableRecord
100
AcDbLayerTableRecord
  2
VO-OBRYS
 70
     0
 62
    90
  6
CONTINUOUS
  0
ENDTAB
  0
TABLE
  2
STYLE
  5
3
100
AcDbSymbolTable
 70
     6
  0
STYLE
  5
10
100
AcDbSymbolTableRecord
100
AcDbTextStyleTableRecord
  2
STANDARD
 70
     0
 40
0.0
 41
1.0
 50
0.0
 71
     0
 42
2.5
  3
ISOCP
  4

  0
STYLE
  5
331
100
AcDbSymbolTableRecord
100
AcDbTextStyleTableRecord
  2
ED20
 70
     0
 40
20.0
 41
1.0
 50
0.0
 71
     0
 42
2.5
  3
ISOCP.shx
  4

  0
STYLE
  5
648
100
AcDbSymbolTableRecord
100
AcDbTextStyleTableRecord
  2
ED10
 70
     0
 40
10.0
 41
1.0
 50
0.0
 71
     0
 42
10.0
  3
ISOCP.shx
  4

  0
STYLE
  5
F38
100
AcDbSymbolTableRecord
100
AcDbTextStyleTableRecord
  2
ED30
 70
     0
 40
30.0
 41
1.0
 50
0.0
 71
     0
 42
2.5
  3
ISOCP.shx
  4

  0
STYLE
  5
F39
100
AcDbSymbolTableRecord
100
AcDbTextStyleTableRecord
  2
ED40
 70
     0
 40
40.0
 41
1.0
 50
0.0
 71
     0
 42
40.0
  3
ISOCP.shx
  4

  0
STYLE
  5
1B9D
100
AcDbSymbolTableRecord
100
AcDbTextStyleTableRecord
  2

 70
     1
 40
0.0
 41
1.0
 50
0.0
 71
     0
 42
40.0
  3
ltypeshp.shx
  4

  0
ENDTAB
  0
TABLE
  2
VIEW
  5
6
100
AcDbSymbolTable
 70
     0
  0
ENDTAB
  0
TABLE
  2
UCS
  5
7
100
AcDbSymbolTable
 70
     0
  0
ENDTAB
  0
TABLE
  2
APPID
  5
9
100
AcDbSymbolTable
 70
     3
  0
APPID
  5
11
100
AcDbSymbolTableRecord
100
AcDbRegAppTableRecord
  2
ACAD
 70
     0
  0
APPID
  5
2570
100
AcDbSymbolTableRecord
100
AcDbRegAppTableRecord
  2
CONTENTBLOCKICON
 70
     0
  0
APPID
  5
2571
100
AcDbSymbolTableRecord
100
AcDbRegAppTableRecord
  2
CONTENTBLOCKDESCRIPTION
 70
     0
  0
ENDTAB
  0
TABLE
  2
DIMSTYLE
  5
A
100
AcDbSymbolTable
 70
     2
  0
DIMSTYLE
105
1D
100
AcDbSymbolTableRecord
100
AcDbDimStyleTableRecord
  2
STANDARD
 70
     0
  3

  4

  5

  6
_OPEN
  7
_OPEN
 40
0.0
 41
15.0
 42
0.625
 43
3.75
 44
1.25
 45
0.0
 46
0.0
 47
0.0
 48
0.0
140
15.0
141
2.5
142
0.0
143
0.0394
144
1.0
145
0.0
146
1.0
147
3.0
 71
     0
 72
     0
 73
     0
 74
     0
 75
     0
 76
     0
 77
     1
 78
     8
170
     0
171
     4
172
     1
173
     1
174
     0
175
     0
176
     0
177
     0
178
     0
270
     2
271
     0
272
     1
273
     8
274
     4
340
331
275
     0
280
     0
281
     0
282
     0
283
     1
284
     8
285
     0
286
     0
287
     3
288
     0
  0
DIMSTYLE
105
FE9
102
{ACAD_REACTORS
330
2375
330
2382
330
238F
330
239C
330
23D4
330
23E1
330
2420
330
242D
102
}
100
AcDbSymbolTableRecord
100
AcDbDimStyleTableRecord
  2
ED20
 70
     0
  3

  4

  5

  6
_OPEN
  7
_OPEN
 40
1.0
 41
20.0
 42
1.0
 43
3.75
 44
1.25
 45
0.0
 46
0.0
 47
0.0
 48
0.0
140
20.0
141
3.0
142
0.0
143
0.0394
144
1.0
145
0.0
146
1.0
147
2.0
 71
     0
 72
     0
 73
     0
 74
     0
 75
     0
 76
     0
 77
     1
 78
     8
170
     0
171
     4
172
     1
173
     1
174
     0
175
     0
176
    41
177
    41
178
    41
270
     2
271
     0
272
     1
273
     8
274
     4
340
331
275
     0
280
     0
281
     0
282
     0
283
     1
284
     8
285
     0
286
     0
287
     3
288
     0
  0
ENDTAB
  0
TABLE
  2
BLOCK_RECORD
  5
1
100
AcDbSymbolTable
 70
    10
  0
BLOCK_RECORD
  5
1A
100
AcDbSymbolTableRecord
100
AcDbBlockTableRecord
  2
*MODEL_SPACE
  0
BLOCK_RECORD
  5
17
100
AcDbSymbolTableRecord
100
AcDbBlockTableRecord
  2
*PAPER_SPACE
  0
BLOCK_RECORD
  5
90
100
AcDbSymbolTableRecord
100
AcDbBlockTableRecord
  2
_OPEN
  0
BLOCK_RECORD
  5
2369
100
AcDbSymbolTableRecord
100
AcDbBlockTableRecord
  2
*D1
  0
BLOCK_RECORD
  5
2376
100
AcDbSymbolTableRecord
100
AcDbBlockTableRecord
  2
*D2
  0
BLOCK_RECORD
  5
2383
100
AcDbSymbolTableRecord
100
AcDbBlockTableRecord
  2
*D3
  0
BLOCK_RECORD
  5
2390
100
AcDbSymbolTableRecord
100
AcDbBlockTableRecord
  2
*D4
  0
BLOCK_RECORD
  5
23C8
100
AcDbSymbolTableRecord
100
AcDbBlockTableRecord
  2
*D5
  0
BLOCK_RECORD
  5
23D5
100
AcDbSymbolTableRecord
100
AcDbBlockTableRecord
  2
*D6
  0
BLOCK_RECORD
  5
2414
100
AcDbSymbolTableRecord
100
AcDbBlockTableRecord
  2
*D7
  0
BLOCK_RECORD
  5
2421
100
AcDbSymbolTableRecord
100
AcDbBlockTableRecord
  2
*D8
  0
BLOCK_RECORD
  5
267B
100
AcDbSymbolTableRecord
100
AcDbBlockTableRecord
  2
ASVORK
1001
CONTENTBLOCKICON
1071
        0
1004
2800000020000000200000000100040000000000000200000000000000000000000000000000000000000000000080000080000000808000800000008000800080800000C0C0C000808080000000FF0000FF000000FFFF00FF000000FF00FF00FFFF0000FFFFFF00FFFFAAAAAAAAAAAAAAAAAAAAAAAAFFFF
1004
FFFFAFFFFFAFFFFFFFFFFFFFFFFAFFFFFFFFAFFFFFAFFFFFFFFFFFFFFFFAFFFFFFFFAFFFFFAFFFFFFFFFFFFFFFFAFFFFFFFFAFFFFFAFFFFFFFFFFFFFFFFAFFFFFFFFAFFFFFAFFFFFFFFFFFFFFFFAFFFFFFFFAFFFFFAFFFFFFFFFFFFFFFFAFFFFFFFFAFFFFFAFFFFFFFFFFFFFFFFAFFFFFFFFAFFFFFAFFFFF
1004
FFFFFFFFFFFAFFFFFFFFAFFFFFAFFFFFFFFFFFFFFFFAFFFFFFFFAFFFFFAFFFFFFFFFFFFFFFFAFFFFFFFFAFFFFFAFFFFFFFFFFFFFFFFAFFFFFFFFAFFFFFAFFFFFFFFFFFFFFFFAFFFFFFFFAFFFFFAFFFFFFFFFFFFFFFFAFFFFFFFFAFFFFFAFFFFFFFFFFFFFFFFAFFFFFFFFAFFFFFAFFFFFFFFFFFFFFFFAFFFF
1004
FFFFAFFFFFAFFFFFFFFFFFFFFFFFFFFFFFFFAFFFFFAFFFFFFFFFFFFFFFFAFFFFFFFFAFFFFFAFFFFFFFFFFFFFFFFAFFFFFFFFAFFFFFAFFFFFFFFFFFFFFFFAFFFFFFFFAFFFFFAFFFFFFFFFFFFFFFFAFFFFFFFFAFFFFFAFFFFFFFFFFFFFFFFAFFFFFFFFAFFFFFAFFFFFFFFFFFFFFFFAFFFFFFFFAFFFFFAFFFFF
1004
FFFFFFFFFFFAFFFFFFFFAFFFFFAFFFFFFFFFFFFFFFFAFFFFFFFFAFFFFFAFFFFFFFFFFFFFFFFAFFFFFFFFAFFFFFAFFFFFFFFFFFFFFFFAFFFFFFFFAFFFFFAFFFFFFFFFFFFFFFFAFFFFFFFFAFFFFFAFFFFFFFFFFFFFFFFAFFFFFFFFAFFFFFAFFFFFFFFFFFFFFFFAFFFFFFFFAFFFFFAFFFFFFFFFFFFFFFFAFFFF
1004
FFFFAAAAAAAAAAAAAAAAAAAAAAAAFFFF
  0
ENDTAB
  0
ENDSEC
  0
SECTION
  2
BLOCKS
  0
BLOCK
  5
1B
100
AcDbEntity
  8
0
100
AcDbBlockBegin
  2
*MODEL_SPACE
 70
     0
 10
0.0
 20
0.0
 30
0.0
  3
*MODEL_SPACE
  1

  0
ENDBLK
  5
1C
100
AcDbEntity
  8
0
100
AcDbBlockEnd
  0
BLOCK
  5
18
100
AcDbEntity
 67
     1
  8
0
100
AcDbBlockBegin
  2
*PAPER_SPACE
 70
     0
 10
0.0
 20
0.0
 30
0.0
  3
*PAPER_SPACE
  1

  0
ENDBLK
  5
19
100
AcDbEntity
 67
     1
  8
0
100
AcDbBlockEnd
  0
BLOCK
  5
91
100
AcDbEntity
  8
0
100
AcDbBlockBegin
  2
_OPEN
 70
     0
 10
0.0
 20
0.0
 30
0.0
  3
_OPEN
  1

  0
LINE
  5
92
100
AcDbEntity
  8
0
  6
BYBLOCK
 62
     0
100
AcDbLine
 10
-1.0
 20
0.166667
 30
0.0
 11
0.0
 21
0.0
 31
0.0
  0
LINE
  5
93
100
AcDbEntity
  8
0
  6
BYBLOCK
 62
     0
100
AcDbLine
 10
0.0
 20
0.0
 30
0.0
 11
-1.0
 21
-0.166667
 31
0.0
  0
LINE
  5
94
100
AcDbEntity
  8
0
  6
BYBLOCK
 62
     0
100
AcDbLine
 10
0.0
 20
0.0
 30
0.0
 11
-1.0
 21
0.0
 31
0.0
  0
ENDBLK
  5
95
100
AcDbEntity
  8
0
100
AcDbBlockEnd
  0
BLOCK
  5
242E
100
AcDbEntity
  8
0
100
AcDbBlockBegin
  2
*D1
 70
     1
 10
0.0
 20
0.0
 30
0.0
  3
*D1
  1

  0
LINE
  5
242F
100
AcDbEntity
  8
0
  6
BYBLOCK
 62
    41
100
AcDbLine
 10
-34.125832
 20
216.373585
 30
0.0
 11
9.593768
 21
216.373585
 31
0.0
  0
LINE
  5
2430
100
AcDbEntity
  8
0
  6
BYBLOCK
 62
    41
100
AcDbLine
 10
-34.125832
 20
-37.626415
 30
0.0
 11
9.593768
 21
-37.626415
 31
0.0
  0
LINE
  5
2431
100
AcDbEntity
  8
0
  6
BYBLOCK
 62
    41
100
AcDbLine
 10
8.343768
 20
196.373585
 30
0.0
 11
8.343768
 21
-17.626415
 31
0.0
  0
INSERT
  5
2432
100
AcDbEntity
  8
0
  6
BYBLOCK
 62
    41
100
AcDbBlockReference
  2
_OPEN
 10
8.343768
 20
216.373585
 30
0.0
 41
20.0
 42
20.0
 43
20.0
 50
90.0
  0
INSERT
  5
2433
100
AcDbEntity
  8
0
  6
BYBLOCK
 62
    41
100
AcDbBlockReference
  2
_OPEN
 10
8.343768
 20
-37.626415
 30
0.0
 41
20.0
 42
20.0
 43
20.0
 50
270.0
  0
MTEXT
  5
2434
100
AcDbEntity
  8
0
  6
BYBLOCK
 62
    41
100
AcDbMText
 10
-3.6582
 20
89.373585
 30
0.0
 40
20.0
 41
0.0
 71
     5
 72
     1
  1
\A1;\U+2205254
  7
ED20
 11
0.0
 21
1.0
 31
0.0
  0
POINT
  5
2435
100
AcDbEntity
  8
DEFPOINTS
  6
BYBLOCK
 62
     0
100
AcDbPoint
 10
-35.125832
 20
216.373585
 30
0.0
  0
POINT
  5
2436
100
AcDbEntity
  8
DEFPOINTS
  6
BYBLOCK
 62
     0
100
AcDbPoint
 10
-35.125832
 20
-37.626415
 30
0.0
  0
POINT
  5
2437
100
AcDbEntity
  8
DEFPOINTS
  6
BYBLOCK
 62
     0
100
AcDbPoint
 10
8.343768
 20
-37.626415
 30
0.0
  0
ENDBLK
  5
2438
100
AcDbEntity
  8
0
100
AcDbBlockEnd
  0
BLOCK
  5
2439
100
AcDbEntity
  8
0
100
AcDbBlockBegin
  2
*D2
 70
     1
 10
0.0
 20
0.0
 30
0.0
  3
*D2
  1

  0
LINE
  5
243A
100
AcDbEntity
  8
0
  6
BYBLOCK
 62
    41
100
AcDbLine
 10
-87.125832
 20
236.373585
 30
0.0
 11
39.949352
 21
236.373585
 31
0.0
  0
LINE
  5
243B
100
AcDbEntity
  8
0
  6
BYBLOCK
 62
    41
100
AcDbLine
 10
-87.125832
 20
-57.626415
 30
0.0
 11
39.949352
 21
-57.626415
 31
0.0
  0
LINE
  5
243C
100
AcDbEntity
  8
0
  6
BYBLOCK
 62
    41
100
AcDbLine
 10
38.699352
 20
216.373585
 30
0.0
 11
38.699352
 21
-37.626415
 31
0.0
  0
INSERT
  5
243D
100
AcDbEntity
  8
0
  6
BYBLOCK
 62
    41
100
AcDbBlockReference
  2
_OPEN
 10
38.699352
 20
236.373585
 30
0.0
 41
20.0
 42
20.0
 43
20.0
 50
90.0
  0
INSERT
  5
243E
100
AcDbEntity
  8
0
  6
BYBLOCK
 62
    41
100
AcDbBlockReference
  2
_OPEN
 10
38.699352
 20
-57.626415
 30
0.0
 41
20.0
 42
20.0
 43
20.0
 50
270.0
  0
MTEXT
  5
243F
100
AcDbEntity
  8
0
  6
BYBLOCK
 62
    41
100
AcDbMText
 10
26.697383
 20
89.373585
 30
0.0
 40
20.0
 41
0.0
 71
     5
 72
     1
  1
\A1;\U+2205294
  7
ED20
 11
0.0
 21
1.0
 31
0.0
  0
POINT
  5
2440
100
AcDbEntity
  8
DEFPOINTS
  6
BYBLOCK
 62
     0
100
AcDbPoint
 10
-88.125832
 20
236.373585
 30
0.0
  0
POINT
  5
2441
100
AcDbEntity
  8
DEFPOINTS
  6
BYBLOCK
 62
     0
100
AcDbPoint
 10
-88.125832
 20
-57.626415
 30
0.0
  0
POINT
  5
2442
100
AcDbEntity
  8
DEFPOINTS
  6
BYBLOCK
 62
     0
100
AcDbPoint
 10
38.699352
 20
-57.626415
 30
0.0
  0
ENDBLK
  5
2443
100
AcDbEntity
  8
0
100
AcDbBlockEnd
  0
BLOCK
  5
2687
100
AcDbEntity
  8
0
100
AcDbBlockBegin
  2
*D3
 70
     1
 10
0.0
 20
0.0
 30
0.0
  3
*D3
  1

  0
LINE
  5
2688
100
AcDbEntity
  8
0
  6
BYBLOCK
 62
    41
100
AcDbLine
 10
-129.125832
 20
146.373585
 30
0.0
 11
-227.017301
 21
146.373585
 31
0.0
  0
LINE
  5
2689
100
AcDbEntity
  8
0
  6
BYBLOCK
 62
    41
100
AcDbLine
 10
-129.125832
 20
32.373585
 30
0.0
 11
-227.017301
 21
32.373585
 31
0.0
  0
LINE
  5
268A
100
AcDbEntity
  8
0
  6
BYBLOCK
 62
    41
100
AcDbLine
 10
-225.767301
 20
126.373585
 30
0.0
 11
-225.767301
 21
52.373585
 31
0.0
  0
INSERT
  5
268B
100
AcDbEntity
  8
0
  6
BYBLOCK
 62
    41
100
AcDbBlockReference
  2
_OPEN
 10
-225.767301
 20
146.373585
 30
0.0
 41
20.0
 42
20.0
 43
20.0
 50
90.0
  0
INSERT
  5
268C
100
AcDbEntity
  8
0
  6
BYBLOCK
 62
    41
100
AcDbBlockReference
  2
_OPEN
 10
-225.767301
 20
32.373585
 30
0.0
 41
20.0
 42
20.0
 43
20.0
 50
270.0
  0
MTEXT
  5
268D
100
AcDbEntity
  8
0
  6
BYBLOCK
 62
    41
100
AcDbMText
 10
-237.767301
 20
89.373585
 30
0.0
 40
20.0
 41
0.0
 71
     5
 72
     1
  1
\A1;\U+2205114
  7
ED20
 11
0.0
 21
1.0
 31
0.0
  0
POINT
  5
268E
100
AcDbEntity
  8
DEFPOINTS
  6
BYBLOCK
 62
     0
100
AcDbPoint
 10
-128.125832
 20
146.373585
 30
0.0
  0
POINT
  5
268F
100
AcDbEntity
  8
DEFPOINTS
  6
BYBLOCK
 62
     0
100
AcDbPoint
 10
-128.125832
 20
32.373585
 30
0.0
  0
POINT
  5
2690
100
AcDbEntity
  8
DEFPOINTS
  6
BYBLOCK
 62
     0
100
AcDbPoint
 10
-225.767301
 20
32.373585
 30
0.0
  0
ENDBLK
  5
2691
100
AcDbEntity
  8
0
100
AcDbBlockEnd
  0
BLOCK
  5
239D
100
AcDbEntity
  8
0
100
AcDbBlockBegin
  2
*D4
 70
     1
 10
0.0
 20
0.0
 30
0.0
  3
*D4
  1

  0
LINE
  5
239E
100
AcDbEntity
  8
0
  6
BYBLOCK
 62
    41
100
AcDbLine
 10
209.454168
 20
-65.646415
 30
0.0
 11
209.454168
 21
-133.73423
 31
0.0
  0
LINE
  5
239F
100
AcDbEntity
  8
0
  6
BYBLOCK
 62
    41
100
AcDbLine
 10
524.294168
 20
-65.646415
 30
0.0
 11
524.294168
 21
-133.73423
 31
0.0
  0
LINE
  5
23A0
100
AcDbEntity
  8
0
  6
BYBLOCK
 62
    41
100
AcDbLine
 10
229.454168
 20
-132.48423
 30
0.0
 11
504.294168
 21
-132.48423
 31
0.0
  0
INSERT
  5
23A1
100
AcDbEntity
  8
0
  6
BYBLOCK
 62
    41
100
AcDbBlockReference
  2
_OPEN
 10
209.454168
 20
-132.48423
 30
0.0
 41
20.0
 42
20.0
 43
20.0
 50
180.0
  0
INSERT
  5
23A2
100
AcDbEntity
  8
0
  6
BYBLOCK
 62
    41
100
AcDbBlockReference
  2
_OPEN
 10
524.294168
 20
-132.48423
 30
0.0
 41
20.0
 42
20.0
 43
20.0
  0
MTEXT
  5
23A3
100
AcDbEntity
  8
0
  6
BYBLOCK
 62
    41
100
AcDbMText
 10
365.021851
 20
-120.48423
 30
0.0
 40
20.0
 41
0.0
 71
     5
 72
     1
  1
\A1;315
  7
ED20
  0
POINT
  5
23A4
100
AcDbEntity
  8
DEFPOINTS
  6
BYBLOCK
 62
     0
100
AcDbPoint
 10
209.454168
 20
-64.646415
 30
0.0
  0
POINT
  5
23A5
100
AcDbEntity
  8
DEFPOINTS
  6
BYBLOCK
 62
     0
100
AcDbPoint
 10
524.294168
 20
-64.646415
 30
0.0
  0
POINT
  5
23A6
100
AcDbEntity
  8
DEFPOINTS
  6
BYBLOCK
 62
     0
100
AcDbPoint
 10
524.294168
 20
-132.48423
 30
0.0
  0
ENDBLK
  5
23A7
100
AcDbEntity
  8
0
100
AcDbBlockEnd
  0
BLOCK
  5
23C9
100
AcDbEntity
  8
0
100
AcDbBlockBegin
  2
*D5
 70
     1
 10
0.0
 20
0.0
 30
0.0
  3
*D5
  1

  0
LINE
  5
23CA
100
AcDbEntity
  8
0
  6
BYBLOCK
 62
    41
100
AcDbLine
 10
236.734168
 20
-41.766415
 30
0.0
 11
236.734168
 21
-103.406646
 31
0.0
  0
LINE
  5
23CB
100
AcDbEntity
  8
0
  6
BYBLOCK
 62
    41
100
AcDbLine
 10
497.014168
 20
-41.766415
 30
0.0
 11
497.014168
 21
-103.406646
 31
0.0
  0
LINE
  5
23CC
100
AcDbEntity
  8
0
  6
BYBLOCK
 62
    41
100
AcDbLine
 10
256.734168
 20
-102.156646
 30
0.0
 11
477.014168
 21
-102.156646
 31
0.0
  0
INSERT
  5
23CD
100
AcDbEntity
  8
0
  6
BYBLOCK
 62
    41
100
AcDbBlockReference
  2
_OPEN
 10
236.734168
 20
-102.156646
 30
0.0
 41
20.0
 42
20.0
 43
20.0
 50
180.0
  0
INSERT
  5
23CE
100
AcDbEntity
  8
0
  6
BYBLOCK
 62
    41
100
AcDbBlockReference
  2
_OPEN
 10
497.014168
 20
-102.156646
 30
0.0
 41
20.0
 42
20.0
 43
20.0
  0
MTEXT
  5
23CF
100
AcDbEntity
  8
0
  6
BYBLOCK
 62
    41
100
AcDbMText
 10
366.874168
 20
-90.154677
 30
0.0
 40
20.0
 41
0.0
 71
     5
 72
     1
  1
\A1;260
  7
ED20
  0
POINT
  5
23D0
100
AcDbEntity
  8
DEFPOINTS
  6
BYBLOCK
 62
     0
100
AcDbPoint
 10
236.734168
 20
-40.766415
 30
0.0
  0
POINT
  5
23D1
100
AcDbEntity
  8
DEFPOINTS
  6
BYBLOCK
 62
     0
100
AcDbPoint
 10
497.014168
 20
-40.766415
 30
0.0
  0
POINT
  5
23D2
100
AcDbEntity
  8
DEFPOINTS
  6
BYBLOCK
 62
     0
100
AcDbPoint
 10
497.014168
 20
-102.156646
 30
0.0
  0
ENDBLK
  5
23D3
100
AcDbEntity
  8
0
100
AcDbBlockEnd
  0
BLOCK
  5
23E2
100
AcDbEntity
  8
0
100
AcDbBlockBegin
  2
*D6
 70
     1
 10
0.0
 20
0.0
 30
0.0
  3
*D6
  1

  0
LINE
  5
23E3
100
AcDbEntity
  8
0
  6
BYBLOCK
 62
    41
100
AcDbLine
 10
-88.125832
 20
-69.126415
 30
0.0
 11
-88.125832
 21
-145.542279
 31
0.0
  0
LINE
  5
23E4
100
AcDbEntity
  8
0
  6
BYBLOCK
 62
    41
100
AcDbLine
 10
-35.125832
 20
-38.626415
 30
0.0
 11
-35.125832
 21
-145.542279
 31
0.0
  0
LINE
  5
23E5
100
AcDbEntity
  8
0
  6
BYBLOCK
 62
    41
100
AcDbLine
 10
-68.125832
 20
-144.292279
 30
0.0
 11
-55.125832
 21
-144.292279
 31
0.0
  0
INSERT
  5
23E6
100
AcDbEntity
  8
0
  6
BYBLOCK
 62
    41
100
AcDbBlockReference
  2
_OPEN
 10
-88.125832
 20
-144.292279
 30
0.0
 41
20.0
 42
20.0
 43
20.0
 50
180.0
  0
INSERT
  5
23E7
100
AcDbEntity
  8
0
  6
BYBLOCK
 62
    41
100
AcDbBlockReference
  2
_OPEN
 10
-35.125832
 20
-144.292279
 30
0.0
 41
20.0
 42
20.0
 43
20.0
  0
MTEXT
  5
23E8
100
AcDbEntity
  8
0
  6
BYBLOCK
 62
    41
100
AcDbMText
 10
-60.266543
 20
-132.292279
 30
0.0
 40
20.0
 41
0.0
 71
     5
 72
     1
  1
\A1;53
  7
ED20
  0
POINT
  5
23E9
100
AcDbEntity
  8
DEFPOINTS
  6
BYBLOCK
 62
     0
100
AcDbPoint
 10
-88.125832
 20
-68.126415
 30
0.0
  0
POINT
  5
23EA
100
AcDbEntity
  8
DEFPOINTS
  6
BYBLOCK
 62
     0
100
AcDbPoint
 10
-35.125832
 20
-37.626415
 30
0.0
  0
POINT
  5
23EB
100
AcDbEntity
  8
DEFPOINTS
  6
BYBLOCK
 62
     0
100
AcDbPoint
 10
-35.125832
 20
-144.292279
 30
0.0
  0
ENDBLK
  5
23EC
100
AcDbEntity
  8
0
100
AcDbBlockEnd
  0
BLOCK
  5
2415
100
AcDbEntity
  8
0
100
AcDbBlockBegin
  2
*D7
 70
     1
 10
0.0
 20
0.0
 30
0.0
  3
*D7
  1

  0
LINE
  5
2416
100
AcDbEntity
  8
0
  6
BYBLOCK
 62
    41
100
AcDbLine
 10
-147.125832
 20
41.373585
 30
0.0
 11
-147.125832
 21
-145.542279
 31
0.0
  0
LINE
  5
2417
100
AcDbEntity
  8
0
  6
BYBLOCK
 62
    41
100
AcDbLine
 10
-88.125832
 20
-143.292279
 30
0.0
 11
-88.125832
 21
-143.042279
 31
0.0
  0
LINE
  5
2418
100
AcDbEntity
  8
0
  6
BYBLOCK
 62
    41
100
AcDbLine
 10
-127.125832
 20
-144.292279
 30
0.0
 11
-108.125832
 21
-144.292279
 31
0.0
  0
INSERT
  5
2419
100
AcDbEntity
  8
0
  6
BYBLOCK
 62
    41
100
AcDbBlockReference
  2
_OPEN
 10
-147.125832
 20
-144.292279
 30
0.0
 41
20.0
 42
20.0
 43
20.0
 50
180.0
  0
INSERT
  5
241A
100
AcDbEntity
  8
0
  6
BYBLOCK
 62
    41
100
AcDbBlockReference
  2
_OPEN
 10
-88.125832
 20
-144.292279
 30
0.0
 41
20.0
 42
20.0
 43
20.0
  0
MTEXT
  5
241B
100
AcDbEntity
  8
0
  6
BYBLOCK
 62
    41
100
AcDbMText
 10
-117.625832
 20
-132.292279
 30
0.0
 40
20.0
 41
0.0
 71
     5
 72
     1
  1
\A1;59
  7
ED20
  0
POINT
  5
241C
100
AcDbEntity
  8
DEFPOINTS
  6
BYBLOCK
 62
     0
100
AcDbPoint
 10
-147.125832
 20
42.373585
 30
0.0
  0
POINT
  5
241D
100
AcDbEntity
  8
DEFPOINTS
  6
BYBLOCK
 62
     0
100
AcDbPoint
 10
-88.125832
 20
-144.292279
 30
0.0
  0
POINT
  5
241E
100
AcDbEntity
  8
DEFPOINTS
  6
BYBLOCK
 62
     0
100
AcDbPoint
 10
-88.125832
 20
-144.292279
 30
0.0
  0
ENDBLK
  5
241F
100
AcDbEntity
  8
0
100
AcDbBlockEnd
  0
BLOCK
  5
2422
100
AcDbEntity
  8
0
100
AcDbBlockBegin
  2
*D8
 70
     1
 10
0.0
 20
0.0
 30
0.0
  3
*D8
  1

  0
LINE
  5
2423
100
AcDbEntity
  8
0
  6
BYBLOCK
 62
    41
100
AcDbLine
 10
-147.125832
 20
-145.292279
 30
0.0
 11
-147.125832
 21
-177.440515
 31
0.0
  0
LINE
  5
2424
100
AcDbEntity
  8
0
  6
BYBLOCK
 62
    41
100
AcDbLine
 10
-35.125832
 20
-145.292279
 30
0.0
 11
-35.125832
 21
-177.440515
 31
0.0
  0
LINE
  5
2425
100
AcDbEntity
  8
0
  6
BYBLOCK
 62
    41
100
AcDbLine
 10
-127.125832
 20
-176.190515
 30
0.0
 11
-55.125832
 21
-176.190515
 31
0.0
  0
INSERT
  5
2426
100
AcDbEntity
  8
0
  6
BYBLOCK
 62
    41
100
AcDbBlockReference
  2
_OPEN
 10
-147.125832
 20
-176.190515
 30
0.0
 41
20.0
 42
20.0
 43
20.0
 50
180.0
  0
INSERT
  5
2427
100
AcDbEntity
  8
0
  6
BYBLOCK
 62
    41
100
AcDbBlockReference
  2
_OPEN
 10
-35.125832
 20
-176.190515
 30
0.0
 41
20.0
 42
20.0
 43
20.0
  0
MTEXT
  5
2428
100
AcDbEntity
  8
0
  6
BYBLOCK
 62
    41
100
AcDbMText
 10
-91.125832
 20
-164.188546
 30
0.0
 40
20.0
 41
0.0
 71
     5
 72
     1
  1
\A1;112
  7
ED20
  0
POINT
  5
2429
100
AcDbEntity
  8
DEFPOINTS
  6
BYBLOCK
 62
     0
100
AcDbPoint
 10
-147.125832
 20
-144.292279
 30
0.0
  0
POINT
  5
242A
100
AcDbEntity
  8
DEFPOINTS
  6
BYBLOCK
 62
     0
100
AcDbPoint
 10
-35.125832
 20
-144.292279
 30
0.0
  0
POINT
  5
242B
100
AcDbEntity
  8
DEFPOINTS
  6
BYBLOCK
 62
     0
100
AcDbPoint
 10
-35.125832
 20
-176.190515
 30
0.0
  0
ENDBLK
  5
242C
100
AcDbEntity
  8
0
100
AcDbBlockEnd
  0
BLOCK
  5
267C
100
AcDbEntity
  8
0
100
AcDbBlockBegin
  2
ASVORK
 70
     0
 10
0.0
 20
0.0
 30
0.0
  3
ASVORK
  1

  0
LINE
  5
267D
100
AcDbEntity
  8
V0-OBRYS
  6
CONTINUOUS
 62
    90
100
AcDbLine
 10
-60.0
 20
-40.0
 30
0.0
 11
0.0
 21
-40.0
 31
0.0
  0
LINE
  5
267E
100
AcDbEntity
  8
V0-OBRYS
  6
CONTINUOUS
 62
    90
100
AcDbLine
 10
-60.0
 20
40.0
 30
0.0
 11
0.0
 21
40.0
 31
0.0
  0
LINE
  5
267F
100
AcDbEntity
  8
V0-OBRYS
  6
CONTINUOUS
 62
    90
100
AcDbLine
 10
-60.0
 20
0.0
 30
0.0
 11
-60.0
 21
-40.0
 31
0.0
  0
LINE
  5
2680
100
AcDbEntity
  8
V0-OBRYS
  6
CONTINUOUS
 62
    90
100
AcDbLine
 10
-60.0
 20
0.0
 30
0.0
 11
-60.0
 21
40.0
 31
0.0
  0
LINE
  5
2681
100
AcDbEntity
  8
V0-OBRYS
  6
CONTINUOUS
 62
    90
100
AcDbLine
 10
0.0
 20
-40.0
 30
0.0
 11
0.0
 21
0.0
 31
0.0
  0
LINE
  5
2682
100
AcDbEntity
  8
V0-OBRYS
  6
CONTINUOUS
 62
    90
100
AcDbLine
 10
-45.0
 20
0.0
 30
0.0
 11
-45.0
 21
-40.0
 31
0.0
  0
LINE
  5
2683
100
AcDbEntity
  8
V0-OBRYS
  6
CONTINUOUS
 62
    90
100
AcDbLine
 10
-45.0
 20
0.0
 30
0.0
 11
-45.0
 21
40.0
 31
0.0
  0
LINE
  5
2684
100
AcDbEntity
  8
V0-OBRYS
  6
CONTINUOUS
 62
    90
100
AcDbLine
 10
0.0
 20
40.0
 30
0.0
 11
0.0
 21
0.0
 31
0.0
  0
ENDBLK
  5
2685
100
AcDbEntity
  8
0
100
AcDbBlockEnd
  0
ENDSEC
  0
SECTION
  2
ENTITIES
  0
TEXT
  5
1347
100
AcDbEntity
  8
V0-VYPLNE
 62
     6
100
AcDbText
 10
215.016531
 20
-318.809314
 30
0.0
 40
40.0
  1
HCF-250
  7
ED40
100
AcDbText
  0
TEXT
  5
1348
100
AcDbEntity
  8
V0-VYPLNE
  6
CONTINUOUS
 62
    51
100
AcDbText
 10
134.458991
 20
-374.475144
 30
0.0
 40
30.0
  1
AXIALNI VENTILATOR
  7
ED30
100
AcDbText
  0
LINE
  5
1793
100
AcDbEntity
  8
V0-VYPLNE
100
AcDbLine
 10
366.874168
 20
89.373585
 30
0.0
 11
366.874168
 21
243.691539
 31
0.0
  0
LINE
  5
1794
100
AcDbEntity
  8
V0-VYPLNE
100
AcDbLine
 10
518.284742
 20
89.373585
 30
0.0
 11
205.660229
 21
89.373585
 31
0.0
  0
LINE
  5
17A6
100
AcDbEntity
  8
V0-VYPLNE
  6
DASHDOT
100
AcDbLine
 10
366.874168
 20
89.373585
 30
0.0
 11
366.874168
 21
-49.367464
 31
0.0
  0
LINE
  5
17D7
100
AcDbEntity
  8
VO-OBRYS
  6
CONTINUOUS
100
AcDbLine
 10
326.698168
 20
114.230823
 30
0.0
 11
255.397292
 21
185.531699
 31
0.0
  0
LINE
  5
17D9
100
AcDbEntity
  8
V0-VYPLNE
100
AcDbLine
 10
366.874168
 20
89.373585
 30
0.0
 11
225.823644
 21
230.424108
 31
0.0
  0
LINE
  5
17DB
100
AcDbEntity
  8
VO-OBRYS
  6
CONTINUOUS
100
AcDbLine
 10
342.016929
 20
129.549585
 30
0.0
 11
270.716054
 21
200.85046
 31
0.0
  0
LINE
  5
1835
100
AcDbEntity
  8
V0-OBRYS
  6
CONTINUOUS
100
AcDbLine
 10
219.454168
 20
246.793585
 30
0.0
 11
514.294168
 21
246.793585
 31
0.0
  0
LINE
  5
1836
100
AcDbEntity
  8
V0-OBRYS
  6
CONTINUOUS
100
AcDbLine
 10
524.294168
 20
236.793585
 30
0.0
 11
524.294168
 21
-58.046415
 31
0.0
  0
LINE
  5
1837
100
AcDbEntity
  8
V0-OBRYS
  6
CONTINUOUS
100
AcDbLine
 10
514.294168
 20
-68.046415
 30
0.0
 11
219.454168
 21
-68.046415
 31
0.0
  0
LINE
  5
1838
100
AcDbEntity
  8
V0-OBRYS
  6
CONTINUOUS
100
AcDbLine
 10
209.454168
 20
-58.046415
 30
0.0
 11
209.454168
 21
236.793585
 31
0.0
  0
LINE
  5
1BDF
100
AcDbEntity
  8
V0-OBRYS
  6
CONTINUOUS
 62
    90
100
AcDbLine
 10
330.715768
 20
49.197585
 30
0.0
 11
403.032568
 21
49.197585
 31
0.0
  0
LINE
  5
1BE0
100
AcDbEntity
  8
V0-OBRYS
  6
CONTINUOUS
 62
    90
100
AcDbLine
 10
407.050168
 20
53.215185
 30
0.0
 11
407.050168
 21
125.531985
 31
0.0
  0
LINE
  5
1BE1
100
AcDbEntity
  8
V0-OBRYS
  6
CONTINUOUS
 62
    90
100
AcDbLine
 10
403.032568
 20
129.549585
 30
0.0
 11
330.715768
 21
129.549585
 31
0.0
  0
LINE
  5
1BE2
100
AcDbEntity
  8
V0-OBRYS
  6
CONTINUOUS
 62
    90
100
AcDbLine
 10
326.698168
 20
125.531985
 30
0.0
 11
326.698168
 21
53.215185
 31
0.0
  0
ARC
  5
1BE4
100
AcDbEntity
  8
V0-OBRYS
  6
CONTINUOUS
 62
    90
100
AcDbCircle
 10
330.715768
 20
125.531985
 30
0.0
 40
4.0176
100
AcDbArc
 50
90.0
 51
180.0
  0
ARC
  5
1BE5
100
AcDbEntity
  8
V0-OBRYS
  6
CONTINUOUS
 62
    90
100
AcDbCircle
 10
330.715768
 20
53.215185
 30
0.0
 40
4.0176
100
AcDbArc
 50
180.0
 51
270.0
  0
ARC
  5
1BE7
100
AcDbEntity
  8
V0-OBRYS
  6
CONTINUOUS
 62
    90
100
AcDbCircle
 10
403.032568
 20
53.215185
 30
0.0
 40
4.0176
100
AcDbArc
 50
270.0
 51
0.0
  0
ARC
  5
1BE8
100
AcDbEntity
  8
V0-OBRYS
  6
CONTINUOUS
 62
    90
100
AcDbCircle
 10
403.032568
 20
125.531985
 30
0.0
 40
4.0176
100
AcDbArc
 50
0.0
 51
90.0
  0
CIRCLE
  5
1CB2
100
AcDbEntity
  8
V0-OBRYS
  6
CONTINUOUS
 62
    90
100
AcDbCircle
 10
336.742168
 20
119.505585
 30
0.0
 40
2.6784
  0
CIRCLE
  5
1CB3
100
AcDbEntity
  8
V0-OBRYS
  6
CONTINUOUS
 62
    90
100
AcDbCircle
 10
336.742168
 20
59.241585
 30
0.0
 40
2.6784
  0
CIRCLE
  5
1CB4
100
AcDbEntity
  8
V0-OBRYS
  6
CONTINUOUS
 62
    90
100
AcDbCircle
 10
397.006168
 20
59.241585
 30
0.0
 40
2.6784
  0
CIRCLE
  5
1CB5
100
AcDbEntity
  8
V0-OBRYS
  6
CONTINUOUS
 62
    90
100
AcDbCircle
 10
397.006168
 20
119.505585
 30
0.0
 40
2.6784
  0
LINE
  5
2026
100
AcDbEntity
  8
V0-VYPLNE
100
AcDbLine
 10
287.104847
 20
217.239253
 30
0.0
 11
238.750002
 21
168.884409
 31
0.0
  0
CIRCLE
  5
2028
100
AcDbEntity
  8
V0-OBRYS
  6
CONTINUOUS
 62
    90
100
AcDbCircle
 10
263.056673
 20
193.191079
 30
0.0
 40
4.0
  0
LINE
  5
2058
100
AcDbEntity
  8
V0-OBRYS
  6
CONTINUOUS
 62
    90
 48
2.0
100
AcDbLine
 10
-88.125832
 20
89.373585
 30
0.0
 11
-88.125832
 21
246.873585
 31
0.0
  0
LINE
  5
2059
100
AcDbEntity
  8
V0-OBRYS
  6
CONTINUOUS
 62
    90
 48
2.0
100
AcDbLine
 10
-88.125832
 20
246.873585
 30
0.0
 11
-100.125832
 21
246.873585
 31
0.0
  0
LINE
  5
205A
100
AcDbEntity
  8
V0-OBRYS
  6
CONTINUOUS
 62
    90
 48
2.0
100
AcDbLine
 10
-100.125832
 20
246.873585
 30
0.0
 11
-100.125832
 21
89.373585
 31
0.0
  0
LINE
  5
205B
100
AcDbEntity
  8
V0-OBRYS
  6
CONTINUOUS
 62
    90
 48
2.0
100
AcDbLine
 10
-35.125832
 20
89.373585
 30
0.0
 11
-35.125832
 21
216.373585
 31
0.0
  0
LINE
  5
205C
100
AcDbEntity
  8
V0-OBRYS
  6
CONTINUOUS
 62
    90
 48
2.0
100
AcDbLine
 10
-88.125832
 20
236.373585
 30
0.0
 11
-80.662106
 21
223.742651
 31
0.0
  0
LINE
  5
205D
100
AcDbEntity
  8
V0-OBRYS
  6
CONTINUOUS
 62
    90
 48
2.0
100
AcDbLine
 10
-35.125832
 20
216.373585
 30
0.0
 11
-67.748205
 21
216.373585
 31
0.0
  0
ARC
  5
205F
100
AcDbEntity
  8
V0-OBRYS
  6
CONTINUOUS
 62
    90
 48
2.0
100
AcDbCircle
 10
-67.748205
 20
231.373585
 30
0.0
 40
15.0
100
AcDbArc
 50
210.579201
 51
270.0
  0
LINE
  5
2060
100
AcDbEntity
  8
V0-OBRYS
  6
CONTINUOUS
 62
    90
 48
2.0
100
AcDbLine
 10
-147.125832
 20
89.373585
 30
0.0
 11
-147.125832
 21
136.373585
 31
0.0
  0
LINE
  5
2061
100
AcDbEntity
  8
V0-OBRYS
  6
CONTINUOUS
 62
    90
 48
2.0
100
AcDbLine
 10
-137.125832
 20
146.373585
 30
0.0
 11
-100.125832
 21
146.373585
 31
0.0
  0
LINE
  5
2062
100
AcDbEntity
  8
V0-OBRYS
  6
CONTINUOUS
 62
    90
 48
2.0
100
AcDbLine
 10
-128.125832
 20
89.373585
 30
0.0
 11
-128.125832
 21
146.373585
 31
0.0
  0
ARC
  5
2063
100
AcDbEntity
  8
V0-OBRYS
  6
CONTINUOUS
 62
    90
 48
2.0
100
AcDbCircle
 10
-137.125832
 20
136.373585
 30
0.0
 40
10.0
100
AcDbArc
 50
90.0
 51
180.0
  0
LINE
  5
2064
100
AcDbEntity
  8
V0-OBRYS
  6
CONTINUOUS
 62
    90
 48
2.0
100
AcDbLine
 10
-128.285624
 20
142.880173
 30
0.0
 11
-147.011926
 21
128.968331
 31
0.0
  0
LINE
  5
2065
100
AcDbEntity
  8
V0-OBRYS
  6
CONTINUOUS
 62
    90
 48
2.0
100
AcDbLine
 10
-128.765788
 20
132.806079
 30
0.0
 11
-146.531766
 21
123.211705
 31
0.0
  0
LINE
  5
2066
100
AcDbEntity
  8
V0-OBRYS
  6
CONTINUOUS
 62
    90
 48
2.0
100
AcDbLine
 10
-128.285624
 20
120.81311
 30
0.0
 11
-147.49209
 21
116.495642
 31
0.0
  0
LINE
  5
2067
100
AcDbEntity
  8
V0-OBRYS
  6
CONTINUOUS
 62
    90
 48
2.0
100
AcDbLine
 10
-128.765788
 20
109.299862
 30
0.0
 11
-147.011926
 21
107.380986
 31
0.0
  0
LINE
  5
2068
100
AcDbEntity
  8
V0-OBRYS
  6
CONTINUOUS
 62
    90
 48
2.0
100
AcDbLine
 10
-128.765788
 20
97.786612
 30
0.0
 11
-147.011926
 21
97.306894
 31
0.0
  0
LINE
  5
2069
100
AcDbEntity
  8
V0-OBRYS
  6
CONTINUOUS
 62
    90
 48
2.0
100
AcDbLine
 10
-128.285624
 20
142.880173
 30
0.0
 11
-100.125832
 21
142.880173
 31
0.0
  0
LINE
  5
206A
100
AcDbEntity
  8
V0-OBRYS
  6
CONTINUOUS
 62
    90
 48
2.0
100
AcDbLine
 10
-128.765788
 20
132.806079
 30
0.0
 11
-100.125832
 21
132.806079
 31
0.0
  0
LINE
  5
206B
100
AcDbEntity
  8
V0-OBRYS
  6
CONTINUOUS
 62
    90
 48
2.0
100
AcDbLine
 10
-128.285624
 20
120.81311
 30
0.0
 11
-100.125832
 21
120.81311
 31
0.0
  0
LINE
  5
206C
100
AcDbEntity
  8
V0-OBRYS
  6
CONTINUOUS
 62
    90
 48
2.0
100
AcDbLine
 10
-128.765788
 20
109.299862
 30
0.0
 11
-125.884818
 21
109.299862
 31
0.0
  0
LINE
  5
206D
100
AcDbEntity
  8
V0-OBRYS
  6
CONTINUOUS
 62
    90
 48
2.0
100
AcDbLine
 10
-125.884818
 20
109.299862
 30
0.0
 11
-100.125832
 21
109.299862
 31
0.0
  0
LINE
  5
206E
100
AcDbEntity
  8
V0-OBRYS
  6
CONTINUOUS
 62
    90
 48
2.0
100
AcDbLine
 10
-128.765788
 20
97.786612
 30
0.0
 11
-100.125832
 21
97.786612
 31
0.0
  0
LINE
  5
2070
100
AcDbEntity
  8
V0-VYPLNE
  6
DASHED
 62
    52
100
AcDbLine
 10
-83.125832
 20
89.373585
 30
0.0
 11
-83.125832
 21
146.373585
 31
0.0
  0
LINE
  5
2074
100
AcDbEntity
  8
V0-VYPLNE
  6
DASHED
 62
    52
100
AcDbLine
 10
-60.625832
 20
149.231211
 30
0.0
 11
-60.625832
 21
89.373585
 31
0.0
  0
ARC
  5
2075
100
AcDbEntity
  8
V0-VYPLNE
  6
DASHED
 62
    52
100
AcDbCircle
 10
-60.625832
 20
59.223628
 30
0.0
 40
90.007583
100
AcDbArc
 50
77.876142
 51
104.476266
  0
LINE
  5
2090
100
AcDbEntity
  8
V0-VYPLNE
  6
DASHED
 62
    52
 48
2.0
100
AcDbLine
 10
-79.309142
 20
147.197642
 30
0.0
 11
-83.150435
 21
151.035392
 31
0.0
  0
LINE
  5
2091
100
AcDbEntity
  8
V0-VYPLNE
  6
DASHED
 62
    52
100
AcDbLine
 10
-83.150435
 20
151.035392
 30
0.0
 11
-73.067042
 21
214.358266
 31
0.0
  0
LINE
  5
2092
100
AcDbEntity
  8
V0-VYPLNE
  6
DASHED
 62
    52
100
AcDbLine
 10
-73.067042
 20
214.358266
 30
0.0
 11
-60.625832
 21
214.358266
 31
0.0
  0
LINE
  5
2093
100
AcDbEntity
  8
V0-VYPLNE
  6
DASHED
 62
    52
100
AcDbLine
 10
-38.10123
 20
151.035392
 30
0.0
 11
-48.184622
 21
214.358266
 31
0.0
  0
LINE
  5
2094
100
AcDbEntity
  8
V0-VYPLNE
  6
DASHED
 62
    52
100
AcDbLine
 10
-48.184622
 20
214.358266
 30
0.0
 11
-60.625832
 21
214.358266
 31
0.0
  0
LINE
  5
2095
100
AcDbEntity
  8
V0-VYPLNE
  6
DASHED
 62
    52
 48
2.0
100
AcDbLine
 10
-41.942523
 20
147.197642
 30
0.0
 11
-38.10123
 21
151.035392
 31
0.0
  0
ARC
  5
2096
100
AcDbEntity
  8
V0-VYPLNE
  6
DASHED
 62
    52
100
AcDbCircle
 10
-702.33071
 20
82.836486
 30
0.0
 40
667.236902
100
AcDbArc
 50
0.561351
 51
5.154693
  0
ARC
  5
2097
100
AcDbEntity
  8
V0-VYPLNE
  6
DASHED
 62
    52
100
AcDbCircle
 10
-42.772056
 20
142.33519
 30
0.0
 40
5.0
100
AcDbArc
 50
5.154693
 51
77.876142
  0
LINE
  5
2098
100
AcDbEntity
  8
V0-VYPLNE
  6
DASHED
 62
    52
100
AcDbLine
 10
-85.551245
 20
141.373585
 30
0.0
 11
-85.551245
 21
89.373585
 31
0.0
  0
LINE
  5
2099
100
AcDbEntity
  8
V0-VYPLNE
  6
DASHED
 62
    52
100
AcDbLine
 10
-100.125832
 20
146.373585
 30
0.0
 11
-90.551245
 21
146.373585
 31
0.0
  0
ARC
  5
209B
100
AcDbEntity
  8
V0-VYPLNE
  6
DASHED
 62
    52
 48
2.0
100
AcDbCircle
 10
-90.551245
 20
141.373585
 30
0.0
 40
5.0
100
AcDbArc
 50
0.0
 51
90.0
  0
LINE
  5
209C
100
AcDbEntity
  8
V0-VYPLNE
  6
DASHED
 62
    52
100
AcDbLine
 10
-100.125832
 20
142.880173
 30
0.0
 11
-85.551245
 21
142.880173
 31
0.0
  0
LINE
  5
209D
100
AcDbEntity
  8
V0-VYPLNE
  6
DASHED
 62
    52
100
AcDbLine
 10
-100.125832
 20
132.806079
 30
0.0
 11
-85.551245
 21
132.806079
 31
0.0
  0
LINE
  5
209E
100
AcDbEntity
  8
V0-VYPLNE
  6
DASHED
 62
    52
100
AcDbLine
 10
-100.125832
 20
120.81311
 30
0.0
 11
-86.031404
 21
120.81311
 31
0.0
  0
LINE
  5
209F
100
AcDbEntity
  8
V0-VYPLNE
  6
DASHED
 62
    52
100
AcDbLine
 10
-100.125832
 20
109.299862
 30
0.0
 11
-85.551245
 21
109.299862
 31
0.0
  0
LINE
  5
20A0
100
AcDbEntity
  8
V0-VYPLNE
  6
DASHED
 62
    52
100
AcDbLine
 10
-100.125832
 20
97.786612
 30
0.0
 11
-86.031404
 21
97.786612
 31
0.0
  0
LINE
  5
20A2
100
AcDbEntity
  8
V0-OBRYS
  6
CONTINUOUS
 62
    90
 48
2.0
100
AcDbLine
 10
-101.700854
 20
236.89909
 30
0.0
 11
-101.700854
 21
227.570218
 31
0.0
  0
LINE
  5
20A4
100
AcDbEntity
  8
V0-OBRYS
  6
CONTINUOUS
 62
    90
 48
2.0
100
AcDbLine
 10
-109.92042
 20
218.022454
 30
0.0
 11
-109.92042
 21
160.625109
 31
0.0
  0
LINE
  5
20A5
100
AcDbEntity
  8
V0-OBRYS
  6
CONTINUOUS
 62
    90
 48
2.0
100
AcDbLine
 10
-106.612634
 20
155.920174
 30
0.0
 11
-103.433618
 21
154.776784
 31
0.0
  0
ARC
  5
20A6
100
AcDbEntity
  8
V0-OBRYS
  6
CONTINUOUS
 62
    90
 48
2.0
100
AcDbCircle
 10
-104.92042
 20
160.625109
 30
0.0
 40
5.0
100
AcDbArc
 50
180.0
 51
250.21797
  0
ARC
  5
20A7
100
AcDbEntity
  8
V0-OBRYS
  6
CONTINUOUS
 62
    90
 48
2.0
100
AcDbCircle
 10
-104.92042
 20
218.022454
 30
0.0
 40
5.0
100
AcDbArc
 50
107.296981
 51
180.0
  0
ARC
  5
20A8
100
AcDbEntity
  8
V0-OBRYS
  6
CONTINUOUS
 62
    90
 48
2.0
100
AcDbCircle
 10
-107.818671
 20
228.894616
 30
0.0
 40
6.259529
100
AcDbArc
 50
283.033261
 51
347.784984
  0
ARC
  5
20A9
100
AcDbEntity
  8
V0-OBRYS
  6
CONTINUOUS
 62
    90
 48
2.0
100
AcDbCircle
 10
-105.125832
 20
150.071849
 30
0.0
 40
5.0
100
AcDbArc
 50
0.0
 51
70.21797
  0
CIRCLE
  5
20AC
100
AcDbEntity
  8
V0-OBRYS
  6
CONTINUOUS
 62
    90
 48
2.0
100
AcDbCircle
 10
-111.4585
 20
214.052103
 30
0.0
 40
1.608161
  0
CIRCLE
  5
20AD
100
AcDbEntity
  8
V0-OBRYS
  6
CONTINUOUS
 62
    90
 48
2.0
100
AcDbCircle
 10
-111.4585
 20
202.052103
 30
0.0
 40
1.608161
  0
CIRCLE
  5
20AE
100
AcDbEntity
  8
V0-OBRYS
  6
CONTINUOUS
 62
    90
 48
2.0
100
AcDbCircle
 10
-111.4585
 20
190.052103
 30
0.0
 40
1.608161
  0
CIRCLE
  5
20AF
100
AcDbEntity
  8
V0-OBRYS
  6
CONTINUOUS
 62
    90
 48
2.0
100
AcDbCircle
 10
-111.4585
 20
178.052103
 30
0.0
 40
1.608161
  0
CIRCLE
  5
20B0
100
AcDbEntity
  8
V0-OBRYS
  6
CONTINUOUS
 62
    90
 48
2.0
100
AcDbCircle
 10
-111.4585
 20
166.052103
 30
0.0
 40
1.608161
  0
LINE
  5
20B1
100
AcDbEntity
  8
V0-OBRYS
  6
CONTINUOUS
 62
    90
 48
2.0
100
AcDbLine
 10
-108.358919
 20
218.022454
 30
0.0
 11
-108.358919
 21
160.625109
 31
0.0
  0
ARC
  5
20B2
100
AcDbEntity
  8
V0-OBRYS
  6
CONTINUOUS
 62
    90
 48
2.0
100
AcDbCircle
 10
-104.92042
 20
218.022454
 30
0.0
 40
3.438499
100
AcDbArc
 50
107.296981
 51
180.0
  0
ARC
  5
20B3
100
AcDbEntity
  8
V0-OBRYS
  6
CONTINUOUS
 62
    90
 48
2.0
100
AcDbCircle
 10
-107.809946
 20
228.855529
 30
0.0
 40
7.777532
100
AcDbArc
 50
283.890847
 51
350.487695
  0
ARC
  5
20B6
100
AcDbEntity
  8
V0-OBRYS
  6
CONTINUOUS
 62
    90
 48
2.0
100
AcDbCircle
 10
-104.92042
 20
160.625109
 30
0.0
 40
3.438499
100
AcDbArc
 50
180.0
 51
250.21797
  0
LINE
  5
20BA
100
AcDbEntity
  8
V0-OBRYS
  6
CONTINUOUS
 62
    90
 48
2.0
100
AcDbLine
 10
-106.084155
 20
157.389525
 30
0.0
 11
-102.90514
 21
156.246135
 31
0.0
  0
ARC
  5
20BB
100
AcDbEntity
  8
V0-OBRYS
  6
CONTINUOUS
 62
    90
 48
2.0
100
AcDbCircle
 10
-105.125832
 20
150.071849
 30
0.0
 40
6.561501
100
AcDbArc
 50
40.357326
 51
70.21797
  0
ARC
  5
20BC
100
AcDbEntity
  8
V0-OBRYS
  6
CONTINUOUS
 62
    90
 48
2.0
100
AcDbCircle
 10
-100.913343
 20
236.89909
 30
0.0
 40
0.787511
100
AcDbArc
 50
0.0
 51
180.0
  0
LINE
  5
20BD
100
AcDbEntity
  8
V0-OBRYS
  6
CONTINUOUS
 62
    90
 48
2.0
100
AcDbLine
 10
-100.125832
 20
-68.126415
 30
0.0
 11
-100.125832
 21
89.373585
 31
0.0
  0
ARC
  5
20BE
100
AcDbEntity
  8
V0-OBRYS
  6
CONTINUOUS
 62
    90
 48
2.0
100
AcDbCircle
 10
-105.125832
 20
28.67532
 30
0.0
 40
5.0
100
AcDbArc
 50
289.78203
 51
0.0
  0
LINE
  5
20BF
100
AcDbEntity
  8
V0-VYPLNE
  6
DASHED
 62
    52
100
AcDbLine
 10
-38.10123
 20
27.711778
 30
0.0
 11
-48.184622
 21
-35.611096
 31
0.0
  0
LINE
  5
20C0
100
AcDbEntity
  8
V0-VYPLNE
  6
DASHED
 62
    52
100
AcDbLine
 10
-83.150435
 20
27.711778
 30
0.0
 11
-73.067042
 21
-35.611096
 31
0.0
  0
LINE
  5
20C1
100
AcDbEntity
  8
V0-OBRYS
  6
CONTINUOUS
 62
    90
 48
2.0
100
AcDbLine
 10
-88.125832
 20
89.373585
 30
0.0
 11
-88.125832
 21
-68.126415
 31
0.0
  0
LINE
  5
20C2
100
AcDbEntity
  8
V0-OBRYS
  6
CONTINUOUS
 62
    90
 48
2.0
100
AcDbLine
 10
-35.125832
 20
89.373585
 30
0.0
 11
-35.125832
 21
-37.626415
 31
0.0
  0
LINE
  5
20C3
100
AcDbEntity
  8
V0-VYPLNE
  6
DASHED
 62
    52
100
AcDbLine
 10
-100.125832
 20
80.960557
 30
0.0
 11
-86.031404
 21
80.960557
 31
0.0
  0
LINE
  5
20C4
100
AcDbEntity
  8
V0-VYPLNE
  6
DASHED
 62
    52
100
AcDbLine
 10
-100.125832
 20
69.447307
 30
0.0
 11
-85.551245
 21
69.447307
 31
0.0
  0
LINE
  5
20C5
100
AcDbEntity
  8
V0-VYPLNE
  6
DASHED
 62
    52
100
AcDbLine
 10
-100.125832
 20
57.934059
 30
0.0
 11
-86.031404
 21
57.934059
 31
0.0
  0
LINE
  5
20C6
100
AcDbEntity
  8
V0-VYPLNE
  6
DASHED
 62
    52
100
AcDbLine
 10
-100.125832
 20
45.941091
 30
0.0
 11
-85.551245
 21
45.941091
 31
0.0
  0
LINE
  5
20C7
100
AcDbEntity
  8
V0-VYPLNE
  6
DASHED
 62
    52
100
AcDbLine
 10
-100.125832
 20
32.373585
 30
0.0
 11
-90.551245
 21
32.373585
 31
0.0
  0
LINE
  5
20C8
100
AcDbEntity
  8
V0-VYPLNE
  6
DASHED
 62
    52
100
AcDbLine
 10
-100.125832
 20
35.866996
 30
0.0
 11
-85.551245
 21
35.866996
 31
0.0
  0
LINE
  5
20C9
100
AcDbEntity
  8
V0-OBRYS
  6
CONTINUOUS
 62
    90
 48
2.0
100
AcDbLine
 10
-128.765788
 20
45.941091
 30
0.0
 11
-100.125832
 21
45.941091
 31
0.0
  0
LINE
  5
20CA
100
AcDbEntity
  8
V0-OBRYS
  6
CONTINUOUS
 62
    90
 48
2.0
100
AcDbLine
 10
-128.765788
 20
80.960557
 30
0.0
 11
-100.125832
 21
80.960557
 31
0.0
  0
LINE
  5
20CB
100
AcDbEntity
  8
V0-OBRYS
  6
CONTINUOUS
 62
    90
 48
2.0
100
AcDbLine
 10
-128.765788
 20
69.447307
 30
0.0
 11
-125.884818
 21
69.447307
 31
0.0
  0
LINE
  5
20CC
100
AcDbEntity
  8
V0-OBRYS
  6
CONTINUOUS
 62
    90
 48
2.0
100
AcDbLine
 10
-128.285624
 20
57.934059
 30
0.0
 11
-100.125832
 21
57.934059
 31
0.0
  0
LINE
  5
20CD
100
AcDbEntity
  8
V0-OBRYS
  6
CONTINUOUS
 62
    90
 48
2.0
100
AcDbLine
 10
-128.285624
 20
35.866996
 30
0.0
 11
-100.125832
 21
35.866996
 31
0.0
  0
LINE
  5
20CE
100
AcDbEntity
  8
V0-OBRYS
  6
CONTINUOUS
 62
    90
 48
2.0
100
AcDbLine
 10
-137.125832
 20
32.373585
 30
0.0
 11
-100.125832
 21
32.373585
 31
0.0
  0
LINE
  5
20CF
100
AcDbEntity
  8
V0-OBRYS
  6
CONTINUOUS
 62
    90
 48
2.0
100
AcDbLine
 10
-128.285624
 20
57.934059
 30
0.0
 11
-147.49209
 21
62.251528
 31
0.0
  0
LINE
  5
20D0
100
AcDbEntity
  8
V0-OBRYS
  6
CONTINUOUS
 62
    90
 48
2.0
100
AcDbLine
 10
-147.125832
 20
89.373585
 30
0.0
 11
-147.125832
 21
42.373585
 31
0.0
  0
LINE
  5
20D1
100
AcDbEntity
  8
V0-OBRYS
  6
CONTINUOUS
 62
    90
 48
2.0
100
AcDbLine
 10
-128.125832
 20
89.373585
 30
0.0
 11
-128.125832
 21
32.373585
 31
0.0
  0
LINE
  5
20D2
100
AcDbEntity
  8
V0-OBRYS
  6
CONTINUOUS
 62
    90
 48
2.0
100
AcDbLine
 10
-128.765788
 20
80.960557
 30
0.0
 11
-147.011926
 21
81.440275
 31
0.0
  0
LINE
  5
20D3
100
AcDbEntity
  8
V0-OBRYS
  6
CONTINUOUS
 62
    90
 48
2.0
100
AcDbLine
 10
-128.765788
 20
69.447307
 30
0.0
 11
-147.011926
 21
71.366183
 31
0.0
  0
LINE
  5
20D4
100
AcDbEntity
  8
V0-OBRYS
  6
CONTINUOUS
 62
    90
 48
2.0
100
AcDbLine
 10
-128.765788
 20
45.941091
 30
0.0
 11
-146.531766
 21
55.535465
 31
0.0
  0
LINE
  5
20D5
100
AcDbEntity
  8
V0-OBRYS
  6
CONTINUOUS
 62
    90
 48
2.0
100
AcDbLine
 10
-128.285624
 20
35.866996
 30
0.0
 11
-147.011926
 21
49.778838
 31
0.0
  0
ARC
  5
20D6
100
AcDbEntity
  8
V0-OBRYS
  6
CONTINUOUS
 62
    90
 48
2.0
100
AcDbCircle
 10
-137.125832
 20
42.373585
 30
0.0
 40
10.0
100
AcDbArc
 50
180.0
 51
270.0
  0
LINE
  5
20D7
100
AcDbEntity
  8
V0-OBRYS
  6
CONTINUOUS
 62
    90
 48
2.0
100
AcDbLine
 10
-125.884818
 20
69.447307
 30
0.0
 11
-100.125832
 21
69.447307
 31
0.0
  0
ARC
  5
20D8
100
AcDbEntity
  8
V0-VYPLNE
  6
DASHED
 62
    52
100
AcDbCircle
 10
-60.625832
 20
119.523541
 30
0.0
 40
90.007583
100
AcDbArc
 50
255.523734
 51
282.123858
  0
LINE
  5
20D9
100
AcDbEntity
  8
V0-VYPLNE
  6
DASHED
 62
    52
100
AcDbLine
 10
-60.625832
 20
29.515959
 30
0.0
 11
-60.625832
 21
89.373585
 31
0.0
  0
LINE
  5
20DA
100
AcDbEntity
  8
V0-VYPLNE
  6
DASHED
 62
    52
100
AcDbLine
 10
-83.125832
 20
89.373585
 30
0.0
 11
-83.125832
 21
32.373585
 31
0.0
  0
LINE
  5
20DB
100
AcDbEntity
  8
V0-VYPLNE
  6
DASHED
 62
    52
100
AcDbLine
 10
-85.551245
 20
37.373585
 30
0.0
 11
-85.551245
 21
89.373585
 31
0.0
  0
ARC
  5
20DC
100
AcDbEntity
  8
V0-VYPLNE
  6
DASHED
 62
    52
 48
2.0
100
AcDbCircle
 10
-90.551245
 20
37.373585
 30
0.0
 40
5.0
100
AcDbArc
 50
270.0
 51
0.0
  0
LINE
  5
20DD
100
AcDbEntity
  8
V0-VYPLNE
  6
DASHED
 62
    52
 48
2.0
100
AcDbLine
 10
-79.309142
 20
31.549528
 30
0.0
 11
-83.150435
 21
27.711778
 31
0.0
  0
ARC
  5
20DE
100
AcDbEntity
  8
V0-VYPLNE
  6
DASHED
 62
    52
100
AcDbCircle
 10
-702.33071
 20
95.910683
 30
0.0
 40
667.236902
100
AcDbArc
 50
354.845307
 51
359.438649
  0
ARC
  5
20DF
100
AcDbEntity
  8
V0-VYPLNE
  6
DASHED
 62
    52
100
AcDbCircle
 10
-42.772056
 20
36.411979
 30
0.0
 40
5.0
100
AcDbArc
 50
282.123858
 51
354.845307
  0
LINE
  5
20E0
100
AcDbEntity
  8
V0-VYPLNE
  6
DASHED
 62
    52
 48
2.0
100
AcDbLine
 10
-41.942523
 20
31.549528
 30
0.0
 11
-38.10123
 21
27.711778
 31
0.0
  0
LINE
  5
20E1
100
AcDbEntity
  8
V0-OBRYS
  6
CONTINUOUS
 62
    90
 48
2.0
100
AcDbLine
 10
-88.125832
 20
-68.126415
 30
0.0
 11
-100.125832
 21
-68.126415
 31
0.0
  0
ARC
  5
20E2
100
AcDbEntity
  8
V0-OBRYS
  6
CONTINUOUS
 62
    90
 48
2.0
100
AcDbCircle
 10
-107.818671
 20
-50.147446
 30
0.0
 40
6.259529
100
AcDbArc
 50
12.215016
 51
76.966739
  0
ARC
  5
20E3
100
AcDbEntity
  8
V0-OBRYS
  6
CONTINUOUS
 62
    90
 48
2.0
100
AcDbCircle
 10
-107.809946
 20
-50.10836
 30
0.0
 40
7.777532
100
AcDbArc
 50
9.512305
 51
76.109153
  0
ARC
  5
20E4
100
AcDbEntity
  8
V0-OBRYS
  6
CONTINUOUS
 62
    90
 48
2.0
100
AcDbCircle
 10
-104.92042
 20
-39.275285
 30
0.0
 40
5.0
100
AcDbArc
 50
180.0
 51
252.703019
  0
LINE
  5
20E5
100
AcDbEntity
  8
V0-OBRYS
  6
CONTINUOUS
 62
    90
 48
2.0
100
AcDbLine
 10
-108.358919
 20
-39.275285
 30
0.0
 11
-108.358919
 21
18.122061
 31
0.0
  0
LINE
  5
20E6
100
AcDbEntity
  8
V0-OBRYS
  6
CONTINUOUS
 62
    90
 48
2.0
100
AcDbLine
 10
-109.92042
 20
-39.275285
 30
0.0
 11
-109.92042
 21
18.122061
 31
0.0
  0
CIRCLE
  5
20E7
100
AcDbEntity
  8
V0-OBRYS
  6
CONTINUOUS
 62
    90
 48
2.0
100
AcDbCircle
 10
-111.528766
 20
12.695066
 30
0.0
 40
1.608161
  0
CIRCLE
  5
20E8
100
AcDbEntity
  8
V0-OBRYS
  6
CONTINUOUS
 62
    90
 48
2.0
100
AcDbCircle
 10
-111.528766
 20
0.695066
 30
0.0
 40
1.608161
  0
ARC
  5
20E9
100
AcDbEntity
  8
V0-OBRYS
  6
CONTINUOUS
 62
    90
 48
2.0
100
AcDbCircle
 10
-104.92042
 20
18.122061
 30
0.0
 40
5.0
100
AcDbArc
 50
109.78203
 51
180.0
  0
ARC
  5
20EA
100
AcDbEntity
  8
V0-OBRYS
  6
CONTINUOUS
 62
    90
 48
2.0
100
AcDbCircle
 10
-105.125832
 20
28.67532
 30
0.0
 40
6.561501
100
AcDbArc
 50
289.78203
 51
319.642674
  0
LINE
  5
20EB
100
AcDbEntity
  8
V0-OBRYS
  6
CONTINUOUS
 62
    90
 48
2.0
100
AcDbLine
 10
-106.084155
 20
21.357644
 30
0.0
 11
-102.90514
 21
22.501034
 31
0.0
  0
ARC
  5
20EC
100
AcDbEntity
  8
V0-OBRYS
  6
CONTINUOUS
 62
    90
 48
2.0
100
AcDbCircle
 10
-104.92042
 20
18.122061
 30
0.0
 40
3.438499
100
AcDbArc
 50
109.78203
 51
180.0
  0
LINE
  5
20ED
100
AcDbEntity
  8
V0-OBRYS
  6
CONTINUOUS
 62
    90
 48
2.0
100
AcDbLine
 10
-106.612634
 20
22.826995
 30
0.0
 11
-103.433618
 21
23.970385
 31
0.0
  0
CIRCLE
  5
20EE
100
AcDbEntity
  8
V0-OBRYS
  6
CONTINUOUS
 62
    90
 48
2.0
100
AcDbCircle
 10
-111.528766
 20
-11.304934
 30
0.0
 40
1.608161
  0
CIRCLE
  5
20EF
100
AcDbEntity
  8
V0-OBRYS
  6
CONTINUOUS
 62
    90
 48
2.0
100
AcDbCircle
 10
-111.528766
 20
-23.304934
 30
0.0
 40
1.608161
  0
CIRCLE
  5
20F0
100
AcDbEntity
  8
V0-OBRYS
  6
CONTINUOUS
 62
    90
 48
2.0
100
AcDbCircle
 10
-111.528766
 20
-35.304934
 30
0.0
 40
1.608161
  0
ARC
  5
20F1
100
AcDbEntity
  8
V0-OBRYS
  6
CONTINUOUS
 62
    90
 48
2.0
100
AcDbCircle
 10
-104.92042
 20
-39.275285
 30
0.0
 40
3.438499
100
AcDbArc
 50
180.0
 51
252.703019
  0
ARC
  5
20F2
100
AcDbEntity
  8
V0-OBRYS
  6
CONTINUOUS
 62
    90
 48
2.0
100
AcDbCircle
 10
-100.913343
 20
-58.151921
 30
0.0
 40
0.787511
100
AcDbArc
 50
180.0
 51
0.0
  0
LINE
  5
20F3
100
AcDbEntity
  8
V0-OBRYS
  6
CONTINUOUS
 62
    90
 48
2.0
100
AcDbLine
 10
-101.700854
 20
-58.151921
 30
0.0
 11
-101.700854
 21
-48.823049
 31
0.0
  0
ARC
  5
20F4
100
AcDbEntity
  8
V0-OBRYS
  6
CONTINUOUS
 62
    90
 48
2.0
100
AcDbCircle
 10
-67.748205
 20
-52.626415
 30
0.0
 40
15.0
100
AcDbArc
 50
90.0
 51
149.420799
  0
LINE
  5
20F5
100
AcDbEntity
  8
V0-VYPLNE
  6
DASHED
 62
    52
100
AcDbLine
 10
-48.184622
 20
-35.611096
 30
0.0
 11
-60.625832
 21
-35.611096
 31
0.0
  0
LINE
  5
20F6
100
AcDbEntity
  8
V0-OBRYS
  6
CONTINUOUS
 62
    90
 48
2.0
100
AcDbLine
 10
-35.125832
 20
-37.626415
 30
0.0
 11
-67.748205
 21
-37.626415
 31
0.0
  0
LINE
  5
20F7
100
AcDbEntity
  8
V0-VYPLNE
  6
DASHED
 62
    52
100
AcDbLine
 10
-73.067042
 20
-35.611096
 30
0.0
 11
-60.625832
 21
-35.611096
 31
0.0
  0
LINE
  5
20F8
100
AcDbEntity
  8
V0-OBRYS
  6
CONTINUOUS
 62
    90
 48
2.0
100
AcDbLine
 10
-88.125832
 20
-57.626415
 30
0.0
 11
-80.662106
 21
-44.995482
 31
0.0
  0
LINE
  5
20F9
100
AcDbEntity
  8
V0-VYPLNE
  6
DASHED
 62
    52
100
AcDbLine
 10
-82.728832
 20
82.529217
 30
0.0
 11
-36.410806
 21
96.45276
 31
0.0
  0
CIRCLE
  5
20FA
100
AcDbEntity
  8
V0-VYPLNE
  6
DASHED
 62
    52
100
AcDbCircle
 10
-60.625832
 20
89.173543
 30
0.0
 40
4.237611
  0
ARC
  5
218D
100
AcDbEntity
  8
V0-VYPLNE
100
AcDbCircle
 10
360.976123
 20
88.838675
 30
0.0
 40
181.579742
100
AcDbArc
 50
222.153029
 51
232.398921
  0
CIRCLE
  5
218F
100
AcDbEntity
  8
V0-OBRYS
  6
CONTINUOUS
 62
    90
100
AcDbCircle
 10
236.734168
 20
-40.766415
 30
0.0
 40
5.58
  0
CIRCLE
  5
2190
100
AcDbEntity
  8
V0-OBRYS
  6
CONTINUOUS
 62
    90
100
AcDbCircle
 10
263.056673
 20
-14.44391
 30
0.0
 40
4.0
  0
LINE
  5
2191
100
AcDbEntity
  8
VO-OBRYS
  6
CONTINUOUS
100
AcDbLine
 10
326.698168
 20
64.516346
 30
0.0
 11
255.397292
 21
-6.784529
 31
0.0
  0
LINE
  5
2192
100
AcDbEntity
  8
VO-OBRYS
  6
CONTINUOUS
100
AcDbLine
 10
342.016929
 20
49.197585
 30
0.0
 11
270.716054
 21
-22.103291
 31
0.0
  0
LINE
  5
2193
100
AcDbEntity
  8
V0-VYPLNE
100
AcDbLine
 10
239.008499
 20
9.604264
 30
0.0
 11
287.363344
 21
-38.750581
 31
0.0
  0
LINE
  5
2194
100
AcDbEntity
  8
V0-VYPLNE
100
AcDbLine
 10
366.874168
 20
89.373585
 30
0.0
 11
225.823644
 21
-51.676939
 31
0.0
  0
CIRCLE
  5
2198
100
AcDbEntity
  8
V0-OBRYS
  6
CONTINUOUS
 62
    90
100
AcDbCircle
 10
470.691662
 20
-14.44391
 30
0.0
 40
4.0
  0
LINE
  5
2199
100
AcDbEntity
  8
VO-OBRYS
  6
CONTINUOUS
100
AcDbLine
 10
391.731406
 20
49.197585
 30
0.0
 11
463.032282
 21
-22.103291
 31
0.0
  0
LINE
  5
219A
100
AcDbEntity
  8
VO-OBRYS
  6
CONTINUOUS
100
AcDbLine
 10
407.050168
 20
64.516346
 30
0.0
 11
478.351043
 21
-6.784529
 31
0.0
  0
LINE
  5
219B
100
AcDbEntity
  8
V0-VYPLNE
100
AcDbLine
 10
446.643488
 20
-38.492084
 30
0.0
 11
494.998333
 21
9.862761
 31
0.0
  0
LINE
  5
219C
100
AcDbEntity
  8
V0-VYPLNE
100
AcDbLine
 10
366.874168
 20
89.373585
 30
0.0
 11
507.924691
 21
-51.676939
 31
0.0
  0
CIRCLE
  5
21A0
100
AcDbEntity
  8
V0-OBRYS
  6
CONTINUOUS
 62
    90
100
AcDbCircle
 10
470.691662
 20
193.191079
 30
0.0
 40
4.0
  0
LINE
  5
21A1
100
AcDbEntity
  8
VO-OBRYS
  6
CONTINUOUS
100
AcDbLine
 10
407.050168
 20
114.230823
 30
0.0
 11
478.351043
 21
185.531699
 31
0.0
  0
LINE
  5
21A2
100
AcDbEntity
  8
VO-OBRYS
  6
CONTINUOUS
100
AcDbLine
 10
391.731406
 20
129.549585
 30
0.0
 11
463.032282
 21
200.85046
 31
0.0
  0
LINE
  5
21A3
100
AcDbEntity
  8
V0-VYPLNE
100
AcDbLine
 10
494.739836
 20
169.142905
 30
0.0
 11
446.384992
 21
217.49775
 31
0.0
  0
LINE
  5
21A4
100
AcDbEntity
  8
V0-VYPLNE
100
AcDbLine
 10
366.874168
 20
89.373585
 30
0.0
 11
507.924691
 21
230.424108
 31
0.0
  0
ARC
  5
21A6
100
AcDbEntity
  8
VO-OBRYS
  6
CONTINUOUS
100
AcDbCircle
 10
263.056673
 20
-14.44391
 30
0.0
 40
10.832
100
AcDbArc
 50
135.0
 51
315.0
  0
ARC
  5
21A7
100
AcDbEntity
  8
VO-OBRYS
  6
CONTINUOUS
100
AcDbCircle
 10
470.691662
 20
193.191079
 30
0.0
 40
10.832
100
AcDbArc
 50
315.0
 51
135.0
  0
LINE
  5
21A8
100
AcDbEntity
  8
VO-OBRYS
  6
CONTINUOUS
100
AcDbLine
 10
326.567237
 20
62.17712
 30
0.0
 11
256.50144
 21
-7.888677
 31
0.0
  0
LINE
  5
21A9
100
AcDbEntity
  8
VO-OBRYS
  6
CONTINUOUS
100
AcDbLine
 10
339.677703
 20
49.066654
 30
0.0
 11
269.611906
 21
-20.999143
 31
0.0
  0
LINE
  5
21AA
100
AcDbEntity
  8
VO-OBRYS
  6
CONTINUOUS
100
AcDbLine
 10
394.070632
 20
129.680515
 30
0.0
 11
464.136429
 21
199.746312
 31
0.0
  0
LINE
  5
21AB
100
AcDbEntity
  8
VO-OBRYS
  6
CONTINUOUS
100
AcDbLine
 10
407.181098
 20
116.570049
 30
0.0
 11
477.246895
 21
186.635846
 31
0.0
  0
ARC
  5
21AC
100
AcDbEntity
  8
VO-OBRYS
  6
CONTINUOUS
100
AcDbCircle
 10
470.691662
 20
193.191079
 30
0.0
 40
9.270499
100
AcDbArc
 50
315.0
 51
135.0
  0
ARC
  5
21AD
100
AcDbEntity
  8
VO-OBRYS
  6
CONTINUOUS
100
AcDbCircle
 10
263.056673
 20
-14.44391
 30
0.0
 40
9.270499
100
AcDbArc
 50
135.0
 51
315.0
  0
LINE
  5
21AE
100
AcDbEntity
  8
V0-VYPLNE
  6
DASHED
 62
    52
100
AcDbLine
 10
262.199523
 20
-2.219568
 30
0.0
 11
275.279658
 21
-15.299703
 31
0.0
  0
LINE
  5
21AF
100
AcDbEntity
  8
VO-OBRYS
  6
CONTINUOUS
100
AcDbLine
 10
326.567237
 20
116.570049
 30
0.0
 11
256.50144
 21
186.635846
 31
0.0
  0
LINE
  5
21B0
100
AcDbEntity
  8
VO-OBRYS
  6
CONTINUOUS
100
AcDbLine
 10
394.070632
 20
49.066654
 30
0.0
 11
464.136429
 21
-20.999143
 31
0.0
  0
LINE
  5
21B3
100
AcDbEntity
  8
VO-OBRYS
  6
CONTINUOUS
100
AcDbLine
 10
339.677703
 20
129.680515
 30
0.0
 11
269.611906
 21
199.746312
 31
0.0
  0
LINE
  5
21B4
100
AcDbEntity
  8
VO-OBRYS
  6
CONTINUOUS
100
AcDbLine
 10
407.181098
 20
62.17712
 30
0.0
 11
477.246895
 21
-7.888677
 31
0.0
  0
ARC
  5
21B6
100
AcDbEntity
  8
VO-OBRYS
  6
CONTINUOUS
100
AcDbCircle
 10
263.056673
 20
193.191079
 30
0.0
 40
10.832
100
AcDbArc
 50
45.0
 51
225.0
  0
ARC
  5
21B7
100
AcDbEntity
  8
VO-OBRYS
  6
CONTINUOUS
100
AcDbCircle
 10
263.056673
 20
193.191079
 30
0.0
 40
9.270499
100
AcDbArc
 50
45.0
 51
225.0
  0
ARC
  5
21B8
100
AcDbEntity
  8
VO-OBRYS
  6
CONTINUOUS
100
AcDbCircle
 10
470.691662
 20
-14.44391
 30
0.0
 40
10.832
100
AcDbArc
 50
225.0
 51
45.0
  0
ARC
  5
21B9
100
AcDbEntity
  8
VO-OBRYS
  6
CONTINUOUS
100
AcDbCircle
 10
470.691662
 20
-14.44391
 30
0.0
 40
9.270499
100
AcDbArc
 50
225.0
 51
45.0
  0
POINT
  5
21EA
100
AcDbEntity
  8
V0-VYPLNE
  6
DASHED
 62
    52
100
AcDbPoint
 10
366.874168
 20
89.373585
 30
0.0
  0
LINE
  5
21F6
100
AcDbEntity
  8
V0-OBRYS
  6
CONTINUOUS
 62
    90
100
AcDbLine
 10
362.367298
 20
148.63485
 30
0.0
 11
363.818748
 21
129.549585
 31
0.0
  0
LINE
  5
21F7
100
AcDbEntity
  8
V0-OBRYS
  6
CONTINUOUS
 62
    90
100
AcDbLine
 10
357.155643
 20
129.549585
 30
0.0
 11
352.803104
 21
147.542806
 31
0.0
  0
LINE
  5
21F8
100
AcDbEntity
  8
V0-OBRYS
  6
CONTINUOUS
 62
    90
100
AcDbLine
 10
344.331961
 20
144.539689
 30
0.0
 11
350.457281
 21
129.549585
 31
0.0
  0
LINE
  5
21F9
100
AcDbEntity
  8
V0-OBRYS
  6
CONTINUOUS
 62
    90
100
AcDbLine
 10
342.861969
 20
129.549585
 30
0.0
 11
335.860817
 21
141.26356
 31
0.0
  0
LINE
  5
21FA
100
AcDbEntity
  8
V0-OBRYS
  6
CONTINUOUS
 62
    90
100
AcDbLine
 10
362.367298
 20
148.63485
 30
0.0
 11
363.818748
 21
129.549585
 31
0.0
  0
LINE
  5
21FB
100
AcDbEntity
  8
V0-OBRYS
  6
CONTINUOUS
 62
    90
100
AcDbLine
 10
357.155643
 20
129.549585
 30
0.0
 11
352.803104
 21
147.542806
 31
0.0
  0
LINE
  5
21FC
100
AcDbEntity
  8
V0-OBRYS
  6
CONTINUOUS
 62
    90
100
AcDbLine
 10
344.331961
 20
144.539689
 30
0.0
 11
350.457281
 21
129.549585
 31
0.0
  0
LINE
  5
21FD
100
AcDbEntity
  8
V0-OBRYS
  6
CONTINUOUS
 62
    90
100
AcDbLine
 10
342.861969
 20
129.549585
 30
0.0
 11
335.860817
 21
141.26356
 31
0.0
  0
LINE
  5
21FE
100
AcDbEntity
  8
V0-OBRYS
  6
CONTINUOUS
 62
    90
100
AcDbLine
 10
390.886366
 20
129.549585
 30
0.0
 11
397.887519
 21
141.26356
 31
0.0
  0
LINE
  5
21FF
100
AcDbEntity
  8
V0-OBRYS
  6
CONTINUOUS
 62
    90
100
AcDbLine
 10
389.416375
 20
144.539689
 30
0.0
 11
383.291055
 21
129.549585
 31
0.0
  0
LINE
  5
2200
100
AcDbEntity
  8
V0-OBRYS
  6
CONTINUOUS
 62
    90
100
AcDbLine
 10
376.592693
 20
129.549585
 30
0.0
 11
380.945231
 21
147.542806
 31
0.0
  0
LINE
  5
2201
100
AcDbEntity
  8
V0-OBRYS
  6
CONTINUOUS
 62
    90
100
AcDbLine
 10
371.381038
 20
148.63485
 30
0.0
 11
369.929587
 21
129.549585
 31
0.0
  0
LINE
  5
2202
100
AcDbEntity
  8
V0-OBRYS
  6
CONTINUOUS
 62
    90
100
AcDbLine
 10
326.698168
 20
65.361386
 30
0.0
 11
314.984192
 21
58.360234
 31
0.0
  0
LINE
  5
2203
100
AcDbEntity
  8
V0-OBRYS
  6
CONTINUOUS
 62
    90
100
AcDbLine
 10
311.708063
 20
66.831378
 30
0.0
 11
326.698168
 21
72.956697
 31
0.0
  0
LINE
  5
2204
100
AcDbEntity
  8
V0-OBRYS
  6
CONTINUOUS
 62
    90
100
AcDbLine
 10
326.698168
 20
79.65506
 30
0.0
 11
308.704946
 21
75.302521
 31
0.0
  0
LINE
  5
2205
100
AcDbEntity
  8
V0-OBRYS
  6
CONTINUOUS
 62
    90
100
AcDbLine
 10
307.612903
 20
84.866715
 30
0.0
 11
326.698168
 21
86.318165
 31
0.0
  0
LINE
  5
2206
100
AcDbEntity
  8
V0-OBRYS
  6
CONTINUOUS
 62
    90
100
AcDbLine
 10
307.612903
 20
93.880455
 30
0.0
 11
326.698168
 21
92.429004
 31
0.0
  0
LINE
  5
2207
100
AcDbEntity
  8
V0-OBRYS
  6
CONTINUOUS
 62
    90
100
AcDbLine
 10
326.698168
 20
99.09211
 30
0.0
 11
308.704946
 21
103.444648
 31
0.0
  0
LINE
  5
2208
100
AcDbEntity
  8
V0-OBRYS
  6
CONTINUOUS
 62
    90
100
AcDbLine
 10
311.708063
 20
111.915792
 30
0.0
 11
326.698168
 21
105.790472
 31
0.0
  0
LINE
  5
2209
100
AcDbEntity
  8
V0-OBRYS
  6
CONTINUOUS
 62
    90
100
AcDbLine
 10
326.698168
 20
113.385783
 30
0.0
 11
314.984192
 21
120.386936
 31
0.0
  0
LINE
  5
220A
100
AcDbEntity
  8
V0-OBRYS
  6
CONTINUOUS
 62
    90
100
AcDbLine
 10
390.886366
 20
49.197585
 30
0.0
 11
397.887519
 21
37.483609
 31
0.0
  0
LINE
  5
220B
100
AcDbEntity
  8
V0-OBRYS
  6
CONTINUOUS
 62
    90
100
AcDbLine
 10
389.416375
 20
34.20748
 30
0.0
 11
383.291055
 21
49.197585
 31
0.0
  0
LINE
  5
220C
100
AcDbEntity
  8
V0-OBRYS
  6
CONTINUOUS
 62
    90
100
AcDbLine
 10
376.592693
 20
49.197585
 30
0.0
 11
380.945231
 21
31.204363
 31
0.0
  0
LINE
  5
220D
100
AcDbEntity
  8
V0-OBRYS
  6
CONTINUOUS
 62
    90
100
AcDbLine
 10
371.381038
 20
30.11232
 30
0.0
 11
369.929587
 21
49.197585
 31
0.0
  0
LINE
  5
220E
100
AcDbEntity
  8
V0-OBRYS
  6
CONTINUOUS
 62
    90
100
AcDbLine
 10
362.367298
 20
30.11232
 30
0.0
 11
363.818748
 21
49.197585
 31
0.0
  0
LINE
  5
220F
100
AcDbEntity
  8
V0-OBRYS
  6
CONTINUOUS
 62
    90
100
AcDbLine
 10
357.155643
 20
49.197585
 30
0.0
 11
352.803104
 21
31.204363
 31
0.0
  0
LINE
  5
2210
100
AcDbEntity
  8
V0-OBRYS
  6
CONTINUOUS
 62
    90
100
AcDbLine
 10
344.331961
 20
34.20748
 30
0.0
 11
350.457281
 21
49.197585
 31
0.0
  0
LINE
  5
2211
100
AcDbEntity
  8
V0-OBRYS
  6
CONTINUOUS
 62
    90
100
AcDbLine
 10
342.861969
 20
49.197585
 30
0.0
 11
335.860817
 21
37.483609
 31
0.0
  0
LINE
  5
2212
100
AcDbEntity
  8
V0-OBRYS
  6
CONTINUOUS
 62
    90
100
AcDbLine
 10
407.050168
 20
113.385783
 30
0.0
 11
418.764143
 21
120.386936
 31
0.0
  0
LINE
  5
2213
100
AcDbEntity
  8
V0-OBRYS
  6
CONTINUOUS
 62
    90
100
AcDbLine
 10
422.040272
 20
111.915792
 30
0.0
 11
407.050168
 21
105.790472
 31
0.0
  0
LINE
  5
2214
100
AcDbEntity
  8
V0-OBRYS
  6
CONTINUOUS
 62
    90
100
AcDbLine
 10
407.050168
 20
99.09211
 30
0.0
 11
425.043389
 21
103.444648
 31
0.0
  0
LINE
  5
2215
100
AcDbEntity
  8
V0-OBRYS
  6
CONTINUOUS
 62
    90
100
AcDbLine
 10
426.135433
 20
93.880455
 30
0.0
 11
407.050168
 21
92.429004
 31
0.0
  0
LINE
  5
2216
100
AcDbEntity
  8
V0-OBRYS
  6
CONTINUOUS
 62
    90
100
AcDbLine
 10
426.135433
 20
84.866715
 30
0.0
 11
407.050168
 21
86.318165
 31
0.0
  0
LINE
  5
2217
100
AcDbEntity
  8
V0-OBRYS
  6
CONTINUOUS
 62
    90
100
AcDbLine
 10
407.050168
 20
79.65506
 30
0.0
 11
425.043389
 21
75.302521
 31
0.0
  0
LINE
  5
2218
100
AcDbEntity
  8
V0-OBRYS
  6
CONTINUOUS
 62
    90
100
AcDbLine
 10
422.040272
 20
66.831378
 30
0.0
 11
407.050168
 21
72.956697
 31
0.0
  0
LINE
  5
2219
100
AcDbEntity
  8
V0-OBRYS
  6
CONTINUOUS
 62
    90
100
AcDbLine
 10
407.050168
 20
65.361386
 30
0.0
 11
418.764143
 21
58.360234
 31
0.0
  0
LINE
  5
221A
100
AcDbEntity
  8
V0-VYPLNE
  6
DASHDOT
 62
    63
 48
2.0
100
AcDbLine
 10
-169.995273
 20
-407.240613
 30
0.0
 11
-26.491366
 21
-407.240613
 31
0.0
  0
LINE
  5
221B
100
AcDbEntity
  8
V0-OBRYS
  6
CONTINUOUS
 62
    90
 48
2.0
100
AcDbLine
 10
-100.125832
 20
-249.740613
 30
0.0
 11
-100.125832
 21
-407.240613
 31
0.0
  0
ARC
  5
221C
100
AcDbEntity
  8
V0-OBRYS
  6
CONTINUOUS
 62
    90
 48
2.0
100
AcDbCircle
 10
-105.125832
 20
-346.542348
 30
0.0
 40
5.0
100
AcDbArc
 50
0.0
 51
70.21797
  0
LINE
  5
221D
100
AcDbEntity
  8
V0-VYPLNE
  6
DASHED
 62
    52
100
AcDbLine
 10
-38.10123
 20
-345.578806
 30
0.0
 11
-48.184622
 21
-282.255932
 31
0.0
  0
LINE
  5
221E
100
AcDbEntity
  8
V0-VYPLNE
  6
DASHED
 62
    52
100
AcDbLine
 10
-83.150435
 20
-345.578806
 30
0.0
 11
-73.067042
 21
-282.255932
 31
0.0
  0
LINE
  5
221F
100
AcDbEntity
  8
V0-OBRYS
  6
CONTINUOUS
 62
    90
 48
2.0
100
AcDbLine
 10
-88.125832
 20
-407.240613
 30
0.0
 11
-88.125832
 21
-249.740613
 31
0.0
  0
LINE
  5
2220
100
AcDbEntity
  8
V0-OBRYS
  6
CONTINUOUS
 62
    90
 48
2.0
100
AcDbLine
 10
-35.125832
 20
-407.240613
 30
0.0
 11
-35.125832
 21
-280.240613
 31
0.0
  0
CIRCLE
  5
2221
100
AcDbEntity
  8
V0-OBRYS
  6
CONTINUOUS
 62
    90
 48
2.0
100
AcDbCircle
 10
-111.528766
 20
-483.919131
 30
0.0
 40
1.608161
  0
LINE
  5
2222
100
AcDbEntity
  8
V0-OBRYS
  6
CONTINUOUS
 62
    90
 48
2.0
100
AcDbLine
 10
-109.92042
 20
-535.889482
 30
0.0
 11
-109.92042
 21
-478.492137
 31
0.0
  0
LINE
  5
2223
100
AcDbEntity
  8
V0-OBRYS
  6
CONTINUOUS
 62
    90
 48
2.0
100
AcDbLine
 10
-108.358919
 20
-535.889482
 30
0.0
 11
-108.358919
 21
-478.492137
 31
0.0
  0
LINE
  5
2224
100
AcDbEntity
  8
V0-OBRYS
  6
CONTINUOUS
 62
    90
 48
2.0
100
AcDbLine
 10
-35.125832
 20
-407.240613
 30
0.0
 11
-35.125832
 21
-534.240613
 31
0.0
  0
LINE
  5
2225
100
AcDbEntity
  8
V0-OBRYS
  6
CONTINUOUS
 62
    90
 48
2.0
100
AcDbLine
 10
-88.125832
 20
-407.240613
 30
0.0
 11
-88.125832
 21
-564.740613
 31
0.0
  0
LINE
  5
2226
100
AcDbEntity
  8
V0-VYPLNE
  6
DASHED
 62
    52
100
AcDbLine
 10
-83.150435
 20
-468.90242
 30
0.0
 11
-73.067042
 21
-532.225294
 31
0.0
  0
LINE
  5
2227
100
AcDbEntity
  8
V0-VYPLNE
  6
DASHED
 62
    52
100
AcDbLine
 10
-38.10123
 20
-468.90242
 30
0.0
 11
-48.184622
 21
-532.225294
 31
0.0
  0
LINE
  5
2228
100
AcDbEntity
  8
V0-OBRYS
  6
CONTINUOUS
 62
    90
 48
2.0
100
AcDbLine
 10
-100.125832
 20
-564.740613
 30
0.0
 11
-100.125832
 21
-407.240613
 31
0.0
  0
LINE
  5
2229
100
AcDbEntity
  8
V0-OBRYS
  6
CONTINUOUS
 62
    90
 48
2.0
100
AcDbLine
 10
-88.125832
 20
-564.740613
 30
0.0
 11
-100.125832
 21
-564.740613
 31
0.0
  0
ARC
  5
222A
100
AcDbEntity
  8
V0-OBRYS
  6
CONTINUOUS
 62
    90
 48
2.0
100
AcDbCircle
 10
-100.913343
 20
-554.766119
 30
0.0
 40
0.787511
100
AcDbArc
 50
180.0
 51
0.0
  0
CIRCLE
  5
222B
100
AcDbEntity
  8
V0-OBRYS
  6
CONTINUOUS
 62
    90
 48
2.0
100
AcDbCircle
 10
-111.528766
 20
-519.919131
 30
0.0
 40
1.608161
  0
CIRCLE
  5
222C
100
AcDbEntity
  8
V0-OBRYS
  6
CONTINUOUS
 62
    90
 48
2.0
100
AcDbCircle
 10
-111.528766
 20
-531.919131
 30
0.0
 40
1.608161
  0
ARC
  5
222D
100
AcDbEntity
  8
V0-OBRYS
  6
CONTINUOUS
 62
    90
 48
2.0
100
AcDbCircle
 10
-104.92042
 20
-535.889482
 30
0.0
 40
5.0
100
AcDbArc
 50
180.0
 51
252.703019
  0
ARC
  5
222E
100
AcDbEntity
  8
V0-OBRYS
  6
CONTINUOUS
 62
    90
 48
2.0
100
AcDbCircle
 10
-104.92042
 20
-535.889482
 30
0.0
 40
3.438499
100
AcDbArc
 50
180.0
 51
252.703019
  0
ARC
  5
222F
100
AcDbEntity
  8
V0-OBRYS
  6
CONTINUOUS
 62
    90
 48
2.0
100
AcDbCircle
 10
-107.809946
 20
-546.722557
 30
0.0
 40
7.777532
100
AcDbArc
 50
9.512305
 51
76.109153
  0
ARC
  5
2230
100
AcDbEntity
  8
V0-OBRYS
  6
CONTINUOUS
 62
    90
 48
2.0
100
AcDbCircle
 10
-107.818671
 20
-546.761644
 30
0.0
 40
6.259529
100
AcDbArc
 50
12.215016
 51
76.966739
  0
LINE
  5
2231
100
AcDbEntity
  8
V0-OBRYS
  6
CONTINUOUS
 62
    90
 48
2.0
100
AcDbLine
 10
-101.700854
 20
-554.766119
 30
0.0
 11
-101.700854
 21
-545.437247
 31
0.0
  0
CIRCLE
  5
2232
100
AcDbEntity
  8
V0-OBRYS
  6
CONTINUOUS
 62
    90
 48
2.0
100
AcDbCircle
 10
-111.528766
 20
-495.919131
 30
0.0
 40
1.608161
  0
CIRCLE
  5
2233
100
AcDbEntity
  8
V0-OBRYS
  6
CONTINUOUS
 62
    90
 48
2.0
100
AcDbCircle
 10
-111.528766
 20
-507.919131
 30
0.0
 40
1.608161
  0
LINE
  5
2234
100
AcDbEntity
  8
V0-OBRYS
  6
CONTINUOUS
 62
    90
 48
2.0
100
AcDbLine
 10
-35.125832
 20
-534.240613
 30
0.0
 11
-67.748205
 21
-534.240613
 31
0.0
  0
LINE
  5
2235
100
AcDbEntity
  8
V0-VYPLNE
  6
DASHED
 62
    52
100
AcDbLine
 10
-48.184622
 20
-532.225294
 30
0.0
 11
-60.625832
 21
-532.225294
 31
0.0
  0
ARC
  5
2236
100
AcDbEntity
  8
V0-OBRYS
  6
CONTINUOUS
 62
    90
 48
2.0
100
AcDbCircle
 10
-67.748205
 20
-549.240613
 30
0.0
 40
15.0
100
AcDbArc
 50
90.0
 51
149.420799
  0
LINE
  5
2237
100
AcDbEntity
  8
V0-OBRYS
  6
CONTINUOUS
 62
    90
 48
2.0
100
AcDbLine
 10
-88.125832
 20
-554.240613
 30
0.0
 11
-80.662106
 21
-541.609679
 31
0.0
  0
LINE
  5
2238
100
AcDbEntity
  8
V0-VYPLNE
  6
DASHED
 62
    52
100
AcDbLine
 10
-73.067042
 20
-532.225294
 30
0.0
 11
-60.625832
 21
-532.225294
 31
0.0
  0
LINE
  5
2239
100
AcDbEntity
  8
V0-VYPLNE
  6
DASHED
 62
    52
100
AcDbLine
 10
-100.125832
 20
-460.747201
 30
0.0
 11
-85.551245
 21
-460.747201
 31
0.0
  0
LINE
  5
223A
100
AcDbEntity
  8
V0-VYPLNE
  6
DASHED
 62
    52
100
AcDbLine
 10
-100.125832
 20
-464.240613
 30
0.0
 11
-90.551245
 21
-464.240613
 31
0.0
  0
LINE
  5
223B
100
AcDbEntity
  8
V0-VYPLNE
  6
DASHED
 62
    52
100
AcDbLine
 10
-100.125832
 20
-450.673107
 30
0.0
 11
-85.551245
 21
-450.673107
 31
0.0
  0
LINE
  5
223C
100
AcDbEntity
  8
V0-VYPLNE
  6
DASHED
 62
    52
100
AcDbLine
 10
-100.125832
 20
-438.680138
 30
0.0
 11
-86.031404
 21
-438.680138
 31
0.0
  0
LINE
  5
223D
100
AcDbEntity
  8
V0-VYPLNE
  6
DASHED
 62
    52
100
AcDbLine
 10
-100.125832
 20
-427.16689
 30
0.0
 11
-85.551245
 21
-427.16689
 31
0.0
  0
LINE
  5
223E
100
AcDbEntity
  8
V0-VYPLNE
  6
DASHED
 62
    52
100
AcDbLine
 10
-100.125832
 20
-415.65364
 30
0.0
 11
-86.031404
 21
-415.65364
 31
0.0
  0
LINE
  5
223F
100
AcDbEntity
  8
V0-VYPLNE
  6
DASHED
 62
    52
100
AcDbLine
 10
-100.125832
 20
-398.827585
 30
0.0
 11
-86.031404
 21
-398.827585
 31
0.0
  0
LINE
  5
2240
100
AcDbEntity
  8
V0-VYPLNE
  6
DASHED
 62
    52
100
AcDbLine
 10
-100.125832
 20
-387.314335
 30
0.0
 11
-85.551245
 21
-387.314335
 31
0.0
  0
LINE
  5
2241
100
AcDbEntity
  8
V0-VYPLNE
  6
DASHED
 62
    52
100
AcDbLine
 10
-100.125832
 20
-375.801087
 30
0.0
 11
-86.031404
 21
-375.801087
 31
0.0
  0
LINE
  5
2242
100
AcDbEntity
  8
V0-VYPLNE
  6
DASHED
 62
    52
100
AcDbLine
 10
-100.125832
 20
-363.808119
 30
0.0
 11
-85.551245
 21
-363.808119
 31
0.0
  0
LINE
  5
2243
100
AcDbEntity
  8
V0-VYPLNE
  6
DASHED
 62
    52
100
AcDbLine
 10
-100.125832
 20
-350.240613
 30
0.0
 11
-90.551245
 21
-350.240613
 31
0.0
  0
LINE
  5
2244
100
AcDbEntity
  8
V0-VYPLNE
  6
DASHED
 62
    52
100
AcDbLine
 10
-100.125832
 20
-353.734024
 30
0.0
 11
-85.551245
 21
-353.734024
 31
0.0
  0
LINE
  5
2245
100
AcDbEntity
  8
V0-OBRYS
  6
CONTINUOUS
 62
    90
 48
2.0
100
AcDbLine
 10
-128.125832
 20
-407.240613
 30
0.0
 11
-128.125832
 21
-464.240613
 31
0.0
  0
LINE
  5
2246
100
AcDbEntity
  8
V0-OBRYS
  6
CONTINUOUS
 62
    90
 48
2.0
100
AcDbLine
 10
-147.125832
 20
-407.240613
 30
0.0
 11
-147.125832
 21
-454.240613
 31
0.0
  0
LINE
  5
2247
100
AcDbEntity
  8
V0-OBRYS
  6
CONTINUOUS
 62
    90
 48
2.0
100
AcDbLine
 10
-137.125832
 20
-464.240613
 30
0.0
 11
-100.125832
 21
-464.240613
 31
0.0
  0
LINE
  5
2248
100
AcDbEntity
  8
V0-OBRYS
  6
CONTINUOUS
 62
    90
 48
2.0
100
AcDbLine
 10
-128.285624
 20
-460.747201
 30
0.0
 11
-100.125832
 21
-460.747201
 31
0.0
  0
LINE
  5
2249
100
AcDbEntity
  8
V0-OBRYS
  6
CONTINUOUS
 62
    90
 48
2.0
100
AcDbLine
 10
-128.285624
 20
-438.680138
 30
0.0
 11
-100.125832
 21
-438.680138
 31
0.0
  0
LINE
  5
224A
100
AcDbEntity
  8
V0-OBRYS
  6
CONTINUOUS
 62
    90
 48
2.0
100
AcDbLine
 10
-128.765788
 20
-427.16689
 30
0.0
 11
-125.884818
 21
-427.16689
 31
0.0
  0
LINE
  5
224B
100
AcDbEntity
  8
V0-OBRYS
  6
CONTINUOUS
 62
    90
 48
2.0
100
AcDbLine
 10
-128.765788
 20
-415.65364
 30
0.0
 11
-100.125832
 21
-415.65364
 31
0.0
  0
LINE
  5
224C
100
AcDbEntity
  8
V0-OBRYS
  6
CONTINUOUS
 62
    90
 48
2.0
100
AcDbLine
 10
-128.765788
 20
-450.673107
 30
0.0
 11
-100.125832
 21
-450.673107
 31
0.0
  0
LINE
  5
224D
100
AcDbEntity
  8
V0-OBRYS
  6
CONTINUOUS
 62
    90
 48
2.0
100
AcDbLine
 10
-128.285624
 20
-460.747201
 30
0.0
 11
-147.011926
 21
-446.835359
 31
0.0
  0
LINE
  5
224E
100
AcDbEntity
  8
V0-OBRYS
  6
CONTINUOUS
 62
    90
 48
2.0
100
AcDbLine
 10
-128.765788
 20
-450.673107
 30
0.0
 11
-146.531766
 21
-441.078733
 31
0.0
  0
ARC
  5
224F
100
AcDbEntity
  8
V0-OBRYS
  6
CONTINUOUS
 62
    90
 48
2.0
100
AcDbCircle
 10
-137.125832
 20
-454.240613
 30
0.0
 40
10.0
100
AcDbArc
 50
180.0
 51
270.0
  0
LINE
  5
2250
100
AcDbEntity
  8
V0-OBRYS
  6
CONTINUOUS
 62
    90
 48
2.0
100
AcDbLine
 10
-128.765788
 20
-427.16689
 30
0.0
 11
-147.011926
 21
-425.248014
 31
0.0
  0
LINE
  5
2251
100
AcDbEntity
  8
V0-OBRYS
  6
CONTINUOUS
 62
    90
 48
2.0
100
AcDbLine
 10
-128.765788
 20
-415.65364
 30
0.0
 11
-147.011926
 21
-415.173922
 31
0.0
  0
LINE
  5
2252
100
AcDbEntity
  8
V0-OBRYS
  6
CONTINUOUS
 62
    90
 48
2.0
100
AcDbLine
 10
-128.285624
 20
-438.680138
 30
0.0
 11
-147.49209
 21
-434.36267
 31
0.0
  0
ARC
  5
2253
100
AcDbEntity
  8
V0-OBRYS
  6
CONTINUOUS
 62
    90
 48
2.0
100
AcDbCircle
 10
-104.92042
 20
-478.492137
 30
0.0
 40
5.0
100
AcDbArc
 50
109.78203
 51
180.0
  0
ARC
  5
2254
100
AcDbEntity
  8
V0-OBRYS
  6
CONTINUOUS
 62
    90
 48
2.0
100
AcDbCircle
 10
-105.125832
 20
-467.938877
 30
0.0
 40
6.561501
100
AcDbArc
 50
289.78203
 51
319.642674
  0
ARC
  5
2255
100
AcDbEntity
  8
V0-OBRYS
  6
CONTINUOUS
 62
    90
 48
2.0
100
AcDbCircle
 10
-105.125832
 20
-467.938877
 30
0.0
 40
5.0
100
AcDbArc
 50
289.78203
 51
0.0
  0
LINE
  5
2256
100
AcDbEntity
  8
V0-OBRYS
  6
CONTINUOUS
 62
    90
 48
2.0
100
AcDbLine
 10
-106.612634
 20
-473.787202
 30
0.0
 11
-103.433618
 21
-472.643812
 31
0.0
  0
ARC
  5
2257
100
AcDbEntity
  8
V0-OBRYS
  6
CONTINUOUS
 62
    90
 48
2.0
100
AcDbCircle
 10
-104.92042
 20
-478.492137
 30
0.0
 40
3.438499
100
AcDbArc
 50
109.78203
 51
180.0
  0
LINE
  5
2258
100
AcDbEntity
  8
V0-OBRYS
  6
CONTINUOUS
 62
    90
 48
2.0
100
AcDbLine
 10
-106.084155
 20
-475.256554
 30
0.0
 11
-102.90514
 21
-474.113164
 31
0.0
  0
LINE
  5
2259
100
AcDbEntity
  8
V0-OBRYS
  6
CONTINUOUS
 62
    90
 48
2.0
100
AcDbLine
 10
-125.884818
 20
-427.16689
 30
0.0
 11
-100.125832
 21
-427.16689
 31
0.0
  0
LINE
  5
225A
100
AcDbEntity
  8
V0-OBRYS
  6
CONTINUOUS
 62
    90
 48
2.0
100
AcDbLine
 10
-128.765788
 20
-363.808119
 30
0.0
 11
-100.125832
 21
-363.808119
 31
0.0
  0
LINE
  5
225B
100
AcDbEntity
  8
V0-OBRYS
  6
CONTINUOUS
 62
    90
 48
2.0
100
AcDbLine
 10
-128.765788
 20
-398.827585
 30
0.0
 11
-100.125832
 21
-398.827585
 31
0.0
  0
LINE
  5
225C
100
AcDbEntity
  8
V0-OBRYS
  6
CONTINUOUS
 62
    90
 48
2.0
100
AcDbLine
 10
-128.765788
 20
-387.314335
 30
0.0
 11
-125.884818
 21
-387.314335
 31
0.0
  0
LINE
  5
225D
100
AcDbEntity
  8
V0-OBRYS
  6
CONTINUOUS
 62
    90
 48
2.0
100
AcDbLine
 10
-128.285624
 20
-375.801087
 30
0.0
 11
-100.125832
 21
-375.801087
 31
0.0
  0
LINE
  5
225E
100
AcDbEntity
  8
V0-OBRYS
  6
CONTINUOUS
 62
    90
 48
2.0
100
AcDbLine
 10
-128.285624
 20
-353.734024
 30
0.0
 11
-100.125832
 21
-353.734024
 31
0.0
  0
LINE
  5
225F
100
AcDbEntity
  8
V0-OBRYS
  6
CONTINUOUS
 62
    90
 48
2.0
100
AcDbLine
 10
-137.125832
 20
-350.240613
 30
0.0
 11
-100.125832
 21
-350.240613
 31
0.0
  0
LINE
  5
2260
100
AcDbEntity
  8
V0-OBRYS
  6
CONTINUOUS
 62
    90
 48
2.0
100
AcDbLine
 10
-128.285624
 20
-375.801087
 30
0.0
 11
-147.49209
 21
-380.118556
 31
0.0
  0
LINE
  5
2261
100
AcDbEntity
  8
V0-OBRYS
  6
CONTINUOUS
 62
    90
 48
2.0
100
AcDbLine
 10
-147.125832
 20
-407.240613
 30
0.0
 11
-147.125832
 21
-360.240613
 31
0.0
  0
LINE
  5
2262
100
AcDbEntity
  8
V0-OBRYS
  6
CONTINUOUS
 62
    90
 48
2.0
100
AcDbLine
 10
-128.125832
 20
-407.240613
 30
0.0
 11
-128.125832
 21
-350.240613
 31
0.0
  0
LINE
  5
2263
100
AcDbEntity
  8
V0-OBRYS
  6
CONTINUOUS
 62
    90
 48
2.0
100
AcDbLine
 10
-128.765788
 20
-398.827585
 30
0.0
 11
-147.011926
 21
-399.307304
 31
0.0
  0
LINE
  5
2264
100
AcDbEntity
  8
V0-OBRYS
  6
CONTINUOUS
 62
    90
 48
2.0
100
AcDbLine
 10
-128.765788
 20
-387.314335
 30
0.0
 11
-147.011926
 21
-389.233211
 31
0.0
  0
LINE
  5
2265
100
AcDbEntity
  8
V0-OBRYS
  6
CONTINUOUS
 62
    90
 48
2.0
100
AcDbLine
 10
-128.765788
 20
-363.808119
 30
0.0
 11
-146.531766
 21
-373.402493
 31
0.0
  0
LINE
  5
2266
100
AcDbEntity
  8
V0-OBRYS
  6
CONTINUOUS
 62
    90
 48
2.0
100
AcDbLine
 10
-128.285624
 20
-353.734024
 30
0.0
 11
-147.011926
 21
-367.645867
 31
0.0
  0
ARC
  5
2267
100
AcDbEntity
  8
V0-OBRYS
  6
CONTINUOUS
 62
    90
 48
2.0
100
AcDbCircle
 10
-137.125832
 20
-360.240613
 30
0.0
 40
10.0
100
AcDbArc
 50
90.0
 51
180.0
  0
LINE
  5
2268
100
AcDbEntity
  8
V0-OBRYS
  6
CONTINUOUS
 62
    90
 48
2.0
100
AcDbLine
 10
-125.884818
 20
-387.314335
 30
0.0
 11
-100.125832
 21
-387.314335
 31
0.0
  0
ARC
  5
2269
100
AcDbEntity
  8
V0-VYPLNE
  6
DASHED
 62
    52
100
AcDbCircle
 10
-702.33071
 20
-400.703514
 30
0.0
 40
667.236902
100
AcDbArc
 50
354.845307
 51
359.438649
  0
LINE
  5
226A
100
AcDbEntity
  8
V0-VYPLNE
  6
DASHED
 62
    52
100
AcDbLine
 10
-85.551245
 20
-459.240613
 30
0.0
 11
-85.551245
 21
-407.240613
 31
0.0
  0
LINE
  5
226B
100
AcDbEntity
  8
V0-VYPLNE
  6
DASHED
 62
    52
100
AcDbLine
 10
-83.125832
 20
-407.240613
 30
0.0
 11
-83.125832
 21
-464.240613
 31
0.0
  0
LINE
  5
226C
100
AcDbEntity
  8
V0-VYPLNE
  6
DASHED
 62
    52
100
AcDbLine
 10
-60.625832
 20
-467.098239
 30
0.0
 11
-60.625832
 21
-407.240613
 31
0.0
  0
ARC
  5
226D
100
AcDbEntity
  8
V0-VYPLNE
  6
DASHED
 62
    52
100
AcDbCircle
 10
-60.625832
 20
-377.090656
 30
0.0
 40
90.007583
100
AcDbArc
 50
255.523734
 51
282.123858
  0
LINE
  5
226E
100
AcDbEntity
  8
V0-VYPLNE
  6
DASHED
 62
    52
 48
2.0
100
AcDbLine
 10
-79.309142
 20
-465.06467
 30
0.0
 11
-83.150435
 21
-468.90242
 31
0.0
  0
ARC
  5
226F
100
AcDbEntity
  8
V0-VYPLNE
  6
DASHED
 62
    52
 48
2.0
100
AcDbCircle
 10
-90.551245
 20
-459.240613
 30
0.0
 40
5.0
100
AcDbArc
 50
270.0
 51
0.0
  0
LINE
  5
2270
100
AcDbEntity
  8
V0-VYPLNE
  6
DASHED
 62
    52
 48
2.0
100
AcDbLine
 10
-41.942523
 20
-465.06467
 30
0.0
 11
-38.10123
 21
-468.90242
 31
0.0
  0
ARC
  5
2271
100
AcDbEntity
  8
V0-VYPLNE
  6
DASHED
 62
    52
100
AcDbCircle
 10
-42.772056
 20
-460.202218
 30
0.0
 40
5.0
100
AcDbArc
 50
282.123858
 51
354.845307
  0
CIRCLE
  5
2272
100
AcDbEntity
  8
V0-VYPLNE
  6
DASHED
 62
    52
100
AcDbCircle
 10
-60.625832
 20
-407.440654
 30
0.0
 40
4.237611
  0
LINE
  5
2273
100
AcDbEntity
  8
V0-VYPLNE
  6
DASHED
 62
    52
100
AcDbLine
 10
-82.728832
 20
-414.08498
 30
0.0
 11
-36.410806
 21
-400.161438
 31
0.0
  0
ARC
  5
2274
100
AcDbEntity
  8
V0-VYPLNE
  6
DASHED
 62
    52
100
AcDbCircle
 10
-60.625832
 20
-437.390569
 30
0.0
 40
90.007583
100
AcDbArc
 50
77.876142
 51
104.476266
  0
LINE
  5
2275
100
AcDbEntity
  8
V0-VYPLNE
  6
DASHED
 62
    52
100
AcDbLine
 10
-60.625832
 20
-347.382987
 30
0.0
 11
-60.625832
 21
-407.240613
 31
0.0
  0
LINE
  5
2276
100
AcDbEntity
  8
V0-VYPLNE
  6
DASHED
 62
    52
100
AcDbLine
 10
-83.125832
 20
-407.240613
 30
0.0
 11
-83.125832
 21
-350.240613
 31
0.0
  0
LINE
  5
2277
100
AcDbEntity
  8
V0-VYPLNE
  6
DASHED
 62
    52
100
AcDbLine
 10
-85.551245
 20
-355.240613
 30
0.0
 11
-85.551245
 21
-407.240613
 31
0.0
  0
ARC
  5
2278
100
AcDbEntity
  8
V0-VYPLNE
  6
DASHED
 62
    52
 48
2.0
100
AcDbCircle
 10
-90.551245
 20
-355.240613
 30
0.0
 40
5.0
100
AcDbArc
 50
0.0
 51
90.0
  0
LINE
  5
2279
100
AcDbEntity
  8
V0-VYPLNE
  6
DASHED
 62
    52
 48
2.0
100
AcDbLine
 10
-79.309142
 20
-349.416556
 30
0.0
 11
-83.150435
 21
-345.578806
 31
0.0
  0
ARC
  5
227A
100
AcDbEntity
  8
V0-VYPLNE
  6
DASHED
 62
    52
100
AcDbCircle
 10
-702.33071
 20
-413.777712
 30
0.0
 40
667.236902
100
AcDbArc
 50
0.561351
 51
5.154693
  0
ARC
  5
227B
100
AcDbEntity
  8
V0-VYPLNE
  6
DASHED
 62
    52
100
AcDbCircle
 10
-42.772056
 20
-354.279007
 30
0.0
 40
5.0
100
AcDbArc
 50
5.154693
 51
77.876142
  0
LINE
  5
227C
100
AcDbEntity
  8
V0-VYPLNE
  6
DASHED
 62
    52
 48
2.0
100
AcDbLine
 10
-41.942523
 20
-349.416556
 30
0.0
 11
-38.10123
 21
-345.578806
 31
0.0
  0
LINE
  5
227D
100
AcDbEntity
  8
V0-OBRYS
  6
CONTINUOUS
 62
    90
 48
2.0
100
AcDbLine
 10
-88.125832
 20
-249.740613
 30
0.0
 11
-100.125832
 21
-249.740613
 31
0.0
  0
ARC
  5
227E
100
AcDbEntity
  8
V0-OBRYS
  6
CONTINUOUS
 62
    90
 48
2.0
100
AcDbCircle
 10
-107.818671
 20
-267.719582
 30
0.0
 40
6.259529
100
AcDbArc
 50
283.033261
 51
347.784984
  0
ARC
  5
227F
100
AcDbEntity
  8
V0-OBRYS
  6
CONTINUOUS
 62
    90
 48
2.0
100
AcDbCircle
 10
-107.809946
 20
-267.758669
 30
0.0
 40
7.777532
100
AcDbArc
 50
283.890847
 51
350.487695
  0
ARC
  5
2280
100
AcDbEntity
  8
V0-OBRYS
  6
CONTINUOUS
 62
    90
 48
2.0
100
AcDbCircle
 10
-104.92042
 20
-278.591744
 30
0.0
 40
5.0
100
AcDbArc
 50
107.296981
 51
180.0
  0
LINE
  5
2281
100
AcDbEntity
  8
V0-OBRYS
  6
CONTINUOUS
 62
    90
 48
2.0
100
AcDbLine
 10
-108.358919
 20
-278.591744
 30
0.0
 11
-108.358919
 21
-335.989089
 31
0.0
  0
LINE
  5
2282
100
AcDbEntity
  8
V0-OBRYS
  6
CONTINUOUS
 62
    90
 48
2.0
100
AcDbLine
 10
-109.92042
 20
-278.591744
 30
0.0
 11
-109.92042
 21
-335.989089
 31
0.0
  0
CIRCLE
  5
2283
100
AcDbEntity
  8
V0-OBRYS
  6
CONTINUOUS
 62
    90
 48
2.0
100
AcDbCircle
 10
-111.4585
 20
-318.562094
 30
0.0
 40
1.608161
  0
CIRCLE
  5
2284
100
AcDbEntity
  8
V0-OBRYS
  6
CONTINUOUS
 62
    90
 48
2.0
100
AcDbCircle
 10
-111.4585
 20
-330.562094
 30
0.0
 40
1.608161
  0
ARC
  5
2285
100
AcDbEntity
  8
V0-OBRYS
  6
CONTINUOUS
 62
    90
 48
2.0
100
AcDbCircle
 10
-104.92042
 20
-335.989089
 30
0.0
 40
5.0
100
AcDbArc
 50
180.0
 51
250.21797
  0
ARC
  5
2286
100
AcDbEntity
  8
V0-OBRYS
  6
CONTINUOUS
 62
    90
 48
2.0
100
AcDbCircle
 10
-105.125832
 20
-346.542348
 30
0.0
 40
6.561501
100
AcDbArc
 50
40.357326
 51
70.21797
  0
LINE
  5
2287
100
AcDbEntity
  8
V0-OBRYS
  6
CONTINUOUS
 62
    90
 48
2.0
100
AcDbLine
 10
-106.084155
 20
-339.224672
 30
0.0
 11
-102.90514
 21
-340.368062
 31
0.0
  0
ARC
  5
2288
100
AcDbEntity
  8
V0-OBRYS
  6
CONTINUOUS
 62
    90
 48
2.0
100
AcDbCircle
 10
-104.92042
 20
-335.989089
 30
0.0
 40
3.438499
100
AcDbArc
 50
180.0
 51
250.21797
  0
LINE
  5
2289
100
AcDbEntity
  8
V0-OBRYS
  6
CONTINUOUS
 62
    90
 48
2.0
100
AcDbLine
 10
-106.612634
 20
-340.694024
 30
0.0
 11
-103.433618
 21
-341.837414
 31
0.0
  0
CIRCLE
  5
228A
100
AcDbEntity
  8
V0-OBRYS
  6
CONTINUOUS
 62
    90
 48
2.0
100
AcDbCircle
 10
-111.4585
 20
-282.562094
 30
0.0
 40
1.608161
  0
CIRCLE
  5
228B
100
AcDbEntity
  8
V0-OBRYS
  6
CONTINUOUS
 62
    90
 48
2.0
100
AcDbCircle
 10
-111.4585
 20
-294.562094
 30
0.0
 40
1.608161
  0
CIRCLE
  5
228C
100
AcDbEntity
  8
V0-OBRYS
  6
CONTINUOUS
 62
    90
 48
2.0
100
AcDbCircle
 10
-111.4585
 20
-306.562094
 30
0.0
 40
1.608161
  0
ARC
  5
228D
100
AcDbEntity
  8
V0-OBRYS
  6
CONTINUOUS
 62
    90
 48
2.0
100
AcDbCircle
 10
-104.92042
 20
-278.591744
 30
0.0
 40
3.438499
100
AcDbArc
 50
107.296981
 51
180.0
  0
ARC
  5
228E
100
AcDbEntity
  8
V0-OBRYS
  6
CONTINUOUS
 62
    90
 48
2.0
100
AcDbCircle
 10
-100.913343
 20
-259.715107
 30
0.0
 40
0.787511
100
AcDbArc
 50
0.0
 51
180.0
  0
LINE
  5
228F
100
AcDbEntity
  8
V0-OBRYS
  6
CONTINUOUS
 62
    90
 48
2.0
100
AcDbLine
 10
-101.700854
 20
-259.715107
 30
0.0
 11
-101.700854
 21
-269.043979
 31
0.0
  0
ARC
  5
2290
100
AcDbEntity
  8
V0-OBRYS
  6
CONTINUOUS
 62
    90
 48
2.0
100
AcDbCircle
 10
-67.748205
 20
-265.240613
 30
0.0
 40
15.0
100
AcDbArc
 50
210.579201
 51
270.0
  0
LINE
  5
2291
100
AcDbEntity
  8
V0-VYPLNE
  6
DASHED
 62
    52
100
AcDbLine
 10
-48.184622
 20
-282.255932
 30
0.0
 11
-60.625832
 21
-282.255932
 31
0.0
  0
LINE
  5
2292
100
AcDbEntity
  8
V0-OBRYS
  6
CONTINUOUS
 62
    90
 48
2.0
100
AcDbLine
 10
-35.125832
 20
-280.240613
 30
0.0
 11
-67.748205
 21
-280.240613
 31
0.0
  0
LINE
  5
2293
100
AcDbEntity
  8
V0-VYPLNE
  6
DASHED
 62
    52
100
AcDbLine
 10
-73.067042
 20
-282.255932
 30
0.0
 11
-60.625832
 21
-282.255932
 31
0.0
  0
LINE
  5
2294
100
AcDbEntity
  8
V0-OBRYS
  6
CONTINUOUS
 62
    90
 48
2.0
100
AcDbLine
 10
-88.125832
 20
-260.240613
 30
0.0
 11
-80.662106
 21
-272.871547
 31
0.0
  0
ARC
  5
2298
100
AcDbEntity
  8
V0-OBRYS
  6
CONTINUOUS
 62
    90
100
AcDbCircle
 10
366.874168
 20
89.373585
 30
0.0
 40
47.010931
100
AcDbArc
 50
148.716649
 51
211.283351
  0
CIRCLE
  5
2299
100
AcDbEntity
  8
V0-OBRYS
  6
CONTINUOUS
 62
    90
100
AcDbCircle
 10
366.874168
 20
89.373585
 30
0.0
 40
67.10745
  0
CIRCLE
  5
229A
100
AcDbEntity
  8
V0-OBRYS
  6
CONTINUOUS
 62
    90
100
AcDbCircle
 10
366.874168
 20
89.373585
 30
0.0
 40
84.768026
  0
CIRCLE
  5
229B
100
AcDbEntity
  8
V0-OBRYS
  6
CONTINUOUS
 62
    90
100
AcDbCircle
 10
366.874168
 20
89.373585
 30
0.0
 40
103.037588
  0
CIRCLE
  5
229C
100
AcDbEntity
  8
V0-OBRYS
  6
CONTINUOUS
 62
    90
100
AcDbCircle
 10
366.874168
 20
89.373585
 30
0.0
 40
121.916138
  0
CIRCLE
  5
229D
100
AcDbEntity
  8
V0-OBRYS
  6
CONTINUOUS
 62
    90
100
AcDbCircle
 10
366.874168
 20
89.373585
 30
0.0
 40
138.358744
  0
CIRCLE
  5
229E
100
AcDbEntity
  8
V0-OBRYS
  6
CONTINUOUS
 62
    90
100
AcDbCircle
 10
366.874168
 20
89.373585
 30
0.0
 40
136.797244
  0
CIRCLE
  5
229F
100
AcDbEntity
  8
V0-OBRYS
  6
CONTINUOUS
 62
    90
100
AcDbCircle
 10
366.874168
 20
89.373585
 30
0.0
 40
120.354637
  0
CIRCLE
  5
22A0
100
AcDbEntity
  8
V0-OBRYS
  6
CONTINUOUS
 62
    90
100
AcDbCircle
 10
366.874168
 20
89.373585
 30
0.0
 40
101.476088
  0
CIRCLE
  5
22A1
100
AcDbEntity
  8
V0-OBRYS
  6
CONTINUOUS
 62
    90
100
AcDbCircle
 10
366.874168
 20
89.373585
 30
0.0
 40
83.206525
  0
CIRCLE
  5
22A2
100
AcDbEntity
  8
V0-OBRYS
  6
CONTINUOUS
 62
    90
100
AcDbCircle
 10
366.874168
 20
89.373585
 30
0.0
 40
65.545949
  0
ARC
  5
22A3
100
AcDbEntity
  8
V0-OBRYS
  6
CONTINUOUS
 62
    90
100
AcDbCircle
 10
366.874168
 20
89.373585
 30
0.0
 40
47.010931
100
AcDbArc
 50
58.716649
 51
121.283351
  0
ARC
  5
22A4
100
AcDbEntity
  8
V0-OBRYS
  6
CONTINUOUS
 62
    90
100
AcDbCircle
 10
366.874168
 20
89.373585
 30
0.0
 40
47.010931
100
AcDbArc
 50
328.716649
 51
31.283351
  0
ARC
  5
22A5
100
AcDbEntity
  8
V0-OBRYS
  6
CONTINUOUS
 62
    90
100
AcDbCircle
 10
366.874168
 20
89.373585
 30
0.0
 40
47.010931
100
AcDbArc
 50
238.716649
 51
301.283351
  0
LINE
  5
2308
100
AcDbEntity
  8
V0-OBRYS
  6
CONTINUOUS
 62
    90
100
AcDbLine
 10
349.158009
 20
213.111767
 30
0.0
 11
348.95874
 21
209.966213
 31
0.0
  0
LINE
  5
2309
100
AcDbEntity
  8
V0-OBRYS
  6
CONTINUOUS
 62
    90
100
AcDbLine
 10
344.370996
 20
137.546715
 30
0.0
 11
349.758175
 21
133.958574
 31
0.0
  0
LINE
  5
230A
100
AcDbEntity
  8
V0-OBRYS
  6
CONTINUOUS
 62
    90
100
AcDbLine
 10
348.857754
 20
208.372104
 30
0.0
 11
347.733017
 21
190.617651
 31
0.0
  0
LINE
  5
230B
100
AcDbEntity
  8
V0-OBRYS
  6
CONTINUOUS
 62
    90
100
AcDbLine
 10
345.238834
 20
151.245903
 30
0.0
 11
344.370996
 21
137.546715
 31
0.0
  0
LINE
  5
230C
100
AcDbEntity
  8
V0-OBRYS
  6
CONTINUOUS
 62
    90
100
AcDbLine
 10
346.42874
 20
170.029089
 30
0.0
 11
345.34578
 21
152.934094
 31
0.0
  0
LINE
  5
230D
100
AcDbEntity
  8
V0-OBRYS
  6
CONTINUOUS
 62
    90
100
AcDbLine
 10
347.631073
 20
189.008416
 30
0.0
 11
346.532356
 21
171.664707
 31
0.0
  0
LINE
  5
230F
100
AcDbEntity
  8
V0-OBRYS
  6
CONTINUOUS
 62
    90
100
AcDbLine
 10
384.590326
 20
213.111767
 30
0.0
 11
384.789595
 21
209.966213
 31
0.0
  0
LINE
  5
2310
100
AcDbEntity
  8
V0-OBRYS
  6
CONTINUOUS
 62
    90
100
AcDbLine
 10
384.890582
 20
208.372104
 30
0.0
 11
386.015318
 21
190.617651
 31
0.0
  0
LINE
  5
2311
100
AcDbEntity
  8
V0-OBRYS
  6
CONTINUOUS
 62
    90
100
AcDbLine
 10
386.117263
 20
189.008416
 30
0.0
 11
387.215979
 21
171.664707
 31
0.0
  0
LINE
  5
2312
100
AcDbEntity
  8
V0-OBRYS
  6
CONTINUOUS
 62
    90
100
AcDbLine
 10
387.319595
 20
170.029089
 30
0.0
 11
388.402555
 21
152.934094
 31
0.0
  0
LINE
  5
2313
100
AcDbEntity
  8
V0-OBRYS
  6
CONTINUOUS
 62
    90
100
AcDbLine
 10
389.377339
 20
137.546715
 30
0.0
 11
383.990161
 21
133.958574
 31
0.0
  0
LINE
  5
2314
100
AcDbEntity
  8
V0-OBRYS
  6
CONTINUOUS
 62
    90
100
AcDbLine
 10
388.509501
 20
151.245903
 30
0.0
 11
389.377339
 21
137.546715
 31
0.0
  0
LINE
  5
2316
100
AcDbEntity
  8
V0-OBRYS
  6
CONTINUOUS
 62
    90
100
AcDbLine
 10
315.1804
 20
101.815352
 30
0.0
 11
321.344572
 21
103.790049
 31
0.0
  0
LINE
  5
2317
100
AcDbEntity
  8
V0-OBRYS
  6
CONTINUOUS
 62
    90
100
AcDbLine
 10
305.011031
 20
111.035159
 30
0.0
 11
315.1804
 21
101.815352
 31
0.0
  0
LINE
  5
2318
100
AcDbEntity
  8
V0-OBRYS
  6
CONTINUOUS
 62
    90
100
AcDbLine
 10
259.085917
 20
152.672029
 30
0.0
 11
261.420968
 21
150.555013
 31
0.0
  0
LINE
  5
2319
100
AcDbEntity
  8
V0-OBRYS
  6
CONTINUOUS
 62
    90
100
AcDbLine
 10
276.978646
 20
136.450028
 30
0.0
 11
289.853465
 21
124.777392
 31
0.0
  0
LINE
  5
231A
100
AcDbEntity
  8
V0-OBRYS
  6
CONTINUOUS
 62
    90
100
AcDbLine
 10
291.06764
 20
123.67659
 30
0.0
 11
303.75783
 21
112.171343
 31
0.0
  0
LINE
  5
231B
100
AcDbEntity
  8
V0-OBRYS
  6
CONTINUOUS
 62
    90
100
AcDbLine
 10
262.604329
 20
149.482148
 30
0.0
 11
275.784057
 21
137.533073
 31
0.0
  0
LINE
  5
231D
100
AcDbEntity
  8
V0-OBRYS
  6
CONTINUOUS
 62
    90
100
AcDbLine
 10
343.241396
 20
137.002728
 30
0.0
 11
342.687866
 21
130.553693
 31
0.0
  0
LINE
  5
231E
100
AcDbEntity
  8
V0-OBRYS
  6
CONTINUOUS
 62
    90
100
AcDbLine
 10
331.989851
 20
144.865529
 30
0.0
 11
343.241396
 21
137.002728
 31
0.0
  0
LINE
  5
231F
100
AcDbEntity
  8
V0-OBRYS
  6
CONTINUOUS
 62
    90
100
AcDbLine
 10
281.177605
 20
180.37413
 30
0.0
 11
283.761141
 21
178.568704
 31
0.0
  0
LINE
  5
2320
100
AcDbEntity
  8
V0-OBRYS
  6
CONTINUOUS
 62
    90
100
AcDbLine
 10
300.974393
 20
166.539744
 30
0.0
 11
315.219289
 21
156.585129
 31
0.0
  0
LINE
  5
2321
100
AcDbEntity
  8
V0-OBRYS
  6
CONTINUOUS
 62
    90
100
AcDbLine
 10
316.562671
 20
155.646347
 30
0.0
 11
330.603291
 21
145.834485
 31
0.0
  0
LINE
  5
2322
100
AcDbEntity
  8
V0-OBRYS
  6
CONTINUOUS
 62
    90
100
AcDbLine
 10
285.07043
 20
177.653747
 30
0.0
 11
299.652682
 21
167.463382
 31
0.0
  0
LINE
  5
2324
100
AcDbEntity
  8
V0-OBRYS
  6
CONTINUOUS
 62
    90
100
AcDbLine
 10
324.916265
 20
56.715085
 30
0.0
 11
327.215683
 21
62.765632
 31
0.0
  0
LINE
  5
2325
100
AcDbEntity
  8
V0-OBRYS
  6
CONTINUOUS
 62
    90
100
AcDbLine
 10
311.367432
 20
54.512808
 30
0.0
 11
324.916265
 21
56.715085
 31
0.0
  0
LINE
  5
2326
100
AcDbEntity
  8
V0-OBRYS
  6
CONTINUOUS
 62
    90
100
AcDbLine
 10
250.180576
 20
44.567271
 30
0.0
 11
253.291606
 21
45.07295
 31
0.0
  0
LINE
  5
2327
100
AcDbEntity
  8
V0-OBRYS
  6
CONTINUOUS
 62
    90
100
AcDbLine
 10
274.019381
 20
48.442118
 30
0.0
 11
291.172734
 21
51.230287
 31
0.0
  0
LINE
  5
2328
100
AcDbEntity
  8
V0-OBRYS
  6
CONTINUOUS
 62
    90
100
AcDbLine
 10
292.790401
 20
51.493229
 30
0.0
 11
309.69777
 21
54.241415
 31
0.0
  0
LINE
  5
2329
100
AcDbEntity
  8
V0-OBRYS
  6
CONTINUOUS
 62
    90
100
AcDbLine
 10
254.868219
 20
45.329218
 30
0.0
 11
272.427808
 21
48.183418
 31
0.0
  0
LINE
  5
232B
100
AcDbEntity
  8
V0-OBRYS
  6
CONTINUOUS
 62
    90
100
AcDbLine
 10
314.901412
 20
100.593025
 30
0.0
 11
319.59835
 21
96.13935
 31
0.0
  0
LINE
  5
232C
100
AcDbEntity
  8
V0-OBRYS
  6
CONTINUOUS
 62
    90
100
AcDbLine
 10
301.738803
 20
96.698589
 30
0.0
 11
314.901412
 21
100.593025
 31
0.0
  0
LINE
  5
232D
100
AcDbEntity
  8
V0-OBRYS
  6
CONTINUOUS
 62
    90
100
AcDbLine
 10
242.296144
 20
79.111226
 30
0.0
 11
245.31849
 21
80.005451
 31
0.0
  0
LINE
  5
232E
100
AcDbEntity
  8
V0-OBRYS
  6
CONTINUOUS
 62
    90
100
AcDbLine
 10
265.455398
 20
85.963379
 30
0.0
 11
282.119776
 21
90.893887
 31
0.0
  0
LINE
  5
232F
100
AcDbEntity
  8
V0-OBRYS
  6
CONTINUOUS
 62
    90
100
AcDbLine
 10
283.69133
 20
91.358864
 30
0.0
 11
300.116736
 21
96.218667
 31
0.0
  0
LINE
  5
2330
100
AcDbEntity
  8
V0-OBRYS
  6
CONTINUOUS
 62
    90
100
AcDbLine
 10
246.850161
 20
80.458628
 30
0.0
 11
263.909195
 21
85.505903
 31
0.0
  0
LINE
  5
2332
100
AcDbEntity
  8
V0-OBRYS
  6
CONTINUOUS
 62
    90
100
AcDbLine
 10
366.247287
 20
36.207334
 30
0.0
 11
362.950442
 21
41.777546
 31
0.0
  0
LINE
  5
2333
100
AcDbEntity
  8
V0-OBRYS
  6
CONTINUOUS
 62
    90
100
AcDbLine
 10
359.521537
 20
24.241333
 30
0.0
 11
366.247287
 21
36.207334
 31
0.0
  0
LINE
  5
2335
100
AcDbEntity
  8
V0-OBRYS
  6
CONTINUOUS
 62
    90
100
AcDbLine
 10
340.981664
 20
-8.743563
 30
0.0
 11
349.496727
 21
6.405864
 31
0.0
  0
LINE
  5
2336
100
AcDbEntity
  8
V0-OBRYS
  6
CONTINUOUS
 62
    90
100
AcDbLine
 10
350.299749
 20
7.834548
 30
0.0
 11
358.692703
 21
22.766727
 31
0.0
  0
LINE
  5
2337
100
AcDbEntity
  8
V0-OBRYS
  6
CONTINUOUS
 62
    90
100
AcDbLine
 10
329.14789
 20
-29.797418
 30
0.0
 11
330.69223
 21
-27.049832
 31
0.0
  0
LINE
  5
2339
100
AcDbEntity
  8
V0-OBRYS
  6
CONTINUOUS
 62
    90
100
AcDbLine
 10
325.697973
 20
55.734854
 30
0.0
 11
332.108489
 21
56.630248
 31
0.0
  0
LINE
  5
233A
100
AcDbEntity
  8
V0-OBRYS
  6
CONTINUOUS
 62
    90
100
AcDbLine
 10
320.536013
 20
43.015772
 30
0.0
 11
325.697973
 21
55.734854
 31
0.0
  0
LINE
  5
233B
100
AcDbEntity
  8
V0-OBRYS
  6
CONTINUOUS
 62
    90
100
AcDbLine
 10
297.224475
 20
-14.423912
 30
0.0
 11
298.409744
 21
-11.503407
 31
0.0
  0
LINE
  5
233C
100
AcDbEntity
  8
V0-OBRYS
  6
CONTINUOUS
 62
    90
100
AcDbLine
 10
306.306805
 20
7.954969
 30
0.0
 11
312.842049
 21
24.057826
 31
0.0
  0
LINE
  5
233D
100
AcDbEntity
  8
V0-OBRYS
  6
CONTINUOUS
 62
    90
100
AcDbLine
 10
313.458363
 20
25.576425
 30
0.0
 11
319.899889
 21
41.448362
 31
0.0
  0
LINE
  5
233E
100
AcDbEntity
  8
V0-OBRYS
  6
CONTINUOUS
 62
    90
100
AcDbLine
 10
299.010417
 20
-10.023347
 30
0.0
 11
305.700433
 21
6.460867
 31
0.0
  0
LINE
  5
2340
100
AcDbEntity
  8
V0-OBRYS
  6
CONTINUOUS
 62
    90
100
AcDbLine
 10
408.050362
 20
55.734854
 30
0.0
 11
401.639846
 21
56.630248
 31
0.0
  0
LINE
  5
2341
100
AcDbEntity
  8
V0-OBRYS
  6
CONTINUOUS
 62
    90
100
AcDbLine
 10
413.212323
 20
43.015772
 30
0.0
 11
408.050362
 21
55.734854
 31
0.0
  0
LINE
  5
2342
100
AcDbEntity
  8
V0-OBRYS
  6
CONTINUOUS
 62
    90
100
AcDbLine
 10
436.52386
 20
-14.423912
 30
0.0
 11
435.338591
 21
-11.503407
 31
0.0
  0
LINE
  5
2343
100
AcDbEntity
  8
V0-OBRYS
  6
CONTINUOUS
 62
    90
100
AcDbLine
 10
427.441531
 20
7.954969
 30
0.0
 11
420.906287
 21
24.057826
 31
0.0
  0
LINE
  5
2344
100
AcDbEntity
  8
V0-OBRYS
  6
CONTINUOUS
 62
    90
100
AcDbLine
 10
420.289973
 20
25.576425
 30
0.0
 11
413.848446
 21
41.448362
 31
0.0
  0
LINE
  5
2345
100
AcDbEntity
  8
V0-OBRYS
  6
CONTINUOUS
 62
    90
100
AcDbLine
 10
434.737918
 20
-10.023347
 30
0.0
 11
428.047903
 21
6.460867
 31
0.0
  0
LINE
  5
2347
100
AcDbEntity
  8
V0-OBRYS
  6
CONTINUOUS
 62
    90
100
AcDbLine
 10
367.501049
 20
36.207334
 30
0.0
 11
370.797893
 21
41.777546
 31
0.0
  0
LINE
  5
2348
100
AcDbEntity
  8
V0-OBRYS
  6
CONTINUOUS
 62
    90
100
AcDbLine
 10
374.226798
 20
24.241333
 30
0.0
 11
367.501049
 21
36.207334
 31
0.0
  0
LINE
  5
2349
100
AcDbEntity
  8
V0-OBRYS
  6
CONTINUOUS
 62
    90
100
AcDbLine
 10
404.600446
 20
-29.797418
 30
0.0
 11
403.056106
 21
-27.049832
 31
0.0
  0
LINE
  5
234A
100
AcDbEntity
  8
V0-OBRYS
  6
CONTINUOUS
 62
    90
100
AcDbLine
 10
392.766671
 20
-8.743563
 30
0.0
 11
384.251609
 21
6.405864
 31
0.0
  0
LINE
  5
234B
100
AcDbEntity
  8
V0-OBRYS
  6
CONTINUOUS
 62
    90
100
AcDbLine
 10
383.448586
 20
7.834548
 30
0.0
 11
375.055632
 21
22.766727
 31
0.0
  0
LINE
  5
234C
100
AcDbEntity
  8
V0-OBRYS
  6
CONTINUOUS
 62
    90
100
AcDbLine
 10
402.273462
 20
-25.657405
 30
0.0
 11
393.556741
 21
-10.149201
 31
0.0
  0
LINE
  5
234E
100
AcDbEntity
  8
V0-OBRYS
  6
CONTINUOUS
 62
    90
100
AcDbLine
 10
418.846924
 20
100.593025
 30
0.0
 11
414.149985
 21
96.13935
 31
0.0
  0
LINE
  5
234F
100
AcDbEntity
  8
V0-OBRYS
  6
CONTINUOUS
 62
    90
100
AcDbLine
 10
432.009532
 20
96.698589
 30
0.0
 11
418.846924
 21
100.593025
 31
0.0
  0
LINE
  5
2351
100
AcDbEntity
  8
V0-OBRYS
  6
CONTINUOUS
 62
    90
100
AcDbLine
 10
468.292938
 20
85.963379
 30
0.0
 11
451.628559
 21
90.893887
 31
0.0
  0
LINE
  5
2352
100
AcDbEntity
  8
V0-OBRYS
  6
CONTINUOUS
 62
    90
100
AcDbLine
 10
450.057005
 20
91.358864
 30
0.0
 11
433.631599
 21
96.218667
 31
0.0
  0
LINE
  5
2353
100
AcDbEntity
  8
V0-OBRYS
  6
CONTINUOUS
 62
    90
100
AcDbLine
 10
491.452191
 20
79.111226
 30
0.0
 11
488.429845
 21
80.005451
 31
0.0
  0
LINE
  5
2355
100
AcDbEntity
  8
V0-OBRYS
  6
CONTINUOUS
 62
    90
100
AcDbLine
 10
408.83207
 20
56.715085
 30
0.0
 11
406.532652
 21
62.765632
 31
0.0
  0
LINE
  5
2356
100
AcDbEntity
  8
V0-OBRYS
  6
CONTINUOUS
 62
    90
100
AcDbLine
 10
422.380903
 20
54.512808
 30
0.0
 11
408.83207
 21
56.715085
 31
0.0
  0
LINE
  5
2357
100
AcDbEntity
  8
V0-OBRYS
  6
CONTINUOUS
 62
    90
100
AcDbLine
 10
483.567759
 20
44.567271
 30
0.0
 11
480.45673
 21
45.07295
 31
0.0
  0
LINE
  5
2358
100
AcDbEntity
  8
V0-OBRYS
  6
CONTINUOUS
 62
    90
100
AcDbLine
 10
459.728955
 20
48.442118
 30
0.0
 11
442.575601
 21
51.230287
 31
0.0
  0
LINE
  5
2359
100
AcDbEntity
  8
V0-OBRYS
  6
CONTINUOUS
 62
    90
100
AcDbLine
 10
440.957934
 20
51.493229
 30
0.0
 11
424.050565
 21
54.241415
 31
0.0
  0
LINE
  5
235A
100
AcDbEntity
  8
V0-OBRYS
  6
CONTINUOUS
 62
    90
100
AcDbLine
 10
478.880116
 20
45.329218
 30
0.0
 11
461.320527
 21
48.183418
 31
0.0
  0
LINE
  5
235C
100
AcDbEntity
  8
V0-OBRYS
  6
CONTINUOUS
 62
    90
100
AcDbLine
 10
390.50694
 20
137.002728
 30
0.0
 11
391.060469
 21
130.553693
 31
0.0
  0
LINE
  5
235D
100
AcDbEntity
  8
V0-OBRYS
  6
CONTINUOUS
 62
    90
100
AcDbLine
 10
401.758484
 20
144.865529
 30
0.0
 11
390.50694
 21
137.002728
 31
0.0
  0
LINE
  5
235F
100
AcDbEntity
  8
V0-OBRYS
  6
CONTINUOUS
 62
    90
100
AcDbLine
 10
432.773942
 20
166.539744
 30
0.0
 11
418.529046
 21
156.585129
 31
0.0
  0
LINE
  5
2360
100
AcDbEntity
  8
V0-OBRYS
  6
CONTINUOUS
 62
    90
100
AcDbLine
 10
417.185665
 20
155.646347
 30
0.0
 11
403.145045
 21
145.834485
 31
0.0
  0
LINE
  5
2361
100
AcDbEntity
  8
V0-OBRYS
  6
CONTINUOUS
 62
    90
100
AcDbLine
 10
452.57073
 20
180.37413
 30
0.0
 11
449.987195
 21
178.568704
 31
0.0
  0
LINE
  5
2363
100
AcDbEntity
  8
V0-OBRYS
  6
CONTINUOUS
 62
    90
100
AcDbLine
 10
418.567935
 20
101.815352
 30
0.0
 11
412.403763
 21
103.790049
 31
0.0
  0
LINE
  5
2364
100
AcDbEntity
  8
V0-OBRYS
  6
CONTINUOUS
 62
    90
100
AcDbLine
 10
428.737304
 20
111.035159
 30
0.0
 11
418.567935
 21
101.815352
 31
0.0
  0
LINE
  5
2366
100
AcDbEntity
  8
V0-OBRYS
  6
CONTINUOUS
 62
    90
100
AcDbLine
 10
456.769689
 20
136.450028
 30
0.0
 11
443.89487
 21
124.777392
 31
0.0
  0
LINE
  5
2367
100
AcDbEntity
  8
V0-OBRYS
  6
CONTINUOUS
 62
    90
100
AcDbLine
 10
442.680695
 20
123.67659
 30
0.0
 11
429.990505
 21
112.171343
 31
0.0
  0
LINE
  5
2368
100
AcDbEntity
  8
V0-OBRYS
  6
CONTINUOUS
 62
    90
100
AcDbLine
 10
474.662418
 20
152.672029
 30
0.0
 11
472.327368
 21
150.555013
 31
0.0
  0
DIMENSION
  5
2375
100
AcDbEntity
  8
V0-VYPLNE
  6
CONTINUOUS
 62
    41
100
AcDbDimension
  2
*D1
 10
8.343768
 20
-37.626415
 30
0.0
 11
-3.6582
 21
89.373585
 31
0.0
 70
    32
  1
%%c<>
  3
ED20
100
AcDbAlignedDimension
 13
-35.125832
 23
216.373585
 33
0.0
 14
-35.125832
 24
-37.626415
 34
0.0
 50
90.0
100
AcDbRotatedDimension
  0
DIMENSION
  5
2382
100
AcDbEntity
  8
V0-VYPLNE
  6
CONTINUOUS
 62
    41
100
AcDbDimension
  2
*D2
 10
38.699352
 20
-57.626415
 30
0.0
 11
26.697383
 21
89.373585
 31
0.0
 70
    32
  1
%%c<>
  3
ED20
100
AcDbAlignedDimension
 13
-88.125832
 23
236.373585
 33
0.0
 14
-88.125832
 24
-57.626415
 34
0.0
 50
90.0
100
AcDbRotatedDimension
  0
DIMENSION
  5
238F
100
AcDbEntity
  8
V0-VYPLNE
  6
CONTINUOUS
 62
    41
100
AcDbDimension
  2
*D3
 10
-225.767301
 20
32.373585
 30
0.0
 11
-225.767301
 21
89.373585
 31
0.0
 70
   160
  1
%%c<>
  3
ED20
100
AcDbAlignedDimension
 13
-128.125832
 23
146.373585
 33
0.0
 14
-128.125832
 24
32.373585
 34
0.0
 50
90.0
100
AcDbRotatedDimension
  0
DIMENSION
  5
239C
100
AcDbEntity
  8
V0-VYPLNE
  6
CONTINUOUS
 62
    41
100
AcDbDimension
  2
*D4
 10
524.294168
 20
-132.48423
 30
0.0
 11
365.021851
 21
-132.48423
 31
0.0
 70
   160
  3
ED20
100
AcDbAlignedDimension
 13
209.454168
 23
-64.646415
 33
0.0
 14
524.294168
 24
-64.646415
 34
0.0
100
AcDbRotatedDimension
  0
CIRCLE
  5
23C2
100
AcDbEntity
  8
V0-OBRYS
  6
CONTINUOUS
 62
    90
100
AcDbCircle
 10
497.014168
 20
-40.766415
 30
0.0
 40
5.58
  0
ARC
  5
23C3
100
AcDbEntity
  8
V0-VYPLNE
100
AcDbCircle
 10
367.409077
 20
83.47554
 30
0.0
 40
181.579742
100
AcDbArc
 50
312.153029
 51
322.398921
  0
CIRCLE
  5
23C4
100
AcDbEntity
  8
V0-OBRYS
  6
CONTINUOUS
 62
    90
100
AcDbCircle
 10
497.014168
 20
219.513585
 30
0.0
 40
5.58
  0
ARC
  5
23C5
100
AcDbEntity
  8
V0-VYPLNE
100
AcDbCircle
 10
372.772212
 20
89.908494
 30
0.0
 40
181.579742
100
AcDbArc
 50
42.153029
 51
52.398921
  0
CIRCLE
  5
23C6
100
AcDbEntity
  8
V0-OBRYS
  6
CONTINUOUS
 62
    90
100
AcDbCircle
 10
236.734168
 20
219.513585
 30
0.0
 40
5.58
  0
ARC
  5
23C7
100
AcDbEntity
  8
V0-VYPLNE
100
AcDbCircle
 10
366.339258
 20
95.271629
 30
0.0
 40
181.579742
100
AcDbArc
 50
132.153029
 51
142.398921
  0
DIMENSION
  5
23D4
100
AcDbEntity
  8
V0-VYPLNE
  6
CONTINUOUS
 62
    41
100
AcDbDimension
  2
*D5
 10
497.014168
 20
-102.156646
 30
0.0
 11
366.874168
 21
-90.154677
 31
0.0
 70
    32
  3
ED20
100
AcDbAlignedDimension
 13
236.734168
 23
-40.766415
 33
0.0
 14
497.014168
 24
-40.766415
 34
0.0
100
AcDbRotatedDimension
  0
DIMENSION
  5
23E1
100
AcDbEntity
  8
V0-VYPLNE
  6
CONTINUOUS
 62
    41
100
AcDbDimension
  2
*D6
 10
-35.125832
 20
-144.292279
 30
0.0
 11
-60.266543
 21
-144.292279
 31
0.0
 70
   160
  3
ED20
100
AcDbAlignedDimension
 13
-88.125832
 23
-68.126415
 33
0.0
 14
-35.125832
 24
-37.626415
 34
0.0
100
AcDbRotatedDimension
  0
LINE
  5
2409
100
AcDbEntity
  8
0
  6
BYBLOCK
 62
    41
100
AcDbLine
 10
-88.125832
 20
-70.126415
 30
0.0
 11
-88.125832
 21
-104.270867
 31
0.0
  0
LINE
  5
240A
100
AcDbEntity
  8
0
  6
BYBLOCK
 62
    41
100
AcDbLine
 10
-100.125832
 20
-69.126415
 30
0.0
 11
-100.125832
 21
-104.270867
 31
0.0
  0
LINE
  5
240B
100
AcDbEntity
  8
0
  6
BYBLOCK
 62
    41
100
AcDbLine
 10
-120.125832
 20
-103.020867
 30
0.0
 11
-140.125832
 21
-103.020867
 31
0.0
  0
LINE
  5
240C
100
AcDbEntity
  8
0
  6
BYBLOCK
 62
    41
100
AcDbLine
 10
-68.125832
 20
-103.020867
 30
0.0
 11
-46.868862
 21
-103.020867
 31
0.0
  0
LINE
  5
240D
100
AcDbEntity
  8
0
  6
BYBLOCK
 62
    41
100
AcDbLine
 10
-100.125832
 20
-103.020867
 30
0.0
 11
-88.125832
 21
-103.020867
 31
0.0
  0
INSERT
  5
240E
100
AcDbEntity
  8
0
  6
BYBLOCK
 62
    41
100
AcDbBlockReference
  2
_OPEN
 10
-100.125832
 20
-103.020867
 30
0.0
 41
20.0
 42
20.0
 43
20.0
  0
INSERT
  5
240F
100
AcDbEntity
  8
0
  6
BYBLOCK
 62
    41
100
AcDbBlockReference
  2
_OPEN
 10
-88.125832
 20
-103.020867
 30
0.0
 41
20.0
 42
20.0
 43
20.0
 50
180.0
  0
MTEXT
  5
2410
100
AcDbEntity
  8
0
  6
BYBLOCK
 62
    41
100
AcDbMText
 10
-55.505287
 20
-91.018898
 30
0.0
 40
20.0
 41
0.0
 71
     5
 72
     1
  1
\A1;12
  7
ED20
  0
POINT
  5
2411
100
AcDbEntity
  8
DEFPOINTS
  6
BYBLOCK
 62
     0
100
AcDbPoint
 10
-88.125832
 20
-69.126415
 30
0.0
  0
POINT
  5
2412
100
AcDbEntity
  8
DEFPOINTS
  6
BYBLOCK
 62
     0
100
AcDbPoint
 10
-100.125832
 20
-68.126415
 30
0.0
  0
POINT
  5
2413
100
AcDbEntity
  8
DEFPOINTS
  6
BYBLOCK
 62
     0
100
AcDbPoint
 10
-100.125832
 20
-103.020867
 30
0.0
  0
DIMENSION
  5
2420
100
AcDbEntity
  8
V0-VYPLNE
  6
CONTINUOUS
 62
    41
100
AcDbDimension
  2
*D7
 10
-88.125832
 20
-144.292279
 30
0.0
 11
-117.625832
 21
-132.292279
 31
0.0
 70
    32
  3
ED20
100
AcDbAlignedDimension
 13
-147.125832
 23
42.373585
 33
0.0
 14
-88.125832
 24
-144.292279
 34
0.0
100
AcDbRotatedDimension
  0
DIMENSION
  5
242D
100
AcDbEntity
  8
V0-VYPLNE
  6
CONTINUOUS
 62
    41
100
AcDbDimension
  2
*D8
 10
-35.125832
 20
-176.190515
 30
0.0
 11
-91.125832
 21
-164.188546
 31
0.0
 70
    32
  3
ED20
100
AcDbAlignedDimension
 13
-147.125832
 23
-144.292279
 33
0.0
 14
-35.125832
 24
-144.292279
 34
0.0
100
AcDbRotatedDimension
  0
LEADER
  5
244F
100
AcDbEntity
  8
V0-VYPLNE
  6
CONTINUOUS
 62
    41
100
AcDbLeader
  3
ED20
 73
     0
 75
     1
 40
20.0
 41
168.015748
 76
     3
 10
236.734168
 20
-40.766415
 30
0.0
 10
202.888362
 20
-115.947595
 30
0.0
 10
182.888362
 20
-115.947595
 30
0.0
 77
    41
340
2450
  0
MTEXT
  5
2450
102
{ACAD_REACTORS
330
244F
102
}
100
AcDbEntity
  8
V0-VYPLNE
  6
CONTINUOUS
 62
    41
100
AcDbMText
 10
180.888362
 20
-103.947595
 30
0.0
 40
20.0
 41
0.0
 71
     6
 72
     1
  1
\A1;4 OTVORY %%c10
  7
ED20
  0
ARC
  5
2451
100
AcDbEntity
  8
V0-OBRYS
  6
CONTINUOUS
100
AcDbCircle
 10
219.454168
 20
236.793585
 30
0.0
 40
10.0
100
AcDbArc
 50
90.0
 51
180.0
  0
ARC
  5
2452
100
AcDbEntity
  8
V0-OBRYS
  6
CONTINUOUS
100
AcDbCircle
 10
514.294168
 20
236.793585
 30
0.0
 40
10.0
100
AcDbArc
 50
0.0
 51
90.0
  0
ARC
  5
2453
100
AcDbEntity
  8
V0-OBRYS
  6
CONTINUOUS
100
AcDbCircle
 10
514.294168
 20
-58.046415
 30
0.0
 40
10.0
100
AcDbArc
 50
270.0
 51
360.0
  0
ARC
  5
2454
100
AcDbEntity
  8
V0-OBRYS
  6
CONTINUOUS
100
AcDbCircle
 10
219.454168
 20
-58.046415
 30
0.0
 40
10.0
100
AcDbArc
 50
180.0
 51
270.0
  0
TEXT
  5
2455
100
AcDbEntity
  8
V0-VYPLNE
  6
CONTINUOUS
 62
    51
100
AcDbText
 10
217.936838
 20
-423.75747
 30
0.0
 40
30.0
  1
NA STENU
  7
ED30
100
AcDbText
  0
LINE
  5
250B
100
AcDbEntity
  8
V0-VYPLNE
  6
DASHDOT
 62
    63
 48
2.0
100
AcDbLine
 10
-154.918926
 20
89.373585
 30
0.0
 11
-20.418921
 21
89.373585
 31
0.0
  0
LINE
  5
2667
100
AcDbEntity
  8
V0-OBRYS
  6
CONTINUOUS
 62
    90
100
AcDbLine
 10
-207.125832
 20
89.373585
 30
0.0
 11
-207.125832
 21
129.373585
 31
0.0
  0
LINE
  5
2668
100
AcDbEntity
  8
V0-OBRYS
  6
CONTINUOUS
 62
    90
100
AcDbLine
 10
-207.125832
 20
129.373585
 30
0.0
 11
-147.125832
 21
129.373585
 31
0.0
  0
LINE
  5
2669
100
AcDbEntity
  8
V0-OBRYS
  6
CONTINUOUS
 62
    90
100
AcDbLine
 10
-147.125832
 20
129.373585
 30
0.0
 11
-147.125832
 21
89.373585
 31
0.0
  0
LINE
  5
266B
100
AcDbEntity
  8
V0-OBRYS
  6
CONTINUOUS
 62
    90
100
AcDbLine
 10
-192.125832
 20
89.373585
 30
0.0
 11
-192.125832
 21
129.373585
 31
0.0
  0
LINE
  5
266C
100
AcDbEntity
  8
V0-OBRYS
  6
CONTINUOUS
 62
    90
100
AcDbLine
 10
-207.125832
 20
49.373585
 30
0.0
 11
-147.125832
 21
49.373585
 31
0.0
  0
LINE
  5
266D
100
AcDbEntity
  8
V0-OBRYS
  6
CONTINUOUS
 62
    90
100
AcDbLine
 10
-207.125832
 20
89.373585
 30
0.0
 11
-207.125832
 21
49.373585
 31
0.0
  0
LINE
  5
266E
100
AcDbEntity
  8
V0-OBRYS
  6
CONTINUOUS
 62
    90
100
AcDbLine
 10
-192.125832
 20
89.373585
 30
0.0
 11
-192.125832
 21
49.373585
 31
0.0
  0
LINE
  5
266F
100
AcDbEntity
  8
V0-OBRYS
  6
CONTINUOUS
 62
    90
100
AcDbLine
 10
-147.125832
 20
49.373585
 30
0.0
 11
-147.125832
 21
89.373585
 31
0.0
  0
INSERT
  5
2692
100
AcDbEntity
  8
V0-OBRYS
  6
CONTINUOUS
 62
    90
100
AcDbBlockReference
  2
ASVORK
 10
-147.125832
 20
-407.240613
 30
0.0
  0
ARC
  5
26DF
100
AcDbEntity
  8
V0-OBRYS
  6
CONTINUOUS
 62
    90
100
AcDbCircle
 10
366.874168
 20
89.373585
 30
0.0
 40
125.0
100
AcDbArc
 50
133.280648
 51
149.576495
  0
ARC
  5
26ED
100
AcDbEntity
  8
V0-OBRYS
  6
CONTINUOUS
 62
    90
100
AcDbCircle
 10
366.874168
 20
89.373585
 30
0.0
 40
125.0
100
AcDbArc
 50
81.852076
 51
98.147924
  0
ARC
  5
26EE
100
AcDbEntity
  8
V0-OBRYS
  6
CONTINUOUS
 62
    90
100
AcDbCircle
 10
366.874168
 20
89.373585
 30
0.0
 40
125.0
100
AcDbArc
 50
30.423505
 51
46.719352
  0
ARC
  5
26EF
100
AcDbEntity
  8
V0-OBRYS
  6
CONTINUOUS
 62
    90
100
AcDbCircle
 10
366.874168
 20
89.373585
 30
0.0
 40
125.0
100
AcDbArc
 50
338.994933
 51
355.290781
  0
ARC
  5
26F0
100
AcDbEntity
  8
V0-OBRYS
  6
CONTINUOUS
 62
    90
100
AcDbCircle
 10
366.874168
 20
89.373585
 30
0.0
 40
125.0
100
AcDbArc
 50
287.566362
 51
303.86221
  0
LINE
  5
26F1
100
AcDbEntity
  8
V0-OBRYS
  6
CONTINUOUS
 62
    90
100
AcDbLine
 10
331.474873
 20
-25.657405
 30
0.0
 11
340.191595
 21
-10.149201
 31
0.0
  0
LINE
  5
26F2
100
AcDbEntity
  8
V0-OBRYS
  6
CONTINUOUS
 62
    90
100
AcDbLine
 10
448.677906
 20
177.653747
 30
0.0
 11
434.095654
 21
167.463382
 31
0.0
  0
LINE
  5
26F3
100
AcDbEntity
  8
V0-OBRYS
  6
CONTINUOUS
 62
    90
100
AcDbLine
 10
471.144007
 20
149.482148
 30
0.0
 11
457.964278
 21
137.533073
 31
0.0
  0
LINE
  5
26F4
100
AcDbEntity
  8
V0-OBRYS
  6
CONTINUOUS
 62
    90
100
AcDbLine
 10
486.898175
 20
80.458628
 30
0.0
 11
469.839141
 21
85.505903
 31
0.0
  0
ARC
  5
26F5
100
AcDbEntity
  8
V0-OBRYS
  6
CONTINUOUS
 62
    90
100
AcDbCircle
 10
366.874168
 20
89.373585
 30
0.0
 40
125.0
100
AcDbArc
 50
236.13779
 51
252.433638
  0
ARC
  5
26F6
100
AcDbEntity
  8
V0-OBRYS
  6
CONTINUOUS
 62
    90
100
AcDbCircle
 10
366.874168
 20
89.373585
 30
0.0
 40
125.0
100
AcDbArc
 50
184.709219
 51
201.005067
  0
POINT
  5
29A2
100
AcDbEntity
  8
V0-VYPLNE
  6
CONTINUOUS
 62
    41
100
AcDbPoint
 10
-35.125832
 20
89.373585
 30
0.0
  0
POINT
  5
29A3
100
AcDbEntity
  8
V0-VYPLNE
  6
CONTINUOUS
 62
    41
100
AcDbPoint
 10
-35.125832
 20
-407.240613
 30
0.0
  0
VIEWPORT
  5
22
100
AcDbEntity
 67
     1
  8
0
100
AcDbViewport
 10
261.517699
 20
148.5
 30
0.0
 40
523.035398
 41
297.0
 68
    -1
 69
     1
1001
ACAD
1000
MVIEW
1002
{
1070
    16
1010
0.0
1020
0.0
1030
0.0
1010
0.0
1020
0.0
1030
1.0
1040
0.0
1040
297.0
1040
261.517699
1040
148.5
1040
50.0
1040
0.0
1040
0.0
1070
     0
1070
   100
1070
     1
1070
     1
1070
     0
1070
     0
1070
     0
1070
     0
1040
0.0
1040
0.0
1040
0.0
1040
1.0
1040
1.0
1040
10.0
1040
10.0
1070
     0
1002
{
1002
}
1002
}
  0
ENDSEC
  0
SECTION
  2
OBJECTS
  0
DICTIONARY
  5
C
100
AcDbDictionary
  3
ACAD_GROUP
350
D
  3
ACAD_MLINESTYLE
350
E
  3
ACDBVARIABLEDICTIONARY
350
5D
  0
DICTIONARY
  5
D
102
{ACAD_REACTORS
330
C
102
}
100
AcDbDictionary
  0
DICTIONARY
  5
E
102
{ACAD_REACTORS
330
C
102
}
100
AcDbDictionary
  3
STANDARD
350
13
  0
DICTIONARY
  5
5D
102
{ACAD_REACTORS
330
C
102
}
100
AcDbDictionary
  3
DIMADEC
350
5E
  3
SORTENTS
350
3D8
  0
MLINESTYLE
  5
13
102
{ACAD_REACTORS
330
E
102
}
100
AcDbMlineStyle
  2
STANDARD
 70
     0
  3

 62
     0
 51
90.0
 52
90.0
 71
     2
 49
0.5
 62
   256
  6
BYLAYER
 49
-0.5
 62
   256
  6
BYLAYER
  0
DICTIONARYVAR
  5
5E
102
{ACAD_REACTORS
330
5D
102
}
100
DictionaryVariables
280
     0
  1
0
  0
DICTIONARYVAR
  5
3D8
102
{ACAD_REACTORS
330
5D
102
}
100
DictionaryVariables
280
     0
  1
96
  0
ENDSEC
  0
EOF
