  0
SECTION
  2
HEADER
  9
$ACADVER
  1
AC1014
  9
$ACADMAINTVER
 70
     9
  9
$DWGCODEPAGE
  3
ANSI_1250
  9
$INSBASE
 10
0.0
 20
0.0
 30
0.0
  9
$EXTMIN
 10
-15.0
 20
-229.0
 30
0.0
  9
$EXTMAX
 10
277.0
 20
114.4423076923077
 30
0.0
  9
$LIMMIN
 10
0.0
 20
0.0
  9
$LIMMAX
 10
0.0
 20
0.0
  9
$ORTHOMODE
 70
     0
  9
$REGENMODE
 70
     1
  9
$FILLMODE
 70
     1
  9
$QTEXTMODE
 70
     0
  9
$MIRRTEXT
 70
     1
  9
$DRAGMODE
 70
     2
  9
$LTSCALE
 40
15.0
  9
$OSMODE
 70
    37
  9
$ATTMODE
 70
     1
  9
$TEXTSIZE
 40
0.2
  9
$TRACEWID
 40
0.05
  9
$TEXTSTYLE
  7
ED10
  9
$CLAYER
  8
V0-VYPLNE
  9
$CELTYPE
  6
CONTINUOUS
  9
$CECOLOR
 62
    41
  9
$CELTSCALE
 40
1.0
  9
$DELOBJ
 70
     1
  9
$DISPSILH
 70
     0
  9
$DIMSCALE
 40
1.0
  9
$DIMASZ
 40
12.0
  9
$DIMEXO
 40
1.0
  9
$DIMDLI
 40
0.38
  9
$DIMRND
 40
0.0
  9
$DIMDLE
 40
0.0
  9
$DIMEXE
 40
1.25
  9
$DIMTP
 40
0.0
  9
$DIMTM
 40
0.0
  9
$DIMTXT
 40
10.0
  9
$DIMCEN
 40
0.09
  9
$DIMTSZ
 40
0.0
  9
$DIMTOL
 70
     0
  9
$DIMLIM
 70
     0
  9
$DIMTIH
 70
     0
  9
$DIMTOH
 70
     0
  9
$DIMSE1
 70
     0
  9
$DIMSE2
 70
     0
  9
$DIMTAD
 70
     1
  9
$DIMZIN
 70
     0
  9
$DIMBLK
  1
OPEN
  9
$DIMASO
 70
     1
  9
$DIMSHO
 70
     1
  9
$DIMPOST
  1

  9
$DIMAPOST
  1

  9
$DIMALT
 70
     0
  9
$DIMALTD
 70
     2
  9
$DIMALTF
 40
25.4
  9
$DIMLFAC
 40
1.0
  9
$DIMTOFL
 70
     1
  9
$DIMTVP
 40
0.0
  9
$DIMTIX
 70
     1
  9
$DIMSOXD
 70
     0
  9
$DIMSAH
 70
     0
  9
$DIMBLK1
  1

  9
$DIMBLK2
  1

  9
$DIMSTYLE
  2
ED5
  9
$DIMCLRD
 70
     0
  9
$DIMCLRE
 70
     0
  9
$DIMCLRT
 70
     0
  9
$DIMTFAC
 40
1.0
  9
$DIMGAP
 40
1.5
  9
$DIMJUST
 70
     0
  9
$DIMSD1
 70
     0
  9
$DIMSD2
 70
     0
  9
$DIMTOLJ
 70
     1
  9
$DIMTZIN
 70
     0
  9
$DIMALTZ
 70
     0
  9
$DIMALTTZ
 70
     0
  9
$DIMFIT
 70
     3
  9
$DIMUPT
 70
     1
  9
$DIMUNIT
 70
     2
  9
$DIMDEC
 70
     0
  9
$DIMTDEC
 70
     4
  9
$DIMALTU
 70
     2
  9
$DIMALTTD
 70
     2
  9
$DIMTXSTY
  7
ED5
  9
$DIMAUNIT
 70
     0
  9
$LUNITS
 70
     2
  9
$LUPREC
 70
     4
  9
$SKETCHINC
 40
0.1
  9
$FILLETRAD
 40
0.5
  9
$AUNITS
 70
     0
  9
$AUPREC
 70
     0
  9
$MENU
  1
.
  9
$ELEVATION
 40
0.0
  9
$PELEVATION
 40
0.0
  9
$THICKNESS
 40
0.0
  9
$LIMCHECK
 70
     0
  9
$BLIPMODE
 70
     0
  9
$CHAMFERA
 40
0.5
  9
$CHAMFERB
 40
0.5
  9
$CHAMFERC
 40
1.0
  9
$CHAMFERD
 40
0.0
  9
$SKPOLY
 70
     0
  9
$TDCREATE
 40
2455593.590134908
  9
$TDUPDATE
 40
2455593.590134919
  9
$TDINDWG
 40
0.0000000116
  9
$TDUSRTIMER
 40
0.0000000116
  9
$USRTIMER
 70
     1
  9
$ANGBASE
 50
0.0
  9
$ANGDIR
 70
     0
  9
$PDMODE
 70
     3
  9
$PDSIZE
 40
15.0
  9
$PLINEWID
 40
0.0
  9
$COORDS
 70
     1
  9
$SPLFRAME
 70
     0
  9
$SPLINETYPE
 70
     6
  9
$SPLINESEGS
 70
     8
  9
$ATTDIA
 70
     0
  9
$ATTREQ
 70
     1
  9
$HANDLING
 70
     1
  9
$HANDSEED
  5
6A2
  9
$SURFTAB1
 70
     6
  9
$SURFTAB2
 70
     6
  9
$SURFTYPE
 70
     6
  9
$SURFU
 70
     6
  9
$SURFV
 70
     6
  9
$UCSNAME
  2

  9
$UCSORG
 10
0.0
 20
0.0
 30
0.0
  9
$UCSXDIR
 10
1.0
 20
0.0
 30
0.0
  9
$UCSYDIR
 10
0.0
 20
1.0
 30
0.0
  9
$PUCSNAME
  2

  9
$PUCSORG
 10
0.0
 20
0.0
 30
0.0
  9
$PUCSXDIR
 10
1.0
 20
0.0
 30
0.0
  9
$PUCSYDIR
 10
0.0
 20
1.0
 30
0.0
  9
$USERI1
 70
     0
  9
$USERI2
 70
     0
  9
$USERI3
 70
     0
  9
$USERI4
 70
     0
  9
$USERI5
 70
     0
  9
$USERR1
 40
0.0
  9
$USERR2
 40
0.0
  9
$USERR3
 40
0.0
  9
$USERR4
 40
0.0
  9
$USERR5
 40
0.0
  9
$WORLDVIEW
 70
     1
  9
$SHADEDGE
 70
     3
  9
$SHADEDIF
 70
    70
  9
$TILEMODE
 70
     1
  9
$MAXACTVP
 70
    64
  9
$PINSBASE
 10
0.0
 20
0.0
 30
0.0
  9
$PLIMCHECK
 70
     0
  9
$PEXTMIN
 10
1.000000000000000E+20
 20
1.000000000000000E+20
 30
1.000000000000000E+20
  9
$PEXTMAX
 10
-1.000000000000000E+20
 20
-1.000000000000000E+20
 30
-1.000000000000000E+20
  9
$PLIMMIN
 10
0.0
 20
0.0
  9
$PLIMMAX
 10
12.0
 20
9.0
  9
$UNITMODE
 70
     0
  9
$VISRETAIN
 70
     1
  9
$PLINEGEN
 70
     0
  9
$PSLTSCALE
 70
     1
  9
$TREEDEPTH
 70
  3020
  9
$PICKSTYLE
 70
     1
  9
$CMLSTYLE
  2
STANDARD
  9
$CMLJUST
 70
     0
  9
$CMLSCALE
 40
1.0
  9
$PROXYGRAPHICS
 70
     1
  9
$MEASUREMENT
 70
     0
  0
ENDSEC
  0
SECTION
  2
CLASSES
  0
CLASS
  1
ACDBDICTIONARYWDFLT
  2
AcDbDictionaryWithDefault
  3
ObjectDBX Classes
 90
        0
280
     0
281
     0
  0
CLASS
  1
XRECORD
  2
AcDbXrecord
  3
AutoCAD 2000
 90
        0
280
     0
281
     0
  0
CLASS
  1
LWPOLYLINE
  2
AcDbPolyline
  3
AutoCAD 2000
 90
        0
280
     0
281
     1
  0
CLASS
  1
HATCH
  2
AcDbHatch
  3
AutoCAD 2000
 90
        0
280
     0
281
     1
  0
CLASS
  1
ACDBPLACEHOLDER
  2
AcDbPlaceHolder
  3
ObjectDBX Classes
 90
        0
280
     0
281
     0
  0
CLASS
  1
LAYOUT
  2
AcDbLayout
  3
ObjectDBX Classes
 90
        0
280
     0
281
     0
  0
ENDSEC
  0
SECTION
  2
TABLES
  0
TABLE
  2
VPORT
  5
5F6
330
0
100
AcDbSymbolTable
 70
     2
  0
VPORT
  5
617
102
{ACAD_XDICTIONARY
360
6A0
102
}
330
5F6
100
AcDbSymbolTableRecord
100
AcDbViewportTableRecord
  2
*ACTIVE
 70
     0
 10
0.0
 20
0.0
 11
1.0
 21
1.0
 12
215.9094994553572
 22
-20.79288157166666
 13
0.0
 23
0.0
 14
1.0
 24
1.0
 15
5.0
 25
5.0
 16
0.0
 26
0.0
 36
1.0
 17
0.0
 27
0.0
 37
0.0
 40
507.7722252000002
 41
0.0349699252428763
 42
50.0
 43
0.0
 44
0.0
 50
0.0
 51
0.0000000000007958
 71
     0
 72
   100
 73
     1
 74
     3
 75
     0
 76
     0
 77
     0
 78
     0
  0
ENDTAB
  0
TABLE
  2
LTYPE
  5
5F3
330
0
100
AcDbSymbolTable
 70
    25
  0
LTYPE
  5
602
330
5F3
100
AcDbSymbolTableRecord
100
AcDbLinetypeTableRecord
  2
BYBLOCK
 70
     0
  3

 72
    65
 73
     0
 40
0.0
  0
LTYPE
  5
603
330
5F3
100
AcDbSymbolTableRecord
100
AcDbLinetypeTableRecord
  2
BYLAYER
 70
     0
  3

 72
    65
 73
     0
 40
0.0
  0
LTYPE
  5
604
330
5F3
100
AcDbSymbolTableRecord
100
AcDbLinetypeTableRecord
  2
CONTINUOUS
 70
     0
  3
Solid line
 72
    65
 73
     0
 40
0.0
  0
LTYPE
  5
61F
330
5F3
100
AcDbSymbolTableRecord
100
AcDbLinetypeTableRecord
  2
CENTER
 70
     0
  3
Center ____ _ ____ _ ____ _ ____ _ ____ _ ____
 72
    65
 73
     4
 40
2.0
 49
1.25
 74
     0
 49
-0.25
 74
     0
 49
0.25
 74
     0
 49
-0.25
 74
     0
  0
LTYPE
  5
620
330
5F3
100
AcDbSymbolTableRecord
100
AcDbLinetypeTableRecord
  2
DASHDOT
 70
     0
  3
Dashdot __ . __ . __ . __ . __ . __ . __ . __
 72
    65
 73
     4
 40
1.0
 49
0.5
 74
     0
 49
-0.25
 74
     0
 49
0.0
 74
     0
 49
-0.25
 74
     0
  0
LTYPE
  5
621
330
5F3
100
AcDbSymbolTableRecord
100
AcDbLinetypeTableRecord
  2
DASHED
 70
     0
  3
Dashed __ __ __ __ __ __ __ __ __ __ __ __ __ _
 72
    65
 73
     2
 40
0.75
 49
0.5
 74
     0
 49
-0.25
 74
     0
  0
LTYPE
  5
622
330
5F3
100
AcDbSymbolTableRecord
100
AcDbLinetypeTableRecord
  2
HIDDEN
 70
     0
  3
Hidden __ __ __ __ __ __ __ __ __ __ __ __ __ __
 72
    65
 73
     2
 40
0.375
 49
0.25
 74
     0
 49
-0.125
 74
     0
  0
LTYPE
  5
623
330
5F3
100
AcDbSymbolTableRecord
100
AcDbLinetypeTableRecord
  2
HIDDEN2
 70
     0
  3
Hidden2 _ _ _ _ _ _ _ _ _ _ _ _ _ _ _ _ _ 
 72
    65
 73
     2
 40
0.1875
 49
0.125
 74
     0
 49
-0.0625
 74
     0
  0
LTYPE
  5
624
330
5F3
100
AcDbSymbolTableRecord
100
AcDbLinetypeTableRecord
  2
BORDER
 70
     0
  3
Border __ __ . __ __ . __ __ . __ __ . __ __ .
 72
    65
 73
     6
 40
1.75
 49
0.5
 74
     0
 49
-0.25
 74
     0
 49
0.5
 74
     0
 49
-0.25
 74
     0
 49
0.0
 74
     0
 49
-0.25
 74
     0
  0
LTYPE
  5
625
330
5F3
100
AcDbSymbolTableRecord
100
AcDbLinetypeTableRecord
  2
BORDER2
 70
     0
  3
Border2 __.__.__.__.__.__.__.__.__.__.__.
 72
    65
 73
     6
 40
0.875
 49
0.25
 74
     0
 49
-0.125
 74
     0
 49
0.25
 74
     0
 49
-0.125
 74
     0
 49
0.0
 74
     0
 49
-0.125
 74
     0
  0
LTYPE
  5
626
330
5F3
100
AcDbSymbolTableRecord
100
AcDbLinetypeTableRecord
  2
BORDERX2
 70
     0
  3
Borderx2  ____  ____  .  ____  ____  .  ___
 72
    65
 73
     6
 40
3.5
 49
1.0
 74
     0
 49
-0.5
 74
     0
 49
1.0
 74
     0
 49
-0.5
 74
     0
 49
0.0
 74
     0
 49
-0.5
 74
     0
  0
LTYPE
  5
627
330
5F3
100
AcDbSymbolTableRecord
100
AcDbLinetypeTableRecord
  2
CENTER2
 70
     0
  3
Center2  ___ _ ___ _ ___ _ ___ _ ___ _ ___
 72
    65
 73
     4
 40
1.125
 49
0.75
 74
     0
 49
-0.125
 74
     0
 49
0.125
 74
     0
 49
-0.125
 74
     0
  0
LTYPE
  5
628
330
5F3
100
AcDbSymbolTableRecord
100
AcDbLinetypeTableRecord
  2
CENTERX2
 70
     0
  3
Centerx2  ________  __  ________  __  _____
 72
    65
 73
     4
 40
4.0
 49
2.5
 74
     0
 49
-0.5
 74
     0
 49
0.5
 74
     0
 49
-0.5
 74
     0
  0
LTYPE
  5
629
330
5F3
100
AcDbSymbolTableRecord
100
AcDbLinetypeTableRecord
  2
DASHDOT2
 70
     0
  3
Dashdot2  _._._._._._._._._._._._._._._.
 72
    65
 73
     4
 40
0.5
 49
0.25
 74
     0
 49
-0.125
 74
     0
 49
0.0
 74
     0
 49
-0.125
 74
     0
  0
LTYPE
  5
62A
330
5F3
100
AcDbSymbolTableRecord
100
AcDbLinetypeTableRecord
  2
DASHDOTX2
 70
     0
  3
Dashdotx2 ____  .  ____  .  ____  .  ___
 72
    65
 73
     4
 40
2.0
 49
1.0
 74
     0
 49
-0.5
 74
     0
 49
0.0
 74
     0
 49
-0.5
 74
     0
  0
LTYPE
  5
62B
330
5F3
100
AcDbSymbolTableRecord
100
AcDbLinetypeTableRecord
  2
DASHED2
 70
     0
  3
Dashed2 _ _ _ _ _ _ _ _ _ _ _ _ _ _ _ _ _ 
 72
    65
 73
     2
 40
0.375
 49
0.25
 74
     0
 49
-0.125
 74
     0
  0
LTYPE
  5
62C
330
5F3
100
AcDbSymbolTableRecord
100
AcDbLinetypeTableRecord
  2
DASHEDX2
 70
     0
  3
Dashedx2 ____  ____  ____  ____  ____  ___
 72
    65
 73
     2
 40
1.5
 49
1.0
 74
     0
 49
-0.5
 74
     0
  0
LTYPE
  5
62D
330
5F3
100
AcDbSymbolTableRecord
100
AcDbLinetypeTableRecord
  2
DIVIDE
 70
     0
  3
Divide ____ . . ____ . . ____ . . ____ . . ____
 72
    65
 73
     6
 40
1.25
 49
0.5
 74
     0
 49
-0.25
 74
     0
 49
0.0
 74
     0
 49
-0.25
 74
     0
 49
0.0
 74
     0
 49
-0.25
 74
     0
  0
LTYPE
  5
62E
330
5F3
100
AcDbSymbolTableRecord
100
AcDbLinetypeTableRecord
  2
DIVIDE2
 70
     0
  3
Divide2 __..__..__..__..__..__..__..__.._
 72
    65
 73
     6
 40
0.625
 49
0.25
 74
     0
 49
-0.125
 74
     0
 49
0.0
 74
     0
 49
-0.125
 74
     0
 49
0.0
 74
     0
 49
-0.125
 74
     0
  0
LTYPE
  5
62F
330
5F3
100
AcDbSymbolTableRecord
100
AcDbLinetypeTableRecord
  2
DIVIDEX2
 70
     0
  3
Dividex2 ________  .  .  ________  .  .  _
 72
    65
 73
     6
 40
2.5
 49
1.0
 74
     0
 49
-0.5
 74
     0
 49
0.0
 74
     0
 49
-0.5
 74
     0
 49
0.0
 74
     0
 49
-0.5
 74
     0
  0
LTYPE
  5
630
330
5F3
100
AcDbSymbolTableRecord
100
AcDbLinetypeTableRecord
  2
DOT
 70
     0
  3
Dot . . . . . . . . . . . . . . . . . . . . . . . .
 72
    65
 73
     2
 40
0.25
 49
0.0
 74
     0
 49
-0.25
 74
     0
  0
LTYPE
  5
631
330
5F3
100
AcDbSymbolTableRecord
100
AcDbLinetypeTableRecord
  2
DOT2
 70
     0
  3
Dot2 ........................................
 72
    65
 73
     2
 40
0.125
 49
0.0
 74
     0
 49
-0.125
 74
     0
  0
LTYPE
  5
632
330
5F3
100
AcDbSymbolTableRecord
100
AcDbLinetypeTableRecord
  2
DOTX2
 70
     0
  3
Dotx2 .  .  .  .  .  .  .  .  .  .  .  .  .  .
 72
    65
 73
     2
 40
0.5
 49
0.0
 74
     0
 49
-0.5
 74
     0
  0
LTYPE
  5
633
330
5F3
100
AcDbSymbolTableRecord
100
AcDbLinetypeTableRecord
  2
HIDDENX2
 70
     0
  3
Hiddenx2 ____ ____ ____ ____ ____ ____ ____ 
 72
    65
 73
     2
 40
0.75
 49
0.5
 74
     0
 49
-0.25
 74
     0
  0
LTYPE
  5
634
330
5F3
100
AcDbSymbolTableRecord
100
AcDbLinetypeTableRecord
  2
PHANTOM
 70
     0
  3
Phantom ______  __  __  ______  __  __  ______ 
 72
    65
 73
     6
 40
2.5
 49
1.25
 74
     0
 49
-0.25
 74
     0
 49
0.25
 74
     0
 49
-0.25
 74
     0
 49
0.25
 74
     0
 49
-0.25
 74
     0
  0
LTYPE
  5
635
330
5F3
100
AcDbSymbolTableRecord
100
AcDbLinetypeTableRecord
  2
PHANTOM2
 70
     0
  3
Phantom2 ___ _ _ ___ _ _ ___ _ _ ___ _ _
 72
    65
 73
     6
 40
1.25
 49
0.625
 74
     0
 49
-0.125
 74
     0
 49
0.125
 74
     0
 49
-0.125
 74
     0
 49
0.125
 74
     0
 49
-0.125
 74
     0
  0
LTYPE
  5
636
330
5F3
100
AcDbSymbolTableRecord
100
AcDbLinetypeTableRecord
  2
PHANTOMX2
 70
     0
  3
Phantomx2 ____________    ____    ____   _
 72
    65
 73
     6
 40
5.0
 49
2.5
 74
     0
 49
-0.5
 74
     0
 49
0.5
 74
     0
 49
-0.5
 74
     0
 49
0.5
 74
     0
 49
-0.5
 74
     0
  0
ENDTAB
  0
TABLE
  2
LAYER
  5
5F0
330
0
100
AcDbSymbolTable
 70
     6
  0
LAYER
  5
5FE
330
5F0
100
AcDbSymbolTableRecord
100
AcDbLayerTableRecord
  2
0
 70
     0
 62
     7
  6
CONTINUOUS
  0
LAYER
  5
2E
330
5F0
100
AcDbSymbolTableRecord
100
AcDbLayerTableRecord
  2
DEFPOINTS
 70
     0
 62
     7
  6
CONTINUOUS
  0
LAYER
  5
4E
330
5F0
100
AcDbSymbolTableRecord
100
AcDbLayerTableRecord
  2
V0-OBRYS
 70
     0
 62
    90
  6
CONTINUOUS
  0
LAYER
  5
24
330
5F0
100
AcDbSymbolTableRecord
100
AcDbLayerTableRecord
  2
V0-VYPLNE
 70
     0
 62
    52
  6
CONTINUOUS
  0
LAYER
  5
91
330
5F0
100
AcDbSymbolTableRecord
100
AcDbLayerTableRecord
  2
V0-NAZVY
 70
     0
 62
   210
  6
CONTINUOUS
  0
LAYER
  5
FE
330
5F0
100
AcDbSymbolTableRecord
100
AcDbLayerTableRecord
  2
V0-ZBYTEK
 70
     0
 62
    51
  6
CONTINUOUS
  0
ENDTAB
  0
TABLE
  2
STYLE
  5
5F1
330
0
100
AcDbSymbolTable
 70
     7
  0
STYLE
  5
5FF
330
5F1
100
AcDbSymbolTableRecord
100
AcDbTextStyleTableRecord
  2
STANDARD
 70
     0
 40
0.0
 41
1.0
 50
0.0
 71
     0
 42
0.2
  3
ISOCP.shx
  4

1001
ACAD
1000
ISOCP.shx
1071
        0
  0
STYLE
  5
2F3
330
5F1
100
AcDbSymbolTableRecord
100
AcDbTextStyleTableRecord
  2
ED30
 70
     0
 40
30.0
 41
1.0
 50
0.0
 71
     0
 42
0.2
  3
ISOCP.shx
  4

1001
ACAD
1000
ISOCP.shx
1071
        0
  0
STYLE
  5
2F4
330
5F1
100
AcDbSymbolTableRecord
100
AcDbTextStyleTableRecord
  2
ED20
 70
     0
 40
20.0
 41
1.0
 50
0.0
 71
     0
 42
0.2
  3
isocp.shx
  4

1001
ACAD
1000
isocp.shx
1071
        0
  0
STYLE
  5
2F5
330
5F1
100
AcDbSymbolTableRecord
100
AcDbTextStyleTableRecord
  2
ED40
 70
     0
 40
40.0
 41
1.0
 50
0.0
 71
     0
 42
0.2
  3
isocp.shx
  4

1001
ACAD
1000
isocp.shx
1071
        0
  0
STYLE
  5
2F6
330
5F1
100
AcDbSymbolTableRecord
100
AcDbTextStyleTableRecord
  2
ED10
 70
     0
 40
10.0
 41
1.0
 50
0.0
 71
     0
 42
0.2
  3
isocp.shx
  4

1001
ACAD
1000
isocp.shx
1071
        0
  0
STYLE
  5
2F7
330
5F1
100
AcDbSymbolTableRecord
100
AcDbTextStyleTableRecord
  2
VD_RECOV_1_2F7_
 70
     0
 40
0.0
 41
1.0
 50
0.0
 71
     0
 42
0.2
  3
ltypeshp.shx
  4

1001
ACAD
1000
ltypeshp.shx
1071
        0
  0
STYLE
  5
415
330
5F1
100
AcDbSymbolTableRecord
100
AcDbTextStyleTableRecord
  2
ED5
 70
     0
 40
10.0
 41
1.0
 50
0.0
 71
     0
 42
0.2
  3
ISOCP.shx
  4

1001
ACAD
1000
ISOCP.shx
1071
        0
  0
ENDTAB
  0
TABLE
  2
VIEW
  5
5F4
330
0
100
AcDbSymbolTable
 70
     0
  0
ENDTAB
  0
TABLE
  2
UCS
  5
5F5
330
0
100
AcDbSymbolTable
 70
     0
  0
ENDTAB
  0
TABLE
  2
APPID
  5
5F7
330
0
100
AcDbSymbolTable
 70
     6
  0
APPID
  5
600
330
5F7
100
AcDbSymbolTableRecord
100
AcDbRegAppTableRecord
  2
ACAD
 70
     0
  0
APPID
  5
618
330
5F7
100
AcDbSymbolTableRecord
100
AcDbRegAppTableRecord
  2
VD_INVISIBLE_NOT_FOR_READ
 70
     0
  0
APPID
  5
619
330
5F7
100
AcDbSymbolTableRecord
100
AcDbRegAppTableRecord
  2
VD_TEMPHATCH
 70
     0
  0
APPID
  5
61A
330
5F7
100
AcDbSymbolTableRecord
100
AcDbRegAppTableRecord
  2
VDEXTRAPARAM
 70
     0
  0
APPID
  5
61B
330
5F7
100
AcDbSymbolTableRecord
100
AcDbRegAppTableRecord
  2
PE_URL
 70
     0
  0
APPID
  5
61C
330
5F7
100
AcDbSymbolTableRecord
100
AcDbRegAppTableRecord
  2
VD_UNKNOWN
 70
     0
  0
ENDTAB
  0
TABLE
  2
DIMSTYLE
  5
5F8
330
0
100
AcDbSymbolTable
 70
     6
  0
DIMSTYLE
105
615
330
5F8
100
AcDbSymbolTableRecord
100
AcDbDimStyleTableRecord
  2
STANDARD
 70
     0
  3

  4

  5
OPEN
  6

  7

 40
5.0
 41
3.5
 42
0.0625
 43
0.38
 44
0.18
 45
0.0
 46
0.0
 47
0.0
 48
0.0
140
3.5
141
0.09
142
0.0
143
25.4
144
1.0
145
0.0
146
1.0
147
0.625
 71
     0
 72
     0
 73
     0
 74
     0
 75
     0
 76
     0
 77
     1
 78
     0
170
     0
171
     2
172
     1
173
     0
174
     1
175
     0
176
     0
177
     0
178
     0
270
     2
271
     0
272
     4
273
     2
274
     2
340
5FF
275
     0
280
     0
281
     0
282
     0
283
     1
284
     0
285
     0
286
     0
287
     3
288
     1
  0
DIMSTYLE
105
2F8
330
5F8
100
AcDbSymbolTableRecord
100
AcDbDimStyleTableRecord
  2
ED30
 70
     0
  3

  4

  5
OPEN
  6

  7

 40
1.0
 41
25.0
 42
1.0
 43
0.38
 44
1.25
 45
0.0
 46
0.0
 47
0.0
 48
0.0
140
30.0
141
0.09
142
0.0
143
25.4
144
1.0
145
0.0
146
1.0
147
2.0
 71
     0
 72
     0
 73
     0
 74
     0
 75
     0
 76
     0
 77
     1
 78
     0
170
     0
171
     2
172
     1
173
     0
174
     1
175
     0
176
     0
177
     0
178
     0
270
     2
271
     0
272
     4
273
     2
274
     2
340
2F3
275
     0
280
     0
281
     0
282
     0
283
     1
284
     0
285
     0
286
     0
287
     3
288
     1
  0
DIMSTYLE
105
2F9
330
5F8
100
AcDbSymbolTableRecord
100
AcDbDimStyleTableRecord
  2
ED40
 70
     0
  3

  4

  5
OPEN
  6

  7

 40
1.0
 41
35.0
 42
1.0
 43
0.38
 44
1.25
 45
0.0
 46
0.0
 47
0.0
 48
0.0
140
40.0
141
0.09
142
0.0
143
25.4
144
1.0
145
0.0
146
1.0
147
3.0
 71
     0
 72
     0
 73
     0
 74
     0
 75
     0
 76
     0
 77
     1
 78
     0
170
     0
171
     2
172
     1
173
     0
174
     1
175
     0
176
     0
177
     0
178
     0
270
     2
271
     0
272
     4
273
     2
274
     2
340
2F5
275
     0
280
     0
281
     0
282
     0
283
     1
284
     0
285
     0
286
     0
287
     3
288
     1
  0
DIMSTYLE
105
2FA
330
5F8
100
AcDbSymbolTableRecord
100
AcDbDimStyleTableRecord
  2
ED20
 70
     0
  3

  4

  5
OPEN
  6

  7

 40
1.0
 41
20.0
 42
1.0
 43
0.38
 44
1.25
 45
0.0
 46
0.0
 47
0.0
 48
0.0
140
20.0
141
0.09
142
0.0
143
25.4
144
1.0
145
0.0
146
1.0
147
1.5
 71
     0
 72
     0
 73
     0
 74
     0
 75
     0
 76
     0
 77
     1
 78
     0
170
     0
171
     2
172
     1
173
     0
174
     1
175
     0
176
     0
177
     0
178
     0
270
     2
271
     0
272
     4
273
     2
274
     2
340
2F4
275
     0
280
     0
281
     0
282
     0
283
     1
284
     0
285
     0
286
     0
287
     3
288
     1
  0
DIMSTYLE
105
2FB
330
5F8
100
AcDbSymbolTableRecord
100
AcDbDimStyleTableRecord
  2
ED10
 70
     0
  3

  4

  5
OPEN
  6

  7

 40
1.0
 41
15.0
 42
1.0
 43
0.38
 44
1.25
 45
0.0
 46
0.0
 47
0.0
 48
0.0
140
10.0
141
0.09
142
0.0
143
25.4
144
1.0
145
0.0
146
1.0
147
1.5
 71
     0
 72
     0
 73
     0
 74
     0
 75
     0
 76
     0
 77
     1
 78
     0
170
     0
171
     2
172
     1
173
     0
174
     1
175
     0
176
     0
177
     0
178
     0
270
     2
271
     0
272
     4
273
     2
274
     2
340
2F4
275
     0
280
     0
281
     0
282
     0
283
     1
284
     0
285
     0
286
     0
287
     3
288
     1
  0
DIMSTYLE
105
417
102
{ACAD_REACTORS
330
3C8
330
3EF
330
3FC
330
409
330
535
102
}
330
5F8
100
AcDbSymbolTableRecord
100
AcDbDimStyleTableRecord
  2
ED5
 70
     0
  3

  4

  5
OPEN
  6

  7

 40
1.0
 41
12.0
 42
1.0
 43
0.38
 44
1.25
 45
0.0
 46
0.0
 47
0.0
 48
0.0
140
10.0
141
0.09
142
0.0
143
25.4
144
1.0
145
0.0
146
1.0
147
1.5
 71
     0
 72
     0
 73
     0
 74
     0
 75
     0
 76
     0
 77
     1
 78
     0
170
     0
171
     2
172
     1
173
     0
174
     1
175
     0
176
     0
177
     0
178
     0
270
     2
271
     0
272
     4
273
     2
274
     2
340
415
275
     0
280
     0
281
     0
282
     0
283
     1
284
     0
285
     0
286
     0
287
     3
288
     1
  0
ENDTAB
  0
TABLE
  2
BLOCK_RECORD
  5
5EF
330
0
100
AcDbSymbolTable
 70
    10
  0
BLOCK_RECORD
  5
60D
330
5EF
100
AcDbSymbolTableRecord
100
AcDbBlockTableRecord
  2
*MODEL_SPACE
  0
BLOCK_RECORD
  5
609
330
5EF
100
AcDbSymbolTableRecord
100
AcDbBlockTableRecord
  2
*PAPER_SPACE
  0
BLOCK_RECORD
  5
1D
330
5EF
100
AcDbSymbolTableRecord
100
AcDbBlockTableRecord
  2
_OPEN
  0
BLOCK_RECORD
  5
213
330
5EF
100
AcDbSymbolTableRecord
100
AcDbBlockTableRecord
  2
A20_350
  0
BLOCK_RECORD
  5
5EB
330
5EF
100
AcDbSymbolTableRecord
100
AcDbBlockTableRecord
  2
VDDIM_DEFAULT
  0
BLOCK_RECORD
  5
5ED
330
5EF
100
AcDbSymbolTableRecord
100
AcDbBlockTableRecord
  2
VDDIM_NONE
  0
BLOCK_RECORD
  5
640
330
5EF
100
AcDbSymbolTableRecord
100
AcDbBlockTableRecord
  2
*D5
  0
BLOCK_RECORD
  5
64D
330
5EF
100
AcDbSymbolTableRecord
100
AcDbBlockTableRecord
  2
*D6
  0
BLOCK_RECORD
  5
659
330
5EF
100
AcDbSymbolTableRecord
100
AcDbBlockTableRecord
  2
*D7
  0
BLOCK_RECORD
  5
665
330
5EF
100
AcDbSymbolTableRecord
100
AcDbBlockTableRecord
  2
*D8
  0
BLOCK_RECORD
  5
672
330
5EF
100
AcDbSymbolTableRecord
100
AcDbBlockTableRecord
  2
*D9
  0
ENDTAB
  0
ENDSEC
  0
SECTION
  2
BLOCKS
  0
BLOCK
  5
60E
330
60D
100
AcDbEntity
  8
0
100
AcDbBlockBegin
  2
*MODEL_SPACE
 70
     0
 71
     0
 10
0.0
 20
0.0
 30
0.0
  3
*MODEL_SPACE
  1

  0
ENDBLK
  5
60F
330
60D
100
AcDbEntity
  8
0
100
AcDbBlockEnd
  0
BLOCK
  5
60A
330
609
100
AcDbEntity
 67
     1
  8
0
100
AcDbBlockBegin
  2
*PAPER_SPACE
 70
     0
 71
     0
 10
0.0
 20
0.0
 30
0.0
  3
*PAPER_SPACE
  1

  0
ENDBLK
  5
60B
330
609
100
AcDbEntity
 67
     1
  8
0
100
AcDbBlockEnd
  0
BLOCK
  5
637
330
1D
100
AcDbEntity
  8
0
100
AcDbBlockBegin
  2
_OPEN
 70
     0
 71
     0
 10
0.0
 20
0.0
 30
0.0
  3
_OPEN
  1

  0
LINE
  5
1E
330
1D
100
AcDbEntity
  8
0
  6
BYBLOCK
 62
     0
100
AcDbLine
 10
-1.0
 20
0.166667
 30
0.0
 11
0.0
 21
0.0
 31
0.0
  0
LINE
  5
1F
330
1D
100
AcDbEntity
  8
0
  6
BYBLOCK
 62
     0
100
AcDbLine
 10
0.0
 20
0.0
 30
0.0
 11
-1.0
 21
-0.166667
 31
0.0
  0
LINE
  5
20
330
1D
100
AcDbEntity
  8
0
  6
BYBLOCK
 62
     0
100
AcDbLine
 10
0.0
 20
0.0
 30
0.0
 11
-1.0
 21
0.0
 31
0.0
  0
ENDBLK
  5
638
330
1D
100
AcDbEntity
  8
0
100
AcDbBlockEnd
  0
BLOCK
  5
639
330
213
100
AcDbEntity
  8
0
100
AcDbBlockBegin
  2
A20_350
 70
     0
 71
     0
 10
0.0
 20
0.0
 30
0.0
  3
A20_350
  1

  0
ENDBLK
  5
63A
330
213
100
AcDbEntity
  8
0
100
AcDbBlockEnd
  0
BLOCK
  5
63B
330
5EB
100
AcDbEntity
  8
0
100
AcDbBlockBegin
  2
VDDIM_DEFAULT
 70
     0
 71
     0
 10
0.0
 20
0.0
 30
0.0
  3
VDDIM_DEFAULT
  1

  0
LWPOLYLINE
  5
5EC
330
5EB
100
AcDbEntity
  8
0
  6
CONTINUOUS
 62
     0
100
AcDbPolyline
 90
        4
 70
     0
 43
0.0
 10
0.0
 20
0.0
 10
-1.0
 20
-0.1665
 10
-1.0
 20
0.1665
 10
0.0
 20
0.0
1001
VDEXTRAPARAM
1071
        1
1071
        0
1071
        0
1040
1.0
1000

1000

1040
0.0
1040
0.0
  0
HATCH
  5
63F
330
5EB
100
AcDbEntity
  8
0
  6
CONTINUOUS
 62
     0
100
AcDbHatch
 10
0.0
 20
0.0
 30
0.0
210
0.0
220
0.0
230
1.0
  2
SOLID
 70
     1
 71
     0
 91
        1
 92
        2
 72
     0
 73
     1
 93
        3
 10
0.0
 20
0.0
 10
-1.0
 20
-0.1665
 10
-1.0
 20
0.1665
 97
        0
 75
     0
 76
     1
 98
        1
 10
0.0
 20
0.0
1001
VDEXTRAPARAM
1071
        1
1071
        0
1071
        0
1040
1.0
1000

1000

1040
0.0
1040
0.0
1001
VD_TEMPHATCH
1000
VD_TEMPHATCH
  0
ENDBLK
  5
63C
330
5EB
100
AcDbEntity
  8
0
100
AcDbBlockEnd
  0
BLOCK
  5
63D
330
5ED
100
AcDbEntity
  8
0
100
AcDbBlockBegin
  2
VDDIM_NONE
 70
     0
 71
     0
 10
0.0
 20
0.0
 30
0.0
  3
VDDIM_NONE
  1

  0
ENDBLK
  5
63E
330
5ED
100
AcDbEntity
  8
0
100
AcDbBlockEnd
  0
BLOCK
  5
64B
330
640
100
AcDbEntity
  8
0
100
AcDbBlockBegin
  2
*D5
 70
     1
 71
     0
 10
0.0
 20
0.0
 30
0.0
  3
*D5
  1

  0
LINE
  5
641
330
640
100
AcDbEntity
  8
V0-VYPLNE
 62
     0
100
AcDbLine
 10
0.0
 20
63.0
 30
0.0
 11
0.0
 21
109.25
 31
0.0
  0
LINE
  5
642
330
640
100
AcDbEntity
  8
V0-VYPLNE
 62
     0
100
AcDbLine
 10
82.0
 20
46.0
 30
0.0
 11
82.0
 21
109.25
 31
0.0
  0
LINE
  5
643
330
640
100
AcDbEntity
  8
V0-VYPLNE
 62
     0
100
AcDbLine
 10
12.0
 20
108.0
 30
0.0
 11
30.90476190476191
 21
108.0
 31
0.0
  0
LINE
  5
644
330
640
100
AcDbEntity
  8
V0-VYPLNE
 62
     0
100
AcDbLine
 10
70.0
 20
108.0
 30
0.0
 11
50.0952380952381
 21
108.0
 31
0.0
  0
INSERT
  5
645
330
640
100
AcDbEntity
  8
V0-VYPLNE
 62
     0
100
AcDbBlockReference
  2
_OPEN
 10
0.0
 20
108.0
 30
0.0
 41
12.0
 42
12.0
 43
12.0
 50
180.0
  0
INSERT
  5
646
330
640
100
AcDbEntity
  8
V0-VYPLNE
 62
     0
100
AcDbBlockReference
  2
_OPEN
 10
82.0
 20
108.0
 30
0.0
 41
12.0
 42
12.0
 43
12.0
  0
MTEXT
  5
647
330
640
100
AcDbEntity
  8
V0-VYPLNE
 62
     0
100
AcDbMText
 10
40.5
 20
108.0
 30
0.0
 40
10.0
 41
0.0
 71
     5
 72
     1
  1
\A1;82
  7
ED5
  0
POINT
  5
648
330
640
100
AcDbEntity
  8
DEFPOINTS
 62
     0
100
AcDbPoint
 10
0.0
 20
62.0
 30
0.0
  0
POINT
  5
649
330
640
100
AcDbEntity
  8
DEFPOINTS
 62
     0
100
AcDbPoint
 10
82.0
 20
45.0
 30
0.0
  0
POINT
  5
64A
330
640
100
AcDbEntity
  8
DEFPOINTS
 62
     0
100
AcDbPoint
 10
82.0
 20
108.0
 30
0.0
  0
ENDBLK
  5
64C
330
640
100
AcDbEntity
  8
0
100
AcDbBlockEnd
  0
BLOCK
  5
657
330
64D
100
AcDbEntity
  8
0
100
AcDbBlockBegin
  2
*D6
 70
     1
 71
     0
 10
0.0
 20
0.0
 30
0.0
  3
*D6
  1

  0
LINE
  5
64E
330
64D
100
AcDbEntity
  8
V0-VYPLNE
 62
     0
100
AcDbLine
 10
23.0
 20
63.0
 30
0.0
 11
23.0
 21
78.875
 31
0.0
  0
LINE
  5
64F
330
64D
100
AcDbEntity
  8
V0-VYPLNE
 62
     0
100
AcDbLine
 10
82.0
 20
47.0
 30
0.0
 11
82.0
 21
78.875
 31
0.0
  0
LINE
  5
650
330
64D
100
AcDbEntity
  8
V0-VYPLNE
 62
     0
100
AcDbLine
 10
35.0
 20
77.625
 30
0.0
 11
70.0
 21
77.625
 31
0.0
  0
INSERT
  5
651
330
64D
100
AcDbEntity
  8
V0-VYPLNE
 62
     0
100
AcDbBlockReference
  2
_OPEN
 10
23.0
 20
77.625
 30
0.0
 41
12.0
 42
12.0
 43
12.0
 50
180.0
  0
INSERT
  5
652
330
64D
100
AcDbEntity
  8
V0-VYPLNE
 62
     0
100
AcDbBlockReference
  2
_OPEN
 10
82.0
 20
77.625
 30
0.0
 41
12.0
 42
12.0
 43
12.0
  0
MTEXT
  5
653
330
64D
100
AcDbEntity
  8
V0-VYPLNE
 62
     0
100
AcDbMText
 10
52.5
 20
84.125
 30
0.0
 40
10.0
 41
0.0
 71
     5
 72
     1
  1
\A1;59
  7
ED5
  0
POINT
  5
654
330
64D
100
AcDbEntity
  8
DEFPOINTS
 62
     0
100
AcDbPoint
 10
23.0
 20
62.0
 30
0.0
  0
POINT
  5
655
330
64D
100
AcDbEntity
  8
DEFPOINTS
 62
     0
100
AcDbPoint
 10
82.0
 20
46.0
 30
0.0
  0
POINT
  5
656
330
64D
100
AcDbEntity
  8
DEFPOINTS
 62
     0
100
AcDbPoint
 10
82.0
 20
77.625
 30
0.0
  0
ENDBLK
  5
658
330
64D
100
AcDbEntity
  8
0
100
AcDbBlockEnd
  0
BLOCK
  5
663
330
659
100
AcDbEntity
  8
0
100
AcDbBlockBegin
  2
*D7
 70
     1
 71
     0
 10
0.0
 20
0.0
 30
0.0
  3
*D7
  1

  0
LINE
  5
65A
330
659
100
AcDbEntity
  8
V0-VYPLNE
 62
     0
100
AcDbLine
 10
138.0
 20
-1.0
 30
0.0
 11
138.0
 21
-90.24999999999999
 31
0.0
  0
LINE
  5
65B
330
659
100
AcDbEntity
  8
V0-VYPLNE
 62
     0
100
AcDbLine
 10
262.0
 20
-1.0
 30
0.0
 11
262.0
 21
-90.25
 31
0.0
  0
LINE
  5
65C
330
659
100
AcDbEntity
  8
V0-VYPLNE
 62
     0
100
AcDbLine
 10
150.0
 20
-88.99999999999999
 30
0.0
 11
250.0
 21
-89.0
 31
0.0
  0
INSERT
  5
65D
330
659
100
AcDbEntity
  8
V0-VYPLNE
 62
     0
100
AcDbBlockReference
  2
_OPEN
 10
138.0
 20
-88.99999999999999
 30
0.0
 41
12.0
 42
12.0
 43
12.0
 50
180.0
  0
INSERT
  5
65E
330
659
100
AcDbEntity
  8
V0-VYPLNE
 62
     0
100
AcDbBlockReference
  2
_OPEN
 10
262.0
 20
-89.0
 30
0.0
 41
12.0
 42
12.0
 43
12.0
 50
360.0
  0
MTEXT
  5
65F
330
659
100
AcDbEntity
  8
V0-VYPLNE
 62
     0
100
AcDbMText
 10
200.0
 20
-82.5
 30
0.0
 40
10.0
 41
0.0
 71
     5
 72
     1
  1
\A1;124
  7
ED5
  0
POINT
  5
660
330
659
100
AcDbEntity
  8
DEFPOINTS
 62
     0
100
AcDbPoint
 10
138.0
 20
0.0
 30
0.0
  0
POINT
  5
661
330
659
100
AcDbEntity
  8
DEFPOINTS
 62
     0
100
AcDbPoint
 10
262.0
 20
0.0
 30
0.0
  0
POINT
  5
662
330
659
100
AcDbEntity
  8
DEFPOINTS
 62
     0
100
AcDbPoint
 10
262.0
 20
-89.0
 30
0.0
  0
ENDBLK
  5
664
330
659
100
AcDbEntity
  8
0
100
AcDbBlockEnd
  0
BLOCK
  5
670
330
665
100
AcDbEntity
  8
0
100
AcDbBlockBegin
  2
*D8
 70
     1
 71
     0
 10
0.0
 20
0.0
 30
0.0
  3
*D8
  1

  0
LINE
  5
666
330
665
100
AcDbEntity
  8
V0-VYPLNE
 62
     0
100
AcDbLine
 10
83.0
 20
45.0
 30
0.0
 11
103.2709420000001
 21
45.0
 31
0.0
  0
LINE
  5
667
330
665
100
AcDbEntity
  8
V0-VYPLNE
 62
     0
100
AcDbLine
 10
83.0
 20
-45.0
 30
0.0
 11
103.2709420000001
 21
-45.0
 31
0.0
  0
LINE
  5
668
330
665
100
AcDbEntity
  8
V0-VYPLNE
 62
     0
100
AcDbLine
 10
102.0209420000001
 20
33.0
 30
0.0
 11
102.0209420000001
 21
14.93796761904762
 31
0.0
  0
LINE
  5
669
330
665
100
AcDbEntity
  8
V0-VYPLNE
 62
     0
100
AcDbLine
 10
102.0209420000001
 20
-32.99999999999999
 30
0.0
 11
102.0209420000001
 21
-13.30012761904762
 31
0.0
  0
INSERT
  5
66A
330
665
100
AcDbEntity
  8
V0-VYPLNE
 62
     0
100
AcDbBlockReference
  2
_OPEN
 10
102.0209420000001
 20
45.0
 30
0.0
 41
12.0
 42
12.0
 43
12.0
 50
90.0
  0
INSERT
  5
66B
330
665
100
AcDbEntity
  8
V0-VYPLNE
 62
     0
100
AcDbBlockReference
  2
_OPEN
 10
102.0209420000001
 20
-44.99999999999999
 30
0.0
 41
12.0
 42
12.0
 43
12.0
 50
270.0
  0
MTEXT
  5
66C
330
665
100
AcDbEntity
  8
V0-VYPLNE
 62
     0
100
AcDbMText
 10
102.020942
 20
0.81892
 30
0.0
 40
10.0
 41
0.0
 71
     5
 72
     1
  1
%%c\A1;90
  7
ED5
 11
0.0
 21
1.0
 31
0.0
  0
POINT
  5
66D
330
665
100
AcDbEntity
  8
DEFPOINTS
 62
     0
100
AcDbPoint
 10
82.0
 20
45.0
 30
0.0
  0
POINT
  5
66E
330
665
100
AcDbEntity
  8
DEFPOINTS
 62
     0
100
AcDbPoint
 10
82.0
 20
-45.0
 30
0.0
  0
POINT
  5
66F
330
665
100
AcDbEntity
  8
DEFPOINTS
 62
     0
100
AcDbPoint
 10
102.0209420000001
 20
-45.0
 30
0.0
  0
ENDBLK
  5
671
330
665
100
AcDbEntity
  8
0
100
AcDbBlockEnd
  0
BLOCK
  5
67C
330
672
100
AcDbEntity
  8
0
100
AcDbBlockBegin
  2
*D9
 70
     1
 71
     0
 10
0.0
 20
0.0
 30
0.0
  3
*D9
  1

  0
LINE
  5
673
330
672
100
AcDbEntity
  8
V0-VYPLNE
 62
     0
100
AcDbLine
 10
199.0
 20
62.0
 30
0.0
 11
123.7188939999997
 21
62.00000000000001
 31
0.0
  0
LINE
  5
674
330
672
100
AcDbEntity
  8
V0-VYPLNE
 62
     0
100
AcDbLine
 10
199.0
 20
-62.0
 30
0.0
 11
123.7188939999996
 21
-61.99999999999999
 31
0.0
  0
LINE
  5
675
330
672
100
AcDbEntity
  8
V0-VYPLNE
 62
     0
100
AcDbLine
 10
124.9688939999997
 20
50.00000000000001
 30
0.0
 11
124.9688939999996
 21
-50.0
 31
0.0
  0
INSERT
  5
676
330
672
100
AcDbEntity
  8
V0-VYPLNE
 62
     0
100
AcDbBlockReference
  2
_OPEN
 10
124.9688939999997
 20
62.00000000000001
 30
0.0
 41
12.0
 42
12.0
 43
12.0
 50
89.99999999999999
  0
INSERT
  5
677
330
672
100
AcDbEntity
  8
V0-VYPLNE
 62
     0
100
AcDbBlockReference
  2
_OPEN
 10
124.9688939999996
 20
-62.0
 30
0.0
 41
12.0
 42
12.0
 43
12.0
 50
270.0
  0
MTEXT
  5
678
330
672
100
AcDbEntity
  8
V0-VYPLNE
 62
     0
100
AcDbMText
 10
118.4688939999996
 20
0.0000000000000077
 30
0.0
 40
10.0
 41
0.0
 71
     5
 72
     1
  1
\A1;124
  7
ED5
 11
1.146036670580807E-16
 21
1.0
 31
0.0
  0
POINT
  5
679
330
672
100
AcDbEntity
  8
DEFPOINTS
 62
     0
100
AcDbPoint
 10
200.0
 20
62.0
 30
0.0
  0
POINT
  5
67A
330
672
100
AcDbEntity
  8
DEFPOINTS
 62
     0
100
AcDbPoint
 10
200.0
 20
-62.0
 30
0.0
  0
POINT
  5
67B
330
672
100
AcDbEntity
  8
DEFPOINTS
 62
     0
100
AcDbPoint
 10
124.9688939999996
 20
-61.99999999999999
 30
0.0
  0
ENDBLK
  5
67D
330
672
100
AcDbEntity
  8
0
100
AcDbBlockEnd
  0
ENDSEC
  0
SECTION
  2
ENTITIES
  0
LINE
  5
197
330
60D
100
AcDbEntity
  8
V0-VYPLNE
  6
DASHDOT
 62
    63
100
AcDbLine
 10
-15.0
 20
0.0
 30
0.0
 11
88.0
 21
0.0
 31
0.0
  0
LINE
  5
198
330
60D
100
AcDbEntity
  8
V0-OBRYS
  6
CONTINUOUS
 62
    90
 48
5.0
100
AcDbLine
 10
1.0
 20
62.0
 30
0.0
 11
1.0
 21
-62.0
 31
0.0
  0
LINE
  5
199
330
60D
100
AcDbEntity
  8
V0-OBRYS
  6
CONTINUOUS
 62
    90
 48
5.0
100
AcDbLine
 10
1.0
 20
-62.0
 30
0.0
 11
23.0
 21
-62.0
 31
0.0
  0
LINE
  5
19A
330
60D
100
AcDbEntity
  8
V0-OBRYS
  6
CONTINUOUS
 62
    90
 48
5.0
100
AcDbLine
 10
23.0
 20
-62.0
 30
0.0
 11
23.0
 21
62.0
 31
0.0
  0
LINE
  5
19B
330
60D
100
AcDbEntity
  8
V0-OBRYS
  6
CONTINUOUS
 62
    90
 48
5.0
100
AcDbLine
 10
23.0
 20
62.0
 30
0.0
 11
1.0
 21
62.0
 31
0.0
  0
LINE
  5
1AC
330
60D
100
AcDbEntity
  8
V0-OBRYS
  6
CONTINUOUS
 62
    90
 48
5.0
100
AcDbLine
 10
23.0
 20
45.0
 30
0.0
 11
82.0
 21
45.0
 31
0.0
  0
LINE
  5
1AD
330
60D
100
AcDbEntity
  8
V0-OBRYS
  6
CONTINUOUS
 62
    90
 48
5.0
100
AcDbLine
 10
82.0
 20
45.0
 30
0.0
 11
82.0
 21
-45.0
 31
0.0
  0
LINE
  5
1AE
330
60D
100
AcDbEntity
  8
V0-OBRYS
  6
CONTINUOUS
 62
    90
 48
5.0
100
AcDbLine
 10
82.0
 20
-45.0
 30
0.0
 11
23.0
 21
-45.0
 31
0.0
  0
LINE
  5
1AF
330
60D
100
AcDbEntity
  8
V0-OBRYS
  6
CONTINUOUS
 62
    90
 48
5.0
100
AcDbLine
 10
1.0
 20
58.0
 30
0.0
 11
23.0
 21
58.0
 31
0.0
  0
LINE
  5
1B0
330
60D
100
AcDbEntity
  8
V0-OBRYS
  6
CONTINUOUS
 62
    90
 48
5.0
100
AcDbLine
 10
1.0
 20
-58.0
 30
0.0
 11
23.0
 21
-58.0
 31
0.0
  0
LINE
  5
1B1
330
60D
100
AcDbEntity
  8
V0-VYPLNE
  6
DASHDOT
 62
    63
100
AcDbLine
 10
200.0
 20
65.0
 30
0.0
 11
200.0
 21
-82.0
 31
0.0
  0
CIRCLE
  5
1B3
330
60D
100
AcDbEntity
  8
V0-OBRYS
  6
CONTINUOUS
 62
    90
100
AcDbCircle
 10
200.0
 20
0.0
 30
0.0
 40
45.0
  0
CIRCLE
  5
1B4
330
60D
100
AcDbEntity
  8
V0-OBRYS
  6
CONTINUOUS
 62
    90
100
AcDbCircle
 10
200.0
 20
0.0
 30
0.0
 40
41.0
  0
ARC
  5
1B7
330
60D
100
AcDbEntity
  8
V0-OBRYS
  6
CONTINUOUS
 62
    90
100
AcDbCircle
 10
200.0
 20
-781.0
 30
0.0
 40
843.0
100
AcDbArc
 50
86.526445
 51
93.47355500000001
  0
ARC
  5
1B8
330
60D
100
AcDbEntity
  8
V0-OBRYS
  6
CONTINUOUS
 62
    90
100
AcDbCircle
 10
981.0
 20
0.0
 30
0.0
 40
843.0
100
AcDbArc
 50
176.526445
 51
183.473555
  0
ARC
  5
1B9
330
60D
100
AcDbEntity
  8
V0-OBRYS
  6
CONTINUOUS
 62
    90
100
AcDbCircle
 10
200.0
 20
781.0
 30
0.0
 40
843.0
100
AcDbArc
 50
266.526445
 51
273.473555
  0
ARC
  5
1BA
330
60D
100
AcDbEntity
  8
V0-OBRYS
  6
CONTINUOUS
 62
    90
100
AcDbCircle
 10
-581.0
 20
0.0
 30
0.0
 40
843.0
100
AcDbArc
 50
356.526445
 51
3.473555
  0
ARC
  5
1BC
330
60D
100
AcDbEntity
  8
V0-OBRYS
  6
CONTINUOUS
 62
    90
100
AcDbCircle
 10
149.53033
 20
50.46967
 30
0.0
 40
10.0
100
AcDbArc
 50
93.47355500000001
 51
176.526445
  0
ARC
  5
1BD
330
60D
100
AcDbEntity
  8
V0-OBRYS
  6
CONTINUOUS
 62
    90
100
AcDbCircle
 10
149.53033
 20
-50.46967
 30
0.0
 40
10.0
100
AcDbArc
 50
183.473555
 51
266.526445
  0
ARC
  5
1BE
330
60D
100
AcDbEntity
  8
V0-OBRYS
  6
CONTINUOUS
 62
    90
100
AcDbCircle
 10
250.46967
 20
-50.46967
 30
0.0
 40
10.0
100
AcDbArc
 50
273.473555
 51
356.526445
  0
ARC
  5
1BF
330
60D
100
AcDbEntity
  8
V0-OBRYS
  6
CONTINUOUS
 62
    90
100
AcDbCircle
 10
250.46967
 20
50.46967
 30
0.0
 40
10.0
100
AcDbArc
 50
3.473555
 51
86.526445
  0
LINE
  5
1C0
330
60D
100
AcDbEntity
  8
V0-OBRYS
  6
CONTINUOUS
 62
    90
100
AcDbLine
 10
178.645843
 20
35.0
 30
0.0
 11
221.354157
 21
35.0
 31
0.0
  0
LINE
  5
1C1
330
60D
100
AcDbEntity
  8
V0-OBRYS
  6
CONTINUOUS
 62
    90
100
AcDbLine
 10
172.0
 20
30.0
 30
0.0
 11
172.053623
 21
30.0
 31
0.0
  0
LINE
  5
1C2
330
60D
100
AcDbEntity
  8
V0-OBRYS
  6
CONTINUOUS
 62
    90
100
AcDbLine
 10
167.503846
 20
25.0
 30
0.0
 11
232.496154
 21
25.0
 31
0.0
  0
LINE
  5
1C3
330
60D
100
AcDbEntity
  8
V0-OBRYS
  6
CONTINUOUS
 62
    90
100
AcDbLine
 10
164.20894
 20
20.0
 30
0.0
 11
235.79106
 21
20.0
 31
0.0
  0
LINE
  5
1C4
330
60D
100
AcDbEntity
  8
V0-OBRYS
  6
CONTINUOUS
 62
    90
100
AcDbLine
 10
162.250828
 20
16.0
 30
0.0
 11
238.0
 21
16.0
 31
0.0
  0
LINE
  5
1C5
330
60D
100
AcDbEntity
  8
V0-OBRYS
  6
CONTINUOUS
 62
    90
100
AcDbLine
 10
160.795408
 20
12.0
 30
0.0
 11
239.204592
 21
12.0
 31
0.0
  0
LINE
  5
1C6
330
60D
100
AcDbEntity
  8
V0-OBRYS
  6
CONTINUOUS
 62
    90
100
AcDbLine
 10
159.788061
 20
8.0
 30
0.0
 11
240.211939
 21
8.0
 31
0.0
  0
LINE
  5
1C7
330
60D
100
AcDbEntity
  8
V0-OBRYS
  6
CONTINUOUS
 62
    90
100
AcDbLine
 10
159.0
 20
4.0
 30
0.0
 11
241.0
 21
4.0
 31
0.0
  0
LINE
  5
1C8
330
60D
100
AcDbEntity
  8
V0-OBRYS
  6
CONTINUOUS
 62
    90
100
AcDbLine
 10
159.0
 20
0.0
 30
0.0
 11
241.0
 21
0.0
 31
0.0
  0
LINE
  5
1C9
330
60D
100
AcDbEntity
  8
V0-OBRYS
  6
CONTINUOUS
 62
    90
100
AcDbLine
 10
172.0
 20
30.0
 30
0.0
 11
228.0
 21
30.0
 31
0.0
  0
LINE
  5
1D2
330
60D
100
AcDbEntity
  8
V0-OBRYS
  6
CONTINUOUS
 62
    90
100
AcDbLine
 10
187.0
 20
39.0
 30
0.0
 11
212.0
 21
39.0
 31
0.0
  0
LINE
  5
1D3
330
60D
100
AcDbEntity
  8
V0-OBRYS
  6
CONTINUOUS
 62
    90
100
AcDbLine
 10
187.0
 20
-39.0
 30
0.0
 11
212.0
 21
-39.0
 31
0.0
  0
LINE
  5
1D4
330
60D
100
AcDbEntity
  8
V0-OBRYS
  6
CONTINUOUS
 62
    90
100
AcDbLine
 10
172.0
 20
-30.0
 30
0.0
 11
228.0
 21
-30.0
 31
0.0
  0
LINE
  5
1D5
330
60D
100
AcDbEntity
  8
V0-OBRYS
  6
CONTINUOUS
 62
    90
100
AcDbLine
 10
164.20894
 20
-20.0
 30
0.0
 11
235.79106
 21
-20.0
 31
0.0
  0
LINE
  5
1D6
330
60D
100
AcDbEntity
  8
V0-OBRYS
  6
CONTINUOUS
 62
    90
100
AcDbLine
 10
162.250828
 20
-16.0
 30
0.0
 11
238.0
 21
-16.0
 31
0.0
  0
LINE
  5
1D7
330
60D
100
AcDbEntity
  8
V0-OBRYS
  6
CONTINUOUS
 62
    90
100
AcDbLine
 10
167.503846
 20
-25.0
 30
0.0
 11
232.496154
 21
-25.0
 31
0.0
  0
LINE
  5
1D8
330
60D
100
AcDbEntity
  8
V0-OBRYS
  6
CONTINUOUS
 62
    90
100
AcDbLine
 10
159.788061
 20
-8.0
 30
0.0
 11
240.211939
 21
-8.0
 31
0.0
  0
LINE
  5
1D9
330
60D
100
AcDbEntity
  8
V0-OBRYS
  6
CONTINUOUS
 62
    90
100
AcDbLine
 10
160.795408
 20
-12.0
 30
0.0
 11
239.204592
 21
-12.0
 31
0.0
  0
LINE
  5
1DA
330
60D
100
AcDbEntity
  8
V0-OBRYS
  6
CONTINUOUS
 62
    90
100
AcDbLine
 10
178.645843
 20
-35.0
 30
0.0
 11
221.354157
 21
-35.0
 31
0.0
  0
LINE
  5
1DB
330
60D
100
AcDbEntity
  8
V0-OBRYS
  6
CONTINUOUS
 62
    90
100
AcDbLine
 10
159.0
 20
-4.0
 30
0.0
 11
241.0
 21
-4.0
 31
0.0
  0
LINE
  5
1DC
330
60D
100
AcDbEntity
  8
V0-VYPLNE
  6
DASHDOT
 62
    63
100
AcDbLine
 10
200.0
 20
71.0
 30
0.0
 11
200.0
 21
-67.0
 31
0.0
  0
LINE
  5
1DD
330
60D
100
AcDbEntity
  8
V0-VYPLNE
  6
DASHDOT
 62
    63
100
AcDbLine
 10
127.0
 20
0.0
 30
0.0
 11
277.0
 21
0.0
 31
0.0
  0
LINE
  5
1DF
330
60D
100
AcDbEntity
  8
V0-VYPLNE
  6
DASHDOT
 62
    63
100
AcDbLine
 10
-15.0
 20
-167.0
 30
0.0
 11
88.0
 21
-167.0
 31
0.0
  0
LINE
  5
1E0
330
60D
100
AcDbEntity
  8
V0-OBRYS
  6
CONTINUOUS
 62
    90
 48
5.0
100
AcDbLine
 10
23.0
 20
-105.0
 30
0.0
 11
1.0
 21
-105.0
 31
0.0
  0
LINE
  5
1E1
330
60D
100
AcDbEntity
  8
V0-OBRYS
  6
CONTINUOUS
 62
    90
 48
5.0
100
AcDbLine
 10
1.0
 20
-109.0
 30
0.0
 11
23.0
 21
-109.0
 31
0.0
  0
LINE
  5
1E2
330
60D
100
AcDbEntity
  8
V0-OBRYS
  6
CONTINUOUS
 62
    90
 48
5.0
100
AcDbLine
 10
1.0
 20
-225.0
 30
0.0
 11
23.0
 21
-225.0
 31
0.0
  0
LINE
  5
1E3
330
60D
100
AcDbEntity
  8
V0-OBRYS
  6
CONTINUOUS
 62
    90
 48
5.0
100
AcDbLine
 10
1.0
 20
-229.0
 30
0.0
 11
23.0
 21
-229.0
 31
0.0
  0
LINE
  5
1E4
330
60D
100
AcDbEntity
  8
V0-OBRYS
  6
CONTINUOUS
 62
    90
 48
5.0
100
AcDbLine
 10
1.0
 20
-105.0
 30
0.0
 11
1.0
 21
-229.0
 31
0.0
  0
LINE
  5
1E5
330
60D
100
AcDbEntity
  8
V0-OBRYS
  6
CONTINUOUS
 62
    90
 48
5.0
100
AcDbLine
 10
82.0
 20
-122.0
 30
0.0
 11
82.0
 21
-212.0
 31
0.0
  0
LINE
  5
1E6
330
60D
100
AcDbEntity
  8
V0-OBRYS
  6
CONTINUOUS
 62
    90
 48
5.0
100
AcDbLine
 10
23.0
 20
-229.0
 30
0.0
 11
23.0
 21
-105.0
 31
0.0
  0
LINE
  5
1E7
330
60D
100
AcDbEntity
  8
V0-OBRYS
  6
CONTINUOUS
 62
    90
 48
5.0
100
AcDbLine
 10
82.0
 20
-212.0
 30
0.0
 11
23.0
 21
-212.0
 31
0.0
  0
LINE
  5
1E8
330
60D
100
AcDbEntity
  8
V0-OBRYS
  6
CONTINUOUS
 62
    90
 48
5.0
100
AcDbLine
 10
23.0
 20
-122.0
 30
0.0
 11
82.0
 21
-122.0
 31
0.0
  0
DIMENSION
  5
3C8
330
60D
100
AcDbEntity
  8
V0-VYPLNE
  6
CONTINUOUS
 62
    41
100
AcDbDimension
  2
*D5
 10
82.0
 20
108.0
 30
0.0
 11
40.5
 21
108.0
 31
0.0
 70
   160
  3
ED5
100
AcDbAlignedDimension
 13
0.0
 23
62.0
 33
0.0
 14
82.0
 24
45.0
 34
0.0
100
AcDbRotatedDimension
1001
ACAD
1000
DSTYLE
1002
{
1070
    40
1040
1.0
1002
}
  0
DIMENSION
  5
3EF
330
60D
100
AcDbEntity
  8
V0-VYPLNE
  6
CONTINUOUS
 62
    41
100
AcDbDimension
  2
*D6
 10
82.0
 20
77.625
 30
0.0
 11
52.5
 21
84.125
 31
0.0
 70
    32
  3
ED5
100
AcDbAlignedDimension
 13
23.0
 23
62.0
 33
0.0
 14
82.0
 24
46.0
 34
0.0
100
AcDbRotatedDimension
1001
ACAD
1000
DSTYLE
1002
{
1070
    40
1040
1.0
1002
}
  0
DIMENSION
  5
3FC
330
60D
100
AcDbEntity
  8
V0-VYPLNE
  6
CONTINUOUS
 62
    41
100
AcDbDimension
  2
*D7
 10
262.0
 20
-89.0
 30
0.0
 11
200.0
 21
-82.5
 31
0.0
 70
    32
  3
ED5
100
AcDbAlignedDimension
 13
138.0
 23
0.0
 33
0.0
 14
262.0
 24
0.0
 34
0.0
100
AcDbRotatedDimension
1001
ACAD
1000
DSTYLE
1002
{
1070
    40
1040
1.0
1002
}
  0
DIMENSION
  5
409
330
60D
100
AcDbEntity
  8
V0-VYPLNE
  6
CONTINUOUS
 62
    41
100
AcDbDimension
  2
*D8
 10
102.0209420000001
 20
-45.0
 30
0.0
 11
102.020942
 21
0.81892
 31
0.0
 70
   160
  1
%%c<>
  3
ED5
100
AcDbAlignedDimension
 13
82.0
 23
45.0
 33
0.0
 14
82.0
 24
-45.0
 34
0.0
 50
90.0
100
AcDbRotatedDimension
1001
ACAD
1000
DSTYLE
1002
{
1070
    40
1040
1.0
1002
}
  0
POINT
  5
516
330
60D
100
AcDbEntity
  8
V0-VYPLNE
  6
CONTINUOUS
 62
    63
100
AcDbPoint
 10
23.0
 20
0.0
 30
0.0
  0
POINT
  5
517
330
60D
100
AcDbEntity
  8
V0-VYPLNE
  6
CONTINUOUS
 62
    63
100
AcDbPoint
 10
23.0
 20
-167.0
 30
0.0
  0
POINT
  5
518
330
60D
100
AcDbEntity
  8
V0-VYPLNE
  6
CONTINUOUS
 62
    63
100
AcDbPoint
 10
200.0
 20
0.0
 30
0.0
  0
DIMENSION
  5
535
330
60D
100
AcDbEntity
  8
V0-VYPLNE
  6
CONTINUOUS
 62
    41
100
AcDbDimension
  2
*D9
 10
124.9688939999996
 20
-61.99999999999999
 30
0.0
 11
118.4688939999996
 21
0.0000000000000077
 31
0.0
 70
    32
  3
ED5
100
AcDbAlignedDimension
 13
200.0
 23
62.0
 33
0.0
 14
200.0
 24
-62.0
 34
0.0
 50
90.0
100
AcDbRotatedDimension
1001
ACAD
1000
DSTYLE
1002
{
1070
    40
1040
1.0
1002
}
  0
TEXT
  5
5E4
330
60D
100
AcDbEntity
  8
V0-ZBYTEK
 62
    51
100
AcDbText
 10
137.82502
 20
-168.3493393333334
 30
0.0
 40
14.0
  1
MALY AXIALNI
  7
ED5
100
AcDbText
  0
TEXT
  5
5E5
330
60D
100
AcDbEntity
  8
V0-ZBYTEK
 62
    51
100
AcDbText
 10
141.424325502381
 20
-189.6677035190477
 30
0.0
 40
14.0
  1
VENTILATOR
  7
ED5
100
AcDbText
  0
TEXT
  5
5E6
330
60D
100
AcDbEntity
  8
V0-NAZVY
100
AcDbText
 10
137.1158209047619
 20
-145.227656
 30
0.0
 40
25.0
  1
EDM 80
  7
ED5
100
AcDbText
  0
VIEWPORT
  5
67E
330
609
100
AcDbEntity
 67
     1
  8
0
 60
     1
100
AcDbViewport
 10
0.0
 20
0.0
 30
0.0
 40
10.0
 41
10.0
 68
     0
 69
     1
1001
VD_INVISIBLE_NOT_FOR_READ
1000
VD_INVISIBLE_NOT_FOR_READ
1001
ACAD
1000
MVIEW
1002
{
1070
    16
1010
0.0
1020
0.0
1030
0.0
1010
0.0
1020
0.0
1030
1.0
1040
6.2831853071796
1040
10.0
1040
0.0
1040
0.0
1040
0.0
1040
0.0
1040
0.0
1070
     0
1070
   100
1070
     0
1070
     1
1070
     0
1070
     0
1070
     0
1070
     0
1040
0.0
1040
0.0
1040
0.0
1040
1.0
1040
1.0
1040
0.0
1040
0.0
1070
     0
1002
{
1002
}
1002
}
  0
VIEWPORT
  5
67F
330
609
100
AcDbEntity
 67
     1
  8
0
 60
     1
100
AcDbViewport
 10
0.0
 20
0.0
 30
0.0
 40
10.0
 41
10.0
 68
     0
 69
     2
1001
VD_INVISIBLE_NOT_FOR_READ
1000
VD_INVISIBLE_NOT_FOR_READ
1001
ACAD
1000
MVIEW
1002
{
1070
    16
1010
0.0
1020
0.0
1030
0.0
1010
0.0
1020
0.0
1030
1.0
1040
6.2831853071796
1040
10.0
1040
0.0
1040
0.0
1040
0.0
1040
0.0
1040
0.0
1070
     0
1070
   100
1070
     0
1070
     1
1070
     0
1070
     0
1070
     0
1070
     0
1040
0.0
1040
0.0
1040
0.0
1040
1.0
1040
1.0
1040
0.0
1040
0.0
1070
     0
1002
{
1002
}
1002
}
  0
ENDSEC
  0
SECTION
  2
OBJECTS
  0
DICTIONARY
  5
5FA
330
0
100
AcDbDictionary
  3
ACAD_GROUP
350
5FB
  3
ACAD_LAYOUT
350
608
  3
ACAD_MLINESTYLE
350
605
  3
ACAD_PLOTSETTINGS
350
607
  3
ACDBHEADERROUNDTRIPXREC
350
680
  3
VECTORDRAW_OBJECTS
350
61D
  0
DICTIONARY
  5
6A0
330
617
100
AcDbDictionary
280
     1
  3
ACAD_XREC_ROUNDTRIP
360
6A1
  0
DICTIONARY
  5
5FB
102
{ACAD_REACTORS
330
5FA
102
}
330
5FA
100
AcDbDictionary
  0
DICTIONARY
  5
608
102
{ACAD_REACTORS
330
5FA
102
}
330
5FA
100
AcDbDictionary
  0
DICTIONARY
  5
605
102
{ACAD_REACTORS
330
5FA
102
}
330
5FA
100
AcDbDictionary
  3
STANDARD
350
606
  0
DICTIONARY
  5
607
102
{ACAD_REACTORS
330
5FA
102
}
330
5FA
100
AcDbDictionary
  0
DICTIONARY
  5
680
102
{ACAD_REACTORS
330
5FA
102
}
330
5FA
100
AcDbDictionary
  3
CEPSNTYPE
350
689
  3
DIMSTYLEDATA
350
69F
  3
FINGERPRINTGUID
350
68A
  3
HYPERLINKBASE
350
683
  3
INSUNITS
350
688
  3
LAYOUTDICT
350
685
  3
LWETCUNION
350
687
  3
PLOTSETDICT
350
686
  3
PSVPSCALE
350
68C
  3
PUCSBASE
350
68F
  3
PUCSORGBACK
350
695
  3
PUCSORGBOTTOM
350
691
  3
PUCSORGFRONT
350
694
  3
PUCSORGLEFT
350
692
  3
PUCSORGRIGHT
350
693
  3
PUCSORGTOP
350
690
  3
PUCSORTHOREF
350
68D
  3
PUCSORTHOVIEW
350
68E
  3
STYLESHEET
350
684
  3
TSTACKALIGN
350
681
  3
TSTACKSIZE
350
682
  3
UCSBASE
350
698
  3
UCSORGBACK
350
69E
  3
UCSORGBOTTOM
350
69A
  3
UCSORGFRONT
350
69D
  3
UCSORGLEFT
350
69B
  3
UCSORGRIGHT
350
69C
  3
UCSORGTOP
350
699
  3
UCSORTHOREF
350
696
  3
UCSORTHOVIEW
350
697
  3
VERSIONGUID
350
68B
  0
DICTIONARY
  5
61D
102
{ACAD_REACTORS
330
5FA
102
}
330
5FA
100
AcDbDictionary
  3
SERIALNO
350
61E
  0
XRECORD
  5
6A1
102
{ACAD_REACTORS
330
6A0
102
}
330
6A0
100
AcDbXrecord
102
UCS
 74
     0
 71
     1
 10
0.0
 20
0.0
 30
0.0
 10
1.0
 20
0.0
 30
0.0
 10
0.0
 20
1.0
 30
0.0
146
0.0
 79
     0
102
VIEW
281
     0
  0
MLINESTYLE
  5
606
102
{ACAD_REACTORS
330
605
102
}
330
605
100
AcDbMlineStyle
  2
Standard
 70
     0
  3

 62
   256
 51
90.0
 52
90.0
 71
     2
 49
0.5
 62
   256
  6
BYLAYER
 49
-0.5
 62
   256
  6
BYLAYER
  0
XRECORD
  5
689
102
{ACAD_REACTORS
330
680
102
}
330
680
100
AcDbXrecord
 90
        0
  0
XRECORD
  5
69F
102
{ACAD_REACTORS
330
680
102
}
330
680
100
AcDbXrecord
1000
DSTYLE
1002
{
1070
    41
 40
12.0
1070
   342
340
1D
1070
   271
 70
     0
1070
    44
 40
1.25
1070
    42
 40
1.0
1070
   147
 40
1.5
1070
    77
 70
     1
1070
    73
 70
     0
1070
   174
 70
     1
1070
   172
 70
     1
1070
    74
 70
     0
1070
   340
340
415
1070
   140
 40
10.0
1070
   288
 70
     1
1002
}
  0
XRECORD
  5
68A
102
{ACAD_REACTORS
330
680
102
}
330
680
100
AcDbXrecord
  1
{FAEB1C30-E019-11D5-929B-00C0DF256EC4}
  0
XRECORD
  5
683
102
{ACAD_REACTORS
330
680
102
}
330
680
100
AcDbXrecord
  1

  0
XRECORD
  5
688
102
{ACAD_REACTORS
330
680
102
}
330
680
100
AcDbXrecord
 90
        1
  0
XRECORD
  5
685
102
{ACAD_REACTORS
330
680
102
}
330
680
100
AcDbXrecord
340
608
  0
XRECORD
  5
687
102
{ACAD_REACTORS
330
680
102
}
330
680
100
AcDbXrecord
 90
     2560
  0
XRECORD
  5
686
102
{ACAD_REACTORS
330
680
102
}
330
680
100
AcDbXrecord
340
607
  0
XRECORD
  5
68C
102
{ACAD_REACTORS
330
680
102
}
330
680
100
AcDbXrecord
 40
0.0
  0
XRECORD
  5
68F
102
{ACAD_REACTORS
330
680
102
}
330
680
100
AcDbXrecord
340
0
  0
XRECORD
  5
695
102
{ACAD_REACTORS
330
680
102
}
330
680
100
AcDbXrecord
 10
0.0
 20
0.0
 30
0.0
  0
XRECORD
  5
691
102
{ACAD_REACTORS
330
680
102
}
330
680
100
AcDbXrecord
 10
0.0
 20
0.0
 30
0.0
  0
XRECORD
  5
694
102
{ACAD_REACTORS
330
680
102
}
330
680
100
AcDbXrecord
 10
0.0
 20
0.0
 30
0.0
  0
XRECORD
  5
692
102
{ACAD_REACTORS
330
680
102
}
330
680
100
AcDbXrecord
 10
0.0
 20
0.0
 30
0.0
  0
XRECORD
  5
693
102
{ACAD_REACTORS
330
680
102
}
330
680
100
AcDbXrecord
 10
0.0
 20
0.0
 30
0.0
  0
XRECORD
  5
690
102
{ACAD_REACTORS
330
680
102
}
330
680
100
AcDbXrecord
 10
0.0
 20
0.0
 30
0.0
  0
XRECORD
  5
68D
102
{ACAD_REACTORS
330
680
102
}
330
680
100
AcDbXrecord
340
0
  0
XRECORD
  5
68E
102
{ACAD_REACTORS
330
680
102
}
330
680
100
AcDbXrecord
 70
     0
  0
XRECORD
  5
684
102
{ACAD_REACTORS
330
680
102
}
330
680
100
AcDbXrecord
  1

  0
XRECORD
  5
681
102
{ACAD_REACTORS
330
680
102
}
330
680
100
AcDbXrecord
 90
        1
  0
XRECORD
  5
682
102
{ACAD_REACTORS
330
680
102
}
330
680
100
AcDbXrecord
 90
       70
  0
XRECORD
  5
698
102
{ACAD_REACTORS
330
680
102
}
330
680
100
AcDbXrecord
340
0
  0
XRECORD
  5
69E
102
{ACAD_REACTORS
330
680
102
}
330
680
100
AcDbXrecord
 10
0.0
 20
0.0
 30
0.0
  0
XRECORD
  5
69A
102
{ACAD_REACTORS
330
680
102
}
330
680
100
AcDbXrecord
 10
0.0
 20
0.0
 30
0.0
  0
XRECORD
  5
69D
102
{ACAD_REACTORS
330
680
102
}
330
680
100
AcDbXrecord
 10
0.0
 20
0.0
 30
0.0
  0
XRECORD
  5
69B
102
{ACAD_REACTORS
330
680
102
}
330
680
100
AcDbXrecord
 10
0.0
 20
0.0
 30
0.0
  0
XRECORD
  5
69C
102
{ACAD_REACTORS
330
680
102
}
330
680
100
AcDbXrecord
 10
0.0
 20
0.0
 30
0.0
  0
XRECORD
  5
699
102
{ACAD_REACTORS
330
680
102
}
330
680
100
AcDbXrecord
 10
0.0
 20
0.0
 30
0.0
  0
XRECORD
  5
696
102
{ACAD_REACTORS
330
680
102
}
330
680
100
AcDbXrecord
340
0
  0
XRECORD
  5
697
102
{ACAD_REACTORS
330
680
102
}
330
680
100
AcDbXrecord
 70
     0
  0
XRECORD
  5
68B
102
{ACAD_REACTORS
330
680
102
}
330
680
100
AcDbXrecord
  1
{FAEB1C32-E019-11D5-929B-00C0DF256EC4}
  0
XRECORD
  5
61E
102
{ACAD_REACTORS
330
61D
102
}
330
61D
100
AcDbXrecord
1000
rInJVR9YY4Q8hfPWdUq5j5319
1070
     4
1070
     6
  0
ENDSEC
  0
EOF
