  0
SECTION
  2
HEADER
  9
$ACADVER
  1
AC1014
  9
$ACADMAINTVER
 70
     9
  9
$DWGCODEPAGE
  3
ANSI_1250
  9
$INSBASE
 10
0.0
 20
0.0
 30
0.0
  9
$EXTMIN
 10
-41.3502
 20
-293.603787
 30
0.0
  9
$EXTMAX
 10
388.763826
 20
161.4767076923085
 30
0.0
  9
$LIMMIN
 10
0.0
 20
0.0
  9
$LIMMAX
 10
0.0
 20
0.0
  9
$ORTHOMODE
 70
     1
  9
$REGENMODE
 70
     1
  9
$FILLMODE
 70
     1
  9
$QTEXTMODE
 70
     0
  9
$MIRRTEXT
 70
     1
  9
$DRAGMODE
 70
     2
  9
$LTSCALE
 40
15.0
  9
$OSMODE
 70
    37
  9
$ATTMODE
 70
     1
  9
$TEXTSIZE
 40
0.2
  9
$TRACEWID
 40
0.05
  9
$TEXTSTYLE
  7
ED10
  9
$CLAYER
  8
V0-VYPLNE
  9
$CELTYPE
  6
CONTINUOUS
  9
$CECOLOR
 62
    41
  9
$CELTSCALE
 40
1.0
  9
$DELOBJ
 70
     1
  9
$DISPSILH
 70
     0
  9
$DIMSCALE
 40
1.0
  9
$DIMASZ
 40
12.0
  9
$DIMEXO
 40
1.0
  9
$DIMDLI
 40
0.38
  9
$DIMRND
 40
0.0
  9
$DIMDLE
 40
0.0
  9
$DIMEXE
 40
1.25
  9
$DIMTP
 40
0.0
  9
$DIMTM
 40
0.0
  9
$DIMTXT
 40
10.0
  9
$DIMCEN
 40
0.09
  9
$DIMTSZ
 40
0.0
  9
$DIMTOL
 70
     0
  9
$DIMLIM
 70
     0
  9
$DIMTIH
 70
     0
  9
$DIMTOH
 70
     0
  9
$DIMSE1
 70
     0
  9
$DIMSE2
 70
     0
  9
$DIMTAD
 70
     1
  9
$DIMZIN
 70
     0
  9
$DIMBLK
  1
OPEN
  9
$DIMASO
 70
     1
  9
$DIMSHO
 70
     1
  9
$DIMPOST
  1

  9
$DIMAPOST
  1

  9
$DIMALT
 70
     0
  9
$DIMALTD
 70
     2
  9
$DIMALTF
 40
25.4
  9
$DIMLFAC
 40
1.0
  9
$DIMTOFL
 70
     1
  9
$DIMTVP
 40
0.0
  9
$DIMTIX
 70
     1
  9
$DIMSOXD
 70
     0
  9
$DIMSAH
 70
     0
  9
$DIMBLK1
  1

  9
$DIMBLK2
  1

  9
$DIMSTYLE
  2
ED5
  9
$DIMCLRD
 70
     0
  9
$DIMCLRE
 70
     0
  9
$DIMCLRT
 70
     0
  9
$DIMTFAC
 40
1.0
  9
$DIMGAP
 40
1.5
  9
$DIMJUST
 70
     0
  9
$DIMSD1
 70
     0
  9
$DIMSD2
 70
     0
  9
$DIMTOLJ
 70
     1
  9
$DIMTZIN
 70
     0
  9
$DIMALTZ
 70
     0
  9
$DIMALTTZ
 70
     0
  9
$DIMFIT
 70
     3
  9
$DIMUPT
 70
     1
  9
$DIMUNIT
 70
     2
  9
$DIMDEC
 70
     0
  9
$DIMTDEC
 70
     4
  9
$DIMALTU
 70
     2
  9
$DIMALTTD
 70
     2
  9
$DIMTXSTY
  7
ED5
  9
$DIMAUNIT
 70
     0
  9
$LUNITS
 70
     2
  9
$LUPREC
 70
     4
  9
$SKETCHINC
 40
0.1
  9
$FILLETRAD
 40
0.5
  9
$AUNITS
 70
     0
  9
$AUPREC
 70
     0
  9
$MENU
  1
.
  9
$ELEVATION
 40
0.0
  9
$PELEVATION
 40
0.0
  9
$THICKNESS
 40
0.0
  9
$LIMCHECK
 70
     0
  9
$BLIPMODE
 70
     0
  9
$CHAMFERA
 40
0.5
  9
$CHAMFERB
 40
0.5
  9
$CHAMFERC
 40
1.0
  9
$CHAMFERD
 40
0.0
  9
$SKPOLY
 70
     0
  9
$TDCREATE
 40
2455593.591290509
  9
$TDUPDATE
 40
2455593.591290521
  9
$TDINDWG
 40
0.0000000116
  9
$TDUSRTIMER
 40
0.0000000116
  9
$USRTIMER
 70
     1
  9
$ANGBASE
 50
0.0
  9
$ANGDIR
 70
     0
  9
$PDMODE
 70
     3
  9
$PDSIZE
 40
15.0
  9
$PLINEWID
 40
0.0
  9
$COORDS
 70
     1
  9
$SPLFRAME
 70
     0
  9
$SPLINETYPE
 70
     6
  9
$SPLINESEGS
 70
     8
  9
$ATTDIA
 70
     0
  9
$ATTREQ
 70
     1
  9
$HANDLING
 70
     1
  9
$HANDSEED
  5
D28
  9
$SURFTAB1
 70
     6
  9
$SURFTAB2
 70
     6
  9
$SURFTYPE
 70
     6
  9
$SURFU
 70
     6
  9
$SURFV
 70
     6
  9
$UCSNAME
  2

  9
$UCSORG
 10
0.0
 20
0.0
 30
0.0
  9
$UCSXDIR
 10
1.0
 20
0.0
 30
0.0
  9
$UCSYDIR
 10
0.0
 20
1.0
 30
0.0
  9
$PUCSNAME
  2

  9
$PUCSORG
 10
0.0
 20
0.0
 30
0.0
  9
$PUCSXDIR
 10
1.0
 20
0.0
 30
0.0
  9
$PUCSYDIR
 10
0.0
 20
1.0
 30
0.0
  9
$USERI1
 70
     0
  9
$USERI2
 70
     0
  9
$USERI3
 70
     0
  9
$USERI4
 70
     0
  9
$USERI5
 70
     0
  9
$USERR1
 40
0.0
  9
$USERR2
 40
0.0
  9
$USERR3
 40
0.0
  9
$USERR4
 40
0.0
  9
$USERR5
 40
0.0
  9
$WORLDVIEW
 70
     1
  9
$SHADEDGE
 70
     3
  9
$SHADEDIF
 70
    70
  9
$TILEMODE
 70
     1
  9
$MAXACTVP
 70
    64
  9
$PINSBASE
 10
0.0
 20
0.0
 30
0.0
  9
$PLIMCHECK
 70
     0
  9
$PEXTMIN
 10
1.000000000000000E+20
 20
1.000000000000000E+20
 30
1.000000000000000E+20
  9
$PEXTMAX
 10
-1.000000000000000E+20
 20
-1.000000000000000E+20
 30
-1.000000000000000E+20
  9
$PLIMMIN
 10
0.0
 20
0.0
  9
$PLIMMAX
 10
12.0
 20
9.0
  9
$UNITMODE
 70
     0
  9
$VISRETAIN
 70
     1
  9
$PLINEGEN
 70
     0
  9
$PSLTSCALE
 70
     1
  9
$TREEDEPTH
 70
  3020
  9
$PICKSTYLE
 70
     1
  9
$CMLSTYLE
  2
STANDARD
  9
$CMLJUST
 70
     0
  9
$CMLSCALE
 40
1.0
  9
$PROXYGRAPHICS
 70
     1
  9
$MEASUREMENT
 70
     0
  0
ENDSEC
  0
SECTION
  2
CLASSES
  0
CLASS
  1
ACDBDICTIONARYWDFLT
  2
AcDbDictionaryWithDefault
  3
ObjectDBX Classes
 90
        0
280
     0
281
     0
  0
CLASS
  1
XRECORD
  2
AcDbXrecord
  3
AutoCAD 2000
 90
        0
280
     0
281
     0
  0
CLASS
  1
LWPOLYLINE
  2
AcDbPolyline
  3
AutoCAD 2000
 90
        0
280
     0
281
     1
  0
CLASS
  1
HATCH
  2
AcDbHatch
  3
AutoCAD 2000
 90
        0
280
     0
281
     1
  0
CLASS
  1
ACDBPLACEHOLDER
  2
AcDbPlaceHolder
  3
ObjectDBX Classes
 90
        0
280
     0
281
     0
  0
CLASS
  1
LAYOUT
  2
AcDbLayout
  3
ObjectDBX Classes
 90
        0
280
     0
281
     0
  0
ENDSEC
  0
SECTION
  2
TABLES
  0
TABLE
  2
VPORT
  5
C7D
330
0
100
AcDbSymbolTable
 70
     2
  0
VPORT
  5
C9E
102
{ACAD_XDICTIONARY
360
D26
102
}
330
C7D
100
AcDbSymbolTableRecord
100
AcDbViewportTableRecord
  2
*ACTIVE
 70
     0
 10
0.0
 20
0.0
 11
1.0
 21
1.0
 12
257.353718
 22
-72.37539700000001
 13
0.0
 23
0.0
 14
1.0
 24
1.0
 15
5.0
 25
5.0
 16
0.0
 26
0.0
 36
1.0
 17
0.0
 27
0.0
 37
0.0
 40
495.7748
 41
0.0358161745124056
 42
50.0
 43
0.0
 44
0.0
 50
0.0
 51
0.0000000000007958
 71
     0
 72
   100
 73
     1
 74
     3
 75
     0
 76
     0
 77
     0
 78
     0
  0
ENDTAB
  0
TABLE
  2
LTYPE
  5
C7A
330
0
100
AcDbSymbolTable
 70
    25
  0
LTYPE
  5
C89
330
C7A
100
AcDbSymbolTableRecord
100
AcDbLinetypeTableRecord
  2
BYBLOCK
 70
     0
  3

 72
    65
 73
     0
 40
0.0
  0
LTYPE
  5
C8A
330
C7A
100
AcDbSymbolTableRecord
100
AcDbLinetypeTableRecord
  2
BYLAYER
 70
     0
  3

 72
    65
 73
     0
 40
0.0
  0
LTYPE
  5
C8B
330
C7A
100
AcDbSymbolTableRecord
100
AcDbLinetypeTableRecord
  2
CONTINUOUS
 70
     0
  3
Solid line
 72
    65
 73
     0
 40
0.0
  0
LTYPE
  5
CA6
330
C7A
100
AcDbSymbolTableRecord
100
AcDbLinetypeTableRecord
  2
CENTER
 70
     0
  3
Center ____ _ ____ _ ____ _ ____ _ ____ _ ____
 72
    65
 73
     4
 40
2.0
 49
1.25
 74
     0
 49
-0.25
 74
     0
 49
0.25
 74
     0
 49
-0.25
 74
     0
  0
LTYPE
  5
CA7
330
C7A
100
AcDbSymbolTableRecord
100
AcDbLinetypeTableRecord
  2
DASHDOT
 70
     0
  3
Dashdot __ . __ . __ . __ . __ . __ . __ . __
 72
    65
 73
     4
 40
1.0
 49
0.5
 74
     0
 49
-0.25
 74
     0
 49
0.0
 74
     0
 49
-0.25
 74
     0
  0
LTYPE
  5
CA8
330
C7A
100
AcDbSymbolTableRecord
100
AcDbLinetypeTableRecord
  2
DASHED
 70
     0
  3
Dashed __ __ __ __ __ __ __ __ __ __ __ __ __ _
 72
    65
 73
     2
 40
0.75
 49
0.5
 74
     0
 49
-0.25
 74
     0
  0
LTYPE
  5
CA9
330
C7A
100
AcDbSymbolTableRecord
100
AcDbLinetypeTableRecord
  2
HIDDEN
 70
     0
  3
Hidden __ __ __ __ __ __ __ __ __ __ __ __ __ __
 72
    65
 73
     2
 40
0.375
 49
0.25
 74
     0
 49
-0.125
 74
     0
  0
LTYPE
  5
CAA
330
C7A
100
AcDbSymbolTableRecord
100
AcDbLinetypeTableRecord
  2
HIDDEN2
 70
     0
  3
Hidden2 _ _ _ _ _ _ _ _ _ _ _ _ _ _ _ _ _ 
 72
    65
 73
     2
 40
0.1875
 49
0.125
 74
     0
 49
-0.0625
 74
     0
  0
LTYPE
  5
CAB
330
C7A
100
AcDbSymbolTableRecord
100
AcDbLinetypeTableRecord
  2
BORDER
 70
     0
  3
Border __ __ . __ __ . __ __ . __ __ . __ __ .
 72
    65
 73
     6
 40
1.75
 49
0.5
 74
     0
 49
-0.25
 74
     0
 49
0.5
 74
     0
 49
-0.25
 74
     0
 49
0.0
 74
     0
 49
-0.25
 74
     0
  0
LTYPE
  5
CAC
330
C7A
100
AcDbSymbolTableRecord
100
AcDbLinetypeTableRecord
  2
BORDER2
 70
     0
  3
Border2 __.__.__.__.__.__.__.__.__.__.__.
 72
    65
 73
     6
 40
0.875
 49
0.25
 74
     0
 49
-0.125
 74
     0
 49
0.25
 74
     0
 49
-0.125
 74
     0
 49
0.0
 74
     0
 49
-0.125
 74
     0
  0
LTYPE
  5
CAD
330
C7A
100
AcDbSymbolTableRecord
100
AcDbLinetypeTableRecord
  2
BORDERX2
 70
     0
  3
Borderx2  ____  ____  .  ____  ____  .  ___
 72
    65
 73
     6
 40
3.5
 49
1.0
 74
     0
 49
-0.5
 74
     0
 49
1.0
 74
     0
 49
-0.5
 74
     0
 49
0.0
 74
     0
 49
-0.5
 74
     0
  0
LTYPE
  5
CAE
330
C7A
100
AcDbSymbolTableRecord
100
AcDbLinetypeTableRecord
  2
CENTER2
 70
     0
  3
Center2  ___ _ ___ _ ___ _ ___ _ ___ _ ___
 72
    65
 73
     4
 40
1.125
 49
0.75
 74
     0
 49
-0.125
 74
     0
 49
0.125
 74
     0
 49
-0.125
 74
     0
  0
LTYPE
  5
CAF
330
C7A
100
AcDbSymbolTableRecord
100
AcDbLinetypeTableRecord
  2
CENTERX2
 70
     0
  3
Centerx2  ________  __  ________  __  _____
 72
    65
 73
     4
 40
4.0
 49
2.5
 74
     0
 49
-0.5
 74
     0
 49
0.5
 74
     0
 49
-0.5
 74
     0
  0
LTYPE
  5
CB0
330
C7A
100
AcDbSymbolTableRecord
100
AcDbLinetypeTableRecord
  2
DASHDOT2
 70
     0
  3
Dashdot2  _._._._._._._._._._._._._._._.
 72
    65
 73
     4
 40
0.5
 49
0.25
 74
     0
 49
-0.125
 74
     0
 49
0.0
 74
     0
 49
-0.125
 74
     0
  0
LTYPE
  5
CB1
330
C7A
100
AcDbSymbolTableRecord
100
AcDbLinetypeTableRecord
  2
DASHDOTX2
 70
     0
  3
Dashdotx2 ____  .  ____  .  ____  .  ___
 72
    65
 73
     4
 40
2.0
 49
1.0
 74
     0
 49
-0.5
 74
     0
 49
0.0
 74
     0
 49
-0.5
 74
     0
  0
LTYPE
  5
CB2
330
C7A
100
AcDbSymbolTableRecord
100
AcDbLinetypeTableRecord
  2
DASHED2
 70
     0
  3
Dashed2 _ _ _ _ _ _ _ _ _ _ _ _ _ _ _ _ _ 
 72
    65
 73
     2
 40
0.375
 49
0.25
 74
     0
 49
-0.125
 74
     0
  0
LTYPE
  5
CB3
330
C7A
100
AcDbSymbolTableRecord
100
AcDbLinetypeTableRecord
  2
DASHEDX2
 70
     0
  3
Dashedx2 ____  ____  ____  ____  ____  ___
 72
    65
 73
     2
 40
1.5
 49
1.0
 74
     0
 49
-0.5
 74
     0
  0
LTYPE
  5
CB4
330
C7A
100
AcDbSymbolTableRecord
100
AcDbLinetypeTableRecord
  2
DIVIDE
 70
     0
  3
Divide ____ . . ____ . . ____ . . ____ . . ____
 72
    65
 73
     6
 40
1.25
 49
0.5
 74
     0
 49
-0.25
 74
     0
 49
0.0
 74
     0
 49
-0.25
 74
     0
 49
0.0
 74
     0
 49
-0.25
 74
     0
  0
LTYPE
  5
CB5
330
C7A
100
AcDbSymbolTableRecord
100
AcDbLinetypeTableRecord
  2
DIVIDE2
 70
     0
  3
Divide2 __..__..__..__..__..__..__..__.._
 72
    65
 73
     6
 40
0.625
 49
0.25
 74
     0
 49
-0.125
 74
     0
 49
0.0
 74
     0
 49
-0.125
 74
     0
 49
0.0
 74
     0
 49
-0.125
 74
     0
  0
LTYPE
  5
CB6
330
C7A
100
AcDbSymbolTableRecord
100
AcDbLinetypeTableRecord
  2
DIVIDEX2
 70
     0
  3
Dividex2 ________  .  .  ________  .  .  _
 72
    65
 73
     6
 40
2.5
 49
1.0
 74
     0
 49
-0.5
 74
     0
 49
0.0
 74
     0
 49
-0.5
 74
     0
 49
0.0
 74
     0
 49
-0.5
 74
     0
  0
LTYPE
  5
CB7
330
C7A
100
AcDbSymbolTableRecord
100
AcDbLinetypeTableRecord
  2
DOT
 70
     0
  3
Dot . . . . . . . . . . . . . . . . . . . . . . . .
 72
    65
 73
     2
 40
0.25
 49
0.0
 74
     0
 49
-0.25
 74
     0
  0
LTYPE
  5
CB8
330
C7A
100
AcDbSymbolTableRecord
100
AcDbLinetypeTableRecord
  2
DOT2
 70
     0
  3
Dot2 ........................................
 72
    65
 73
     2
 40
0.125
 49
0.0
 74
     0
 49
-0.125
 74
     0
  0
LTYPE
  5
CB9
330
C7A
100
AcDbSymbolTableRecord
100
AcDbLinetypeTableRecord
  2
DOTX2
 70
     0
  3
Dotx2 .  .  .  .  .  .  .  .  .  .  .  .  .  .
 72
    65
 73
     2
 40
0.5
 49
0.0
 74
     0
 49
-0.5
 74
     0
  0
LTYPE
  5
CBA
330
C7A
100
AcDbSymbolTableRecord
100
AcDbLinetypeTableRecord
  2
HIDDENX2
 70
     0
  3
Hiddenx2 ____ ____ ____ ____ ____ ____ ____ 
 72
    65
 73
     2
 40
0.75
 49
0.5
 74
     0
 49
-0.25
 74
     0
  0
LTYPE
  5
CBB
330
C7A
100
AcDbSymbolTableRecord
100
AcDbLinetypeTableRecord
  2
PHANTOM
 70
     0
  3
Phantom ______  __  __  ______  __  __  ______ 
 72
    65
 73
     6
 40
2.5
 49
1.25
 74
     0
 49
-0.25
 74
     0
 49
0.25
 74
     0
 49
-0.25
 74
     0
 49
0.25
 74
     0
 49
-0.25
 74
     0
  0
LTYPE
  5
CBC
330
C7A
100
AcDbSymbolTableRecord
100
AcDbLinetypeTableRecord
  2
PHANTOM2
 70
     0
  3
Phantom2 ___ _ _ ___ _ _ ___ _ _ ___ _ _
 72
    65
 73
     6
 40
1.25
 49
0.625
 74
     0
 49
-0.125
 74
     0
 49
0.125
 74
     0
 49
-0.125
 74
     0
 49
0.125
 74
     0
 49
-0.125
 74
     0
  0
LTYPE
  5
CBD
330
C7A
100
AcDbSymbolTableRecord
100
AcDbLinetypeTableRecord
  2
PHANTOMX2
 70
     0
  3
Phantomx2 ____________    ____    ____   _
 72
    65
 73
     6
 40
5.0
 49
2.5
 74
     0
 49
-0.5
 74
     0
 49
0.5
 74
     0
 49
-0.5
 74
     0
 49
0.5
 74
     0
 49
-0.5
 74
     0
  0
ENDTAB
  0
TABLE
  2
LAYER
  5
C77
330
0
100
AcDbSymbolTable
 70
     6
  0
LAYER
  5
C85
330
C77
100
AcDbSymbolTableRecord
100
AcDbLayerTableRecord
  2
0
 70
     0
 62
     7
  6
CONTINUOUS
  0
LAYER
  5
2E
330
C77
100
AcDbSymbolTableRecord
100
AcDbLayerTableRecord
  2
DEFPOINTS
 70
     0
 62
     7
  6
CONTINUOUS
  0
LAYER
  5
4E
330
C77
100
AcDbSymbolTableRecord
100
AcDbLayerTableRecord
  2
V0-OBRYS
 70
     0
 62
    90
  6
CONTINUOUS
  0
LAYER
  5
24
330
C77
100
AcDbSymbolTableRecord
100
AcDbLayerTableRecord
  2
V0-VYPLNE
 70
     0
 62
    52
  6
CONTINUOUS
  0
LAYER
  5
91
330
C77
100
AcDbSymbolTableRecord
100
AcDbLayerTableRecord
  2
V0-NAZVY
 70
     0
 62
   210
  6
CONTINUOUS
  0
LAYER
  5
FE
330
C77
100
AcDbSymbolTableRecord
100
AcDbLayerTableRecord
  2
V0-ZBYTEK
 70
     0
 62
    51
  6
CONTINUOUS
  0
ENDTAB
  0
TABLE
  2
STYLE
  5
C78
330
0
100
AcDbSymbolTable
 70
     7
  0
STYLE
  5
C86
330
C78
100
AcDbSymbolTableRecord
100
AcDbTextStyleTableRecord
  2
STANDARD
 70
     0
 40
0.0
 41
1.0
 50
0.0
 71
     0
 42
0.2
  3
ISOCP.shx
  4

1001
ACAD
1000
ISOCP.shx
1071
        0
  0
STYLE
  5
2F3
330
C78
100
AcDbSymbolTableRecord
100
AcDbTextStyleTableRecord
  2
ED30
 70
     0
 40
30.0
 41
1.0
 50
0.0
 71
     0
 42
0.2
  3
ISOCP.shx
  4

1001
ACAD
1000
ISOCP.shx
1071
        0
  0
STYLE
  5
2F4
330
C78
100
AcDbSymbolTableRecord
100
AcDbTextStyleTableRecord
  2
ED20
 70
     0
 40
20.0
 41
1.0
 50
0.0
 71
     0
 42
0.2
  3
isocp.shx
  4

1001
ACAD
1000
isocp.shx
1071
        0
  0
STYLE
  5
2F5
330
C78
100
AcDbSymbolTableRecord
100
AcDbTextStyleTableRecord
  2
ED40
 70
     0
 40
40.0
 41
1.0
 50
0.0
 71
     0
 42
0.2
  3
isocp.shx
  4

1001
ACAD
1000
isocp.shx
1071
        0
  0
STYLE
  5
2F6
330
C78
100
AcDbSymbolTableRecord
100
AcDbTextStyleTableRecord
  2
ED10
 70
     0
 40
10.0
 41
1.0
 50
0.0
 71
     0
 42
0.2
  3
isocp.shx
  4

1001
ACAD
1000
isocp.shx
1071
        0
  0
STYLE
  5
2F7
330
C78
100
AcDbSymbolTableRecord
100
AcDbTextStyleTableRecord
  2
VD_RECOV_1_2F7_
 70
     0
 40
0.0
 41
1.0
 50
0.0
 71
     0
 42
0.2
  3
ltypeshp.shx
  4

1001
ACAD
1000
ltypeshp.shx
1071
        0
  0
STYLE
  5
415
330
C78
100
AcDbSymbolTableRecord
100
AcDbTextStyleTableRecord
  2
ED5
 70
     0
 40
10.0
 41
1.0
 50
0.0
 71
     0
 42
0.2
  3
ISOCP.shx
  4

1001
ACAD
1000
ISOCP.shx
1071
        0
  0
ENDTAB
  0
TABLE
  2
VIEW
  5
C7B
330
0
100
AcDbSymbolTable
 70
     0
  0
ENDTAB
  0
TABLE
  2
UCS
  5
C7C
330
0
100
AcDbSymbolTable
 70
     0
  0
ENDTAB
  0
TABLE
  2
APPID
  5
C7E
330
0
100
AcDbSymbolTable
 70
     6
  0
APPID
  5
C87
330
C7E
100
AcDbSymbolTableRecord
100
AcDbRegAppTableRecord
  2
ACAD
 70
     0
  0
APPID
  5
C9F
330
C7E
100
AcDbSymbolTableRecord
100
AcDbRegAppTableRecord
  2
VD_INVISIBLE_NOT_FOR_READ
 70
     0
  0
APPID
  5
CA0
330
C7E
100
AcDbSymbolTableRecord
100
AcDbRegAppTableRecord
  2
VD_TEMPHATCH
 70
     0
  0
APPID
  5
CA1
330
C7E
100
AcDbSymbolTableRecord
100
AcDbRegAppTableRecord
  2
VDEXTRAPARAM
 70
     0
  0
APPID
  5
CA2
330
C7E
100
AcDbSymbolTableRecord
100
AcDbRegAppTableRecord
  2
PE_URL
 70
     0
  0
APPID
  5
CA3
330
C7E
100
AcDbSymbolTableRecord
100
AcDbRegAppTableRecord
  2
VD_UNKNOWN
 70
     0
  0
ENDTAB
  0
TABLE
  2
DIMSTYLE
  5
C7F
330
0
100
AcDbSymbolTable
 70
     6
  0
DIMSTYLE
105
C9C
330
C7F
100
AcDbSymbolTableRecord
100
AcDbDimStyleTableRecord
  2
STANDARD
 70
     0
  3

  4

  5
OPEN
  6

  7

 40
5.0
 41
3.5
 42
0.0625
 43
0.38
 44
0.18
 45
0.0
 46
0.0
 47
0.0
 48
0.0
140
3.5
141
0.09
142
0.0
143
25.4
144
1.0
145
0.0
146
1.0
147
0.625
 71
     0
 72
     0
 73
     0
 74
     0
 75
     0
 76
     0
 77
     1
 78
     0
170
     0
171
     2
172
     1
173
     0
174
     1
175
     0
176
     0
177
     0
178
     0
270
     2
271
     0
272
     4
273
     2
274
     2
340
C86
275
     0
280
     0
281
     0
282
     0
283
     1
284
     0
285
     0
286
     0
287
     3
288
     1
  0
DIMSTYLE
105
2F8
330
C7F
100
AcDbSymbolTableRecord
100
AcDbDimStyleTableRecord
  2
ED30
 70
     0
  3

  4

  5
OPEN
  6

  7

 40
1.0
 41
25.0
 42
1.0
 43
0.38
 44
1.25
 45
0.0
 46
0.0
 47
0.0
 48
0.0
140
30.0
141
0.09
142
0.0
143
25.4
144
1.0
145
0.0
146
1.0
147
2.0
 71
     0
 72
     0
 73
     0
 74
     0
 75
     0
 76
     0
 77
     1
 78
     0
170
     0
171
     2
172
     1
173
     0
174
     1
175
     0
176
     0
177
     0
178
     0
270
     2
271
     0
272
     4
273
     2
274
     2
340
2F3
275
     0
280
     0
281
     0
282
     0
283
     1
284
     0
285
     0
286
     0
287
     3
288
     1
  0
DIMSTYLE
105
2F9
330
C7F
100
AcDbSymbolTableRecord
100
AcDbDimStyleTableRecord
  2
ED40
 70
     0
  3

  4

  5
OPEN
  6

  7

 40
1.0
 41
35.0
 42
1.0
 43
0.38
 44
1.25
 45
0.0
 46
0.0
 47
0.0
 48
0.0
140
40.0
141
0.09
142
0.0
143
25.4
144
1.0
145
0.0
146
1.0
147
3.0
 71
     0
 72
     0
 73
     0
 74
     0
 75
     0
 76
     0
 77
     1
 78
     0
170
     0
171
     2
172
     1
173
     0
174
     1
175
     0
176
     0
177
     0
178
     0
270
     2
271
     0
272
     4
273
     2
274
     2
340
2F5
275
     0
280
     0
281
     0
282
     0
283
     1
284
     0
285
     0
286
     0
287
     3
288
     1
  0
DIMSTYLE
105
2FA
330
C7F
100
AcDbSymbolTableRecord
100
AcDbDimStyleTableRecord
  2
ED20
 70
     0
  3

  4

  5
OPEN
  6

  7

 40
1.0
 41
20.0
 42
1.0
 43
0.38
 44
1.25
 45
0.0
 46
0.0
 47
0.0
 48
0.0
140
20.0
141
0.09
142
0.0
143
25.4
144
1.0
145
0.0
146
1.0
147
1.5
 71
     0
 72
     0
 73
     0
 74
     0
 75
     0
 76
     0
 77
     1
 78
     0
170
     0
171
     2
172
     1
173
     0
174
     1
175
     0
176
     0
177
     0
178
     0
270
     2
271
     0
272
     4
273
     2
274
     2
340
2F4
275
     0
280
     0
281
     0
282
     0
283
     1
284
     0
285
     0
286
     0
287
     3
288
     1
  0
DIMSTYLE
105
2FB
330
C7F
100
AcDbSymbolTableRecord
100
AcDbDimStyleTableRecord
  2
ED10
 70
     0
  3

  4

  5
OPEN
  6

  7

 40
1.0
 41
15.0
 42
1.0
 43
0.38
 44
1.25
 45
0.0
 46
0.0
 47
0.0
 48
0.0
140
10.0
141
0.09
142
0.0
143
25.4
144
1.0
145
0.0
146
1.0
147
1.5
 71
     0
 72
     0
 73
     0
 74
     0
 75
     0
 76
     0
 77
     1
 78
     0
170
     0
171
     2
172
     1
173
     0
174
     1
175
     0
176
     0
177
     0
178
     0
270
     2
271
     0
272
     4
273
     2
274
     2
340
2F4
275
     0
280
     0
281
     0
282
     0
283
     1
284
     0
285
     0
286
     0
287
     3
288
     1
  0
DIMSTYLE
105
417
102
{ACAD_REACTORS
330
3EF
330
409
330
6A4
330
85B
330
868
102
}
330
C7F
100
AcDbSymbolTableRecord
100
AcDbDimStyleTableRecord
  2
ED5
 70
     0
  3

  4

  5
OPEN
  6

  7

 40
1.0
 41
12.0
 42
1.0
 43
0.38
 44
1.25
 45
0.0
 46
0.0
 47
0.0
 48
0.0
140
10.0
141
0.09
142
0.0
143
25.4
144
1.0
145
0.0
146
1.0
147
1.5
 71
     0
 72
     0
 73
     0
 74
     0
 75
     0
 76
     0
 77
     1
 78
     0
170
     0
171
     2
172
     1
173
     0
174
     1
175
     0
176
     0
177
     0
178
     0
270
     2
271
     0
272
     4
273
     2
274
     2
340
415
275
     0
280
     0
281
     0
282
     0
283
     1
284
     0
285
     0
286
     0
287
     3
288
     1
  0
ENDTAB
  0
TABLE
  2
BLOCK_RECORD
  5
C76
330
0
100
AcDbSymbolTable
 70
    10
  0
BLOCK_RECORD
  5
C94
330
C76
100
AcDbSymbolTableRecord
100
AcDbBlockTableRecord
  2
*MODEL_SPACE
  0
BLOCK_RECORD
  5
C90
330
C76
100
AcDbSymbolTableRecord
100
AcDbBlockTableRecord
  2
*PAPER_SPACE
  0
BLOCK_RECORD
  5
1D
330
C76
100
AcDbSymbolTableRecord
100
AcDbBlockTableRecord
  2
_OPEN
  0
BLOCK_RECORD
  5
213
330
C76
100
AcDbSymbolTableRecord
100
AcDbBlockTableRecord
  2
A20_350
  0
BLOCK_RECORD
  5
C72
330
C76
100
AcDbSymbolTableRecord
100
AcDbBlockTableRecord
  2
VDDIM_DEFAULT
  0
BLOCK_RECORD
  5
C74
330
C76
100
AcDbSymbolTableRecord
100
AcDbBlockTableRecord
  2
VDDIM_NONE
  0
BLOCK_RECORD
  5
CC7
330
C76
100
AcDbSymbolTableRecord
100
AcDbBlockTableRecord
  2
*D5
  0
BLOCK_RECORD
  5
CD3
330
C76
100
AcDbSymbolTableRecord
100
AcDbBlockTableRecord
  2
*D6
  0
BLOCK_RECORD
  5
CE0
330
C76
100
AcDbSymbolTableRecord
100
AcDbBlockTableRecord
  2
*D7
  0
BLOCK_RECORD
  5
CEC
330
C76
100
AcDbSymbolTableRecord
100
AcDbBlockTableRecord
  2
*D8
  0
BLOCK_RECORD
  5
CF8
330
C76
100
AcDbSymbolTableRecord
100
AcDbBlockTableRecord
  2
*D9
  0
ENDTAB
  0
ENDSEC
  0
SECTION
  2
BLOCKS
  0
BLOCK
  5
C95
330
C94
100
AcDbEntity
  8
0
100
AcDbBlockBegin
  2
*MODEL_SPACE
 70
     0
 71
     0
 10
0.0
 20
0.0
 30
0.0
  3
*MODEL_SPACE
  1

  0
ENDBLK
  5
C96
330
C94
100
AcDbEntity
  8
0
100
AcDbBlockEnd
  0
BLOCK
  5
C91
330
C90
100
AcDbEntity
 67
     1
  8
0
100
AcDbBlockBegin
  2
*PAPER_SPACE
 70
     0
 71
     0
 10
0.0
 20
0.0
 30
0.0
  3
*PAPER_SPACE
  1

  0
ENDBLK
  5
C92
330
C90
100
AcDbEntity
 67
     1
  8
0
100
AcDbBlockEnd
  0
BLOCK
  5
CBE
330
1D
100
AcDbEntity
  8
0
100
AcDbBlockBegin
  2
_OPEN
 70
     0
 71
     0
 10
0.0
 20
0.0
 30
0.0
  3
_OPEN
  1

  0
LINE
  5
1E
330
1D
100
AcDbEntity
  8
0
  6
BYBLOCK
 62
     0
100
AcDbLine
 10
-1.0
 20
0.166667
 30
0.0
 11
0.0
 21
0.0
 31
0.0
  0
LINE
  5
1F
330
1D
100
AcDbEntity
  8
0
  6
BYBLOCK
 62
     0
100
AcDbLine
 10
0.0
 20
0.0
 30
0.0
 11
-1.0
 21
-0.166667
 31
0.0
  0
LINE
  5
20
330
1D
100
AcDbEntity
  8
0
  6
BYBLOCK
 62
     0
100
AcDbLine
 10
0.0
 20
0.0
 30
0.0
 11
-1.0
 21
0.0
 31
0.0
  0
ENDBLK
  5
CBF
330
1D
100
AcDbEntity
  8
0
100
AcDbBlockEnd
  0
BLOCK
  5
CC0
330
213
100
AcDbEntity
  8
0
100
AcDbBlockBegin
  2
A20_350
 70
     0
 71
     0
 10
0.0
 20
0.0
 30
0.0
  3
A20_350
  1

  0
ENDBLK
  5
CC1
330
213
100
AcDbEntity
  8
0
100
AcDbBlockEnd
  0
BLOCK
  5
CC2
330
C72
100
AcDbEntity
  8
0
100
AcDbBlockBegin
  2
VDDIM_DEFAULT
 70
     0
 71
     0
 10
0.0
 20
0.0
 30
0.0
  3
VDDIM_DEFAULT
  1

  0
LWPOLYLINE
  5
C73
330
C72
100
AcDbEntity
  8
0
  6
CONTINUOUS
 62
     0
100
AcDbPolyline
 90
        4
 70
     0
 43
0.0
 10
0.0
 20
0.0
 10
-1.0
 20
-0.1665
 10
-1.0
 20
0.1665
 10
0.0
 20
0.0
1001
VDEXTRAPARAM
1071
        1
1071
        0
1071
        0
1040
1.0
1000

1000

1040
0.0
1040
0.0
  0
HATCH
  5
CC6
330
C72
100
AcDbEntity
  8
0
  6
CONTINUOUS
 62
     0
100
AcDbHatch
 10
0.0
 20
0.0
 30
0.0
210
0.0
220
0.0
230
1.0
  2
SOLID
 70
     1
 71
     0
 91
        1
 92
        2
 72
     0
 73
     1
 93
        3
 10
0.0
 20
0.0
 10
-1.0
 20
-0.1665
 10
-1.0
 20
0.1665
 97
        0
 75
     0
 76
     1
 98
        1
 10
0.0
 20
0.0
1001
VDEXTRAPARAM
1071
        1
1071
        0
1071
        0
1040
1.0
1000

1000

1040
0.0
1040
0.0
1001
VD_TEMPHATCH
1000
VD_TEMPHATCH
  0
ENDBLK
  5
CC3
330
C72
100
AcDbEntity
  8
0
100
AcDbBlockEnd
  0
BLOCK
  5
CC4
330
C74
100
AcDbEntity
  8
0
100
AcDbBlockBegin
  2
VDDIM_NONE
 70
     0
 71
     0
 10
0.0
 20
0.0
 30
0.0
  3
VDDIM_NONE
  1

  0
ENDBLK
  5
CC5
330
C74
100
AcDbEntity
  8
0
100
AcDbBlockEnd
  0
BLOCK
  5
CD1
330
CC7
100
AcDbEntity
  8
0
100
AcDbBlockBegin
  2
*D5
 70
     1
 71
     0
 10
0.0
 20
0.0
 30
0.0
  3
*D5
  1

  0
LINE
  5
CC8
330
CC7
100
AcDbEntity
  8
V0-VYPLNE
 62
     0
100
AcDbLine
 10
28.63472
 20
109.118349
 30
0.0
 11
28.63472
 21
127.5314739999994
 31
0.0
  0
LINE
  5
CC9
330
CC7
100
AcDbEntity
  8
V0-VYPLNE
 62
     0
100
AcDbLine
 10
91.07968
 20
76.13808899999999
 30
0.0
 11
91.07968
 21
127.5314739999994
 31
0.0
  0
LINE
  5
CCA
330
CC7
100
AcDbEntity
  8
V0-VYPLNE
 62
     0
100
AcDbLine
 10
40.63472
 20
126.2814739999994
 30
0.0
 11
79.07968
 21
126.2814739999994
 31
0.0
  0
INSERT
  5
CCB
330
CC7
100
AcDbEntity
  8
V0-VYPLNE
 62
     0
100
AcDbBlockReference
  2
_OPEN
 10
28.63472
 20
126.2814739999994
 30
0.0
 41
12.0
 42
12.0
 43
12.0
 50
180.0
  0
INSERT
  5
CCC
330
CC7
100
AcDbEntity
  8
V0-VYPLNE
 62
     0
100
AcDbBlockReference
  2
_OPEN
 10
91.07968
 20
126.2814739999994
 30
0.0
 41
12.0
 42
12.0
 43
12.0
  0
MTEXT
  5
CCD
330
CC7
100
AcDbEntity
  8
V0-VYPLNE
 62
     0
100
AcDbMText
 10
59.8572
 20
133.7338549523803
 30
0.0
 40
10.0
 41
0.0
 71
     5
 72
     1
  1
61,5
  7
ED5
  0
POINT
  5
CCE
330
CC7
100
AcDbEntity
  8
DEFPOINTS
 62
     0
100
AcDbPoint
 10
28.63472
 20
108.118349
 30
0.0
  0
POINT
  5
CCF
330
CC7
100
AcDbEntity
  8
DEFPOINTS
 62
     0
100
AcDbPoint
 10
91.07968
 20
75.13808899999999
 30
0.0
  0
POINT
  5
CD0
330
CC7
100
AcDbEntity
  8
DEFPOINTS
 62
     0
100
AcDbPoint
 10
91.07968
 20
126.2814739999994
 30
0.0
  0
ENDBLK
  5
CD2
330
CC7
100
AcDbEntity
  8
0
100
AcDbBlockEnd
  0
BLOCK
  5
CDE
330
CD3
100
AcDbEntity
  8
0
100
AcDbBlockBegin
  2
*D6
 70
     1
 71
     0
 10
0.0
 20
0.0
 30
0.0
  3
*D6
  1

  0
LINE
  5
CD4
330
CD3
100
AcDbEntity
  8
V0-VYPLNE
 62
     0
100
AcDbLine
 10
92.07968
 20
73.975649
 30
0.0
 11
118.6312899999994
 21
73.975649
 31
0.0
  0
LINE
  5
CD5
330
CD3
100
AcDbEntity
  8
V0-VYPLNE
 62
     0
100
AcDbLine
 10
92.07968
 20
-43.129351
 30
0.0
 11
118.6312899999994
 21
-43.129351
 31
0.0
  0
LINE
  5
CD6
330
CD3
100
AcDbEntity
  8
V0-VYPLNE
 62
     0
100
AcDbLine
 10
117.3812899999994
 20
61.975649
 30
0.0
 11
117.3812899999994
 21
36.67804914285713
 31
0.0
  0
LINE
  5
CD7
330
CD3
100
AcDbEntity
  8
V0-VYPLNE
 62
     0
100
AcDbLine
 10
117.3812899999994
 20
-31.12935100000001
 30
0.0
 11
117.3812899999994
 21
-0.6076651428571402
 31
0.0
  0
INSERT
  5
CD8
330
CD3
100
AcDbEntity
  8
V0-VYPLNE
 62
     0
100
AcDbBlockReference
  2
_OPEN
 10
117.3812899999994
 20
73.975649
 30
0.0
 41
12.0
 42
12.0
 43
12.0
 50
89.99999999999999
  0
INSERT
  5
CD9
330
CD3
100
AcDbEntity
  8
V0-VYPLNE
 62
     0
100
AcDbBlockReference
  2
_OPEN
 10
117.3812899999994
 20
-43.12935100000001
 30
0.0
 41
12.0
 42
12.0
 43
12.0
 50
270.0
  0
MTEXT
  5
CDA
330
CD3
100
AcDbEntity
  8
V0-VYPLNE
 62
     0
100
AcDbMText
 10
117.38129
 20
18.035192
 30
0.0
 40
10.0
 41
0.0
 71
     5
 72
     1
  1
%%c119
  7
ED5
 11
1.213513916160882E-16
 21
1.0
 31
0.0
  0
POINT
  5
CDB
330
CD3
100
AcDbEntity
  8
DEFPOINTS
 62
     0
100
AcDbPoint
 10
91.07968
 20
73.975649
 30
0.0
  0
POINT
  5
CDC
330
CD3
100
AcDbEntity
  8
DEFPOINTS
 62
     0
100
AcDbPoint
 10
91.07968
 20
-43.129351
 30
0.0
  0
POINT
  5
CDD
330
CD3
100
AcDbEntity
  8
DEFPOINTS
 62
     0
100
AcDbPoint
 10
117.3812899999994
 20
-43.129351
 30
0.0
  0
ENDBLK
  5
CDF
330
CD3
100
AcDbEntity
  8
0
100
AcDbBlockEnd
  0
BLOCK
  5
CEA
330
CE0
100
AcDbEntity
  8
0
100
AcDbBlockBegin
  2
*D7
 70
     1
 71
     0
 10
0.0
 20
0.0
 30
0.0
  3
*D7
  1

  0
LINE
  5
CE1
330
CE0
100
AcDbEntity
  8
V0-VYPLNE
 62
     0
100
AcDbLine
 10
-17.915869
 20
109.118349
 30
0.0
 11
-17.915869
 21
148.1344000000011
 31
0.0
  0
LINE
  5
CE2
330
CE0
100
AcDbEntity
  8
V0-VYPLNE
 62
     0
100
AcDbLine
 10
91.07968
 20
74.975649
 30
0.0
 11
91.07968
 21
148.1344000000011
 31
0.0
  0
LINE
  5
CE3
330
CE0
100
AcDbEntity
  8
V0-VYPLNE
 62
     0
100
AcDbLine
 10
-5.915869000000001
 20
146.8844000000011
 30
0.0
 11
79.07968
 21
146.8844000000011
 31
0.0
  0
INSERT
  5
CE4
330
CE0
100
AcDbEntity
  8
V0-VYPLNE
 62
     0
100
AcDbBlockReference
  2
_OPEN
 10
-17.915869
 20
146.8844000000011
 30
0.0
 41
12.0
 42
12.0
 43
12.0
 50
180.0
  0
INSERT
  5
CE5
330
CE0
100
AcDbEntity
  8
V0-VYPLNE
 62
     0
100
AcDbBlockReference
  2
_OPEN
 10
91.07968
 20
146.8844000000011
 30
0.0
 41
12.0
 42
12.0
 43
12.0
  0
MTEXT
  5
CE6
330
CE0
100
AcDbEntity
  8
V0-VYPLNE
 62
     0
100
AcDbMText
 10
36.5819055
 20
154.336780952382
 30
0.0
 40
10.0
 41
0.0
 71
     5
 72
     1
  1
109,2
  7
ED5
  0
POINT
  5
CE7
330
CE0
100
AcDbEntity
  8
DEFPOINTS
 62
     0
100
AcDbPoint
 10
-17.915869
 20
108.118349
 30
0.0
  0
POINT
  5
CE8
330
CE0
100
AcDbEntity
  8
DEFPOINTS
 62
     0
100
AcDbPoint
 10
91.07968
 20
73.975649
 30
0.0
  0
POINT
  5
CE9
330
CE0
100
AcDbEntity
  8
DEFPOINTS
 62
     0
100
AcDbPoint
 10
91.07968
 20
146.8844000000011
 30
0.0
  0
ENDBLK
  5
CEB
330
CE0
100
AcDbEntity
  8
0
100
AcDbBlockEnd
  0
BLOCK
  5
CF6
330
CEC
100
AcDbEntity
  8
0
100
AcDbBlockBegin
  2
*D8
 70
     1
 71
     0
 10
0.0
 20
0.0
 30
0.0
  3
*D8
  1

  0
LINE
  5
CED
330
CEC
100
AcDbEntity
  8
V0-VYPLNE
 62
     0
100
AcDbLine
 10
190.531044
 20
108.0951
 30
0.0
 11
156.7127959999998
 21
108.0951
 31
0.0
  0
LINE
  5
CEE
330
CEC
100
AcDbEntity
  8
V0-VYPLNE
 62
     0
100
AcDbLine
 10
190.531044
 20
-77.848803
 30
0.0
 11
156.7127959999998
 21
-77.848803
 31
0.0
  0
LINE
  5
CEF
330
CEC
100
AcDbEntity
  8
V0-VYPLNE
 62
     0
100
AcDbLine
 10
157.9627959999998
 20
96.09509999999997
 30
0.0
 11
157.9627959999998
 21
-65.848803
 31
0.0
  0
INSERT
  5
CF0
330
CEC
100
AcDbEntity
  8
V0-VYPLNE
 62
     0
100
AcDbBlockReference
  2
_OPEN
 10
157.9627959999998
 20
108.0951
 30
0.0
 41
12.0
 42
12.0
 43
12.0
 50
90.0
  0
INSERT
  5
CF1
330
CEC
100
AcDbEntity
  8
V0-VYPLNE
 62
     0
100
AcDbBlockReference
  2
_OPEN
 10
157.9627959999998
 20
-77.84880299999999
 30
0.0
 41
12.0
 42
12.0
 43
12.0
 50
270.0
  0
MTEXT
  5
CF2
330
CEC
100
AcDbEntity
  8
V0-VYPLNE
 62
     0
100
AcDbMText
 10
150.5104150476188
 20
15.12314849999999
 30
0.0
 40
10.0
 41
0.0
 71
     5
 72
     1
  1
186,5
  7
ED5
 11
0.0
 21
1.0
 31
0.0
  0
POINT
  5
CF3
330
CEC
100
AcDbEntity
  8
DEFPOINTS
 62
     0
100
AcDbPoint
 10
191.531044
 20
108.0951
 30
0.0
  0
POINT
  5
CF4
330
CEC
100
AcDbEntity
  8
DEFPOINTS
 62
     0
100
AcDbPoint
 10
191.531044
 20
-77.848803
 30
0.0
  0
POINT
  5
CF5
330
CEC
100
AcDbEntity
  8
DEFPOINTS
 62
     0
100
AcDbPoint
 10
157.9627959999998
 20
-77.848803
 30
0.0
  0
ENDBLK
  5
CF7
330
CEC
100
AcDbEntity
  8
0
100
AcDbBlockEnd
  0
BLOCK
  5
D02
330
CF8
100
AcDbEntity
  8
0
100
AcDbBlockBegin
  2
*D9
 70
     1
 71
     0
 10
0.0
 20
0.0
 30
0.0
  3
*D9
  1

  0
LINE
  5
CF9
330
CF8
100
AcDbEntity
  8
V0-VYPLNE
 62
     0
100
AcDbLine
 10
179.531044
 20
-66.848803
 30
0.0
 11
179.531044
 21
-103.8234100000045
 31
0.0
  0
LINE
  5
CFA
330
CF8
100
AcDbEntity
  8
V0-VYPLNE
 62
     0
100
AcDbLine
 10
365.474946
 20
-66.848803
 30
0.0
 11
365.474946
 21
-103.8234100000045
 31
0.0
  0
LINE
  5
CFB
330
CF8
100
AcDbEntity
  8
V0-VYPLNE
 62
     0
100
AcDbLine
 10
191.531044
 20
-102.5734100000045
 30
0.0
 11
353.474946
 21
-102.5734100000045
 31
0.0
  0
INSERT
  5
CFC
330
CF8
100
AcDbEntity
  8
V0-VYPLNE
 62
     0
100
AcDbBlockReference
  2
_OPEN
 10
179.531044
 20
-102.5734100000045
 30
0.0
 41
12.0
 42
12.0
 43
12.0
 50
180.0
  0
INSERT
  5
CFD
330
CF8
100
AcDbEntity
  8
V0-VYPLNE
 62
     0
100
AcDbBlockReference
  2
_OPEN
 10
365.474946
 20
-102.5734100000045
 30
0.0
 41
12.0
 42
12.0
 43
12.0
 50
360.0
  0
MTEXT
  5
CFE
330
CF8
100
AcDbEntity
  8
V0-VYPLNE
 62
     0
100
AcDbMText
 10
272.502995
 20
-95.12102904762357
 30
0.0
 40
10.0
 41
0.0
 71
     5
 72
     1
  1
186,5
  7
ED5
  0
POINT
  5
CFF
330
CF8
100
AcDbEntity
  8
DEFPOINTS
 62
     0
100
AcDbPoint
 10
179.531044
 20
-65.848803
 30
0.0
  0
POINT
  5
D00
330
CF8
100
AcDbEntity
  8
DEFPOINTS
 62
     0
100
AcDbPoint
 10
365.474946
 20
-65.848803
 30
0.0
  0
POINT
  5
D01
330
CF8
100
AcDbEntity
  8
DEFPOINTS
 62
     0
100
AcDbPoint
 10
365.474946
 20
-102.5734100000045
 30
0.0
  0
ENDBLK
  5
D03
330
CF8
100
AcDbEntity
  8
0
100
AcDbBlockEnd
  0
ENDSEC
  0
SECTION
  2
ENTITIES
  0
LINE
  5
197
330
C94
100
AcDbEntity
  8
V0-VYPLNE
  6
DASHDOT
 62
    63
100
AcDbLine
 10
-41.3502
 20
15.123149
 30
0.0
 11
98.05431999999999
 21
15.123149
 31
0.0
  0
LINE
  5
199
330
C94
100
AcDbEntity
  8
V0-OBRYS
  6
CONTINUOUS
 62
    90
 48
5.0
100
AcDbLine
 10
-8.12833
 20
-77.872051
 30
0.0
 11
28.63472
 21
-77.872051
 31
0.0
  0
LINE
  5
19A
330
C94
100
AcDbEntity
  8
V0-OBRYS
  6
CONTINUOUS
 62
    90
 48
5.0
100
AcDbLine
 10
28.63472
 20
-77.872051
 30
0.0
 11
28.63472
 21
108.118349
 31
0.0
  0
LINE
  5
19B
330
C94
100
AcDbEntity
  8
V0-OBRYS
  6
CONTINUOUS
 62
    90
 48
5.0
100
AcDbLine
 10
28.63472
 20
108.118349
 30
0.0
 11
-8.128329999999998
 21
108.118349
 31
0.0
  0
LINE
  5
1AC
330
C94
100
AcDbEntity
  8
V0-OBRYS
  6
CONTINUOUS
 62
    90
 48
5.0
100
AcDbLine
 10
28.63472
 20
73.975649
 30
0.0
 11
91.07968
 21
73.975649
 31
0.0
  0
LINE
  5
1AD
330
C94
100
AcDbEntity
  8
V0-OBRYS
  6
CONTINUOUS
 62
    90
 48
5.0
100
AcDbLine
 10
91.07968
 20
73.975649
 30
0.0
 11
91.07968
 21
-43.129351
 31
0.0
  0
LINE
  5
1AE
330
C94
100
AcDbEntity
  8
V0-OBRYS
  6
CONTINUOUS
 62
    90
 48
5.0
100
AcDbLine
 10
91.07968
 20
-43.129351
 30
0.0
 11
28.63472
 21
-43.129351
 31
0.0
  0
LINE
  5
1C0
330
C94
100
AcDbEntity
  8
V0-OBRYS
  6
CONTINUOUS
 62
    90
100
AcDbLine
 10
197.207525
 20
67.607315
 30
0.0
 11
347.798465
 21
67.607315
 31
0.0
  0
LINE
  5
1C1
330
C94
100
AcDbEntity
  8
V0-OBRYS
  6
CONTINUOUS
 62
    90
100
AcDbLine
 10
230.515662
 20
60.109577
 30
0.0
 11
230.596072
 21
60.109577
 31
0.0
  0
LINE
  5
1C2
330
C94
100
AcDbEntity
  8
V0-OBRYS
  6
CONTINUOUS
 62
    90
100
AcDbLine
 10
197.207525
 20
52.611839
 30
0.0
 11
347.798465
 21
52.611839
 31
0.0
  0
LINE
  5
1C3
330
C94
100
AcDbEntity
  8
V0-OBRYS
  6
CONTINUOUS
 62
    90
100
AcDbLine
 10
197.207525
 20
45.114101
 30
0.0
 11
347.798465
 21
45.114101
 31
0.0
  0
LINE
  5
1C4
330
C94
100
AcDbEntity
  8
V0-OBRYS
  6
CONTINUOUS
 62
    90
100
AcDbLine
 10
197.207525
 20
39.11591
 30
0.0
 11
347.798465
 21
39.11591
 31
0.0
  0
LINE
  5
1C5
330
C94
100
AcDbEntity
  8
V0-OBRYS
  6
CONTINUOUS
 62
    90
100
AcDbLine
 10
197.207525
 20
33.11772
 30
0.0
 11
347.798465
 21
33.11772
 31
0.0
  0
LINE
  5
1C6
330
C94
100
AcDbEntity
  8
V0-OBRYS
  6
CONTINUOUS
 62
    90
100
AcDbLine
 10
197.207525
 20
27.119529
 30
0.0
 11
347.798465
 21
27.119529
 31
0.0
  0
LINE
  5
1C7
330
C94
100
AcDbEntity
  8
V0-OBRYS
  6
CONTINUOUS
 62
    90
100
AcDbLine
 10
197.207525
 20
21.121339
 30
0.0
 11
347.798465
 21
21.121339
 31
0.0
  0
LINE
  5
1C8
330
C94
100
AcDbEntity
  8
V0-OBRYS
  6
CONTINUOUS
 62
    90
100
AcDbLine
 10
197.207525
 20
15.123149
 30
0.0
 11
347.798465
 21
15.123149
 31
0.0
  0
LINE
  5
1C9
330
C94
100
AcDbEntity
  8
V0-OBRYS
  6
CONTINUOUS
 62
    90
100
AcDbLine
 10
197.207525
 20
60.109577
 30
0.0
 11
347.798465
 21
60.109577
 31
0.0
  0
LINE
  5
1D2
330
C94
100
AcDbEntity
  8
V0-OBRYS
  6
CONTINUOUS
 62
    90
100
AcDbLine
 10
219.421543
 20
73.60550499999999
 30
0.0
 11
325.584446
 21
73.60550499999999
 31
0.0
  0
LINE
  5
1D3
330
C94
100
AcDbEntity
  8
V0-OBRYS
  6
CONTINUOUS
 62
    90
100
AcDbLine
 10
219.421543
 20
-43.359208
 30
0.0
 11
325.584446
 21
-43.359208
 31
0.0
  0
LINE
  5
1D4
330
C94
100
AcDbEntity
  8
V0-OBRYS
  6
CONTINUOUS
 62
    90
100
AcDbLine
 10
197.207525
 20
-29.863279
 30
0.0
 11
347.798465
 21
-29.863279
 31
0.0
  0
LINE
  5
1D5
330
C94
100
AcDbEntity
  8
V0-OBRYS
  6
CONTINUOUS
 62
    90
100
AcDbLine
 10
197.207525
 20
-14.867803
 30
0.0
 11
347.798465
 21
-14.867803
 31
0.0
  0
LINE
  5
1D6
330
C94
100
AcDbEntity
  8
V0-OBRYS
  6
CONTINUOUS
 62
    90
100
AcDbLine
 10
197.207525
 20
-8.869612999999999
 30
0.0
 11
347.798465
 21
-8.869612999999999
 31
0.0
  0
LINE
  5
1D7
330
C94
100
AcDbEntity
  8
V0-OBRYS
  6
CONTINUOUS
 62
    90
100
AcDbLine
 10
197.207525
 20
-22.365541
 30
0.0
 11
347.798465
 21
-22.365541
 31
0.0
  0
LINE
  5
1D8
330
C94
100
AcDbEntity
  8
V0-OBRYS
  6
CONTINUOUS
 62
    90
100
AcDbLine
 10
197.207525
 20
3.126768
 30
0.0
 11
347.798465
 21
3.126768
 31
0.0
  0
LINE
  5
1D9
330
C94
100
AcDbEntity
  8
V0-OBRYS
  6
CONTINUOUS
 62
    90
100
AcDbLine
 10
197.207525
 20
-2.871423
 30
0.0
 11
347.798465
 21
-2.871423
 31
0.0
  0
LINE
  5
1DA
330
C94
100
AcDbEntity
  8
V0-OBRYS
  6
CONTINUOUS
 62
    90
100
AcDbLine
 10
197.207525
 20
-37.361017
 30
0.0
 11
347.798465
 21
-37.361017
 31
0.0
  0
LINE
  5
1DB
330
C94
100
AcDbEntity
  8
V0-OBRYS
  6
CONTINUOUS
 62
    90
100
AcDbLine
 10
197.207525
 20
9.124958
 30
0.0
 11
347.798465
 21
9.124958
 31
0.0
  0
LINE
  5
1DC
330
C94
100
AcDbEntity
  8
V0-VYPLNE
  6
DASHDOT
 62
    63
100
AcDbLine
 10
272.502995
 20
121.591028
 30
0.0
 11
272.502995
 21
-83.497962
 31
0.0
  0
LINE
  5
1DD
330
C94
100
AcDbEntity
  8
V0-VYPLNE
  6
DASHDOT
 62
    63
100
AcDbLine
 10
163.03602
 20
15.020753
 30
0.0
 11
388.763826
 21
15.020753
 31
0.0
  0
DIMENSION
  5
3EF
330
C94
100
AcDbEntity
  8
V0-VYPLNE
  6
CONTINUOUS
 62
    41
100
AcDbDimension
  2
*D5
 10
91.07968
 20
126.2814739999994
 30
0.0
 11
59.8572
 21
133.7338549523803
 31
0.0
 70
    32
  1
61,5
  3
ED5
100
AcDbAlignedDimension
 13
28.63472
 23
108.118349
 33
0.0
 14
91.07968
 24
75.13808899999999
 34
0.0
100
AcDbRotatedDimension
1001
ACAD
1000
DSTYLE
1002
{
1070
    40
1040
1.0
1002
}
  0
DIMENSION
  5
409
330
C94
100
AcDbEntity
  8
V0-VYPLNE
  6
CONTINUOUS
 62
    41
100
AcDbDimension
  2
*D6
 10
117.3812899999994
 20
-43.129351
 30
0.0
 11
117.38129
 21
18.035192
 31
0.0
 70
   160
  1
%%c119
  3
ED5
100
AcDbAlignedDimension
 13
91.07968
 23
73.975649
 33
0.0
 14
91.07968
 24
-43.129351
 34
0.0
 50
90.0
100
AcDbRotatedDimension
1001
ACAD
1000
DSTYLE
1002
{
1070
    40
1040
1.0
1002
}
  0
POINT
  5
59B
330
C94
100
AcDbEntity
  8
V0-VYPLNE
  6
CONTINUOUS
 62
    52
100
AcDbPoint
 10
28.63472
 20
15.123149
 30
0.0
  0
POINT
  5
59D
330
C94
100
AcDbEntity
  8
V0-VYPLNE
  6
CONTINUOUS
 62
    52
100
AcDbPoint
 10
272.502995
 20
15.123149
 30
0.0
  0
DIMENSION
  5
6A4
330
C94
100
AcDbEntity
  8
V0-VYPLNE
  6
CONTINUOUS
 62
    41
100
AcDbDimension
  2
*D7
 10
91.07968
 20
146.8844000000011
 30
0.0
 11
36.5819055
 21
154.336780952382
 31
0.0
 70
    32
  1
109,2
  3
ED5
100
AcDbAlignedDimension
 13
-17.915869
 23
108.118349
 33
0.0
 14
91.07968
 24
73.975649
 34
0.0
100
AcDbRotatedDimension
1001
ACAD
1000
DSTYLE
1002
{
1070
    40
1040
1.0
1002
}
  0
ARC
  5
6E0
330
C94
100
AcDbEntity
  8
V0-OBRYS
  6
CONTINUOUS
 62
    90
100
AcDbCircle
 10
979.8244
 20
15.123149
 30
0.0
 40
997.77556
100
AcDbArc
 50
174.967741
 51
176.863109
  0
ARC
  5
6E1
330
C94
100
AcDbEntity
  8
V0-OBRYS
  6
CONTINUOUS
 62
    90
100
AcDbCircle
 10
-8.12833
 20
102.118349
 30
0.0
 40
6.0
100
AcDbArc
 50
90.0
 51
174.967741
  0
ARC
  5
6E2
330
C94
100
AcDbEntity
  8
V0-OBRYS
  6
CONTINUOUS
 62
    90
100
AcDbCircle
 10
-8.12833
 20
-71.872051
 30
0.0
 40
6.0
100
AcDbArc
 50
185.032259
 51
270.0
  0
LINE
  5
6EF
330
C94
100
AcDbEntity
  8
V0-OBRYS
  6
CONTINUOUS
 62
    90
100
AcDbLine
 10
-15.673683
 20
82.49996899999999
 30
0.0
 11
-13.64122
 21
82.49996899999999
 31
0.0
  0
LINE
  5
6F0
330
C94
100
AcDbEntity
  8
V0-OBRYS
  6
CONTINUOUS
 62
    90
100
AcDbLine
 10
-13.64122
 20
82.49996899999999
 30
0.0
 11
-13.64122
 21
69.72314900000001
 31
0.0
  0
LINE
  5
6F1
330
C94
100
AcDbEntity
  8
V0-OBRYS
  6
CONTINUOUS
 62
    90
100
AcDbLine
 10
-13.64122
 20
-52.464505
 30
0.0
 11
-15.167483
 21
-52.464505
 31
0.0
  0
LINE
  5
6FB
330
C94
100
AcDbEntity
  8
V0-OBRYS
  6
CONTINUOUS
 62
    90
100
AcDbLine
 10
271.302995
 20
108.0951
 30
0.0
 11
191.531044
 21
108.0951
 31
0.0
  0
LINE
  5
6FC
330
C94
100
AcDbEntity
  8
V0-OBRYS
  6
CONTINUOUS
 62
    90
100
AcDbLine
 10
179.531044
 20
15.123149
 30
0.0
 11
179.531044
 21
96.0951
 31
0.0
  0
LINE
  5
6FD
330
C94
100
AcDbEntity
  8
V0-OBRYS
  6
CONTINUOUS
 62
    90
100
AcDbLine
 10
272.502995
 20
-77.848803
 30
0.0
 11
191.531044
 21
-77.848803
 31
0.0
  0
LINE
  5
6FE
330
C94
100
AcDbEntity
  8
V0-OBRYS
  6
CONTINUOUS
 62
    90
100
AcDbLine
 10
179.531044
 20
13.923149
 30
0.0
 11
179.531044
 21
-65.848803
 31
0.0
  0
LINE
  5
6FF
330
C94
100
AcDbEntity
  8
V0-OBRYS
  6
CONTINUOUS
 62
    90
100
AcDbLine
 10
365.474946
 20
15.123149
 30
0.0
 11
365.474946
 21
-65.848803
 31
0.0
  0
LINE
  5
700
330
C94
100
AcDbEntity
  8
V0-OBRYS
  6
CONTINUOUS
 62
    90
100
AcDbLine
 10
273.702995
 20
-77.848803
 30
0.0
 11
353.474946
 21
-77.848803
 31
0.0
  0
LINE
  5
701
330
C94
100
AcDbEntity
  8
V0-OBRYS
  6
CONTINUOUS
 62
    90
100
AcDbLine
 10
272.502995
 20
108.0951
 30
0.0
 11
353.474946
 21
108.0951
 31
0.0
  0
LINE
  5
702
330
C94
100
AcDbEntity
  8
V0-OBRYS
  6
CONTINUOUS
 62
    90
100
AcDbLine
 10
365.474946
 20
16.323149
 30
0.0
 11
365.474946
 21
96.0951
 31
0.0
  0
ARC
  5
703
330
C94
100
AcDbEntity
  8
V0-OBRYS
  6
CONTINUOUS
 62
    90
100
AcDbCircle
 10
191.531044
 20
96.0951
 30
0.0
 40
12.0
100
AcDbArc
 50
90.0
 51
180.0
  0
ARC
  5
704
330
C94
100
AcDbEntity
  8
V0-OBRYS
  6
CONTINUOUS
 62
    90
100
AcDbCircle
 10
191.531044
 20
-65.848803
 30
0.0
 40
12.0
100
AcDbArc
 50
180.0
 51
270.0
  0
ARC
  5
705
330
C94
100
AcDbEntity
  8
V0-OBRYS
  6
CONTINUOUS
 62
    90
100
AcDbCircle
 10
353.474946
 20
-65.848803
 30
0.0
 40
12.0
100
AcDbArc
 50
270.0
 51
0.0
  0
ARC
  5
706
330
C94
100
AcDbEntity
  8
V0-OBRYS
  6
CONTINUOUS
 62
    90
100
AcDbCircle
 10
353.474946
 20
96.0951
 30
0.0
 40
12.0
100
AcDbArc
 50
360.0
 51
90.0
  0
LINE
  5
710
330
C94
100
AcDbEntity
  8
V0-OBRYS
  6
CONTINUOUS
 62
    90
100
AcDbLine
 10
213.421543
 20
15.123149
 30
0.0
 11
213.421543
 21
67.60550499999999
 31
0.0
  0
LINE
  5
711
330
C94
100
AcDbEntity
  8
V0-OBRYS
  6
CONTINUOUS
 62
    90
100
AcDbLine
 10
213.421543
 20
15.123149
 30
0.0
 11
213.421543
 21
-37.359208
 31
0.0
  0
LINE
  5
712
330
C94
100
AcDbEntity
  8
V0-OBRYS
  6
CONTINUOUS
 62
    90
100
AcDbLine
 10
331.584446
 20
67.60550499999999
 30
0.0
 11
331.584446
 21
-37.359208
 31
0.0
  0
LINE
  5
718
330
C94
100
AcDbEntity
  8
V0-OBRYS
  6
CONTINUOUS
 62
    90
100
AcDbLine
 10
197.207525
 20
66.407315
 30
0.0
 11
347.798465
 21
66.407315
 31
0.0
  0
LINE
  5
719
330
C94
100
AcDbEntity
  8
V0-OBRYS
  6
CONTINUOUS
 62
    90
100
AcDbLine
 10
197.207525
 20
58.909577
 30
0.0
 11
347.798465
 21
58.909577
 31
0.0
  0
LINE
  5
71A
330
C94
100
AcDbEntity
  8
V0-OBRYS
  6
CONTINUOUS
 62
    90
100
AcDbLine
 10
197.207525
 20
51.411839
 30
0.0
 11
347.798465
 21
51.411839
 31
0.0
  0
LINE
  5
71C
330
C94
100
AcDbEntity
  8
V0-OBRYS
  6
CONTINUOUS
 62
    90
100
AcDbLine
 10
197.207525
 20
43.914101
 30
0.0
 11
347.798465
 21
43.914101
 31
0.0
  0
LINE
  5
71D
330
C94
100
AcDbEntity
  8
V0-OBRYS
  6
CONTINUOUS
 62
    90
100
AcDbLine
 10
197.207525
 20
37.91591
 30
0.0
 11
347.798465
 21
37.91591
 31
0.0
  0
LINE
  5
71E
330
C94
100
AcDbEntity
  8
V0-OBRYS
  6
CONTINUOUS
 62
    90
100
AcDbLine
 10
197.207525
 20
31.91772
 30
0.0
 11
347.798465
 21
31.91772
 31
0.0
  0
LINE
  5
71F
330
C94
100
AcDbEntity
  8
V0-OBRYS
  6
CONTINUOUS
 62
    90
100
AcDbLine
 10
197.207525
 20
25.919529
 30
0.0
 11
347.798465
 21
25.919529
 31
0.0
  0
LINE
  5
720
330
C94
100
AcDbEntity
  8
V0-OBRYS
  6
CONTINUOUS
 62
    90
100
AcDbLine
 10
197.207525
 20
19.921339
 30
0.0
 11
347.798465
 21
19.921339
 31
0.0
  0
LINE
  5
721
330
C94
100
AcDbEntity
  8
V0-OBRYS
  6
CONTINUOUS
 62
    90
100
AcDbLine
 10
197.207525
 20
10.324958
 30
0.0
 11
347.798465
 21
10.324958
 31
0.0
  0
LINE
  5
722
330
C94
100
AcDbEntity
  8
V0-OBRYS
  6
CONTINUOUS
 62
    90
100
AcDbLine
 10
197.207525
 20
4.326768
 30
0.0
 11
347.798465
 21
4.326768
 31
0.0
  0
LINE
  5
723
330
C94
100
AcDbEntity
  8
V0-OBRYS
  6
CONTINUOUS
 62
    90
100
AcDbLine
 10
197.207525
 20
-1.671423
 30
0.0
 11
347.798465
 21
-1.671423
 31
0.0
  0
LINE
  5
724
330
C94
100
AcDbEntity
  8
V0-OBRYS
  6
CONTINUOUS
 62
    90
100
AcDbLine
 10
197.207525
 20
-7.669613
 30
0.0
 11
347.798465
 21
-7.669613
 31
0.0
  0
LINE
  5
725
330
C94
100
AcDbEntity
  8
V0-OBRYS
  6
CONTINUOUS
 62
    90
100
AcDbLine
 10
197.207525
 20
-13.667803
 30
0.0
 11
347.798465
 21
-13.667803
 31
0.0
  0
LINE
  5
726
330
C94
100
AcDbEntity
  8
V0-OBRYS
  6
CONTINUOUS
 62
    90
100
AcDbLine
 10
197.207525
 20
-21.165541
 30
0.0
 11
347.798465
 21
-21.165541
 31
0.0
  0
LINE
  5
727
330
C94
100
AcDbEntity
  8
V0-OBRYS
  6
CONTINUOUS
 62
    90
100
AcDbLine
 10
197.207525
 20
-28.663279
 30
0.0
 11
347.798465
 21
-28.663279
 31
0.0
  0
LINE
  5
728
330
C94
100
AcDbEntity
  8
V0-OBRYS
  6
CONTINUOUS
 62
    90
100
AcDbLine
 10
197.207525
 20
-36.161017
 30
0.0
 11
347.798465
 21
-36.161017
 31
0.0
  0
ARC
  5
729
330
C94
100
AcDbEntity
  8
V0-OBRYS
  6
CONTINUOUS
 62
    90
100
AcDbCircle
 10
219.421543
 20
-37.359208
 30
0.0
 40
6.0
100
AcDbArc
 50
180.0
 51
270.0
  0
ARC
  5
72A
330
C94
100
AcDbEntity
  8
V0-OBRYS
  6
CONTINUOUS
 62
    90
100
AcDbCircle
 10
325.584446
 20
-37.359208
 30
0.0
 40
6.0
100
AcDbArc
 50
270.0
 51
360.0
  0
ARC
  5
72B
330
C94
100
AcDbEntity
  8
V0-OBRYS
  6
CONTINUOUS
 62
    90
100
AcDbCircle
 10
325.584446
 20
67.60550499999999
 30
0.0
 40
6.0
100
AcDbArc
 50
360.0
 51
90.0
  0
ARC
  5
72C
330
C94
100
AcDbEntity
  8
V0-OBRYS
  6
CONTINUOUS
 62
    90
100
AcDbCircle
 10
219.421543
 20
67.60550499999999
 30
0.0
 40
6.0
100
AcDbArc
 50
90.0
 51
180.0
  0
LINE
  5
72D
330
C94
100
AcDbEntity
  8
V0-OBRYS
  6
CONTINUOUS
 62
    90
100
AcDbLine
 10
197.207525
 20
67.607315
 30
0.0
 11
197.207525
 21
66.407315
 31
0.0
  0
LINE
  5
72E
330
C94
100
AcDbEntity
  8
V0-OBRYS
  6
CONTINUOUS
 62
    90
100
AcDbLine
 10
197.207525
 20
60.109577
 30
0.0
 11
197.207525
 21
58.909577
 31
0.0
  0
LINE
  5
72F
330
C94
100
AcDbEntity
  8
V0-OBRYS
  6
CONTINUOUS
 62
    90
100
AcDbLine
 10
197.207525
 20
52.611839
 30
0.0
 11
197.207525
 21
51.411839
 31
0.0
  0
LINE
  5
730
330
C94
100
AcDbEntity
  8
V0-OBRYS
  6
CONTINUOUS
 62
    90
100
AcDbLine
 10
197.207525
 20
45.114101
 30
0.0
 11
197.207525
 21
43.914101
 31
0.0
  0
LINE
  5
731
330
C94
100
AcDbEntity
  8
V0-OBRYS
  6
CONTINUOUS
 62
    90
100
AcDbLine
 10
197.207525
 20
39.11591
 30
0.0
 11
197.207525
 21
37.91591
 31
0.0
  0
LINE
  5
732
330
C94
100
AcDbEntity
  8
V0-OBRYS
  6
CONTINUOUS
 62
    90
100
AcDbLine
 10
197.207525
 20
33.11772
 30
0.0
 11
197.207525
 21
31.91772
 31
0.0
  0
LINE
  5
733
330
C94
100
AcDbEntity
  8
V0-OBRYS
  6
CONTINUOUS
 62
    90
100
AcDbLine
 10
197.207525
 20
25.919529
 30
0.0
 11
197.207525
 21
27.119529
 31
0.0
  0
LINE
  5
734
330
C94
100
AcDbEntity
  8
V0-OBRYS
  6
CONTINUOUS
 62
    90
100
AcDbLine
 10
197.207525
 20
21.121339
 30
0.0
 11
197.207525
 21
21.121339
 31
0.0
  0
LINE
  5
735
330
C94
100
AcDbEntity
  8
V0-OBRYS
  6
CONTINUOUS
 62
    90
100
AcDbLine
 10
197.207525
 20
21.121339
 30
0.0
 11
197.207525
 21
19.921339
 31
0.0
  0
LINE
  5
736
330
C94
100
AcDbEntity
  8
V0-OBRYS
  6
CONTINUOUS
 62
    90
100
AcDbLine
 10
197.207525
 20
10.324958
 30
0.0
 11
197.207525
 21
10.324958
 31
0.0
  0
LINE
  5
737
330
C94
100
AcDbEntity
  8
V0-OBRYS
  6
CONTINUOUS
 62
    90
100
AcDbLine
 10
197.207525
 20
10.324958
 30
0.0
 11
197.207525
 21
9.124958
 31
0.0
  0
LINE
  5
738
330
C94
100
AcDbEntity
  8
V0-OBRYS
  6
CONTINUOUS
 62
    90
100
AcDbLine
 10
197.207525
 20
4.326768
 30
0.0
 11
197.207525
 21
3.126768
 31
0.0
  0
LINE
  5
739
330
C94
100
AcDbEntity
  8
V0-OBRYS
  6
CONTINUOUS
 62
    90
100
AcDbLine
 10
197.207525
 20
-1.671423
 30
0.0
 11
197.207525
 21
-2.871423
 31
0.0
  0
LINE
  5
73A
330
C94
100
AcDbEntity
  8
V0-OBRYS
  6
CONTINUOUS
 62
    90
100
AcDbLine
 10
197.207525
 20
-7.669613
 30
0.0
 11
197.207525
 21
-8.869612999999999
 31
0.0
  0
LINE
  5
73B
330
C94
100
AcDbEntity
  8
V0-OBRYS
  6
CONTINUOUS
 62
    90
100
AcDbLine
 10
197.207525
 20
-13.667803
 30
0.0
 11
197.207525
 21
-14.867803
 31
0.0
  0
LINE
  5
73C
330
C94
100
AcDbEntity
  8
V0-OBRYS
  6
CONTINUOUS
 62
    90
100
AcDbLine
 10
197.207525
 20
-21.165541
 30
0.0
 11
197.207525
 21
-22.365541
 31
0.0
  0
LINE
  5
73D
330
C94
100
AcDbEntity
  8
V0-OBRYS
  6
CONTINUOUS
 62
    90
100
AcDbLine
 10
197.207525
 20
-28.663279
 30
0.0
 11
197.207525
 21
-29.863279
 31
0.0
  0
LINE
  5
73E
330
C94
100
AcDbEntity
  8
V0-OBRYS
  6
CONTINUOUS
 62
    90
100
AcDbLine
 10
197.207525
 20
-36.161017
 30
0.0
 11
197.207525
 21
-37.361017
 31
0.0
  0
LINE
  5
73F
330
C94
100
AcDbEntity
  8
V0-OBRYS
  6
CONTINUOUS
 62
    90
100
AcDbLine
 10
347.798465
 20
-36.161017
 30
0.0
 11
347.798465
 21
-37.361017
 31
0.0
  0
LINE
  5
740
330
C94
100
AcDbEntity
  8
V0-OBRYS
  6
CONTINUOUS
 62
    90
100
AcDbLine
 10
347.798465
 20
-28.663279
 30
0.0
 11
347.798465
 21
-29.863279
 31
0.0
  0
LINE
  5
741
330
C94
100
AcDbEntity
  8
V0-OBRYS
  6
CONTINUOUS
 62
    90
100
AcDbLine
 10
347.798465
 20
-21.165541
 30
0.0
 11
347.798465
 21
-22.365541
 31
0.0
  0
LINE
  5
742
330
C94
100
AcDbEntity
  8
V0-OBRYS
  6
CONTINUOUS
 62
    90
100
AcDbLine
 10
347.798465
 20
-13.667803
 30
0.0
 11
347.798465
 21
-14.867803
 31
0.0
  0
LINE
  5
743
330
C94
100
AcDbEntity
  8
V0-OBRYS
  6
CONTINUOUS
 62
    90
100
AcDbLine
 10
347.798465
 20
10.324958
 30
0.0
 11
347.798465
 21
9.124958
 31
0.0
  0
LINE
  5
744
330
C94
100
AcDbEntity
  8
V0-OBRYS
  6
CONTINUOUS
 62
    90
100
AcDbLine
 10
347.798465
 20
-7.669613
 30
0.0
 11
347.798465
 21
-8.869612999999999
 31
0.0
  0
LINE
  5
745
330
C94
100
AcDbEntity
  8
V0-OBRYS
  6
CONTINUOUS
 62
    90
100
AcDbLine
 10
347.798465
 20
-1.671423
 30
0.0
 11
347.798465
 21
-2.871423
 31
0.0
  0
LINE
  5
746
330
C94
100
AcDbEntity
  8
V0-OBRYS
  6
CONTINUOUS
 62
    90
100
AcDbLine
 10
347.798465
 20
4.326768
 30
0.0
 11
347.798465
 21
3.126768
 31
0.0
  0
LINE
  5
747
330
C94
100
AcDbEntity
  8
V0-OBRYS
  6
CONTINUOUS
 62
    90
100
AcDbLine
 10
347.798465
 20
10.324958
 30
0.0
 11
347.798465
 21
10.324958
 31
0.0
  0
LINE
  5
748
330
C94
100
AcDbEntity
  8
V0-OBRYS
  6
CONTINUOUS
 62
    90
100
AcDbLine
 10
347.798465
 20
21.121339
 30
0.0
 11
347.798465
 21
19.921339
 31
0.0
  0
LINE
  5
749
330
C94
100
AcDbEntity
  8
V0-OBRYS
  6
CONTINUOUS
 62
    90
100
AcDbLine
 10
347.798465
 20
21.121339
 30
0.0
 11
347.798465
 21
21.121339
 31
0.0
  0
LINE
  5
74A
330
C94
100
AcDbEntity
  8
V0-OBRYS
  6
CONTINUOUS
 62
    90
100
AcDbLine
 10
347.798465
 20
25.919529
 30
0.0
 11
347.798465
 21
27.119529
 31
0.0
  0
LINE
  5
74B
330
C94
100
AcDbEntity
  8
V0-OBRYS
  6
CONTINUOUS
 62
    90
100
AcDbLine
 10
347.798465
 20
33.11772
 30
0.0
 11
347.798465
 21
31.91772
 31
0.0
  0
LINE
  5
74C
330
C94
100
AcDbEntity
  8
V0-OBRYS
  6
CONTINUOUS
 62
    90
100
AcDbLine
 10
347.798465
 20
39.11591
 30
0.0
 11
347.798465
 21
37.91591
 31
0.0
  0
LINE
  5
74D
330
C94
100
AcDbEntity
  8
V0-OBRYS
  6
CONTINUOUS
 62
    90
100
AcDbLine
 10
347.798465
 20
45.114101
 30
0.0
 11
347.798465
 21
43.914101
 31
0.0
  0
LINE
  5
74E
330
C94
100
AcDbEntity
  8
V0-OBRYS
  6
CONTINUOUS
 62
    90
100
AcDbLine
 10
347.798465
 20
52.611839
 30
0.0
 11
347.798465
 21
51.411839
 31
0.0
  0
LINE
  5
74F
330
C94
100
AcDbEntity
  8
V0-OBRYS
  6
CONTINUOUS
 62
    90
100
AcDbLine
 10
347.798465
 20
60.109577
 30
0.0
 11
347.798465
 21
58.909577
 31
0.0
  0
LINE
  5
750
330
C94
100
AcDbEntity
  8
V0-OBRYS
  6
CONTINUOUS
 62
    90
100
AcDbLine
 10
347.798465
 20
67.607315
 30
0.0
 11
347.798465
 21
66.407315
 31
0.0
  0
LINE
  5
752
330
C94
100
AcDbEntity
  8
V0-OBRYS
  6
CONTINUOUS
 62
    90
100
AcDbLine
 10
-13.64122
 20
68.523149
 30
0.0
 11
-19.64122
 21
68.523149
 31
0.0
  0
LINE
  5
753
330
C94
100
AcDbEntity
  8
V0-OBRYS
  6
CONTINUOUS
 62
    90
100
AcDbLine
 10
-13.64122
 20
68.523149
 30
0.0
 11
-13.64122
 21
64.923149
 31
0.0
  0
LINE
  5
755
330
C94
100
AcDbEntity
  8
V0-OBRYS
  6
CONTINUOUS
 62
    90
100
AcDbLine
 10
-13.64122
 20
69.72314900000001
 30
0.0
 11
-19.64122
 21
69.72314900000001
 31
0.0
  0
LINE
  5
756
330
C94
100
AcDbEntity
  8
V0-OBRYS
  6
CONTINUOUS
 62
    90
100
AcDbLine
 10
-13.64122
 20
63.723149
 30
0.0
 11
-19.64122
 21
63.723149
 31
0.0
  0
LINE
  5
757
330
C94
100
AcDbEntity
  8
V0-OBRYS
  6
CONTINUOUS
 62
    90
100
AcDbLine
 10
-13.64122
 20
63.723149
 30
0.0
 11
-13.64122
 21
60.123149
 31
0.0
  0
LINE
  5
759
330
C94
100
AcDbEntity
  8
V0-OBRYS
  6
CONTINUOUS
 62
    90
100
AcDbLine
 10
-13.64122
 20
64.923149
 30
0.0
 11
-19.64122
 21
64.923149
 31
0.0
  0
LINE
  5
75A
330
C94
100
AcDbEntity
  8
V0-OBRYS
  6
CONTINUOUS
 62
    90
100
AcDbLine
 10
-13.64122
 20
58.923149
 30
0.0
 11
-19.64122
 21
58.923149
 31
0.0
  0
LINE
  5
75B
330
C94
100
AcDbEntity
  8
V0-OBRYS
  6
CONTINUOUS
 62
    90
100
AcDbLine
 10
-13.64122
 20
58.923149
 30
0.0
 11
-13.64122
 21
55.323149
 31
0.0
  0
LINE
  5
75D
330
C94
100
AcDbEntity
  8
V0-OBRYS
  6
CONTINUOUS
 62
    90
100
AcDbLine
 10
-13.64122
 20
60.123149
 30
0.0
 11
-19.64122
 21
60.123149
 31
0.0
  0
LINE
  5
75E
330
C94
100
AcDbEntity
  8
V0-OBRYS
  6
CONTINUOUS
 62
    90
100
AcDbLine
 10
-13.64122
 20
54.123149
 30
0.0
 11
-19.64122
 21
54.123149
 31
0.0
  0
LINE
  5
75F
330
C94
100
AcDbEntity
  8
V0-OBRYS
  6
CONTINUOUS
 62
    90
100
AcDbLine
 10
-13.64122
 20
54.123149
 30
0.0
 11
-13.64122
 21
50.523149
 31
0.0
  0
LINE
  5
761
330
C94
100
AcDbEntity
  8
V0-OBRYS
  6
CONTINUOUS
 62
    90
100
AcDbLine
 10
-13.64122
 20
55.323149
 30
0.0
 11
-19.64122
 21
55.323149
 31
0.0
  0
LINE
  5
762
330
C94
100
AcDbEntity
  8
V0-OBRYS
  6
CONTINUOUS
 62
    90
100
AcDbLine
 10
-13.64122
 20
49.323149
 30
0.0
 11
-19.64122
 21
49.323149
 31
0.0
  0
LINE
  5
763
330
C94
100
AcDbEntity
  8
V0-OBRYS
  6
CONTINUOUS
 62
    90
100
AcDbLine
 10
-13.64122
 20
49.323149
 30
0.0
 11
-13.64122
 21
45.723149
 31
0.0
  0
LINE
  5
765
330
C94
100
AcDbEntity
  8
V0-OBRYS
  6
CONTINUOUS
 62
    90
100
AcDbLine
 10
-13.64122
 20
50.523149
 30
0.0
 11
-19.64122
 21
50.523149
 31
0.0
  0
LINE
  5
767
330
C94
100
AcDbEntity
  8
V0-OBRYS
  6
CONTINUOUS
 62
    90
100
AcDbLine
 10
-13.64122
 20
44.523149
 30
0.0
 11
-13.64122
 21
40.923149
 31
0.0
  0
LINE
  5
76A
330
C94
100
AcDbEntity
  8
V0-OBRYS
  6
CONTINUOUS
 62
    90
100
AcDbLine
 10
-13.64122
 20
44.523149
 30
0.0
 11
-19.64122
 21
44.523149
 31
0.0
  0
LINE
  5
76B
330
C94
100
AcDbEntity
  8
V0-OBRYS
  6
CONTINUOUS
 62
    90
100
AcDbLine
 10
-13.64122
 20
45.723149
 30
0.0
 11
-19.64122
 21
45.723149
 31
0.0
  0
LINE
  5
76C
330
C94
100
AcDbEntity
  8
V0-OBRYS
  6
CONTINUOUS
 62
    90
100
AcDbLine
 10
-13.64122
 20
39.723149
 30
0.0
 11
-19.64122
 21
39.723149
 31
0.0
  0
LINE
  5
76D
330
C94
100
AcDbEntity
  8
V0-OBRYS
  6
CONTINUOUS
 62
    90
100
AcDbLine
 10
-13.64122
 20
39.723149
 30
0.0
 11
-13.64122
 21
36.123149
 31
0.0
  0
LINE
  5
76F
330
C94
100
AcDbEntity
  8
V0-OBRYS
  6
CONTINUOUS
 62
    90
100
AcDbLine
 10
-13.64122
 20
40.923149
 30
0.0
 11
-19.64122
 21
40.923149
 31
0.0
  0
LINE
  5
770
330
C94
100
AcDbEntity
  8
V0-OBRYS
  6
CONTINUOUS
 62
    90
100
AcDbLine
 10
-13.64122
 20
34.923149
 30
0.0
 11
-19.64122
 21
34.923149
 31
0.0
  0
LINE
  5
771
330
C94
100
AcDbEntity
  8
V0-OBRYS
  6
CONTINUOUS
 62
    90
100
AcDbLine
 10
-13.64122
 20
34.923149
 30
0.0
 11
-13.64122
 21
31.323149
 31
0.0
  0
LINE
  5
773
330
C94
100
AcDbEntity
  8
V0-OBRYS
  6
CONTINUOUS
 62
    90
100
AcDbLine
 10
-13.64122
 20
36.123149
 30
0.0
 11
-19.64122
 21
36.123149
 31
0.0
  0
LINE
  5
774
330
C94
100
AcDbEntity
  8
V0-OBRYS
  6
CONTINUOUS
 62
    90
100
AcDbLine
 10
-13.64122
 20
30.123149
 30
0.0
 11
-19.64122
 21
30.123149
 31
0.0
  0
LINE
  5
775
330
C94
100
AcDbEntity
  8
V0-OBRYS
  6
CONTINUOUS
 62
    90
100
AcDbLine
 10
-13.64122
 20
30.123149
 30
0.0
 11
-13.64122
 21
25.323149
 31
0.0
  0
LINE
  5
777
330
C94
100
AcDbEntity
  8
V0-OBRYS
  6
CONTINUOUS
 62
    90
100
AcDbLine
 10
-13.64122
 20
31.323149
 30
0.0
 11
-19.64122
 21
31.323149
 31
0.0
  0
LINE
  5
778
330
C94
100
AcDbEntity
  8
V0-OBRYS
  6
CONTINUOUS
 62
    90
100
AcDbLine
 10
-13.64122
 20
24.123149
 30
0.0
 11
-19.64122
 21
24.123149
 31
0.0
  0
LINE
  5
779
330
C94
100
AcDbEntity
  8
V0-OBRYS
  6
CONTINUOUS
 62
    90
100
AcDbLine
 10
-13.64122
 20
24.123149
 30
0.0
 11
-13.64122
 21
20.523149
 31
0.0
  0
LINE
  5
77B
330
C94
100
AcDbEntity
  8
V0-OBRYS
  6
CONTINUOUS
 62
    90
100
AcDbLine
 10
-13.64122
 20
25.323149
 30
0.0
 11
-19.64122
 21
25.323149
 31
0.0
  0
LINE
  5
77C
330
C94
100
AcDbEntity
  8
V0-OBRYS
  6
CONTINUOUS
 62
    90
100
AcDbLine
 10
-13.64122
 20
19.323149
 30
0.0
 11
-19.64122
 21
19.323149
 31
0.0
  0
LINE
  5
77D
330
C94
100
AcDbEntity
  8
V0-OBRYS
  6
CONTINUOUS
 62
    90
100
AcDbLine
 10
-13.64122
 20
19.323149
 30
0.0
 11
-13.64122
 21
-52.464505
 31
0.0
  0
LINE
  5
77F
330
C94
100
AcDbEntity
  8
V0-OBRYS
  6
CONTINUOUS
 62
    90
100
AcDbLine
 10
-13.64122
 20
20.523149
 30
0.0
 11
-19.64122
 21
20.523149
 31
0.0
  0
LINE
  5
780
330
C94
100
AcDbEntity
  8
V0-OBRYS
  6
CONTINUOUS
 62
    90
100
AcDbLine
 10
-13.64122
 20
14.523149
 30
0.0
 11
-19.64122
 21
14.523149
 31
0.0
  0
LINE
  5
781
330
C94
100
AcDbEntity
  8
V0-OBRYS
  6
CONTINUOUS
 62
    90
100
AcDbLine
 10
-13.64122
 20
15.723149
 30
0.0
 11
-19.64122
 21
15.723149
 31
0.0
  0
LINE
  5
784
330
C94
100
AcDbEntity
  8
V0-OBRYS
  6
CONTINUOUS
 62
    90
100
AcDbLine
 10
-19.64122
 20
69.72314900000001
 30
0.0
 11
-19.64122
 21
68.523149
 31
0.0
  0
LINE
  5
785
330
C94
100
AcDbEntity
  8
V0-OBRYS
  6
CONTINUOUS
 62
    90
100
AcDbLine
 10
-19.64122
 20
64.923149
 30
0.0
 11
-19.64122
 21
63.723149
 31
0.0
  0
LINE
  5
786
330
C94
100
AcDbEntity
  8
V0-OBRYS
  6
CONTINUOUS
 62
    90
100
AcDbLine
 10
-19.64122
 20
60.123149
 30
0.0
 11
-19.64122
 21
58.923149
 31
0.0
  0
LINE
  5
787
330
C94
100
AcDbEntity
  8
V0-OBRYS
  6
CONTINUOUS
 62
    90
100
AcDbLine
 10
-19.64122
 20
55.323149
 30
0.0
 11
-19.64122
 21
54.123149
 31
0.0
  0
LINE
  5
788
330
C94
100
AcDbEntity
  8
V0-OBRYS
  6
CONTINUOUS
 62
    90
100
AcDbLine
 10
-19.64122
 20
50.523149
 30
0.0
 11
-19.64122
 21
49.323149
 31
0.0
  0
LINE
  5
789
330
C94
100
AcDbEntity
  8
V0-OBRYS
  6
CONTINUOUS
 62
    90
100
AcDbLine
 10
-19.64122
 20
45.723149
 30
0.0
 11
-19.64122
 21
44.523149
 31
0.0
  0
LINE
  5
78A
330
C94
100
AcDbEntity
  8
V0-OBRYS
  6
CONTINUOUS
 62
    90
100
AcDbLine
 10
-19.64122
 20
40.923149
 30
0.0
 11
-19.64122
 21
39.723149
 31
0.0
  0
LINE
  5
78B
330
C94
100
AcDbEntity
  8
V0-OBRYS
  6
CONTINUOUS
 62
    90
100
AcDbLine
 10
-19.64122
 20
36.123149
 30
0.0
 11
-19.64122
 21
34.923149
 31
0.0
  0
LINE
  5
78C
330
C94
100
AcDbEntity
  8
V0-OBRYS
  6
CONTINUOUS
 62
    90
100
AcDbLine
 10
-19.64122
 20
31.323149
 30
0.0
 11
-19.64122
 21
30.123149
 31
0.0
  0
LINE
  5
78D
330
C94
100
AcDbEntity
  8
V0-OBRYS
  6
CONTINUOUS
 62
    90
100
AcDbLine
 10
-19.64122
 20
25.323149
 30
0.0
 11
-19.64122
 21
24.123149
 31
0.0
  0
LINE
  5
78E
330
C94
100
AcDbEntity
  8
V0-OBRYS
  6
CONTINUOUS
 62
    90
100
AcDbLine
 10
-19.64122
 20
20.523149
 30
0.0
 11
-19.64122
 21
19.323149
 31
0.0
  0
LINE
  5
78F
330
C94
100
AcDbEntity
  8
V0-OBRYS
  6
CONTINUOUS
 62
    90
100
AcDbLine
 10
-19.64122
 20
15.723149
 30
0.0
 11
-19.64122
 21
14.523149
 31
0.0
  0
ARC
  5
790
330
C94
100
AcDbEntity
  8
V0-OBRYS
  6
CONTINUOUS
 62
    90
100
AcDbCircle
 10
979.8244
 20
15.123149
 30
0.0
 40
997.77556
100
AcDbArc
 50
176.932119
 51
177.13912
  0
ARC
  5
791
330
C94
100
AcDbEntity
  8
V0-OBRYS
  6
CONTINUOUS
 62
    90
100
AcDbCircle
 10
979.8244
 20
15.123149
 30
0.0
 40
997.77556
100
AcDbArc
 50
177.208112
 51
177.415065
  0
ARC
  5
792
330
C94
100
AcDbEntity
  8
V0-OBRYS
  6
CONTINUOUS
 62
    90
100
AcDbCircle
 10
979.8244
 20
15.123149
 30
0.0
 40
997.77556
100
AcDbArc
 50
177.484042
 51
177.69095
  0
ARC
  5
793
330
C94
100
AcDbEntity
  8
V0-OBRYS
  6
CONTINUOUS
 62
    90
100
AcDbCircle
 10
979.8244
 20
15.123149
 30
0.0
 40
997.77556
100
AcDbArc
 50
177.759912
 51
177.966781
  0
ARC
  5
794
330
C94
100
AcDbEntity
  8
V0-OBRYS
  6
CONTINUOUS
 62
    90
100
AcDbCircle
 10
979.8244
 20
15.123149
 30
0.0
 40
997.77556
100
AcDbArc
 50
178.035731
 51
178.242565
  0
ARC
  5
795
330
C94
100
AcDbEntity
  8
V0-OBRYS
  6
CONTINUOUS
 62
    90
100
AcDbCircle
 10
979.8244
 20
15.123149
 30
0.0
 40
997.77556
100
AcDbArc
 50
178.311504
 51
178.518308
  0
ARC
  5
796
330
C94
100
AcDbEntity
  8
V0-OBRYS
  6
CONTINUOUS
 62
    90
100
AcDbCircle
 10
979.8244
 20
15.123149
 30
0.0
 40
997.77556
100
AcDbArc
 50
178.587238
 51
178.794017
  0
ARC
  5
797
330
C94
100
AcDbEntity
  8
V0-OBRYS
  6
CONTINUOUS
 62
    90
100
AcDbCircle
 10
979.8244
 20
15.123149
 30
0.0
 40
997.77556
100
AcDbArc
 50
178.86294
 51
179.069698
  0
ARC
  5
798
330
C94
100
AcDbEntity
  8
V0-OBRYS
  6
CONTINUOUS
 62
    90
100
AcDbCircle
 10
979.8244
 20
15.123149
 30
0.0
 40
997.77556
100
AcDbArc
 50
179.138615
 51
179.41427
  0
ARC
  5
799
330
C94
100
AcDbEntity
  8
V0-OBRYS
  6
CONTINUOUS
 62
    90
100
AcDbCircle
 10
979.8244
 20
15.123149
 30
0.0
 40
997.77556
100
AcDbArc
 50
179.483181
 51
179.689912
  0
ARC
  5
79A
330
C94
100
AcDbEntity
  8
V0-OBRYS
  6
CONTINUOUS
 62
    90
100
AcDbCircle
 10
979.8244
 20
15.123149
 30
0.0
 40
997.77556
100
AcDbArc
 50
179.758821
 51
185.032259
  0
ARC
  5
79B
330
C94
100
AcDbEntity
  8
V0-OBRYS
  6
CONTINUOUS
 62
    90
100
AcDbCircle
 10
979.8244
 20
15.123149
 30
0.0
 40
997.77556
100
AcDbArc
 50
180.58573
 51
180.861385
  0
LINE
  5
79C
330
C94
100
AcDbEntity
  8
V0-OBRYS
  6
CONTINUOUS
 62
    90
100
AcDbLine
 10
-13.64122
 20
0.123149
 30
0.0
 11
-13.64122
 21
4.923149
 31
0.0
  0
ARC
  5
79D
330
C94
100
AcDbEntity
  8
V0-OBRYS
  6
CONTINUOUS
 62
    90
100
AcDbCircle
 10
979.8244
 20
15.123149
 30
0.0
 40
997.77556
100
AcDbArc
 50
180.310088
 51
180.516819
  0
LINE
  5
79E
330
C94
100
AcDbEntity
  8
V0-OBRYS
  6
CONTINUOUS
 62
    90
100
AcDbLine
 10
-19.64122
 20
9.723148999999999
 30
0.0
 11
-19.64122
 21
10.923149
 31
0.0
  0
LINE
  5
79F
330
C94
100
AcDbEntity
  8
V0-OBRYS
  6
CONTINUOUS
 62
    90
100
AcDbLine
 10
-19.64122
 20
4.923149
 30
0.0
 11
-19.64122
 21
6.123149
 31
0.0
  0
LINE
  5
7A0
330
C94
100
AcDbEntity
  8
V0-OBRYS
  6
CONTINUOUS
 62
    90
100
AcDbLine
 10
-13.64122
 20
9.723148999999999
 30
0.0
 11
-19.64122
 21
9.723148999999999
 31
0.0
  0
LINE
  5
7A1
330
C94
100
AcDbEntity
  8
V0-OBRYS
  6
CONTINUOUS
 62
    90
100
AcDbLine
 10
-13.64122
 20
6.123149
 30
0.0
 11
-13.64122
 21
9.723148999999999
 31
0.0
  0
LINE
  5
7A2
330
C94
100
AcDbEntity
  8
V0-OBRYS
  6
CONTINUOUS
 62
    90
100
AcDbLine
 10
-13.64122
 20
10.923149
 30
0.0
 11
-19.64122
 21
10.923149
 31
0.0
  0
LINE
  5
7A3
330
C94
100
AcDbEntity
  8
V0-OBRYS
  6
CONTINUOUS
 62
    90
100
AcDbLine
 10
-13.64122
 20
4.923149
 30
0.0
 11
-19.64122
 21
4.923149
 31
0.0
  0
LINE
  5
7A4
330
C94
100
AcDbEntity
  8
V0-OBRYS
  6
CONTINUOUS
 62
    90
100
AcDbLine
 10
-13.64122
 20
6.123149
 30
0.0
 11
-19.64122
 21
6.123149
 31
0.0
  0
ARC
  5
7A5
330
C94
100
AcDbEntity
  8
V0-OBRYS
  6
CONTINUOUS
 62
    90
100
AcDbCircle
 10
979.8244
 20
15.123149
 30
0.0
 40
997.77556
100
AcDbArc
 50
182.86088
 51
183.067881
  0
LINE
  5
7A6
330
C94
100
AcDbEntity
  8
V0-OBRYS
  6
CONTINUOUS
 62
    90
100
AcDbLine
 10
-13.64122
 20
-38.276851
 30
0.0
 11
-13.64122
 21
-34.676851
 31
0.0
  0
ARC
  5
7A7
330
C94
100
AcDbEntity
  8
V0-OBRYS
  6
CONTINUOUS
 62
    90
100
AcDbCircle
 10
979.8244
 20
15.123149
 30
0.0
 40
997.77556
100
AcDbArc
 50
181.757435
 51
181.964269
  0
LINE
  5
7A8
330
C94
100
AcDbEntity
  8
V0-OBRYS
  6
CONTINUOUS
 62
    90
100
AcDbLine
 10
-13.64122
 20
-19.076851
 30
0.0
 11
-13.64122
 21
-15.476851
 31
0.0
  0
ARC
  5
7A9
330
C94
100
AcDbEntity
  8
V0-OBRYS
  6
CONTINUOUS
 62
    90
100
AcDbCircle
 10
979.8244
 20
15.123149
 30
0.0
 40
997.77556
100
AcDbArc
 50
180.930302
 51
181.13706
  0
ARC
  5
7AA
330
C94
100
AcDbEntity
  8
V0-OBRYS
  6
CONTINUOUS
 62
    90
100
AcDbCircle
 10
979.8244
 20
15.123149
 30
0.0
 40
997.77556
100
AcDbArc
 50
181.205983
 51
181.412762
  0
ARC
  5
7AB
330
C94
100
AcDbEntity
  8
V0-OBRYS
  6
CONTINUOUS
 62
    90
100
AcDbCircle
 10
979.8244
 20
15.123149
 30
0.0
 40
997.77556
100
AcDbArc
 50
181.481692
 51
181.688496
  0
LINE
  5
7AC
330
C94
100
AcDbEntity
  8
V0-OBRYS
  6
CONTINUOUS
 62
    90
100
AcDbLine
 10
-19.64122
 20
-1.076851
 30
0.0
 11
-19.64122
 21
0.123149
 31
0.0
  0
LINE
  5
7AD
330
C94
100
AcDbEntity
  8
V0-OBRYS
  6
CONTINUOUS
 62
    90
100
AcDbLine
 10
-19.64122
 20
-5.876851
 30
0.0
 11
-19.64122
 21
-4.676851
 31
0.0
  0
LINE
  5
7AE
330
C94
100
AcDbEntity
  8
V0-OBRYS
  6
CONTINUOUS
 62
    90
100
AcDbLine
 10
-19.64122
 20
-10.676851
 30
0.0
 11
-19.64122
 21
-9.476851
 31
0.0
  0
LINE
  5
7AF
330
C94
100
AcDbEntity
  8
V0-OBRYS
  6
CONTINUOUS
 62
    90
100
AcDbLine
 10
-19.64122
 20
-15.476851
 30
0.0
 11
-19.64122
 21
-14.276851
 31
0.0
  0
LINE
  5
7B0
330
C94
100
AcDbEntity
  8
V0-OBRYS
  6
CONTINUOUS
 62
    90
100
AcDbLine
 10
-13.64122
 20
-1.076851
 30
0.0
 11
-19.64122
 21
-1.076851
 31
0.0
  0
LINE
  5
7B1
330
C94
100
AcDbEntity
  8
V0-OBRYS
  6
CONTINUOUS
 62
    90
100
AcDbLine
 10
-13.64122
 20
-4.676851
 30
0.0
 11
-13.64122
 21
-1.076851
 31
0.0
  0
LINE
  5
7B2
330
C94
100
AcDbEntity
  8
V0-OBRYS
  6
CONTINUOUS
 62
    90
100
AcDbLine
 10
-13.64122
 20
0.123149
 30
0.0
 11
-19.64122
 21
0.123149
 31
0.0
  0
LINE
  5
7B3
330
C94
100
AcDbEntity
  8
V0-OBRYS
  6
CONTINUOUS
 62
    90
100
AcDbLine
 10
-13.64122
 20
-5.876851
 30
0.0
 11
-19.64122
 21
-5.876851
 31
0.0
  0
LINE
  5
7B4
330
C94
100
AcDbEntity
  8
V0-OBRYS
  6
CONTINUOUS
 62
    90
100
AcDbLine
 10
-13.64122
 20
-9.476851
 30
0.0
 11
-13.64122
 21
-5.876851
 31
0.0
  0
LINE
  5
7B5
330
C94
100
AcDbEntity
  8
V0-OBRYS
  6
CONTINUOUS
 62
    90
100
AcDbLine
 10
-13.64122
 20
-4.676851
 30
0.0
 11
-19.64122
 21
-4.676851
 31
0.0
  0
LINE
  5
7B6
330
C94
100
AcDbEntity
  8
V0-OBRYS
  6
CONTINUOUS
 62
    90
100
AcDbLine
 10
-13.64122
 20
-10.676851
 30
0.0
 11
-19.64122
 21
-10.676851
 31
0.0
  0
LINE
  5
7B7
330
C94
100
AcDbEntity
  8
V0-OBRYS
  6
CONTINUOUS
 62
    90
100
AcDbLine
 10
-13.64122
 20
-14.276851
 30
0.0
 11
-13.64122
 21
-10.676851
 31
0.0
  0
LINE
  5
7B8
330
C94
100
AcDbEntity
  8
V0-OBRYS
  6
CONTINUOUS
 62
    90
100
AcDbLine
 10
-13.64122
 20
-9.476851
 30
0.0
 11
-19.64122
 21
-9.476851
 31
0.0
  0
LINE
  5
7B9
330
C94
100
AcDbEntity
  8
V0-OBRYS
  6
CONTINUOUS
 62
    90
100
AcDbLine
 10
-13.64122
 20
-15.476851
 30
0.0
 11
-19.64122
 21
-15.476851
 31
0.0
  0
LINE
  5
7BA
330
C94
100
AcDbEntity
  8
V0-OBRYS
  6
CONTINUOUS
 62
    90
100
AcDbLine
 10
-13.64122
 20
-14.276851
 30
0.0
 11
-19.64122
 21
-14.276851
 31
0.0
  0
ARC
  5
7BB
330
C94
100
AcDbEntity
  8
V0-OBRYS
  6
CONTINUOUS
 62
    90
100
AcDbCircle
 10
979.8244
 20
15.123149
 30
0.0
 40
997.77556
100
AcDbArc
 50
182.033219
 51
182.240088
  0
ARC
  5
7BC
330
C94
100
AcDbEntity
  8
V0-OBRYS
  6
CONTINUOUS
 62
    90
100
AcDbCircle
 10
979.8244
 20
15.123149
 30
0.0
 40
997.77556
100
AcDbArc
 50
182.30905
 51
182.515958
  0
ARC
  5
7BD
330
C94
100
AcDbEntity
  8
V0-OBRYS
  6
CONTINUOUS
 62
    90
100
AcDbCircle
 10
979.8244
 20
15.123149
 30
0.0
 40
997.77556
100
AcDbArc
 50
182.584935
 51
182.791888
  0
LINE
  5
7BE
330
C94
100
AcDbEntity
  8
V0-OBRYS
  6
CONTINUOUS
 62
    90
100
AcDbLine
 10
-19.64122
 20
-20.276851
 30
0.0
 11
-19.64122
 21
-19.076851
 31
0.0
  0
LINE
  5
7BF
330
C94
100
AcDbEntity
  8
V0-OBRYS
  6
CONTINUOUS
 62
    90
100
AcDbLine
 10
-19.64122
 20
-25.076851
 30
0.0
 11
-19.64122
 21
-23.876851
 31
0.0
  0
LINE
  5
7C0
330
C94
100
AcDbEntity
  8
V0-OBRYS
  6
CONTINUOUS
 62
    90
100
AcDbLine
 10
-19.64122
 20
-29.876851
 30
0.0
 11
-19.64122
 21
-28.676851
 31
0.0
  0
LINE
  5
7C1
330
C94
100
AcDbEntity
  8
V0-OBRYS
  6
CONTINUOUS
 62
    90
100
AcDbLine
 10
-19.64122
 20
-34.676851
 30
0.0
 11
-19.64122
 21
-33.476851
 31
0.0
  0
LINE
  5
7C2
330
C94
100
AcDbEntity
  8
V0-OBRYS
  6
CONTINUOUS
 62
    90
100
AcDbLine
 10
-13.64122
 20
-20.276851
 30
0.0
 11
-19.64122
 21
-20.276851
 31
0.0
  0
LINE
  5
7C3
330
C94
100
AcDbEntity
  8
V0-OBRYS
  6
CONTINUOUS
 62
    90
100
AcDbLine
 10
-13.64122
 20
-23.876851
 30
0.0
 11
-13.64122
 21
-20.276851
 31
0.0
  0
LINE
  5
7C4
330
C94
100
AcDbEntity
  8
V0-OBRYS
  6
CONTINUOUS
 62
    90
100
AcDbLine
 10
-13.64122
 20
-19.076851
 30
0.0
 11
-19.64122
 21
-19.076851
 31
0.0
  0
LINE
  5
7C5
330
C94
100
AcDbEntity
  8
V0-OBRYS
  6
CONTINUOUS
 62
    90
100
AcDbLine
 10
-13.64122
 20
-25.076851
 30
0.0
 11
-19.64122
 21
-25.076851
 31
0.0
  0
LINE
  5
7C6
330
C94
100
AcDbEntity
  8
V0-OBRYS
  6
CONTINUOUS
 62
    90
100
AcDbLine
 10
-13.64122
 20
-28.676851
 30
0.0
 11
-13.64122
 21
-25.076851
 31
0.0
  0
LINE
  5
7C7
330
C94
100
AcDbEntity
  8
V0-OBRYS
  6
CONTINUOUS
 62
    90
100
AcDbLine
 10
-13.64122
 20
-23.876851
 30
0.0
 11
-19.64122
 21
-23.876851
 31
0.0
  0
LINE
  5
7C8
330
C94
100
AcDbEntity
  8
V0-OBRYS
  6
CONTINUOUS
 62
    90
100
AcDbLine
 10
-13.64122
 20
-29.876851
 30
0.0
 11
-19.64122
 21
-29.876851
 31
0.0
  0
LINE
  5
7C9
330
C94
100
AcDbEntity
  8
V0-OBRYS
  6
CONTINUOUS
 62
    90
100
AcDbLine
 10
-13.64122
 20
-33.476851
 30
0.0
 11
-13.64122
 21
-29.876851
 31
0.0
  0
LINE
  5
7CA
330
C94
100
AcDbEntity
  8
V0-OBRYS
  6
CONTINUOUS
 62
    90
100
AcDbLine
 10
-13.64122
 20
-28.676851
 30
0.0
 11
-19.64122
 21
-28.676851
 31
0.0
  0
LINE
  5
7CB
330
C94
100
AcDbEntity
  8
V0-OBRYS
  6
CONTINUOUS
 62
    90
100
AcDbLine
 10
-13.64122
 20
-34.676851
 30
0.0
 11
-19.64122
 21
-34.676851
 31
0.0
  0
LINE
  5
7CC
330
C94
100
AcDbEntity
  8
V0-OBRYS
  6
CONTINUOUS
 62
    90
100
AcDbLine
 10
-13.64122
 20
-33.476851
 30
0.0
 11
-19.64122
 21
-33.476851
 31
0.0
  0
LINE
  5
7CD
330
C94
100
AcDbEntity
  8
V0-OBRYS
  6
CONTINUOUS
 62
    90
100
AcDbLine
 10
-19.64122
 20
-39.476851
 30
0.0
 11
-19.64122
 21
-38.276851
 31
0.0
  0
LINE
  5
7CE
330
C94
100
AcDbEntity
  8
V0-OBRYS
  6
CONTINUOUS
 62
    90
100
AcDbLine
 10
-13.64122
 20
-39.476851
 30
0.0
 11
-19.64122
 21
-39.476851
 31
0.0
  0
LINE
  5
7CF
330
C94
100
AcDbEntity
  8
V0-OBRYS
  6
CONTINUOUS
 62
    90
100
AcDbLine
 10
-13.64122
 20
-38.276851
 30
0.0
 11
-19.64122
 21
-38.276851
 31
0.0
  0
DIMENSION
  5
85B
330
C94
100
AcDbEntity
  8
V0-VYPLNE
  6
CONTINUOUS
 62
    41
100
AcDbDimension
  2
*D8
 10
157.9627959999998
 20
-77.848803
 30
0.0
 11
150.5104150476188
 21
15.12314849999999
 31
0.0
 70
    32
  1
186,5
  3
ED5
100
AcDbAlignedDimension
 13
191.531044
 23
108.0951
 33
0.0
 14
191.531044
 24
-77.848803
 34
0.0
 50
90.0
100
AcDbRotatedDimension
1001
ACAD
1000
DSTYLE
1002
{
1070
    40
1040
1.0
1002
}
  0
DIMENSION
  5
868
330
C94
100
AcDbEntity
  8
V0-VYPLNE
  6
CONTINUOUS
 62
    41
100
AcDbDimension
  2
*D9
 10
365.474946
 20
-102.5734100000045
 30
0.0
 11
272.502995
 21
-95.12102904762357
 31
0.0
 70
    32
  1
186,5
  3
ED5
100
AcDbAlignedDimension
 13
179.531044
 23
-65.848803
 33
0.0
 14
365.474946
 24
-65.848803
 34
0.0
100
AcDbRotatedDimension
1001
ACAD
1000
DSTYLE
1002
{
1070
    40
1040
1.0
1002
}
  0
LINE
  5
90B
330
C94
100
AcDbEntity
  8
V0-OBRYS
  6
CONTINUOUS
 62
    90
 48
5.0
100
AcDbLine
 10
28.63472
 20
-293.603787
 30
0.0
 11
28.63472
 21
-107.613387
 31
0.0
  0
LINE
  5
90C
330
C94
100
AcDbEntity
  8
V0-OBRYS
  6
CONTINUOUS
 62
    90
100
AcDbLine
 10
-13.64122
 20
-133.231766
 30
0.0
 11
-13.64122
 21
-146.008587
 31
0.0
  0
ARC
  5
90D
330
C94
100
AcDbEntity
  8
V0-OBRYS
  6
CONTINUOUS
 62
    90
100
AcDbCircle
 10
979.8244
 20
-200.608587
 30
0.0
 40
997.77556
100
AcDbArc
 50
174.967741
 51
176.863109
  0
LINE
  5
90F
330
C94
100
AcDbEntity
  8
V0-OBRYS
  6
CONTINUOUS
 62
    90
 48
5.0
100
AcDbLine
 10
28.63472
 20
-141.756087
 30
0.0
 11
91.07968
 21
-141.756087
 31
0.0
  0
LINE
  5
910
330
C94
100
AcDbEntity
  8
V0-OBRYS
  6
CONTINUOUS
 62
    90
 48
5.0
100
AcDbLine
 10
91.07968
 20
-258.861087
 30
0.0
 11
28.63472
 21
-258.861087
 31
0.0
  0
LINE
  5
911
330
C94
100
AcDbEntity
  8
V0-VYPLNE
  6
DASHDOT
 62
    63
100
AcDbLine
 10
-41.3502
 20
-200.608587
 30
0.0
 11
98.05431999999999
 21
-200.608587
 31
0.0
  0
ARC
  5
912
330
C94
100
AcDbEntity
  8
V0-OBRYS
  6
CONTINUOUS
 62
    90
100
AcDbCircle
 10
979.8244
 20
-200.608587
 30
0.0
 40
997.77556
100
AcDbArc
 50
179.758821
 51
185.032259
  0
LINE
  5
913
330
C94
100
AcDbEntity
  8
V0-OBRYS
  6
CONTINUOUS
 62
    90
 48
5.0
100
AcDbLine
 10
-8.12833
 20
-293.603787
 30
0.0
 11
28.63472
 21
-293.603787
 31
0.0
  0
ARC
  5
914
330
C94
100
AcDbEntity
  8
V0-OBRYS
  6
CONTINUOUS
 62
    90
100
AcDbCircle
 10
-8.12833
 20
-287.603787
 30
0.0
 40
6.0
100
AcDbArc
 50
185.032259
 51
270.0
  0
POINT
  5
915
330
C94
100
AcDbEntity
  8
V0-VYPLNE
  6
CONTINUOUS
 62
    52
100
AcDbPoint
 10
28.63472
 20
-200.608587
 30
0.0
  0
ARC
  5
916
330
C94
100
AcDbEntity
  8
V0-OBRYS
  6
CONTINUOUS
 62
    90
100
AcDbCircle
 10
979.8244
 20
-200.608587
 30
0.0
 40
997.77556
100
AcDbArc
 50
180.310088
 51
180.516819
  0
LINE
  5
917
330
C94
100
AcDbEntity
  8
V0-OBRYS
  6
CONTINUOUS
 62
    90
100
AcDbLine
 10
-13.64122
 20
-209.608587
 30
0.0
 11
-13.64122
 21
-206.008587
 31
0.0
  0
LINE
  5
918
330
C94
100
AcDbEntity
  8
V0-OBRYS
  6
CONTINUOUS
 62
    90
100
AcDbLine
 10
-13.64122
 20
-196.408587
 30
0.0
 11
-13.64122
 21
-268.196241
 31
0.0
  0
LINE
  5
919
330
C94
100
AcDbEntity
  8
V0-OBRYS
  6
CONTINUOUS
 62
    90
100
AcDbLine
 10
-19.64122
 20
-240.808587
 30
0.0
 11
-19.64122
 21
-239.608587
 31
0.0
  0
LINE
  5
91A
330
C94
100
AcDbEntity
  8
V0-OBRYS
  6
CONTINUOUS
 62
    90
100
AcDbLine
 10
-13.64122
 20
-268.196241
 30
0.0
 11
-15.167483
 21
-268.196241
 31
0.0
  0
LINE
  5
91B
330
C94
100
AcDbEntity
  8
V0-OBRYS
  6
CONTINUOUS
 62
    90
100
AcDbLine
 10
-13.64122
 20
-240.808587
 30
0.0
 11
-19.64122
 21
-240.808587
 31
0.0
  0
LINE
  5
91C
330
C94
100
AcDbEntity
  8
V0-OBRYS
  6
CONTINUOUS
 62
    90
100
AcDbLine
 10
-13.64122
 20
-245.608587
 30
0.0
 11
-19.64122
 21
-245.608587
 31
0.0
  0
LINE
  5
91D
330
C94
100
AcDbEntity
  8
V0-OBRYS
  6
CONTINUOUS
 62
    90
100
AcDbLine
 10
-13.64122
 20
-244.408587
 30
0.0
 11
-19.64122
 21
-244.408587
 31
0.0
  0
LINE
  5
91E
330
C94
100
AcDbEntity
  8
V0-OBRYS
  6
CONTINUOUS
 62
    90
100
AcDbLine
 10
-13.64122
 20
-250.408587
 30
0.0
 11
-19.64122
 21
-250.408587
 31
0.0
  0
LINE
  5
91F
330
C94
100
AcDbEntity
  8
V0-OBRYS
  6
CONTINUOUS
 62
    90
100
AcDbLine
 10
-13.64122
 20
-249.208587
 30
0.0
 11
-19.64122
 21
-249.208587
 31
0.0
  0
LINE
  5
920
330
C94
100
AcDbEntity
  8
V0-OBRYS
  6
CONTINUOUS
 62
    90
100
AcDbLine
 10
-13.64122
 20
-255.208587
 30
0.0
 11
-19.64122
 21
-255.208587
 31
0.0
  0
LINE
  5
921
330
C94
100
AcDbEntity
  8
V0-OBRYS
  6
CONTINUOUS
 62
    90
100
AcDbLine
 10
-13.64122
 20
-254.008587
 30
0.0
 11
-19.64122
 21
-254.008587
 31
0.0
  0
LINE
  5
922
330
C94
100
AcDbEntity
  8
V0-OBRYS
  6
CONTINUOUS
 62
    90
100
AcDbLine
 10
-19.64122
 20
-245.608587
 30
0.0
 11
-19.64122
 21
-244.408587
 31
0.0
  0
LINE
  5
923
330
C94
100
AcDbEntity
  8
V0-OBRYS
  6
CONTINUOUS
 62
    90
100
AcDbLine
 10
-19.64122
 20
-250.408587
 30
0.0
 11
-19.64122
 21
-249.208587
 31
0.0
  0
LINE
  5
924
330
C94
100
AcDbEntity
  8
V0-OBRYS
  6
CONTINUOUS
 62
    90
100
AcDbLine
 10
-19.64122
 20
-255.208587
 30
0.0
 11
-19.64122
 21
-254.008587
 31
0.0
  0
ARC
  5
925
330
C94
100
AcDbEntity
  8
V0-OBRYS
  6
CONTINUOUS
 62
    90
100
AcDbCircle
 10
979.8244
 20
-200.608587
 30
0.0
 40
997.77556
100
AcDbArc
 50
182.30905
 51
182.515958
  0
LINE
  5
926
330
C94
100
AcDbEntity
  8
V0-OBRYS
  6
CONTINUOUS
 62
    90
100
AcDbLine
 10
-13.64122
 20
-244.408587
 30
0.0
 11
-13.64122
 21
-240.808587
 31
0.0
  0
ARC
  5
927
330
C94
100
AcDbEntity
  8
V0-OBRYS
  6
CONTINUOUS
 62
    90
100
AcDbCircle
 10
979.8244
 20
-200.608587
 30
0.0
 40
997.77556
100
AcDbArc
 50
182.86088
 51
183.067881
  0
LINE
  5
928
330
C94
100
AcDbEntity
  8
V0-OBRYS
  6
CONTINUOUS
 62
    90
100
AcDbLine
 10
-13.64122
 20
-254.008587
 30
0.0
 11
-13.64122
 21
-250.408587
 31
0.0
  0
ARC
  5
929
330
C94
100
AcDbEntity
  8
V0-OBRYS
  6
CONTINUOUS
 62
    90
100
AcDbCircle
 10
979.8244
 20
-200.608587
 30
0.0
 40
997.77556
100
AcDbArc
 50
182.584935
 51
182.791888
  0
LINE
  5
92A
330
C94
100
AcDbEntity
  8
V0-OBRYS
  6
CONTINUOUS
 62
    90
100
AcDbLine
 10
-13.64122
 20
-249.208587
 30
0.0
 11
-13.64122
 21
-245.608587
 31
0.0
  0
ARC
  5
92B
330
C94
100
AcDbEntity
  8
V0-OBRYS
  6
CONTINUOUS
 62
    90
100
AcDbCircle
 10
979.8244
 20
-200.608587
 30
0.0
 40
997.77556
100
AcDbArc
 50
181.205983
 51
181.412762
  0
LINE
  5
92C
330
C94
100
AcDbEntity
  8
V0-OBRYS
  6
CONTINUOUS
 62
    90
100
AcDbLine
 10
-13.64122
 20
-225.208587
 30
0.0
 11
-13.64122
 21
-221.608587
 31
0.0
  0
LINE
  5
92D
330
C94
100
AcDbEntity
  8
V0-OBRYS
  6
CONTINUOUS
 62
    90
100
AcDbLine
 10
-13.64122
 20
-225.208587
 30
0.0
 11
-19.64122
 21
-225.208587
 31
0.0
  0
ARC
  5
92E
330
C94
100
AcDbEntity
  8
V0-OBRYS
  6
CONTINUOUS
 62
    90
100
AcDbCircle
 10
979.8244
 20
-200.608587
 30
0.0
 40
997.77556
100
AcDbArc
 50
181.481692
 51
181.688496
  0
LINE
  5
92F
330
C94
100
AcDbEntity
  8
V0-OBRYS
  6
CONTINUOUS
 62
    90
100
AcDbLine
 10
-13.64122
 20
-226.408587
 30
0.0
 11
-19.64122
 21
-226.408587
 31
0.0
  0
LINE
  5
930
330
C94
100
AcDbEntity
  8
V0-OBRYS
  6
CONTINUOUS
 62
    90
100
AcDbLine
 10
-13.64122
 20
-231.208587
 30
0.0
 11
-19.64122
 21
-231.208587
 31
0.0
  0
LINE
  5
931
330
C94
100
AcDbEntity
  8
V0-OBRYS
  6
CONTINUOUS
 62
    90
100
AcDbLine
 10
-13.64122
 20
-230.008587
 30
0.0
 11
-19.64122
 21
-230.008587
 31
0.0
  0
LINE
  5
932
330
C94
100
AcDbEntity
  8
V0-OBRYS
  6
CONTINUOUS
 62
    90
100
AcDbLine
 10
-13.64122
 20
-236.008587
 30
0.0
 11
-19.64122
 21
-236.008587
 31
0.0
  0
LINE
  5
933
330
C94
100
AcDbEntity
  8
V0-OBRYS
  6
CONTINUOUS
 62
    90
100
AcDbLine
 10
-13.64122
 20
-234.808587
 30
0.0
 11
-19.64122
 21
-234.808587
 31
0.0
  0
LINE
  5
934
330
C94
100
AcDbEntity
  8
V0-OBRYS
  6
CONTINUOUS
 62
    90
100
AcDbLine
 10
-13.64122
 20
-239.608587
 30
0.0
 11
-19.64122
 21
-239.608587
 31
0.0
  0
LINE
  5
935
330
C94
100
AcDbEntity
  8
V0-OBRYS
  6
CONTINUOUS
 62
    90
100
AcDbLine
 10
-19.64122
 20
-231.208587
 30
0.0
 11
-19.64122
 21
-230.008587
 31
0.0
  0
LINE
  5
936
330
C94
100
AcDbEntity
  8
V0-OBRYS
  6
CONTINUOUS
 62
    90
100
AcDbLine
 10
-19.64122
 20
-236.008587
 30
0.0
 11
-19.64122
 21
-234.808587
 31
0.0
  0
LINE
  5
937
330
C94
100
AcDbEntity
  8
V0-OBRYS
  6
CONTINUOUS
 62
    90
100
AcDbLine
 10
-19.64122
 20
-226.408587
 30
0.0
 11
-19.64122
 21
-225.208587
 31
0.0
  0
ARC
  5
938
330
C94
100
AcDbEntity
  8
V0-OBRYS
  6
CONTINUOUS
 62
    90
100
AcDbCircle
 10
979.8244
 20
-200.608587
 30
0.0
 40
997.77556
100
AcDbArc
 50
181.757435
 51
181.964269
  0
LINE
  5
939
330
C94
100
AcDbEntity
  8
V0-OBRYS
  6
CONTINUOUS
 62
    90
100
AcDbLine
 10
-13.64122
 20
-234.808587
 30
0.0
 11
-13.64122
 21
-231.208587
 31
0.0
  0
LINE
  5
93A
330
C94
100
AcDbEntity
  8
V0-OBRYS
  6
CONTINUOUS
 62
    90
100
AcDbLine
 10
-13.64122
 20
-230.008587
 30
0.0
 11
-13.64122
 21
-226.408587
 31
0.0
  0
ARC
  5
93B
330
C94
100
AcDbEntity
  8
V0-OBRYS
  6
CONTINUOUS
 62
    90
100
AcDbCircle
 10
979.8244
 20
-200.608587
 30
0.0
 40
997.77556
100
AcDbArc
 50
182.033219
 51
182.240088
  0
LINE
  5
93C
330
C94
100
AcDbEntity
  8
V0-OBRYS
  6
CONTINUOUS
 62
    90
100
AcDbLine
 10
-13.64122
 20
-239.608587
 30
0.0
 11
-13.64122
 21
-236.008587
 31
0.0
  0
LINE
  5
93D
330
C94
100
AcDbEntity
  8
V0-OBRYS
  6
CONTINUOUS
 62
    90
100
AcDbLine
 10
-13.64122
 20
-210.808587
 30
0.0
 11
-19.64122
 21
-210.808587
 31
0.0
  0
LINE
  5
93E
330
C94
100
AcDbEntity
  8
V0-OBRYS
  6
CONTINUOUS
 62
    90
100
AcDbLine
 10
-13.64122
 20
-209.608587
 30
0.0
 11
-19.64122
 21
-209.608587
 31
0.0
  0
LINE
  5
93F
330
C94
100
AcDbEntity
  8
V0-OBRYS
  6
CONTINUOUS
 62
    90
100
AcDbLine
 10
-13.64122
 20
-216.808587
 30
0.0
 11
-19.64122
 21
-216.808587
 31
0.0
  0
LINE
  5
940
330
C94
100
AcDbEntity
  8
V0-OBRYS
  6
CONTINUOUS
 62
    90
100
AcDbLine
 10
-13.64122
 20
-215.608587
 30
0.0
 11
-19.64122
 21
-215.608587
 31
0.0
  0
LINE
  5
941
330
C94
100
AcDbEntity
  8
V0-OBRYS
  6
CONTINUOUS
 62
    90
100
AcDbLine
 10
-13.64122
 20
-221.608587
 30
0.0
 11
-19.64122
 21
-221.608587
 31
0.0
  0
LINE
  5
942
330
C94
100
AcDbEntity
  8
V0-OBRYS
  6
CONTINUOUS
 62
    90
100
AcDbLine
 10
-13.64122
 20
-220.408587
 30
0.0
 11
-19.64122
 21
-220.408587
 31
0.0
  0
ARC
  5
943
330
C94
100
AcDbEntity
  8
V0-OBRYS
  6
CONTINUOUS
 62
    90
100
AcDbCircle
 10
979.8244
 20
-200.608587
 30
0.0
 40
997.77556
100
AcDbArc
 50
180.58573
 51
180.861385
  0
LINE
  5
944
330
C94
100
AcDbEntity
  8
V0-OBRYS
  6
CONTINUOUS
 62
    90
100
AcDbLine
 10
-19.64122
 20
-210.808587
 30
0.0
 11
-19.64122
 21
-209.608587
 31
0.0
  0
ARC
  5
945
330
C94
100
AcDbEntity
  8
V0-OBRYS
  6
CONTINUOUS
 62
    90
100
AcDbCircle
 10
979.8244
 20
-200.608587
 30
0.0
 40
997.77556
100
AcDbArc
 50
180.930302
 51
181.13706
  0
LINE
  5
946
330
C94
100
AcDbEntity
  8
V0-OBRYS
  6
CONTINUOUS
 62
    90
100
AcDbLine
 10
-19.64122
 20
-216.808587
 30
0.0
 11
-19.64122
 21
-215.608587
 31
0.0
  0
LINE
  5
947
330
C94
100
AcDbEntity
  8
V0-OBRYS
  6
CONTINUOUS
 62
    90
100
AcDbLine
 10
-19.64122
 20
-221.608587
 30
0.0
 11
-19.64122
 21
-220.408587
 31
0.0
  0
LINE
  5
948
330
C94
100
AcDbEntity
  8
V0-OBRYS
  6
CONTINUOUS
 62
    90
100
AcDbLine
 10
-13.64122
 20
-215.608587
 30
0.0
 11
-13.64122
 21
-210.808587
 31
0.0
  0
LINE
  5
949
330
C94
100
AcDbEntity
  8
V0-OBRYS
  6
CONTINUOUS
 62
    90
100
AcDbLine
 10
-13.64122
 20
-220.408587
 30
0.0
 11
-13.64122
 21
-216.808587
 31
0.0
  0
LINE
  5
94A
330
C94
100
AcDbEntity
  8
V0-OBRYS
  6
CONTINUOUS
 62
    90
100
AcDbLine
 10
-13.64122
 20
-171.208587
 30
0.0
 11
-13.64122
 21
-174.808587
 31
0.0
  0
ARC
  5
94B
330
C94
100
AcDbEntity
  8
V0-OBRYS
  6
CONTINUOUS
 62
    90
100
AcDbCircle
 10
979.8244
 20
-200.608587
 30
0.0
 40
997.77556
100
AcDbArc
 50
178.311504
 51
178.518308
  0
LINE
  5
94C
330
C94
100
AcDbEntity
  8
V0-OBRYS
  6
CONTINUOUS
 62
    90
100
AcDbLine
 10
-19.64122
 20
-190.408587
 30
0.0
 11
-19.64122
 21
-191.608587
 31
0.0
  0
LINE
  5
94D
330
C94
100
AcDbEntity
  8
V0-OBRYS
  6
CONTINUOUS
 62
    90
100
AcDbLine
 10
-13.64122
 20
-191.608587
 30
0.0
 11
-19.64122
 21
-191.608587
 31
0.0
  0
LINE
  5
94E
330
C94
100
AcDbEntity
  8
V0-OBRYS
  6
CONTINUOUS
 62
    90
100
AcDbLine
 10
-13.64122
 20
-196.408587
 30
0.0
 11
-19.64122
 21
-196.408587
 31
0.0
  0
LINE
  5
94F
330
C94
100
AcDbEntity
  8
V0-OBRYS
  6
CONTINUOUS
 62
    90
100
AcDbLine
 10
-13.64122
 20
-195.208587
 30
0.0
 11
-19.64122
 21
-195.208587
 31
0.0
  0
LINE
  5
950
330
C94
100
AcDbEntity
  8
V0-OBRYS
  6
CONTINUOUS
 62
    90
100
AcDbLine
 10
-13.64122
 20
-201.208587
 30
0.0
 11
-19.64122
 21
-201.208587
 31
0.0
  0
LINE
  5
951
330
C94
100
AcDbEntity
  8
V0-OBRYS
  6
CONTINUOUS
 62
    90
100
AcDbLine
 10
-13.64122
 20
-200.008587
 30
0.0
 11
-19.64122
 21
-200.008587
 31
0.0
  0
LINE
  5
952
330
C94
100
AcDbEntity
  8
V0-OBRYS
  6
CONTINUOUS
 62
    90
100
AcDbLine
 10
-13.64122
 20
-206.008587
 30
0.0
 11
-19.64122
 21
-206.008587
 31
0.0
  0
LINE
  5
953
330
C94
100
AcDbEntity
  8
V0-OBRYS
  6
CONTINUOUS
 62
    90
100
AcDbLine
 10
-13.64122
 20
-204.808587
 30
0.0
 11
-19.64122
 21
-204.808587
 31
0.0
  0
LINE
  5
954
330
C94
100
AcDbEntity
  8
V0-OBRYS
  6
CONTINUOUS
 62
    90
100
AcDbLine
 10
-19.64122
 20
-195.208587
 30
0.0
 11
-19.64122
 21
-196.408587
 31
0.0
  0
LINE
  5
955
330
C94
100
AcDbEntity
  8
V0-OBRYS
  6
CONTINUOUS
 62
    90
100
AcDbLine
 10
-19.64122
 20
-200.008587
 30
0.0
 11
-19.64122
 21
-201.208587
 31
0.0
  0
ARC
  5
956
330
C94
100
AcDbEntity
  8
V0-OBRYS
  6
CONTINUOUS
 62
    90
100
AcDbCircle
 10
979.8244
 20
-200.608587
 30
0.0
 40
997.77556
100
AcDbArc
 50
179.483181
 51
179.689912
  0
LINE
  5
957
330
C94
100
AcDbEntity
  8
V0-OBRYS
  6
CONTINUOUS
 62
    90
100
AcDbLine
 10
-19.64122
 20
-206.008587
 30
0.0
 11
-19.64122
 21
-204.808587
 31
0.0
  0
LINE
  5
958
330
C94
100
AcDbEntity
  8
V0-OBRYS
  6
CONTINUOUS
 62
    90
100
AcDbLine
 10
-13.64122
 20
-191.608587
 30
0.0
 11
-13.64122
 21
-195.208587
 31
0.0
  0
LINE
  5
959
330
C94
100
AcDbEntity
  8
V0-OBRYS
  6
CONTINUOUS
 62
    90
100
AcDbLine
 10
-13.64122
 20
-176.008587
 30
0.0
 11
-19.64122
 21
-176.008587
 31
0.0
  0
LINE
  5
95A
330
C94
100
AcDbEntity
  8
V0-OBRYS
  6
CONTINUOUS
 62
    90
100
AcDbLine
 10
-13.64122
 20
-174.808587
 30
0.0
 11
-19.64122
 21
-174.808587
 31
0.0
  0
LINE
  5
95B
330
C94
100
AcDbEntity
  8
V0-OBRYS
  6
CONTINUOUS
 62
    90
100
AcDbLine
 10
-13.64122
 20
-180.808587
 30
0.0
 11
-19.64122
 21
-180.808587
 31
0.0
  0
LINE
  5
95C
330
C94
100
AcDbEntity
  8
V0-OBRYS
  6
CONTINUOUS
 62
    90
100
AcDbLine
 10
-13.64122
 20
-179.608587
 30
0.0
 11
-19.64122
 21
-179.608587
 31
0.0
  0
LINE
  5
95D
330
C94
100
AcDbEntity
  8
V0-OBRYS
  6
CONTINUOUS
 62
    90
100
AcDbLine
 10
-13.64122
 20
-185.608587
 30
0.0
 11
-19.64122
 21
-185.608587
 31
0.0
  0
LINE
  5
95E
330
C94
100
AcDbEntity
  8
V0-OBRYS
  6
CONTINUOUS
 62
    90
100
AcDbLine
 10
-13.64122
 20
-184.408587
 30
0.0
 11
-19.64122
 21
-184.408587
 31
0.0
  0
LINE
  5
95F
330
C94
100
AcDbEntity
  8
V0-OBRYS
  6
CONTINUOUS
 62
    90
100
AcDbLine
 10
-13.64122
 20
-190.408587
 30
0.0
 11
-19.64122
 21
-190.408587
 31
0.0
  0
LINE
  5
960
330
C94
100
AcDbEntity
  8
V0-OBRYS
  6
CONTINUOUS
 62
    90
100
AcDbLine
 10
-19.64122
 20
-174.808587
 30
0.0
 11
-19.64122
 21
-176.008587
 31
0.0
  0
LINE
  5
961
330
C94
100
AcDbEntity
  8
V0-OBRYS
  6
CONTINUOUS
 62
    90
100
AcDbLine
 10
-19.64122
 20
-179.608587
 30
0.0
 11
-19.64122
 21
-180.808587
 31
0.0
  0
LINE
  5
962
330
C94
100
AcDbEntity
  8
V0-OBRYS
  6
CONTINUOUS
 62
    90
100
AcDbLine
 10
-19.64122
 20
-184.408587
 30
0.0
 11
-19.64122
 21
-185.608587
 31
0.0
  0
ARC
  5
963
330
C94
100
AcDbEntity
  8
V0-OBRYS
  6
CONTINUOUS
 62
    90
100
AcDbCircle
 10
979.8244
 20
-200.608587
 30
0.0
 40
997.77556
100
AcDbArc
 50
178.587238
 51
178.794017
  0
ARC
  5
964
330
C94
100
AcDbEntity
  8
V0-OBRYS
  6
CONTINUOUS
 62
    90
100
AcDbCircle
 10
979.8244
 20
-200.608587
 30
0.0
 40
997.77556
100
AcDbArc
 50
178.86294
 51
179.069698
  0
ARC
  5
965
330
C94
100
AcDbEntity
  8
V0-OBRYS
  6
CONTINUOUS
 62
    90
100
AcDbCircle
 10
979.8244
 20
-200.608587
 30
0.0
 40
997.77556
100
AcDbArc
 50
179.138615
 51
179.41427
  0
LINE
  5
966
330
C94
100
AcDbEntity
  8
V0-OBRYS
  6
CONTINUOUS
 62
    90
100
AcDbLine
 10
-13.64122
 20
-176.008587
 30
0.0
 11
-13.64122
 21
-179.608587
 31
0.0
  0
LINE
  5
967
330
C94
100
AcDbEntity
  8
V0-OBRYS
  6
CONTINUOUS
 62
    90
100
AcDbLine
 10
-13.64122
 20
-180.808587
 30
0.0
 11
-13.64122
 21
-184.408587
 31
0.0
  0
LINE
  5
968
330
C94
100
AcDbEntity
  8
V0-OBRYS
  6
CONTINUOUS
 62
    90
100
AcDbLine
 10
-13.64122
 20
-185.608587
 30
0.0
 11
-13.64122
 21
-190.408587
 31
0.0
  0
LINE
  5
969
330
C94
100
AcDbEntity
  8
V0-OBRYS
  6
CONTINUOUS
 62
    90
100
AcDbLine
 10
-13.64122
 20
-156.808587
 30
0.0
 11
-13.64122
 21
-160.408587
 31
0.0
  0
ARC
  5
96A
330
C94
100
AcDbEntity
  8
V0-OBRYS
  6
CONTINUOUS
 62
    90
100
AcDbCircle
 10
979.8244
 20
-200.608587
 30
0.0
 40
997.77556
100
AcDbArc
 50
177.484042
 51
177.69095
  0
LINE
  5
96B
330
C94
100
AcDbEntity
  8
V0-OBRYS
  6
CONTINUOUS
 62
    90
100
AcDbLine
 10
-13.64122
 20
-161.608587
 30
0.0
 11
-19.64122
 21
-161.608587
 31
0.0
  0
LINE
  5
96C
330
C94
100
AcDbEntity
  8
V0-OBRYS
  6
CONTINUOUS
 62
    90
100
AcDbLine
 10
-13.64122
 20
-160.408587
 30
0.0
 11
-19.64122
 21
-160.408587
 31
0.0
  0
LINE
  5
96D
330
C94
100
AcDbEntity
  8
V0-OBRYS
  6
CONTINUOUS
 62
    90
100
AcDbLine
 10
-13.64122
 20
-166.408587
 30
0.0
 11
-19.64122
 21
-166.408587
 31
0.0
  0
LINE
  5
96E
330
C94
100
AcDbEntity
  8
V0-OBRYS
  6
CONTINUOUS
 62
    90
100
AcDbLine
 10
-13.64122
 20
-165.208587
 30
0.0
 11
-19.64122
 21
-165.208587
 31
0.0
  0
LINE
  5
96F
330
C94
100
AcDbEntity
  8
V0-OBRYS
  6
CONTINUOUS
 62
    90
100
AcDbLine
 10
-13.64122
 20
-171.208587
 30
0.0
 11
-19.64122
 21
-171.208587
 31
0.0
  0
LINE
  5
970
330
C94
100
AcDbEntity
  8
V0-OBRYS
  6
CONTINUOUS
 62
    90
100
AcDbLine
 10
-13.64122
 20
-170.008587
 30
0.0
 11
-19.64122
 21
-170.008587
 31
0.0
  0
LINE
  5
971
330
C94
100
AcDbEntity
  8
V0-OBRYS
  6
CONTINUOUS
 62
    90
100
AcDbLine
 10
-19.64122
 20
-160.408587
 30
0.0
 11
-19.64122
 21
-161.608587
 31
0.0
  0
LINE
  5
972
330
C94
100
AcDbEntity
  8
V0-OBRYS
  6
CONTINUOUS
 62
    90
100
AcDbLine
 10
-19.64122
 20
-165.208587
 30
0.0
 11
-19.64122
 21
-166.408587
 31
0.0
  0
LINE
  5
973
330
C94
100
AcDbEntity
  8
V0-OBRYS
  6
CONTINUOUS
 62
    90
100
AcDbLine
 10
-19.64122
 20
-170.008587
 30
0.0
 11
-19.64122
 21
-171.208587
 31
0.0
  0
LINE
  5
974
330
C94
100
AcDbEntity
  8
V0-OBRYS
  6
CONTINUOUS
 62
    90
100
AcDbLine
 10
-13.64122
 20
-161.608587
 30
0.0
 11
-13.64122
 21
-165.208587
 31
0.0
  0
ARC
  5
975
330
C94
100
AcDbEntity
  8
V0-OBRYS
  6
CONTINUOUS
 62
    90
100
AcDbCircle
 10
979.8244
 20
-200.608587
 30
0.0
 40
997.77556
100
AcDbArc
 50
177.759912
 51
177.966781
  0
LINE
  5
976
330
C94
100
AcDbEntity
  8
V0-OBRYS
  6
CONTINUOUS
 62
    90
100
AcDbLine
 10
-13.64122
 20
-166.408587
 30
0.0
 11
-13.64122
 21
-170.008587
 31
0.0
  0
ARC
  5
977
330
C94
100
AcDbEntity
  8
V0-OBRYS
  6
CONTINUOUS
 62
    90
100
AcDbCircle
 10
979.8244
 20
-200.608587
 30
0.0
 40
997.77556
100
AcDbArc
 50
178.035731
 51
178.242565
  0
LINE
  5
978
330
C94
100
AcDbEntity
  8
V0-OBRYS
  6
CONTINUOUS
 62
    90
100
AcDbLine
 10
-13.64122
 20
-147.208587
 30
0.0
 11
-19.64122
 21
-147.208587
 31
0.0
  0
LINE
  5
979
330
C94
100
AcDbEntity
  8
V0-OBRYS
  6
CONTINUOUS
 62
    90
100
AcDbLine
 10
-13.64122
 20
-146.008587
 30
0.0
 11
-19.64122
 21
-146.008587
 31
0.0
  0
LINE
  5
97A
330
C94
100
AcDbEntity
  8
V0-OBRYS
  6
CONTINUOUS
 62
    90
100
AcDbLine
 10
-13.64122
 20
-152.008587
 30
0.0
 11
-19.64122
 21
-152.008587
 31
0.0
  0
LINE
  5
97B
330
C94
100
AcDbEntity
  8
V0-OBRYS
  6
CONTINUOUS
 62
    90
100
AcDbLine
 10
-13.64122
 20
-150.808587
 30
0.0
 11
-19.64122
 21
-150.808587
 31
0.0
  0
LINE
  5
97C
330
C94
100
AcDbEntity
  8
V0-OBRYS
  6
CONTINUOUS
 62
    90
100
AcDbLine
 10
-13.64122
 20
-156.808587
 30
0.0
 11
-19.64122
 21
-156.808587
 31
0.0
  0
LINE
  5
97D
330
C94
100
AcDbEntity
  8
V0-OBRYS
  6
CONTINUOUS
 62
    90
100
AcDbLine
 10
-13.64122
 20
-155.608587
 30
0.0
 11
-19.64122
 21
-155.608587
 31
0.0
  0
LINE
  5
97E
330
C94
100
AcDbEntity
  8
V0-OBRYS
  6
CONTINUOUS
 62
    90
100
AcDbLine
 10
-19.64122
 20
-146.008587
 30
0.0
 11
-19.64122
 21
-147.208587
 31
0.0
  0
LINE
  5
97F
330
C94
100
AcDbEntity
  8
V0-OBRYS
  6
CONTINUOUS
 62
    90
100
AcDbLine
 10
-19.64122
 20
-150.808587
 30
0.0
 11
-19.64122
 21
-152.008587
 31
0.0
  0
LINE
  5
980
330
C94
100
AcDbEntity
  8
V0-OBRYS
  6
CONTINUOUS
 62
    90
100
AcDbLine
 10
-19.64122
 20
-155.608587
 30
0.0
 11
-19.64122
 21
-156.808587
 31
0.0
  0
LINE
  5
981
330
C94
100
AcDbEntity
  8
V0-OBRYS
  6
CONTINUOUS
 62
    90
100
AcDbLine
 10
-13.64122
 20
-152.008587
 30
0.0
 11
-13.64122
 21
-155.608587
 31
0.0
  0
ARC
  5
982
330
C94
100
AcDbEntity
  8
V0-OBRYS
  6
CONTINUOUS
 62
    90
100
AcDbCircle
 10
979.8244
 20
-200.608587
 30
0.0
 40
997.77556
100
AcDbArc
 50
177.208112
 51
177.415065
  0
LINE
  5
983
330
C94
100
AcDbEntity
  8
V0-OBRYS
  6
CONTINUOUS
 62
    90
100
AcDbLine
 10
-13.64122
 20
-147.208587
 30
0.0
 11
-13.64122
 21
-150.808587
 31
0.0
  0
ARC
  5
984
330
C94
100
AcDbEntity
  8
V0-OBRYS
  6
CONTINUOUS
 62
    90
100
AcDbCircle
 10
979.8244
 20
-200.608587
 30
0.0
 40
997.77556
100
AcDbArc
 50
176.932119
 51
177.13912
  0
LINE
  5
985
330
C94
100
AcDbEntity
  8
V0-OBRYS
  6
CONTINUOUS
 62
    90
 48
5.0
100
AcDbLine
 10
91.07968
 20
-141.756087
 30
0.0
 11
91.07968
 21
-258.861087
 31
0.0
  0
LINE
  5
986
330
C94
100
AcDbEntity
  8
V0-OBRYS
  6
CONTINUOUS
 62
    90
 48
5.0
100
AcDbLine
 10
28.63472
 20
-107.613387
 30
0.0
 11
-8.128329999999998
 21
-107.613387
 31
0.0
  0
ARC
  5
987
330
C94
100
AcDbEntity
  8
V0-OBRYS
  6
CONTINUOUS
 62
    90
100
AcDbCircle
 10
-8.12833
 20
-113.613387
 30
0.0
 40
6.0
100
AcDbArc
 50
90.0
 51
174.967741
  0
LINE
  5
988
330
C94
100
AcDbEntity
  8
V0-OBRYS
  6
CONTINUOUS
 62
    90
100
AcDbLine
 10
-15.673683
 20
-133.231766
 30
0.0
 11
-13.64122
 21
-133.231766
 31
0.0
  0
TEXT
  5
C6B
330
C94
100
AcDbEntity
  8
V0-ZBYTEK
 62
    51
100
AcDbText
 10
192.021636
 20
-234.138457
 30
0.0
 40
16.27416
  1
MALY AXIALNI
  7
ED5
100
AcDbText
  0
TEXT
  5
C6C
330
C94
100
AcDbEntity
  8
V0-ZBYTEK
 62
    51
100
AcDbText
 10
197.3025464761955
 20
-261.2620569999983
 30
0.0
 40
16.27416
  1
VENTILATOR
  7
ED5
100
AcDbText
  0
TEXT
  5
C6D
330
C94
100
AcDbEntity
  8
V0-NAZVY
100
AcDbText
 10
173.997631
 20
-200.97365
 30
0.0
 40
29.061
  1
EDM 200
  7
ED5
100
AcDbText
  0
VIEWPORT
  5
D04
330
C90
100
AcDbEntity
 67
     1
  8
0
 60
     1
100
AcDbViewport
 10
0.0
 20
0.0
 30
0.0
 40
10.0
 41
10.0
 68
     0
 69
     1
1001
VD_INVISIBLE_NOT_FOR_READ
1000
VD_INVISIBLE_NOT_FOR_READ
1001
ACAD
1000
MVIEW
1002
{
1070
    16
1010
0.0
1020
0.0
1030
0.0
1010
0.0
1020
0.0
1030
1.0
1040
6.2831853071796
1040
10.0
1040
0.0
1040
0.0
1040
0.0
1040
0.0
1040
0.0
1070
     0
1070
   100
1070
     0
1070
     1
1070
     0
1070
     0
1070
     0
1070
     0
1040
0.0
1040
0.0
1040
0.0
1040
1.0
1040
1.0
1040
0.0
1040
0.0
1070
     0
1002
{
1002
}
1002
}
  0
VIEWPORT
  5
D05
330
C90
100
AcDbEntity
 67
     1
  8
0
 60
     1
100
AcDbViewport
 10
0.0
 20
0.0
 30
0.0
 40
10.0
 41
10.0
 68
     0
 69
     2
1001
VD_INVISIBLE_NOT_FOR_READ
1000
VD_INVISIBLE_NOT_FOR_READ
1001
ACAD
1000
MVIEW
1002
{
1070
    16
1010
0.0
1020
0.0
1030
0.0
1010
0.0
1020
0.0
1030
1.0
1040
6.2831853071796
1040
10.0
1040
0.0
1040
0.0
1040
0.0
1040
0.0
1040
0.0
1070
     0
1070
   100
1070
     0
1070
     1
1070
     0
1070
     0
1070
     0
1070
     0
1040
0.0
1040
0.0
1040
0.0
1040
1.0
1040
1.0
1040
0.0
1040
0.0
1070
     0
1002
{
1002
}
1002
}
  0
ENDSEC
  0
SECTION
  2
OBJECTS
  0
DICTIONARY
  5
C81
330
0
100
AcDbDictionary
  3
ACAD_GROUP
350
C82
  3
ACAD_LAYOUT
350
C8F
  3
ACAD_MLINESTYLE
350
C8C
  3
ACAD_PLOTSETTINGS
350
C8E
  3
ACDBHEADERROUNDTRIPXREC
350
D06
  3
VECTORDRAW_OBJECTS
350
CA4
  0
DICTIONARY
  5
D26
330
C9E
100
AcDbDictionary
280
     1
  3
ACAD_XREC_ROUNDTRIP
360
D27
  0
DICTIONARY
  5
C82
102
{ACAD_REACTORS
330
C81
102
}
330
C81
100
AcDbDictionary
  0
DICTIONARY
  5
C8F
102
{ACAD_REACTORS
330
C81
102
}
330
C81
100
AcDbDictionary
  0
DICTIONARY
  5
C8C
102
{ACAD_REACTORS
330
C81
102
}
330
C81
100
AcDbDictionary
  3
STANDARD
350
C8D
  0
DICTIONARY
  5
C8E
102
{ACAD_REACTORS
330
C81
102
}
330
C81
100
AcDbDictionary
  0
DICTIONARY
  5
D06
102
{ACAD_REACTORS
330
C81
102
}
330
C81
100
AcDbDictionary
  3
CEPSNTYPE
350
D0F
  3
DIMSTYLEDATA
350
D25
  3
FINGERPRINTGUID
350
D10
  3
HYPERLINKBASE
350
D09
  3
INSUNITS
350
D0E
  3
LAYOUTDICT
350
D0B
  3
LWETCUNION
350
D0D
  3
PLOTSETDICT
350
D0C
  3
PSVPSCALE
350
D12
  3
PUCSBASE
350
D15
  3
PUCSORGBACK
350
D1B
  3
PUCSORGBOTTOM
350
D17
  3
PUCSORGFRONT
350
D1A
  3
PUCSORGLEFT
350
D18
  3
PUCSORGRIGHT
350
D19
  3
PUCSORGTOP
350
D16
  3
PUCSORTHOREF
350
D13
  3
PUCSORTHOVIEW
350
D14
  3
STYLESHEET
350
D0A
  3
TSTACKALIGN
350
D07
  3
TSTACKSIZE
350
D08
  3
UCSBASE
350
D1E
  3
UCSORGBACK
350
D24
  3
UCSORGBOTTOM
350
D20
  3
UCSORGFRONT
350
D23
  3
UCSORGLEFT
350
D21
  3
UCSORGRIGHT
350
D22
  3
UCSORGTOP
350
D1F
  3
UCSORTHOREF
350
D1C
  3
UCSORTHOVIEW
350
D1D
  3
VERSIONGUID
350
D11
  0
DICTIONARY
  5
CA4
102
{ACAD_REACTORS
330
C81
102
}
330
C81
100
AcDbDictionary
  3
SERIALNO
350
CA5
  0
XRECORD
  5
D27
102
{ACAD_REACTORS
330
D26
102
}
330
D26
100
AcDbXrecord
102
UCS
 74
     0
 71
     1
 10
0.0
 20
0.0
 30
0.0
 10
1.0
 20
0.0
 30
0.0
 10
0.0
 20
1.0
 30
0.0
146
0.0
 79
     0
102
VIEW
281
     0
  0
MLINESTYLE
  5
C8D
102
{ACAD_REACTORS
330
C8C
102
}
330
C8C
100
AcDbMlineStyle
  2
Standard
 70
     0
  3

 62
   256
 51
90.0
 52
90.0
 71
     2
 49
0.5
 62
   256
  6
BYLAYER
 49
-0.5
 62
   256
  6
BYLAYER
  0
XRECORD
  5
D0F
102
{ACAD_REACTORS
330
D06
102
}
330
D06
100
AcDbXrecord
 90
        0
  0
XRECORD
  5
D25
102
{ACAD_REACTORS
330
D06
102
}
330
D06
100
AcDbXrecord
1000
DSTYLE
1002
{
1070
    41
 40
12.0
1070
   342
340
1D
1070
   271
 70
     0
1070
    44
 40
1.25
1070
    42
 40
1.0
1070
   147
 40
1.5
1070
    77
 70
     1
1070
    73
 70
     0
1070
   174
 70
     1
1070
   172
 70
     1
1070
    74
 70
     0
1070
   340
340
415
1070
   140
 40
10.0
1070
   288
 70
     1
1002
}
  0
XRECORD
  5
D10
102
{ACAD_REACTORS
330
D06
102
}
330
D06
100
AcDbXrecord
  1
{FAEB1C30-E019-11D5-929B-00C0DF256EC4}
  0
XRECORD
  5
D09
102
{ACAD_REACTORS
330
D06
102
}
330
D06
100
AcDbXrecord
  1

  0
XRECORD
  5
D0E
102
{ACAD_REACTORS
330
D06
102
}
330
D06
100
AcDbXrecord
 90
        1
  0
XRECORD
  5
D0B
102
{ACAD_REACTORS
330
D06
102
}
330
D06
100
AcDbXrecord
340
C8F
  0
XRECORD
  5
D0D
102
{ACAD_REACTORS
330
D06
102
}
330
D06
100
AcDbXrecord
 90
     2560
  0
XRECORD
  5
D0C
102
{ACAD_REACTORS
330
D06
102
}
330
D06
100
AcDbXrecord
340
C8E
  0
XRECORD
  5
D12
102
{ACAD_REACTORS
330
D06
102
}
330
D06
100
AcDbXrecord
 40
0.0
  0
XRECORD
  5
D15
102
{ACAD_REACTORS
330
D06
102
}
330
D06
100
AcDbXrecord
340
0
  0
XRECORD
  5
D1B
102
{ACAD_REACTORS
330
D06
102
}
330
D06
100
AcDbXrecord
 10
0.0
 20
0.0
 30
0.0
  0
XRECORD
  5
D17
102
{ACAD_REACTORS
330
D06
102
}
330
D06
100
AcDbXrecord
 10
0.0
 20
0.0
 30
0.0
  0
XRECORD
  5
D1A
102
{ACAD_REACTORS
330
D06
102
}
330
D06
100
AcDbXrecord
 10
0.0
 20
0.0
 30
0.0
  0
XRECORD
  5
D18
102
{ACAD_REACTORS
330
D06
102
}
330
D06
100
AcDbXrecord
 10
0.0
 20
0.0
 30
0.0
  0
XRECORD
  5
D19
102
{ACAD_REACTORS
330
D06
102
}
330
D06
100
AcDbXrecord
 10
0.0
 20
0.0
 30
0.0
  0
XRECORD
  5
D16
102
{ACAD_REACTORS
330
D06
102
}
330
D06
100
AcDbXrecord
 10
0.0
 20
0.0
 30
0.0
  0
XRECORD
  5
D13
102
{ACAD_REACTORS
330
D06
102
}
330
D06
100
AcDbXrecord
340
0
  0
XRECORD
  5
D14
102
{ACAD_REACTORS
330
D06
102
}
330
D06
100
AcDbXrecord
 70
     0
  0
XRECORD
  5
D0A
102
{ACAD_REACTORS
330
D06
102
}
330
D06
100
AcDbXrecord
  1

  0
XRECORD
  5
D07
102
{ACAD_REACTORS
330
D06
102
}
330
D06
100
AcDbXrecord
 90
        1
  0
XRECORD
  5
D08
102
{ACAD_REACTORS
330
D06
102
}
330
D06
100
AcDbXrecord
 90
       70
  0
XRECORD
  5
D1E
102
{ACAD_REACTORS
330
D06
102
}
330
D06
100
AcDbXrecord
340
0
  0
XRECORD
  5
D24
102
{ACAD_REACTORS
330
D06
102
}
330
D06
100
AcDbXrecord
 10
0.0
 20
0.0
 30
0.0
  0
XRECORD
  5
D20
102
{ACAD_REACTORS
330
D06
102
}
330
D06
100
AcDbXrecord
 10
0.0
 20
0.0
 30
0.0
  0
XRECORD
  5
D23
102
{ACAD_REACTORS
330
D06
102
}
330
D06
100
AcDbXrecord
 10
0.0
 20
0.0
 30
0.0
  0
XRECORD
  5
D21
102
{ACAD_REACTORS
330
D06
102
}
330
D06
100
AcDbXrecord
 10
0.0
 20
0.0
 30
0.0
  0
XRECORD
  5
D22
102
{ACAD_REACTORS
330
D06
102
}
330
D06
100
AcDbXrecord
 10
0.0
 20
0.0
 30
0.0
  0
XRECORD
  5
D1F
102
{ACAD_REACTORS
330
D06
102
}
330
D06
100
AcDbXrecord
 10
0.0
 20
0.0
 30
0.0
  0
XRECORD
  5
D1C
102
{ACAD_REACTORS
330
D06
102
}
330
D06
100
AcDbXrecord
340
0
  0
XRECORD
  5
D1D
102
{ACAD_REACTORS
330
D06
102
}
330
D06
100
AcDbXrecord
 70
     0
  0
XRECORD
  5
D11
102
{ACAD_REACTORS
330
D06
102
}
330
D06
100
AcDbXrecord
  1
{FAEB1C32-E019-11D5-929B-00C0DF256EC4}
  0
XRECORD
  5
CA5
102
{ACAD_REACTORS
330
CA4
102
}
330
CA4
100
AcDbXrecord
1000
rInJVR9YY4Q8hfPWdUq5j5319
1070
     4
1070
     6
  0
ENDSEC
  0
EOF
