  0
SECTION
  2
HEADER
  9
$ACADVER
  1
AC1014
  9
$ACADMAINTVER
 70
     0
  9
$DWGCODEPAGE
  3
ANSI_1250
  9
$INSBASE
 10
0.0
 20
0.0
 30
0.0
  9
$EXTMIN
 10
-257.564108
 20
-613.643188
 30
0.0
  9
$EXTMAX
 10
624.958991
 20
304.623544
 30
0.0
  9
$LIMMIN
 10
0.0
 20
0.0
  9
$LIMMAX
 10
420.0
 20
297.0
  9
$ORTHOMODE
 70
     0
  9
$REGENMODE
 70
     1
  9
$FILLMODE
 70
     1
  9
$QTEXTMODE
 70
     0
  9
$MIRRTEXT
 70
     1
  9
$DRAGMODE
 70
     2
  9
$LTSCALE
 40
1.0
  9
$OSMODE
 70
    45
  9
$ATTMODE
 70
     1
  9
$TEXTSIZE
 40
40.0
  9
$TRACEWID
 40
1.0
  9
$TEXTSTYLE
  7
ED40
  9
$CLAYER
  8
VO-OBRYS
  9
$CELTYPE
  6
CONTINUOUS
  9
$CECOLOR
 62
   256
  9
$CELTSCALE
 40
1.0
  9
$DELOBJ
 70
     1
  9
$DISPSILH
 70
     0
  9
$DIMSCALE
 40
1.0
  9
$DIMASZ
 40
20.0
  9
$DIMEXO
 40
1.0
  9
$DIMDLI
 40
3.75
  9
$DIMRND
 40
0.0
  9
$DIMDLE
 40
0.0
  9
$DIMEXE
 40
1.25
  9
$DIMTP
 40
0.0
  9
$DIMTM
 40
0.0
  9
$DIMTXT
 40
20.0
  9
$DIMCEN
 40
3.0
  9
$DIMTSZ
 40
0.0
  9
$DIMTOL
 70
     0
  9
$DIMLIM
 70
     0
  9
$DIMTIH
 70
     0
  9
$DIMTOH
 70
     0
  9
$DIMSE1
 70
     0
  9
$DIMSE2
 70
     0
  9
$DIMTAD
 70
     1
  9
$DIMZIN
 70
     8
  9
$DIMBLK
  1

  9
$DIMASO
 70
     1
  9
$DIMSHO
 70
     1
  9
$DIMPOST
  1

  9
$DIMAPOST
  1

  9
$DIMALT
 70
     0
  9
$DIMALTD
 70
     4
  9
$DIMALTF
 40
0.0394
  9
$DIMLFAC
 40
1.0
  9
$DIMTOFL
 70
     1
  9
$DIMTVP
 40
0.0
  9
$DIMTIX
 70
     0
  9
$DIMSOXD
 70
     0
  9
$DIMSAH
 70
     1
  9
$DIMBLK1
  1
_OPEN
  9
$DIMBLK2
  1
_OPEN
  9
$DIMSTYLE
  2
ED20
  9
$DIMCLRD
 70
    41
  9
$DIMCLRE
 70
    41
  9
$DIMCLRT
 70
    41
  9
$DIMTFAC
 40
1.0
  9
$DIMGAP
 40
2.0
  9
$DIMJUST
 70
     0
  9
$DIMSD1
 70
     0
  9
$DIMSD2
 70
     0
  9
$DIMTOLJ
 70
     1
  9
$DIMTZIN
 70
     8
  9
$DIMALTZ
 70
     0
  9
$DIMALTTZ
 70
     0
  9
$DIMFIT
 70
     3
  9
$DIMUPT
 70
     0
  9
$DIMUNIT
 70
     2
  9
$DIMDEC
 70
     0
  9
$DIMTDEC
 70
     1
  9
$DIMALTU
 70
     8
  9
$DIMALTTD
 70
     4
  9
$DIMTXSTY
  7
ED20
  9
$DIMAUNIT
 70
     0
  9
$LUNITS
 70
     2
  9
$LUPREC
 70
     4
  9
$SKETCHINC
 40
1.0
  9
$FILLETRAD
 40
10.0
  9
$AUNITS
 70
     0
  9
$AUPREC
 70
     0
  9
$MENU
  1
.
  9
$ELEVATION
 40
0.0
  9
$PELEVATION
 40
0.0
  9
$THICKNESS
 40
0.0
  9
$LIMCHECK
 70
     0
  9
$BLIPMODE
 70
     0
  9
$CHAMFERA
 40
0.5
  9
$CHAMFERB
 40
0.5
  9
$CHAMFERC
 40
20.0
  9
$CHAMFERD
 40
0.0
  9
$SKPOLY
 70
     1
  9
$TDCREATE
 40
2451196.643769328
  9
$TDUPDATE
 40
2452915.887247569
  9
$TDINDWG
 40
0.7359225694
  9
$TDUSRTIMER
 40
0.7359225694
  9
$USRTIMER
 70
     1
  9
$ANGBASE
 50
0.0
  9
$ANGDIR
 70
     0
  9
$PDMODE
 70
    35
  9
$PDSIZE
 40
20.0
  9
$PLINEWID
 40
0.0
  9
$COORDS
 70
     1
  9
$SPLFRAME
 70
     0
  9
$SPLINETYPE
 70
     6
  9
$SPLINESEGS
 70
     8
  9
$ATTDIA
 70
     0
  9
$ATTREQ
 70
     1
  9
$HANDLING
 70
     1
  9
$HANDSEED
  5
1AA5
  9
$SURFTAB1
 70
     6
  9
$SURFTAB2
 70
     6
  9
$SURFTYPE
 70
     6
  9
$SURFU
 70
     6
  9
$SURFV
 70
     6
  9
$UCSNAME
  2

  9
$UCSORG
 10
357.4124373852023
 20
89.37358462115867
 30
0.0
  9
$UCSXDIR
 10
1.0
 20
0.0
 30
0.0
  9
$UCSYDIR
 10
0.0
 20
1.0
 30
0.0
  9
$PUCSNAME
  2

  9
$PUCSORG
 10
0.0
 20
0.0
 30
0.0
  9
$PUCSXDIR
 10
1.0
 20
0.0
 30
0.0
  9
$PUCSYDIR
 10
0.0
 20
1.0
 30
0.0
  9
$USERI1
 70
     0
  9
$USERI2
 70
     0
  9
$USERI3
 70
     0
  9
$USERI4
 70
     0
  9
$USERI5
 70
     0
  9
$USERR1
 40
0.0
  9
$USERR2
 40
0.0
  9
$USERR3
 40
0.0
  9
$USERR4
 40
0.0
  9
$USERR5
 40
0.0
  9
$WORLDVIEW
 70
     1
  9
$SHADEDGE
 70
     3
  9
$SHADEDIF
 70
    70
  9
$TILEMODE
 70
     1
  9
$MAXACTVP
 70
    48
  9
$PINSBASE
 10
0.0
 20
0.0
 30
0.0
  9
$PLIMCHECK
 70
     0
  9
$PEXTMIN
 10
1.000000E+20
 20
1.000000E+20
 30
1.000000E+20
  9
$PEXTMAX
 10
-1.000000E+20
 20
-1.000000E+20
 30
-1.000000E+20
  9
$PLIMMIN
 10
0.0
 20
0.0
  9
$PLIMMAX
 10
420.0
 20
297.0
  9
$UNITMODE
 70
     0
  9
$VISRETAIN
 70
     1
  9
$PLINEGEN
 70
     0
  9
$PSLTSCALE
 70
     0
  9
$TREEDEPTH
 70
  3020
  9
$PICKSTYLE
 70
     0
  9
$CMLSTYLE
  2
STANDARD
  9
$CMLJUST
 70
     1
  9
$CMLSCALE
 40
3.0
  9
$PROXYGRAPHICS
 70
     1
  9
$MEASUREMENT
 70
     1
  0
ENDSEC
  0
SECTION
  2
CLASSES
  0
CLASS
  1
DICTIONARYVAR
  2
AcDbDictionaryVar
  3
"AutoCAD"
 90
        0
280
     0
281
     0
  0
CLASS
  1
LWPOLYLINE
  2
AcDbPolyline
  3
"AutoCAD"
 90
        0
280
     0
281
     1
  0
CLASS
  1
HATCH
  2
AcDbHatch
  3
"ACAD_SEDONA"
 90
        0
280
     0
281
     1
  0
ENDSEC
  0
SECTION
  2
TABLES
  0
TABLE
  2
VPORT
  5
8
100
AcDbSymbolTable
 70
     2
  0
VPORT
  5
1AA4
100
AcDbSymbolTableRecord
100
AcDbViewportTableRecord
  2
*ACTIVE
 70
     0
 10
0.0
 20
0.0
 11
1.0
 21
1.0
 12
183.697442
 22
-154.509822
 13
0.0
 23
0.0
 14
10.0
 24
10.0
 15
10.0
 25
10.0
 16
0.0
 26
0.0
 36
1.0
 17
0.0
 27
0.0
 37
0.0
 40
929.006694
 41
1.730469
 42
50.0
 43
0.0
 44
0.0
 50
0.0
 51
0.0
 71
     0
 72
   100
 73
     1
 74
     1
 75
     0
 76
     0
 77
     0
 78
     0
  0
ENDTAB
  0
TABLE
  2
LTYPE
  5
5
100
AcDbSymbolTable
 70
     2
  0
LTYPE
  5
14
100
AcDbSymbolTableRecord
100
AcDbLinetypeTableRecord
  2
BYBLOCK
 70
     0
  3

 72
    65
 73
     0
 40
0.0
  0
LTYPE
  5
15
100
AcDbSymbolTableRecord
100
AcDbLinetypeTableRecord
  2
BYLAYER
 70
     0
  3

 72
    65
 73
     0
 40
0.0
  0
LTYPE
  5
16
100
AcDbSymbolTableRecord
100
AcDbLinetypeTableRecord
  2
CONTINUOUS
 70
     0
  3
Solid line
 72
    65
 73
     0
 40
0.0
  0
LTYPE
  5
7F
100
AcDbSymbolTableRecord
100
AcDbLinetypeTableRecord
  2
DASHDOT
 70
     0
  3
Dash dot __ . __ . __ . __ . __ . __ . __ . __
 72
    65
 73
     4
 40
25.4
 49
12.7
 74
     0
 49
-6.35
 74
     0
 49
0.0
 74
     0
 49
-6.35
 74
     0
  0
ENDTAB
  0
TABLE
  2
LAYER
  5
2
100
AcDbSymbolTable
 70
     5
  0
LAYER
  5
F
100
AcDbSymbolTableRecord
100
AcDbLayerTableRecord
  2
0
 70
     0
 62
     7
  6
CONTINUOUS
  0
LAYER
  5
9E
100
AcDbSymbolTableRecord
100
AcDbLayerTableRecord
  2
DEFPOINTS
 70
     0
 62
     7
  6
CONTINUOUS
  0
LAYER
  5
377
100
AcDbSymbolTableRecord
100
AcDbLayerTableRecord
  2
V0-OBRYS
 70
     0
 62
    90
  6
CONTINUOUS
  0
LAYER
  5
378
100
AcDbSymbolTableRecord
100
AcDbLayerTableRecord
  2
V0-VYPLNE
 70
     0
 62
    63
  6
DASHDOT
  0
LAYER
  5
1540
100
AcDbSymbolTableRecord
100
AcDbLayerTableRecord
  2
VO-OBRYS
 70
     0
 62
    90
  6
CONTINUOUS
  0
ENDTAB
  0
TABLE
  2
STYLE
  5
3
100
AcDbSymbolTable
 70
     5
  0
STYLE
  5
10
100
AcDbSymbolTableRecord
100
AcDbTextStyleTableRecord
  2
STANDARD
 70
     0
 40
0.0
 41
1.0
 50
0.0
 71
     0
 42
2.5
  3
ISOCP
  4

  0
STYLE
  5
331
100
AcDbSymbolTableRecord
100
AcDbTextStyleTableRecord
  2
ED20
 70
     0
 40
20.0
 41
1.0
 50
0.0
 71
     0
 42
2.5
  3
ISOCP.shx
  4

  0
STYLE
  5
648
100
AcDbSymbolTableRecord
100
AcDbTextStyleTableRecord
  2
ED10
 70
     0
 40
10.0
 41
1.0
 50
0.0
 71
     0
 42
10.0
  3
ISOCP.shx
  4

  0
STYLE
  5
F38
100
AcDbSymbolTableRecord
100
AcDbTextStyleTableRecord
  2
ED30
 70
     0
 40
30.0
 41
1.0
 50
0.0
 71
     0
 42
2.5
  3
ISOCP.shx
  4

  0
STYLE
  5
F39
100
AcDbSymbolTableRecord
100
AcDbTextStyleTableRecord
  2
ED40
 70
     0
 40
40.0
 41
1.0
 50
0.0
 71
     0
 42
40.0
  3
ISOCP.shx
  4

  0
ENDTAB
  0
TABLE
  2
VIEW
  5
6
100
AcDbSymbolTable
 70
     0
  0
ENDTAB
  0
TABLE
  2
UCS
  5
7
100
AcDbSymbolTable
 70
     0
  0
ENDTAB
  0
TABLE
  2
APPID
  5
9
100
AcDbSymbolTable
 70
     1
  0
APPID
  5
11
100
AcDbSymbolTableRecord
100
AcDbRegAppTableRecord
  2
ACAD
 70
     0
  0
ENDTAB
  0
TABLE
  2
DIMSTYLE
  5
A
100
AcDbSymbolTable
 70
     2
  0
DIMSTYLE
105
1D
100
AcDbSymbolTableRecord
100
AcDbDimStyleTableRecord
  2
STANDARD
 70
     0
  3

  4

  5

  6
_OPEN
  7
_OPEN
 40
0.0
 41
15.0
 42
0.625
 43
3.75
 44
1.25
 45
0.0
 46
0.0
 47
0.0
 48
0.0
140
15.0
141
2.5
142
0.0
143
0.0394
144
1.0
145
0.0
146
1.0
147
3.0
 71
     0
 72
     0
 73
     0
 74
     0
 75
     0
 76
     0
 77
     1
 78
     8
170
     0
171
     4
172
     1
173
     1
174
     0
175
     0
176
     0
177
     0
178
     0
270
     2
271
     0
272
     1
273
     8
274
     4
340
331
275
     0
280
     0
281
     0
282
     0
283
     1
284
     8
285
     0
286
     0
287
     3
288
     0
  0
DIMSTYLE
105
FE9
102
{ACAD_REACTORS
330
1879
330
1886
330
1893
330
18A0
330
1849
330
1856
102
}
100
AcDbSymbolTableRecord
100
AcDbDimStyleTableRecord
  2
ED20
 70
     0
  3

  4

  5

  6
_OPEN
  7
_OPEN
 40
1.0
 41
20.0
 42
1.0
 43
3.75
 44
1.25
 45
0.0
 46
0.0
 47
0.0
 48
0.0
140
20.0
141
3.0
142
0.0
143
0.0394
144
1.0
145
0.0
146
1.0
147
2.0
 71
     0
 72
     0
 73
     0
 74
     0
 75
     0
 76
     0
 77
     1
 78
     8
170
     0
171
     4
172
     1
173
     1
174
     0
175
     0
176
    41
177
    41
178
    41
270
     2
271
     0
272
     1
273
     8
274
     4
340
331
275
     0
280
     0
281
     0
282
     0
283
     1
284
     8
285
     0
286
     0
287
     3
288
     0
  0
ENDTAB
  0
TABLE
  2
BLOCK_RECORD
  5
1
100
AcDbSymbolTable
 70
     7
  0
BLOCK_RECORD
  5
1A
100
AcDbSymbolTableRecord
100
AcDbBlockTableRecord
  2
*MODEL_SPACE
  0
BLOCK_RECORD
  5
17
100
AcDbSymbolTableRecord
100
AcDbBlockTableRecord
  2
*PAPER_SPACE
  0
BLOCK_RECORD
  5
90
100
AcDbSymbolTableRecord
100
AcDbBlockTableRecord
  2
_OPEN
  0
BLOCK_RECORD
  5
186D
100
AcDbSymbolTableRecord
100
AcDbBlockTableRecord
  2
*D1
  0
BLOCK_RECORD
  5
187A
100
AcDbSymbolTableRecord
100
AcDbBlockTableRecord
  2
*D2
  0
BLOCK_RECORD
  5
1887
100
AcDbSymbolTableRecord
100
AcDbBlockTableRecord
  2
*D3
  0
BLOCK_RECORD
  5
1894
100
AcDbSymbolTableRecord
100
AcDbBlockTableRecord
  2
*D4
  0
BLOCK_RECORD
  5
1A7A
100
AcDbSymbolTableRecord
100
AcDbBlockTableRecord
  2
*D5
  0
BLOCK_RECORD
  5
1A86
100
AcDbSymbolTableRecord
100
AcDbBlockTableRecord
  2
*D6
  0
ENDTAB
  0
ENDSEC
  0
SECTION
  2
BLOCKS
  0
BLOCK
  5
1B
100
AcDbEntity
  8
0
100
AcDbBlockBegin
  2
*MODEL_SPACE
 70
     0
 10
0.0
 20
0.0
 30
0.0
  3
*MODEL_SPACE
  1

  0
ENDBLK
  5
1C
100
AcDbEntity
  8
0
100
AcDbBlockEnd
  0
BLOCK
  5
18
100
AcDbEntity
 67
     1
  8
0
100
AcDbBlockBegin
  2
*PAPER_SPACE
 70
     0
 10
0.0
 20
0.0
 30
0.0
  3
*PAPER_SPACE
  1

  0
ENDBLK
  5
19
100
AcDbEntity
 67
     1
  8
0
100
AcDbBlockEnd
  0
BLOCK
  5
91
100
AcDbEntity
  8
0
100
AcDbBlockBegin
  2
_OPEN
 70
     0
 10
0.0
 20
0.0
 30
0.0
  3
_OPEN
  1

  0
LINE
  5
92
100
AcDbEntity
  8
0
  6
BYBLOCK
 62
     0
100
AcDbLine
 10
-1.0
 20
0.166667
 30
0.0
 11
0.0
 21
0.0
 31
0.0
  0
LINE
  5
93
100
AcDbEntity
  8
0
  6
BYBLOCK
 62
     0
100
AcDbLine
 10
0.0
 20
0.0
 30
0.0
 11
-1.0
 21
-0.166667
 31
0.0
  0
LINE
  5
94
100
AcDbEntity
  8
0
  6
BYBLOCK
 62
     0
100
AcDbLine
 10
0.0
 20
0.0
 30
0.0
 11
-1.0
 21
0.0
 31
0.0
  0
ENDBLK
  5
95
100
AcDbEntity
  8
0
100
AcDbBlockEnd
  0
BLOCK
  5
1911
100
AcDbEntity
  8
0
100
AcDbBlockBegin
  2
*D1
 70
     1
 10
0.0
 20
0.0
 30
0.0
  3
*D1
  1

  0
LINE
  5
1912
100
AcDbEntity
  8
0
  6
BYBLOCK
 62
    41
100
AcDbLine
 10
-119.664102
 20
204.373585
 30
0.0
 11
37.823344
 21
204.373585
 31
0.0
  0
LINE
  5
1913
100
AcDbEntity
  8
0
  6
BYBLOCK
 62
    41
100
AcDbLine
 10
-119.664102
 20
-25.626415
 30
0.0
 11
37.823344
 21
-25.626415
 31
0.0
  0
LINE
  5
1914
100
AcDbEntity
  8
0
  6
BYBLOCK
 62
    41
100
AcDbLine
 10
36.573344
 20
184.373585
 30
0.0
 11
36.573344
 21
-5.626415
 31
0.0
  0
INSERT
  5
1915
100
AcDbEntity
  8
0
  6
BYBLOCK
 62
    41
100
AcDbBlockReference
  2
_OPEN
 10
36.573344
 20
204.373585
 30
0.0
 41
20.0
 42
20.0
 43
20.0
 50
90.0
  0
INSERT
  5
1916
100
AcDbEntity
  8
0
  6
BYBLOCK
 62
    41
100
AcDbBlockReference
  2
_OPEN
 10
36.573344
 20
-25.626415
 30
0.0
 41
20.0
 42
20.0
 43
20.0
 50
270.0
  0
MTEXT
  5
1917
100
AcDbEntity
  8
0
  6
BYBLOCK
 62
    41
100
AcDbMText
 10
24.571375
 20
89.373585
 30
0.0
 40
20.0
 41
0.0
 71
     5
 72
     1
  1
\A1;\U+2205230
  7
ED20
 11
0.0
 21
1.0
 31
0.0
  0
POINT
  5
1918
100
AcDbEntity
  8
DEFPOINTS
  6
BYBLOCK
 62
     0
100
AcDbPoint
 10
-120.664102
 20
204.373585
 30
0.0
  0
POINT
  5
1919
100
AcDbEntity
  8
DEFPOINTS
  6
BYBLOCK
 62
     0
100
AcDbPoint
 10
-120.664102
 20
-25.626415
 30
0.0
  0
POINT
  5
191A
100
AcDbEntity
  8
DEFPOINTS
  6
BYBLOCK
 62
     0
100
AcDbPoint
 10
36.573344
 20
-25.626415
 30
0.0
  0
ENDBLK
  5
191B
100
AcDbEntity
  8
0
100
AcDbBlockEnd
  0
BLOCK
  5
1906
100
AcDbEntity
  8
0
100
AcDbBlockBegin
  2
*D2
 70
     1
 10
0.0
 20
0.0
 30
0.0
  3
*D2
  1

  0
LINE
  5
1907
100
AcDbEntity
  8
0
  6
BYBLOCK
 62
    41
100
AcDbLine
 10
-73.664102
 20
191.373585
 30
0.0
 11
7.236051
 21
191.373585
 31
0.0
  0
LINE
  5
1908
100
AcDbEntity
  8
0
  6
BYBLOCK
 62
    41
100
AcDbLine
 10
-73.664102
 20
-12.626415
 30
0.0
 11
7.236051
 21
-12.626415
 31
0.0
  0
LINE
  5
1909
100
AcDbEntity
  8
0
  6
BYBLOCK
 62
    41
100
AcDbLine
 10
5.986051
 20
171.373585
 30
0.0
 11
5.986051
 21
7.373585
 31
0.0
  0
INSERT
  5
190A
100
AcDbEntity
  8
0
  6
BYBLOCK
 62
    41
100
AcDbBlockReference
  2
_OPEN
 10
5.986051
 20
191.373585
 30
0.0
 41
20.0
 42
20.0
 43
20.0
 50
90.0
  0
INSERT
  5
190B
100
AcDbEntity
  8
0
  6
BYBLOCK
 62
    41
100
AcDbBlockReference
  2
_OPEN
 10
5.986051
 20
-12.626415
 30
0.0
 41
20.0
 42
20.0
 43
20.0
 50
270.0
  0
MTEXT
  5
190C
100
AcDbEntity
  8
0
  6
BYBLOCK
 62
    41
100
AcDbMText
 10
-6.015917
 20
89.373585
 30
0.0
 40
20.0
 41
0.0
 71
     5
 72
     1
  1
\A1;\U+2205204
  7
ED20
 11
0.0
 21
1.0
 31
0.0
  0
POINT
  5
190D
100
AcDbEntity
  8
DEFPOINTS
  6
BYBLOCK
 62
     0
100
AcDbPoint
 10
-74.664102
 20
191.373585
 30
0.0
  0
POINT
  5
190E
100
AcDbEntity
  8
DEFPOINTS
  6
BYBLOCK
 62
     0
100
AcDbPoint
 10
-74.664102
 20
-12.626415
 30
0.0
  0
POINT
  5
190F
100
AcDbEntity
  8
DEFPOINTS
  6
BYBLOCK
 62
     0
100
AcDbPoint
 10
5.986051
 20
-12.626415
 30
0.0
  0
ENDBLK
  5
1910
100
AcDbEntity
  8
0
100
AcDbBlockEnd
  0
BLOCK
  5
1927
100
AcDbEntity
  8
0
100
AcDbBlockBegin
  2
*D3
 70
     1
 10
0.0
 20
0.0
 30
0.0
  3
*D3
  1

  0
LINE
  5
1928
100
AcDbEntity
  8
0
  6
BYBLOCK
 62
    41
100
AcDbLine
 10
431.374168
 20
-58.126415
 30
0.0
 11
431.374168
 21
-205.180276
 31
0.0
  0
LINE
  5
1929
100
AcDbEntity
  8
0
  6
BYBLOCK
 62
    41
100
AcDbLine
 10
118.374168
 20
-58.126415
 30
0.0
 11
118.374168
 21
-205.180276
 31
0.0
  0
LINE
  5
192A
100
AcDbEntity
  8
0
  6
BYBLOCK
 62
    41
100
AcDbLine
 10
411.374168
 20
-203.930276
 30
0.0
 11
138.374168
 21
-203.930276
 31
0.0
  0
INSERT
  5
192B
100
AcDbEntity
  8
0
  6
BYBLOCK
 62
    41
100
AcDbBlockReference
  2
_OPEN
 10
431.374168
 20
-203.930276
 30
0.0
 41
20.0
 42
20.0
 43
20.0
  0
INSERT
  5
192C
100
AcDbEntity
  8
0
  6
BYBLOCK
 62
    41
100
AcDbBlockReference
  2
_OPEN
 10
118.374168
 20
-203.930276
 30
0.0
 41
20.0
 42
20.0
 43
20.0
 50
180.0
  0
MTEXT
  5
192D
100
AcDbEntity
  8
0
  6
BYBLOCK
 62
    41
100
AcDbMText
 10
274.874168
 20
-191.930276
 30
0.0
 40
20.0
 41
0.0
 71
     5
 72
     1
  1
\A1;313
  7
ED20
  0
POINT
  5
192E
100
AcDbEntity
  8
DEFPOINTS
  6
BYBLOCK
 62
     0
100
AcDbPoint
 10
431.374168
 20
-57.126415
 30
0.0
  0
POINT
  5
192F
100
AcDbEntity
  8
DEFPOINTS
  6
BYBLOCK
 62
     0
100
AcDbPoint
 10
118.374168
 20
-57.126415
 30
0.0
  0
POINT
  5
1930
100
AcDbEntity
  8
DEFPOINTS
  6
BYBLOCK
 62
     0
100
AcDbPoint
 10
118.374168
 20
-203.930276
 30
0.0
  0
ENDBLK
  5
1931
100
AcDbEntity
  8
0
100
AcDbBlockEnd
  0
BLOCK
  5
191C
100
AcDbEntity
  8
0
100
AcDbBlockBegin
  2
*D4
 70
     1
 10
0.0
 20
0.0
 30
0.0
  3
*D4
  1

  0
LINE
  5
191D
100
AcDbEntity
  8
0
  6
BYBLOCK
 62
    41
100
AcDbLine
 10
404.874168
 20
-41.626415
 30
0.0
 11
404.874168
 21
-155.926063
 31
0.0
  0
LINE
  5
191E
100
AcDbEntity
  8
0
  6
BYBLOCK
 62
    41
100
AcDbLine
 10
144.874168
 20
-41.626415
 30
0.0
 11
144.874168
 21
-155.926063
 31
0.0
  0
LINE
  5
191F
100
AcDbEntity
  8
0
  6
BYBLOCK
 62
    41
100
AcDbLine
 10
384.874168
 20
-154.676063
 30
0.0
 11
164.874168
 21
-154.676063
 31
0.0
  0
INSERT
  5
1920
100
AcDbEntity
  8
0
  6
BYBLOCK
 62
    41
100
AcDbBlockReference
  2
_OPEN
 10
404.874168
 20
-154.676063
 30
0.0
 41
20.0
 42
20.0
 43
20.0
  0
INSERT
  5
1921
100
AcDbEntity
  8
0
  6
BYBLOCK
 62
    41
100
AcDbBlockReference
  2
_OPEN
 10
144.874168
 20
-154.676063
 30
0.0
 41
20.0
 42
20.0
 43
20.0
 50
180.0
  0
MTEXT
  5
1922
100
AcDbEntity
  8
0
  6
BYBLOCK
 62
    41
100
AcDbMText
 10
274.874168
 20
-142.674095
 30
0.0
 40
20.0
 41
0.0
 71
     5
 72
     1
  1
\A1;260
  7
ED20
  0
POINT
  5
1923
100
AcDbEntity
  8
DEFPOINTS
  6
BYBLOCK
 62
     0
100
AcDbPoint
 10
404.874168
 20
-40.626415
 30
0.0
  0
POINT
  5
1924
100
AcDbEntity
  8
DEFPOINTS
  6
BYBLOCK
 62
     0
100
AcDbPoint
 10
144.874168
 20
-40.626415
 30
0.0
  0
POINT
  5
1925
100
AcDbEntity
  8
DEFPOINTS
  6
BYBLOCK
 62
     0
100
AcDbPoint
 10
144.874168
 20
-154.676063
 30
0.0
  0
ENDBLK
  5
1926
100
AcDbEntity
  8
0
100
AcDbBlockEnd
  0
BLOCK
  5
1A7B
100
AcDbEntity
  8
0
100
AcDbBlockBegin
  2
*D5
 70
     1
 10
0.0
 20
0.0
 30
0.0
  3
*D5
  1

  0
LINE
  5
1A7C
100
AcDbEntity
  8
0
  6
BYBLOCK
 62
    41
100
AcDbLine
 10
-74.664102
 20
-13.626415
 30
0.0
 11
-74.664102
 21
-125.354482
 31
0.0
  0
LINE
  5
1A7D
100
AcDbEntity
  8
0
  6
BYBLOCK
 62
    41
100
AcDbLine
 10
-120.664102
 20
-68.126415
 30
0.0
 11
-120.664102
 21
-125.354482
 31
0.0
  0
LINE
  5
1A7E
100
AcDbEntity
  8
0
  6
BYBLOCK
 62
    41
100
AcDbLine
 10
-94.664102
 20
-124.104482
 30
0.0
 11
-100.664102
 21
-124.104482
 31
0.0
  0
INSERT
  5
1A7F
100
AcDbEntity
  8
0
  6
BYBLOCK
 62
    41
100
AcDbBlockReference
  2
_OPEN
 10
-74.664102
 20
-124.104482
 30
0.0
 41
20.0
 42
20.0
 43
20.0
  0
INSERT
  5
1A80
100
AcDbEntity
  8
0
  6
BYBLOCK
 62
    41
100
AcDbBlockReference
  2
_OPEN
 10
-120.664102
 20
-124.104482
 30
0.0
 41
20.0
 42
20.0
 43
20.0
 50
180.0
  0
MTEXT
  5
1A81
100
AcDbEntity
  8
0
  6
BYBLOCK
 62
    41
100
AcDbMText
 10
-97.664102
 20
-112.104482
 30
0.0
 40
20.0
 41
0.0
 71
     5
 72
     1
  1
\A1;46
  7
ED20
  0
POINT
  5
1A82
100
AcDbEntity
  8
DEFPOINTS
  6
BYBLOCK
 62
     0
100
AcDbPoint
 10
-74.664102
 20
-12.626415
 30
0.0
  0
POINT
  5
1A83
100
AcDbEntity
  8
DEFPOINTS
  6
BYBLOCK
 62
     0
100
AcDbPoint
 10
-120.664102
 20
-67.126415
 30
0.0
  0
POINT
  5
1A84
100
AcDbEntity
  8
DEFPOINTS
  6
BYBLOCK
 62
     0
100
AcDbPoint
 10
-120.664102
 20
-124.104482
 30
0.0
  0
ENDBLK
  5
1A85
100
AcDbEntity
  8
0
100
AcDbBlockEnd
  0
BLOCK
  5
1A87
100
AcDbEntity
  8
0
100
AcDbBlockBegin
  2
*D6
 70
     1
 10
0.0
 20
0.0
 30
0.0
  3
*D6
  1

  0
LINE
  5
1A88
100
AcDbEntity
  8
0
  6
BYBLOCK
 62
    41
100
AcDbLine
 10
-170.664102
 20
88.373585
 30
0.0
 11
-170.664102
 21
-126.604482
 31
0.0
  0
LINE
  5
1A89
100
AcDbEntity
  8
0
  6
BYBLOCK
 62
    41
100
AcDbLine
 10
-120.664102
 20
-68.126415
 30
0.0
 11
-120.664102
 21
-126.604482
 31
0.0
  0
LINE
  5
1A8A
100
AcDbEntity
  8
0
  6
BYBLOCK
 62
    41
100
AcDbLine
 10
-150.664102
 20
-125.354482
 30
0.0
 11
-140.664102
 21
-125.354482
 31
0.0
  0
INSERT
  5
1A8B
100
AcDbEntity
  8
0
  6
BYBLOCK
 62
    41
100
AcDbBlockReference
  2
_OPEN
 10
-170.664102
 20
-125.354482
 30
0.0
 41
20.0
 42
20.0
 43
20.0
 50
180.0
  0
INSERT
  5
1A8C
100
AcDbEntity
  8
0
  6
BYBLOCK
 62
    41
100
AcDbBlockReference
  2
_OPEN
 10
-120.664102
 20
-125.354482
 30
0.0
 41
20.0
 42
20.0
 43
20.0
  0
MTEXT
  5
1A8D
100
AcDbEntity
  8
0
  6
BYBLOCK
 62
    41
100
AcDbMText
 10
-145.664102
 20
-113.354482
 30
0.0
 40
20.0
 41
0.0
 71
     5
 72
     1
  1
\A1;50
  7
ED20
  0
POINT
  5
1A8E
100
AcDbEntity
  8
DEFPOINTS
  6
BYBLOCK
 62
     0
100
AcDbPoint
 10
-170.664102
 20
89.373585
 30
0.0
  0
POINT
  5
1A8F
100
AcDbEntity
  8
DEFPOINTS
  6
BYBLOCK
 62
     0
100
AcDbPoint
 10
-120.664102
 20
-67.126415
 30
0.0
  0
POINT
  5
1A90
100
AcDbEntity
  8
DEFPOINTS
  6
BYBLOCK
 62
     0
100
AcDbPoint
 10
-120.664102
 20
-125.354482
 30
0.0
  0
ENDBLK
  5
1A91
100
AcDbEntity
  8
0
100
AcDbBlockEnd
  0
ENDSEC
  0
SECTION
  2
ENTITIES
  0
TEXT
  5
1347
100
AcDbEntity
  8
V0-VYPLNE
 62
     6
100
AcDbText
 10
215.016531
 20
-318.809314
 30
0.0
 40
40.0
  1
EDAV-200-4Q
  7
ED40
100
AcDbText
  0
TEXT
  5
1348
100
AcDbEntity
  8
V0-VYPLNE
 62
    51
100
AcDbText
 10
134.458991
 20
-374.475144
 30
0.0
 40
30.0
  1
MALY AXIALNI VENTILATOR
  7
ED30
100
AcDbText
  0
TEXT
  5
1349
100
AcDbEntity
  8
V0-VYPLNE
 62
    51
100
AcDbText
 10
237.168218
 20
-415.134012
 30
0.0
 40
20.0
  1
PRO KRUHOVE POTRUBI
  7
ED20
100
AcDbText
  0
LINE
  5
1788
100
AcDbEntity
  8
VO-OBRYS
  6
CONTINUOUS
100
AcDbLine
 10
397.662318
 20
72.72757
 30
0.0
 11
450.435487
 21
19.954401
 31
0.0
  0
LINE
  5
1789
100
AcDbEntity
  8
VO-OBRYS
  6
CONTINUOUS
100
AcDbLine
 10
399.456255
 20
76.590487
 30
0.0
 11
453.263914
 21
22.782828
 31
0.0
  0
LINE
  5
178A
100
AcDbEntity
  8
VO-OBRYS
  6
CONTINUOUS
100
AcDbLine
 10
443.364419
 20
12.883333
 30
0.0
 11
455.293238
 21
24.812151
 31
0.0
  0
LINE
  5
178B
100
AcDbEntity
  8
VO-OBRYS
  6
CONTINUOUS
100
AcDbLine
 10
455.293238
 20
24.812151
 30
0.0
 11
469.538139
 21
10.56725
 31
0.0
  0
LINE
  5
178C
100
AcDbEntity
  8
VO-OBRYS
  6
CONTINUOUS
100
AcDbLine
 10
469.538139
 20
10.56725
 30
0.0
 11
457.60932
 21
-1.361568
 31
0.0
  0
ARC
  5
178D
100
AcDbEntity
  8
V0-OBRYS
  6
CONTINUOUS
100
AcDbCircle
 10
339.642495
 20
128.021853
 30
0.0
 40
5.0
100
AcDbArc
 50
180.869837
 51
265.626738
  0
ARC
  5
178E
100
AcDbEntity
  8
V0-OBRYS
  6
CONTINUOUS
100
AcDbCircle
 10
530.600214
 20
121.043384
 30
0.0
 40
230.768559
100
AcDbArc
 50
170.471462
 51
184.502341
  0
LINE
  5
178F
100
AcDbEntity
  8
V0-OBRYS
  6
CONTINUOUS
100
AcDbLine
 10
358.628319
 20
123.388375
 30
0.0
 11
353.376753
 21
145.051511
 31
0.0
  0
LINE
  5
1790
100
AcDbEntity
  8
V0-OBRYS
  6
CONTINUOUS
100
AcDbLine
 10
393.833803
 20
111.693487
 30
0.0
 11
390.35655
 21
126.037438
 31
0.0
  0
CIRCLE
  5
1791
100
AcDbEntity
  8
V0-OBRYS
  6
CONTINUOUS
100
AcDbCircle
 10
366.874168
 20
89.373585
 30
0.0
 40
35.0
  0
CIRCLE
  5
1792
100
AcDbEntity
  8
V0-OBRYS
100
AcDbCircle
 10
366.874168
 20
89.373585
 30
0.0
 40
102.0
  0
LINE
  5
1793
100
AcDbEntity
  8
V0-VYPLNE
100
AcDbLine
 10
366.874168
 20
89.373585
 30
0.0
 11
366.874168
 21
216.581887
 31
0.0
  0
LINE
  5
1794
100
AcDbEntity
  8
V0-VYPLNE
100
AcDbLine
 10
498.176973
 20
89.373585
 30
0.0
 11
252.48308
 21
89.373585
 31
0.0
  0
LINE
  5
1795
100
AcDbEntity
  8
V0-OBRYS
  6
CONTINUOUS
100
AcDbLine
 10
331.976072
 20
92.042465
 30
0.0
 11
309.750382
 21
93.742206
 31
0.0
  0
ARC
  5
1796
100
AcDbEntity
  8
V0-OBRYS
  6
CONTINUOUS
100
AcDbCircle
 10
321.70243
 20
75.417697
 30
0.0
 40
5.0
100
AcDbArc
 50
252.869837
 51
337.626738
  0
ARC
  5
1797
100
AcDbEntity
  8
V0-OBRYS
  6
CONTINUOUS
100
AcDbCircle
 10
387.34853
 20
254.872814
 30
0.0
 40
230.768559
100
AcDbArc
 50
242.471462
 51
256.502341
  0
ARC
  5
1798
100
AcDbEntity
  8
V0-OBRYS
  6
CONTINUOUS
100
AcDbCircle
 10
215.801973
 20
159.987934
 30
0.0
 40
230.768559
100
AcDbArc
 50
314.471462
 51
328.502341
  0
LINE
  5
1799
100
AcDbEntity
  8
V0-OBRYS
  6
CONTINUOUS
100
AcDbLine
 10
393.538591
 20
66.701829
 30
0.0
 11
410.52047
 21
52.262777
 31
0.0
  0
LINE
  5
179A
100
AcDbEntity
  8
V0-OBRYS
  6
CONTINUOUS
100
AcDbLine
 10
396.432642
 20
70.630677
 30
0.0
 11
409.000019
 21
78.370266
 31
0.0
  0
LINE
  5
179B
100
AcDbEntity
  8
V0-OBRYS
  6
CONTINUOUS
100
AcDbLine
 10
396.676049
 20
107.727001
 30
0.0
 11
415.656092
 21
119.415815
 31
0.0
  0
ARC
  5
179C
100
AcDbEntity
  8
V0-OBRYS
  6
CONTINUOUS
100
AcDbCircle
 10
404.042825
 20
44.64437
 30
0.0
 40
10.0
100
AcDbArc
 50
328.502341
 51
49.626738
  0
ARC
  5
179D
100
AcDbEntity
  8
V0-OBRYS
  6
CONTINUOUS
100
AcDbCircle
 10
366.874168
 20
89.373585
 30
0.0
 40
97.0
100
AcDbArc
 50
323.373134
 51
344.363682
  0
ARC
  5
179E
100
AcDbEntity
  8
V0-OBRYS
  6
CONTINUOUS
100
AcDbCircle
 10
231.006945
 20
-61.348089
 30
0.0
 40
230.768559
100
AcDbArc
 50
23.804144
 51
36.869837
  0
ARC
  5
179F
100
AcDbEntity
  8
V0-OBRYS
  6
CONTINUOUS
100
AcDbCircle
 10
443.516529
 20
32.398165
 30
0.0
 40
1.5
100
AcDbArc
 50
203.804144
 51
323.373134
  0
ARC
  5
17A0
100
AcDbEntity
  8
V0-OBRYS
  6
CONTINUOUS
100
AcDbCircle
 10
253.032054
 20
-32.483577
 30
0.0
 40
230.768559
100
AcDbArc
 50
26.471462
 51
40.502341
  0
ARC
  5
17A1
100
AcDbEntity
  8
V0-OBRYS
  6
CONTINUOUS
100
AcDbCircle
 10
450.654464
 20
65.92445
 30
0.0
 40
10.0
100
AcDbArc
 50
344.363682
 51
26.471462
  0
ARC
  5
17A2
100
AcDbEntity
  8
V0-OBRYS
  6
CONTINUOUS
100
AcDbCircle
 10
411.621936
 20
74.112854
 30
0.0
 40
5.0
100
AcDbArc
 50
36.869837
 51
121.626738
  0
ARC
  5
17A3
100
AcDbEntity
  8
V0-OBRYS
  6
CONTINUOUS
100
AcDbCircle
 10
420.899925
 20
110.900991
 30
0.0
 40
10.0
100
AcDbArc
 50
40.502341
 51
121.626738
  0
LINE
  5
17A4
100
AcDbEntity
  8
V0-OBRYS
  6
CONTINUOUS
100
AcDbLine
 10
353.551807
 20
57.008253
 30
0.0
 11
345.067141
 21
36.395614
 31
0.0
  0
LINE
  5
17A5
100
AcDbEntity
  8
V0-OBRYS
  6
CONTINUOUS
100
AcDbLine
 10
358.182674
 20
55.469928
 30
0.0
 11
369.426994
 21
45.909306
 31
0.0
  0
LINE
  5
17A6
100
AcDbEntity
  8
V0-VYPLNE
  6
DASHDOT
100
AcDbLine
 10
366.874168
 20
89.373585
 30
0.0
 11
366.874168
 21
-27.366367
 31
0.0
  0
ARC
  5
17A7
100
AcDbEntity
  8
V0-OBRYS
  6
CONTINUOUS
100
AcDbCircle
 10
366.874168
 20
89.373585
 30
0.0
 40
97.0
100
AcDbArc
 50
251.373134
 51
272.363682
  0
ARC
  5
17A8
100
AcDbEntity
  8
V0-OBRYS
  6
CONTINUOUS
100
AcDbCircle
 10
181.544057
 20
172.015434
 30
0.0
 40
230.768559
100
AcDbArc
 50
311.804144
 51
324.869837
  0
ARC
  5
17A9
100
AcDbEntity
  8
V0-OBRYS
  6
CONTINUOUS
100
AcDbCircle
 10
370.46225
 20
2.447607
 30
0.0
 40
10.0
100
AcDbArc
 50
272.363682
 51
314.471462
  0
ARC
  5
17AA
100
AcDbEntity
  8
V0-OBRYS
  6
CONTINUOUS
100
AcDbCircle
 10
366.188171
 20
42.100103
 30
0.0
 40
5.0
100
AcDbArc
 50
324.869837
 51
49.626738
  0
ARC
  5
17AB
100
AcDbEntity
  8
V0-OBRYS
  6
CONTINUOUS
100
AcDbCircle
 10
336.371115
 20
-1.124005
 30
0.0
 40
1.5
100
AcDbArc
 50
131.804144
 51
251.373134
  0
ARC
  5
17AC
100
AcDbEntity
  8
V0-OBRYS
  6
CONTINUOUS
100
AcDbCircle
 10
335.819904
 20
40.202003
 30
0.0
 40
10.0
100
AcDbArc
 50
256.502341
 51
337.626738
  0
POINT
  5
17AD
100
AcDbEntity
  8
V0-VYPLNE
  6
CONTINUOUS
 62
    41
100
AcDbPoint
 10
366.874168
 20
89.373585
 30
0.0
  0
LINE
  5
17AE
100
AcDbEntity
  8
V0-OBRYS
  6
CONTINUOUS
100
AcDbLine
 10
331.944055
 20
87.16288
 30
0.0
 11
326.326049
 21
73.514502
 31
0.0
  0
LINE
  5
17AF
100
AcDbEntity
  8
V0-OBRYS
  6
CONTINUOUS
100
AcDbLine
 10
353.977664
 20
121.910951
 30
0.0
 11
339.261226
 21
123.036411
 31
0.0
  0
ARC
  5
17B0
100
AcDbEntity
  8
V0-OBRYS
  6
CONTINUOUS
100
AcDbCircle
 10
388.201083
 20
291.17073
 30
0.0
 40
230.768559
100
AcDbArc
 50
239.804144
 51
252.869837
  0
ARC
  5
17B1
100
AcDbEntity
  8
V0-OBRYS
  6
CONTINUOUS
100
AcDbCircle
 10
310.512919
 20
103.71309
 30
0.0
 40
10.0
100
AcDbArc
 50
184.502341
 51
265.626738
  0
ARC
  5
17B2
100
AcDbEntity
  8
V0-OBRYS
  6
CONTINUOUS
100
AcDbCircle
 10
366.874168
 20
89.373585
 30
0.0
 40
97.0
100
AcDbArc
 50
179.373134
 51
200.363682
  0
ARC
  5
17B3
100
AcDbEntity
  8
V0-OBRYS
  6
CONTINUOUS
100
AcDbCircle
 10
285.311428
 20
59.099511
 30
0.0
 40
10.0
100
AcDbArc
 50
200.363682
 51
242.471462
  0
ARC
  5
17B4
100
AcDbEntity
  8
V0-OBRYS
  6
CONTINUOUS
100
AcDbCircle
 10
271.379883
 20
90.418418
 30
0.0
 40
1.5
100
AcDbArc
 50
59.804144
 51
179.373134
  0
ARC
  5
17B5
100
AcDbEntity
  8
V0-OBRYS
  6
CONTINUOUS
100
AcDbCircle
 10
366.874168
 20
89.373585
 30
0.0
 40
97.0
100
AcDbArc
 50
107.373134
 51
128.363682
  0
ARC
  5
17B6
100
AcDbEntity
  8
V0-OBRYS
  6
CONTINUOUS
100
AcDbCircle
 10
447.588067
 20
-56.552633
 30
0.0
 40
230.768559
100
AcDbArc
 50
98.471462
 51
112.502341
  0
ARC
  5
17B7
100
AcDbEntity
  8
V0-OBRYS
  6
CONTINUOUS
100
AcDbCircle
 10
468.233717
 20
-86.419381
 30
0.0
 40
230.768559
100
AcDbArc
 50
95.804144
 51
108.869837
  0
ARC
  5
17B8
100
AcDbEntity
  8
V0-OBRYS
  6
CONTINUOUS
100
AcDbCircle
 10
366.874168
 20
89.373585
 30
0.0
 40
97.0
100
AcDbArc
 50
35.373134
 51
56.363682
  0
ARC
  5
17B9
100
AcDbEntity
  8
V0-OBRYS
  6
CONTINUOUS
100
AcDbCircle
 10
444.744804
 20
144.658429
 30
0.0
 40
1.5
100
AcDbArc
 50
275.804144
 51
35.373134
  0
ARC
  5
17BA
100
AcDbEntity
  8
V0-OBRYS
  6
CONTINUOUS
100
AcDbCircle
 10
415.065156
 20
161.8072
 30
0.0
 40
10.0
100
AcDbArc
 50
56.363682
 51
98.471462
  0
ARC
  5
17BB
100
AcDbEntity
  8
V0-OBRYS
  6
CONTINUOUS
100
AcDbCircle
 10
395.215806
 20
127.215416
 30
0.0
 40
5.0
100
AcDbArc
 50
108.869837
 51
193.626738
  0
ARC
  5
17BC
100
AcDbEntity
  8
V0-OBRYS
  6
CONTINUOUS
100
AcDbCircle
 10
565.385037
 20
131.44923
 30
0.0
 40
230.768559
100
AcDbArc
 50
167.804144
 51
180.869837
  0
ARC
  5
17BD
100
AcDbEntity
  8
V0-OBRYS
  6
CONTINUOUS
100
AcDbCircle
 10
363.095264
 20
147.407468
 30
0.0
 40
10.0
100
AcDbArc
 50
112.502341
 51
193.626738
  0
ARC
  5
17BE
100
AcDbEntity
  8
V0-OBRYS
  6
CONTINUOUS
100
AcDbCircle
 10
338.358506
 20
180.516917
 30
0.0
 40
1.5
100
AcDbArc
 50
347.804144
 51
107.373134
  0
ARC
  5
17BF
100
AcDbEntity
  8
V0-OBRYS
  6
CONTINUOUS
100
AcDbCircle
 10
312.87754
 20
157.589156
 30
0.0
 40
10.0
100
AcDbArc
 50
128.363682
 51
170.471462
  0
LINE
  5
17C1
100
AcDbEntity
  8
VO-OBRYS
  6
CONTINUOUS
100
AcDbLine
 10
431.435601
 20
0.954514
 30
0.0
 11
445.680502
 21
-13.290387
 31
0.0
  0
LINE
  5
17C2
100
AcDbEntity
  8
VO-OBRYS
  6
CONTINUOUS
100
AcDbLine
 10
445.680502
 20
-13.290387
 30
0.0
 11
457.60932
 21
-1.361568
 31
0.0
  0
LINE
  5
17C4
100
AcDbEntity
  8
VO-OBRYS
  6
CONTINUOUS
100
AcDbLine
 10
379.657265
 20
56.791497
 30
0.0
 11
433.464925
 21
2.983838
 31
0.0
  0
LINE
  5
17C5
100
AcDbEntity
  8
VO-OBRYS
  6
CONTINUOUS
100
AcDbLine
 10
383.520182
 20
58.585434
 30
0.0
 11
436.293352
 21
5.812265
 31
0.0
  0
LINE
  5
17C6
100
AcDbEntity
  8
VO-OBRYS
  6
CONTINUOUS
100
AcDbLine
 10
443.364419
 20
12.883333
 30
0.0
 11
431.435601
 21
0.954514
 31
0.0
  0
LINE
  5
17C7
100
AcDbEntity
  8
V0-VYPLNE
100
AcDbLine
 10
434.325463
 20
-10.400525
 30
0.0
 11
466.821998
 21
22.09601
 31
0.0
  0
CIRCLE
  5
17C8
100
AcDbEntity
  8
V0-OBRYS
100
AcDbCircle
 10
450.48687
 20
5.760882
 30
0.0
 40
5.964836
  0
LINE
  5
17C9
100
AcDbEntity
  8
V0-VYPLNE
100
AcDbLine
 10
366.874168
 20
89.373585
 30
0.0
 11
464.711898
 21
-8.464146
 31
0.0
  0
LINE
  5
17CA
100
AcDbEntity
  8
VO-OBRYS
  6
CONTINUOUS
100
AcDbLine
 10
354.09107
 20
56.791497
 30
0.0
 11
300.283411
 21
2.983838
 31
0.0
  0
LINE
  5
17CB
100
AcDbEntity
  8
VO-OBRYS
  6
CONTINUOUS
100
AcDbLine
 10
350.228153
 20
58.585434
 30
0.0
 11
297.454984
 21
5.812265
 31
0.0
  0
LINE
  5
17CC
100
AcDbEntity
  8
V0-VYPLNE
100
AcDbLine
 10
366.874168
 20
89.373585
 30
0.0
 11
269.036437
 21
-8.464146
 31
0.0
  0
LINE
  5
17CD
100
AcDbEntity
  8
VO-OBRYS
  6
CONTINUOUS
100
AcDbLine
 10
336.086017
 20
72.72757
 30
0.0
 11
283.312848
 21
19.954401
 31
0.0
  0
LINE
  5
17CE
100
AcDbEntity
  8
VO-OBRYS
  6
CONTINUOUS
100
AcDbLine
 10
334.29208
 20
76.590487
 30
0.0
 11
280.484421
 21
22.782828
 31
0.0
  0
LINE
  5
17CF
100
AcDbEntity
  8
VO-OBRYS
  6
CONTINUOUS
100
AcDbLine
 10
290.383916
 20
12.883333
 30
0.0
 11
278.455097
 21
24.812151
 31
0.0
  0
LINE
  5
17D0
100
AcDbEntity
  8
VO-OBRYS
  6
CONTINUOUS
100
AcDbLine
 10
290.383916
 20
12.883333
 30
0.0
 11
302.312734
 21
0.954514
 31
0.0
  0
CIRCLE
  5
17D1
100
AcDbEntity
  8
V0-OBRYS
100
AcDbCircle
 10
283.261465
 20
5.760882
 30
0.0
 40
5.964836
  0
LINE
  5
17D2
100
AcDbEntity
  8
VO-OBRYS
  6
CONTINUOUS
100
AcDbLine
 10
302.312734
 20
0.954514
 30
0.0
 11
288.067833
 21
-13.290387
 31
0.0
  0
LINE
  5
17D3
100
AcDbEntity
  8
V0-VYPLNE
100
AcDbLine
 10
267.100058
 20
21.92229
 30
0.0
 11
299.596594
 21
-10.574246
 31
0.0
  0
LINE
  5
17D4
100
AcDbEntity
  8
VO-OBRYS
  6
CONTINUOUS
100
AcDbLine
 10
288.067833
 20
-13.290387
 30
0.0
 11
276.139015
 21
-1.361568
 31
0.0
  0
LINE
  5
17D5
100
AcDbEntity
  8
VO-OBRYS
  6
CONTINUOUS
100
AcDbLine
 10
264.210196
 20
10.56725
 30
0.0
 11
276.139015
 21
-1.361568
 31
0.0
  0
LINE
  5
17D6
100
AcDbEntity
  8
VO-OBRYS
  6
CONTINUOUS
100
AcDbLine
 10
278.455097
 20
24.812151
 30
0.0
 11
264.210196
 21
10.56725
 31
0.0
  0
LINE
  5
17D7
100
AcDbEntity
  8
VO-OBRYS
  6
CONTINUOUS
100
AcDbLine
 10
334.29208
 20
102.156682
 30
0.0
 11
280.484421
 21
155.964342
 31
0.0
  0
LINE
  5
17D8
100
AcDbEntity
  8
VO-OBRYS
  6
CONTINUOUS
100
AcDbLine
 10
336.086017
 20
106.019599
 30
0.0
 11
283.312848
 21
158.792769
 31
0.0
  0
LINE
  5
17D9
100
AcDbEntity
  8
V0-VYPLNE
100
AcDbLine
 10
366.874168
 20
89.373585
 30
0.0
 11
266.033762
 21
190.21399
 31
0.0
  0
LINE
  5
17DA
100
AcDbEntity
  8
VO-OBRYS
  6
CONTINUOUS
100
AcDbLine
 10
350.228153
 20
120.161735
 30
0.0
 11
297.454984
 21
172.934904
 31
0.0
  0
LINE
  5
17DB
100
AcDbEntity
  8
VO-OBRYS
  6
CONTINUOUS
100
AcDbLine
 10
354.09107
 20
121.955672
 30
0.0
 11
300.283411
 21
175.763331
 31
0.0
  0
LINE
  5
17DC
100
AcDbEntity
  8
VO-OBRYS
  6
CONTINUOUS
100
AcDbLine
 10
290.383916
 20
165.863836
 30
0.0
 11
302.312734
 21
177.792655
 31
0.0
  0
LINE
  5
17DD
100
AcDbEntity
  8
VO-OBRYS
  6
CONTINUOUS
100
AcDbLine
 10
290.383916
 20
165.863836
 30
0.0
 11
278.455097
 21
153.935018
 31
0.0
  0
CIRCLE
  5
17DE
100
AcDbEntity
  8
V0-OBRYS
100
AcDbCircle
 10
283.261465
 20
172.986287
 30
0.0
 40
5.964836
  0
LINE
  5
17DF
100
AcDbEntity
  8
VO-OBRYS
  6
CONTINUOUS
100
AcDbLine
 10
278.455097
 20
153.935018
 30
0.0
 11
264.210196
 21
168.179919
 31
0.0
  0
LINE
  5
17E0
100
AcDbEntity
  8
V0-VYPLNE
100
AcDbLine
 10
299.422873
 20
189.147694
 30
0.0
 11
266.926337
 21
156.651159
 31
0.0
  0
LINE
  5
17E1
100
AcDbEntity
  8
VO-OBRYS
  6
CONTINUOUS
100
AcDbLine
 10
264.210196
 20
168.179919
 30
0.0
 11
276.139015
 21
180.108737
 31
0.0
  0
LINE
  5
17E2
100
AcDbEntity
  8
VO-OBRYS
  6
CONTINUOUS
100
AcDbLine
 10
288.067833
 20
192.037556
 30
0.0
 11
276.139015
 21
180.108737
 31
0.0
  0
LINE
  5
17E3
100
AcDbEntity
  8
VO-OBRYS
  6
CONTINUOUS
100
AcDbLine
 10
302.312734
 20
177.792655
 30
0.0
 11
288.067833
 21
192.037556
 31
0.0
  0
LINE
  5
17E4
100
AcDbEntity
  8
VO-OBRYS
  6
CONTINUOUS
100
AcDbLine
 10
379.657265
 20
121.955672
 30
0.0
 11
433.464925
 21
175.763331
 31
0.0
  0
LINE
  5
17E5
100
AcDbEntity
  8
VO-OBRYS
  6
CONTINUOUS
100
AcDbLine
 10
383.520182
 20
120.161735
 30
0.0
 11
436.293352
 21
172.934904
 31
0.0
  0
LINE
  5
17E6
100
AcDbEntity
  8
V0-VYPLNE
100
AcDbLine
 10
366.874168
 20
89.373585
 30
0.0
 11
464.711898
 21
187.211315
 31
0.0
  0
LINE
  5
17E7
100
AcDbEntity
  8
VO-OBRYS
  6
CONTINUOUS
100
AcDbLine
 10
397.662318
 20
106.019599
 30
0.0
 11
450.435487
 21
158.792769
 31
0.0
  0
LINE
  5
17E8
100
AcDbEntity
  8
VO-OBRYS
  6
CONTINUOUS
100
AcDbLine
 10
399.456255
 20
102.156682
 30
0.0
 11
453.263914
 21
155.964342
 31
0.0
  0
LINE
  5
17E9
100
AcDbEntity
  8
VO-OBRYS
  6
CONTINUOUS
100
AcDbLine
 10
443.364419
 20
165.863836
 30
0.0
 11
455.293238
 21
153.935018
 31
0.0
  0
LINE
  5
17EA
100
AcDbEntity
  8
VO-OBRYS
  6
CONTINUOUS
100
AcDbLine
 10
443.364419
 20
165.863836
 30
0.0
 11
431.435601
 21
177.792655
 31
0.0
  0
CIRCLE
  5
17EB
100
AcDbEntity
  8
V0-OBRYS
100
AcDbCircle
 10
450.48687
 20
172.986287
 30
0.0
 40
5.964836
  0
LINE
  5
17EC
100
AcDbEntity
  8
VO-OBRYS
  6
CONTINUOUS
100
AcDbLine
 10
431.435601
 20
177.792655
 30
0.0
 11
445.680502
 21
192.037556
 31
0.0
  0
LINE
  5
17ED
100
AcDbEntity
  8
V0-VYPLNE
100
AcDbLine
 10
466.648277
 20
156.82488
 30
0.0
 11
434.151742
 21
189.321415
 31
0.0
  0
LINE
  5
17EE
100
AcDbEntity
  8
VO-OBRYS
  6
CONTINUOUS
100
AcDbLine
 10
445.680502
 20
192.037556
 30
0.0
 11
457.60932
 21
180.108737
 31
0.0
  0
LINE
  5
17EF
100
AcDbEntity
  8
VO-OBRYS
  6
CONTINUOUS
100
AcDbLine
 10
469.538139
 20
168.179919
 30
0.0
 11
457.60932
 21
180.108737
 31
0.0
  0
LINE
  5
17F0
100
AcDbEntity
  8
VO-OBRYS
  6
CONTINUOUS
100
AcDbLine
 10
455.293238
 20
153.935018
 30
0.0
 11
469.538139
 21
168.179919
 31
0.0
  0
CIRCLE
  5
17F1
100
AcDbEntity
  8
VO-OBRYS
100
AcDbCircle
 10
366.874168
 20
89.373585
 30
0.0
 40
51.0
  0
CIRCLE
  5
17F3
100
AcDbEntity
  8
VO-OBRYS
100
AcDbCircle
 10
366.874168
 20
89.373585
 30
0.0
 40
54.0
  0
CIRCLE
  5
17F4
100
AcDbEntity
  8
VO-OBRYS
100
AcDbCircle
 10
366.874168
 20
89.373585
 30
0.0
 40
70.0
  0
CIRCLE
  5
17F5
100
AcDbEntity
  8
VO-OBRYS
100
AcDbCircle
 10
366.874168
 20
89.373585
 30
0.0
 40
73.0
  0
CIRCLE
  5
17F6
100
AcDbEntity
  8
VO-OBRYS
100
AcDbCircle
 10
366.874168
 20
89.373585
 30
0.0
 40
89.0
  0
CIRCLE
  5
17F7
100
AcDbEntity
  8
VO-OBRYS
100
AcDbCircle
 10
366.874168
 20
89.373585
 30
0.0
 40
92.0
  0
CIRCLE
  5
17F8
100
AcDbEntity
  8
VO-OBRYS
100
AcDbCircle
 10
236.874168
 20
219.373585
 30
0.0
 40
3.5
  0
ARC
  5
17F9
100
AcDbEntity
  8
V0-VYPLNE
100
AcDbCircle
 10
366.874168
 20
89.373585
 30
0.0
 40
183.847763
100
AcDbArc
 50
130.786327
 51
139.92986
  0
LINE
  5
17FA
100
AcDbEntity
  8
V0-VYPLNE
100
AcDbLine
 10
252.008567
 20
204.239186
 30
0.0
 11
222.401309
 21
233.846443
 31
0.0
  0
LINE
  5
17FB
100
AcDbEntity
  8
V0-VYPLNE
100
AcDbLine
 10
481.739769
 20
204.239186
 30
0.0
 11
511.347026
 21
233.846443
 31
0.0
  0
ARC
  5
17FC
100
AcDbEntity
  8
V0-VYPLNE
100
AcDbCircle
 10
366.874168
 20
89.373585
 30
0.0
 40
183.847763
100
AcDbArc
 50
40.786327
 51
49.92986
  0
CIRCLE
  5
17FD
100
AcDbEntity
  8
VO-OBRYS
100
AcDbCircle
 10
496.874168
 20
219.373585
 30
0.0
 40
3.5
  0
LINE
  5
17FE
100
AcDbEntity
  8
V0-VYPLNE
100
AcDbLine
 10
481.739769
 20
-25.492016
 30
0.0
 11
511.347026
 21
-55.099274
 31
0.0
  0
ARC
  5
17FF
100
AcDbEntity
  8
V0-VYPLNE
100
AcDbCircle
 10
366.874168
 20
89.373585
 30
0.0
 40
183.847763
100
AcDbArc
 50
310.786327
 51
319.92986
  0
CIRCLE
  5
1800
100
AcDbEntity
  8
VO-OBRYS
100
AcDbCircle
 10
496.874168
 20
-40.626415
 30
0.0
 40
3.5
  0
LINE
  5
1801
100
AcDbEntity
  8
V0-VYPLNE
100
AcDbLine
 10
252.008567
 20
-25.492016
 30
0.0
 11
222.401309
 21
-55.099274
 31
0.0
  0
ARC
  5
1802
100
AcDbEntity
  8
V0-VYPLNE
100
AcDbCircle
 10
366.874168
 20
89.373585
 30
0.0
 40
183.847763
100
AcDbArc
 50
220.786327
 51
229.92986
  0
CIRCLE
  5
1803
100
AcDbEntity
  8
VO-OBRYS
100
AcDbCircle
 10
236.874168
 20
-40.626415
 30
0.0
 40
3.5
  0
LINE
  5
1806
100
AcDbEntity
  8
V0-VYPLNE
100
AcDbLine
 10
-34.797006
 20
89.373585
 30
0.0
 11
-203.027121
 21
89.373585
 31
0.0
  0
LINE
  5
1807
100
AcDbEntity
  8
V0-OBRYS
100
AcDbLine
 10
-120.664102
 20
245.873585
 30
0.0
 11
-120.664102
 21
-67.126415
 31
0.0
  0
LINE
  5
1808
100
AcDbEntity
  8
V0-OBRYS
100
AcDbLine
 10
-135.664102
 20
-67.126415
 30
0.0
 11
-135.664102
 21
245.873585
 31
0.0
  0
LINE
  5
1809
100
AcDbEntity
  8
V0-OBRYS
100
AcDbLine
 10
-120.664102
 20
245.873585
 30
0.0
 11
-135.664102
 21
245.873585
 31
0.0
  0
LINE
  5
180A
100
AcDbEntity
  8
V0-OBRYS
100
AcDbLine
 10
-135.664102
 20
-67.126415
 30
0.0
 11
-120.664102
 21
-67.126415
 31
0.0
  0
LINE
  5
180B
100
AcDbEntity
  8
V0-OBRYS
100
AcDbLine
 10
-110.450154
 20
194.73594
 30
0.0
 11
-74.664102
 21
191.373585
 31
0.0
  0
LINE
  5
180C
100
AcDbEntity
  8
V0-OBRYS
100
AcDbLine
 10
-74.664102
 20
191.373585
 30
0.0
 11
-74.664102
 21
89.373585
 31
0.0
  0
ARC
  5
180E
100
AcDbEntity
  8
V0-OBRYS
100
AcDbCircle
 10
-107.571571
 20
208.017833
 30
0.0
 40
13.590251
100
AcDbArc
 50
195.554308
 51
271.493402
  0
LINE
  5
180F
100
AcDbEntity
  8
V0-OBRYS
100
AcDbLine
 10
-110.450154
 20
-15.988771
 30
0.0
 11
-74.664102
 21
-12.626415
 31
0.0
  0
ARC
  5
1810
100
AcDbEntity
  8
V0-OBRYS
100
AcDbCircle
 10
-107.571571
 20
-29.270663
 30
0.0
 40
13.590251
100
AcDbArc
 50
88.506598
 51
164.445692
  0
LINE
  5
1811
100
AcDbEntity
  8
V0-OBRYS
100
AcDbLine
 10
-74.664102
 20
-12.626415
 30
0.0
 11
-74.664102
 21
89.373585
 31
0.0
  0
CIRCLE
  5
1812
100
AcDbEntity
  8
V0-OBRYS
100
AcDbCircle
 10
366.874168
 20
89.373585
 30
0.0
 40
105.0
  0
LINE
  5
1813
100
AcDbEntity
  8
V0-OBRYS
100
AcDbLine
 10
-170.664102
 20
89.373585
 30
0.0
 11
-170.664102
 21
121.373585
 31
0.0
  0
LINE
  5
1815
100
AcDbEntity
  8
V0-OBRYS
  6
CONTINUOUS
100
AcDbLine
 10
-135.664102
 20
124.373585
 30
0.0
 11
-167.664102
 21
124.373585
 31
0.0
  0
LINE
  5
1818
100
AcDbEntity
  8
V0-OBRYS
  6
CONTINUOUS
100
AcDbLine
 10
-154.642773
 20
140.373585
 30
0.0
 11
-154.642773
 21
89.373585
 31
0.0
  0
LINE
  5
1819
100
AcDbEntity
  8
V0-OBRYS
  6
CONTINUOUS
100
AcDbLine
 10
-140.44724
 20
194.373585
 30
0.0
 11
-140.44724
 21
89.373585
 31
0.0
  0
LINE
  5
181A
100
AcDbEntity
  8
V0-OBRYS
  6
CONTINUOUS
100
AcDbLine
 10
-149.608897
 20
159.373585
 30
0.0
 11
-149.608897
 21
89.373585
 31
0.0
  0
LINE
  5
181B
100
AcDbEntity
  8
V0-OBRYS
  6
CONTINUOUS
100
AcDbLine
 10
-145.430779
 20
178.373585
 30
0.0
 11
-145.430779
 21
89.373585
 31
0.0
  0
LINE
  5
181C
100
AcDbEntity
  8
V0-OBRYS
  6
CONTINUOUS
100
AcDbLine
 10
-141.94724
 20
194.373585
 30
0.0
 11
-141.94724
 21
89.373585
 31
0.0
  0
LINE
  5
181D
100
AcDbEntity
  8
V0-OBRYS
  6
CONTINUOUS
100
AcDbLine
 10
-146.930779
 20
178.373585
 30
0.0
 11
-146.930779
 21
89.373585
 31
0.0
  0
LINE
  5
181E
100
AcDbEntity
  8
V0-OBRYS
  6
CONTINUOUS
100
AcDbLine
 10
-151.108897
 20
159.373585
 30
0.0
 11
-151.108897
 21
89.373585
 31
0.0
  0
LINE
  5
181F
100
AcDbEntity
  8
V0-OBRYS
  6
CONTINUOUS
100
AcDbLine
 10
-156.142773
 20
140.373585
 30
0.0
 11
-156.142773
 21
89.373585
 31
0.0
  0
LINE
  5
1821
100
AcDbEntity
  8
V0-OBRYS
  6
CONTINUOUS
100
AcDbLine
 10
-140.44724
 20
194.373585
 30
0.0
 11
-141.94724
 21
194.373585
 31
0.0
  0
LINE
  5
1822
100
AcDbEntity
  8
V0-OBRYS
  6
CONTINUOUS
100
AcDbLine
 10
-145.430779
 20
178.373585
 30
0.0
 11
-146.930779
 21
178.373585
 31
0.0
  0
LINE
  5
1823
100
AcDbEntity
  8
V0-OBRYS
  6
CONTINUOUS
100
AcDbLine
 10
-149.608897
 20
159.373585
 30
0.0
 11
-151.108897
 21
159.373585
 31
0.0
  0
LINE
  5
1824
100
AcDbEntity
  8
V0-OBRYS
  6
CONTINUOUS
100
AcDbLine
 10
-154.642773
 20
140.373585
 30
0.0
 11
-156.142773
 21
140.373585
 31
0.0
  0
ARC
  5
1825
100
AcDbEntity
  8
V0-OBRYS
  6
CONTINUOUS
100
AcDbCircle
 10
-167.664102
 20
121.373585
 30
0.0
 40
3.0
100
AcDbArc
 50
90.0
 51
180.0
  0
ARC
  5
1826
100
AcDbEntity
  8
V0-OBRYS
  6
CONTINUOUS
100
AcDbCircle
 10
-167.664102
 20
57.373585
 30
0.0
 40
3.0
100
AcDbArc
 50
180.0
 51
270.0
  0
LINE
  5
1827
100
AcDbEntity
  8
V0-OBRYS
  6
CONTINUOUS
100
AcDbLine
 10
-141.94724
 20
-15.626415
 30
0.0
 11
-141.94724
 21
89.373585
 31
0.0
  0
LINE
  5
1828
100
AcDbEntity
  8
V0-OBRYS
  6
CONTINUOUS
100
AcDbLine
 10
-140.44724
 20
-15.626415
 30
0.0
 11
-140.44724
 21
89.373585
 31
0.0
  0
LINE
  5
1829
100
AcDbEntity
  8
V0-OBRYS
  6
CONTINUOUS
100
AcDbLine
 10
-156.142773
 20
38.373585
 30
0.0
 11
-156.142773
 21
89.373585
 31
0.0
  0
LINE
  5
182A
100
AcDbEntity
  8
V0-OBRYS
  6
CONTINUOUS
100
AcDbLine
 10
-154.642773
 20
38.373585
 30
0.0
 11
-154.642773
 21
89.373585
 31
0.0
  0
LINE
  5
182B
100
AcDbEntity
  8
V0-OBRYS
  6
CONTINUOUS
100
AcDbLine
 10
-151.108897
 20
19.373585
 30
0.0
 11
-151.108897
 21
89.373585
 31
0.0
  0
LINE
  5
182C
100
AcDbEntity
  8
V0-OBRYS
  6
CONTINUOUS
100
AcDbLine
 10
-149.608897
 20
19.373585
 30
0.0
 11
-149.608897
 21
89.373585
 31
0.0
  0
LINE
  5
182D
100
AcDbEntity
  8
V0-OBRYS
  6
CONTINUOUS
100
AcDbLine
 10
-146.930779
 20
0.373585
 30
0.0
 11
-146.930779
 21
89.373585
 31
0.0
  0
LINE
  5
182E
100
AcDbEntity
  8
V0-OBRYS
  6
CONTINUOUS
100
AcDbLine
 10
-145.430779
 20
0.373585
 30
0.0
 11
-145.430779
 21
89.373585
 31
0.0
  0
LINE
  5
182F
100
AcDbEntity
  8
V0-OBRYS
  6
CONTINUOUS
100
AcDbLine
 10
-145.430779
 20
0.373585
 30
0.0
 11
-146.930779
 21
0.373585
 31
0.0
  0
LINE
  5
1830
100
AcDbEntity
  8
V0-OBRYS
  6
CONTINUOUS
100
AcDbLine
 10
-154.642773
 20
38.373585
 30
0.0
 11
-156.142773
 21
38.373585
 31
0.0
  0
LINE
  5
1831
100
AcDbEntity
  8
V0-OBRYS
  6
CONTINUOUS
100
AcDbLine
 10
-149.608897
 20
19.373585
 30
0.0
 11
-151.108897
 21
19.373585
 31
0.0
  0
LINE
  5
1832
100
AcDbEntity
  8
V0-OBRYS
  6
CONTINUOUS
100
AcDbLine
 10
-140.44724
 20
-15.626415
 30
0.0
 11
-141.94724
 21
-15.626415
 31
0.0
  0
LINE
  5
1833
100
AcDbEntity
  8
V0-OBRYS
100
AcDbLine
 10
-170.664102
 20
89.373585
 30
0.0
 11
-170.664102
 21
57.373585
 31
0.0
  0
LINE
  5
1834
100
AcDbEntity
  8
V0-OBRYS
  6
CONTINUOUS
100
AcDbLine
 10
-135.664102
 20
54.373585
 30
0.0
 11
-167.664102
 21
54.373585
 31
0.0
  0
LINE
  5
1835
100
AcDbEntity
  8
V0-OBRYS
  6
CONTINUOUS
100
AcDbLine
 10
220.374168
 20
245.873585
 30
0.0
 11
513.374168
 21
245.873585
 31
0.0
  0
LINE
  5
1836
100
AcDbEntity
  8
V0-OBRYS
  6
CONTINUOUS
100
AcDbLine
 10
523.374168
 20
235.873585
 30
0.0
 11
523.374168
 21
-57.126415
 31
0.0
  0
LINE
  5
1837
100
AcDbEntity
  8
V0-OBRYS
  6
CONTINUOUS
100
AcDbLine
 10
513.374168
 20
-67.126415
 30
0.0
 11
220.374168
 21
-67.126415
 31
0.0
  0
LINE
  5
1838
100
AcDbEntity
  8
V0-OBRYS
  6
CONTINUOUS
100
AcDbLine
 10
210.374168
 20
-57.126415
 30
0.0
 11
210.374168
 21
235.873585
 31
0.0
  0
ARC
  5
1839
100
AcDbEntity
  8
V0-OBRYS
  6
CONTINUOUS
100
AcDbCircle
 10
513.374168
 20
235.873585
 30
0.0
 40
10.0
100
AcDbArc
 50
0.0
 51
90.0
  0
ARC
  5
183A
100
AcDbEntity
  8
V0-OBRYS
  6
CONTINUOUS
100
AcDbCircle
 10
513.374168
 20
-57.126415
 30
0.0
 40
10.0
100
AcDbArc
 50
270.0
 51
0.0
  0
ARC
  5
183B
100
AcDbEntity
  8
V0-OBRYS
  6
CONTINUOUS
100
AcDbCircle
 10
220.374168
 20
-57.126415
 30
0.0
 40
10.0
100
AcDbArc
 50
180.0
 51
270.0
  0
ARC
  5
183C
100
AcDbEntity
  8
V0-OBRYS
  6
CONTINUOUS
100
AcDbCircle
 10
220.374168
 20
235.873585
 30
0.0
 40
10.0
100
AcDbArc
 50
90.0
 51
180.0
  0
DIMENSION
  5
1849
100
AcDbEntity
  8
V0-VYPLNE
  6
CONTINUOUS
 62
    41
100
AcDbDimension
  2
*D5
 10
-120.664102
 20
-124.104482
 30
0.0
 11
-97.664102
 21
-112.104482
 31
0.0
 70
    32
  3
ED20
100
AcDbAlignedDimension
 13
-74.664102
 23
-12.626415
 33
0.0
 14
-120.664102
 24
-67.126415
 34
0.0
100
AcDbRotatedDimension
  0
DIMENSION
  5
1856
100
AcDbEntity
  8
V0-VYPLNE
  6
CONTINUOUS
 62
    41
100
AcDbDimension
  2
*D6
 10
-120.664102
 20
-125.354482
 30
0.0
 11
-145.664102
 21
-113.354482
 31
0.0
 70
    32
  3
ED20
100
AcDbAlignedDimension
 13
-170.664102
 23
89.373585
 33
0.0
 14
-120.664102
 24
-67.126415
 34
0.0
100
AcDbRotatedDimension
  0
DIMENSION
  5
1879
100
AcDbEntity
  8
V0-VYPLNE
  6
CONTINUOUS
 62
    41
100
AcDbDimension
  2
*D1
 10
36.573344
 20
-25.626415
 30
0.0
 11
24.571375
 21
89.373585
 31
0.0
 70
    32
  1
%%c<>
  3
ED20
100
AcDbAlignedDimension
 13
-120.664102
 23
204.373585
 33
0.0
 14
-120.664102
 24
-25.626415
 34
0.0
 50
270.0
100
AcDbRotatedDimension
  0
DIMENSION
  5
1886
100
AcDbEntity
  8
V0-VYPLNE
  6
CONTINUOUS
 62
    41
100
AcDbDimension
  2
*D2
 10
5.986051
 20
-12.626415
 30
0.0
 11
-6.015917
 21
89.373585
 31
0.0
 70
    32
  1
%%c<>
  3
ED20
100
AcDbAlignedDimension
 13
-74.664102
 23
191.373585
 33
0.0
 14
-74.664102
 24
-12.626415
 34
0.0
 50
270.0
100
AcDbRotatedDimension
  0
DIMENSION
  5
1893
100
AcDbEntity
  8
V0-VYPLNE
  6
CONTINUOUS
 62
    41
100
AcDbDimension
  2
*D3
 10
210.374168
 20
-203.930276
 30
0.0
 11
366.874168
 21
-191.930276
 31
0.0
 12
92.0
 22
0.0
 32
0.0
 70
    32
  3
ED20
100
AcDbAlignedDimension
 13
523.374168
 23
-57.126415
 33
0.0
 14
210.374168
 24
-57.126415
 34
0.0
100
AcDbRotatedDimension
  0
DIMENSION
  5
18A0
100
AcDbEntity
  8
V0-VYPLNE
  6
CONTINUOUS
 62
    41
100
AcDbDimension
  2
*D4
 10
236.874168
 20
-154.676063
 30
0.0
 11
366.874168
 21
-142.674095
 31
0.0
 12
92.0
 22
0.0
 32
0.0
 70
    32
  3
ED20
100
AcDbAlignedDimension
 13
496.874168
 23
-40.626415
 33
0.0
 14
236.874168
 24
-40.626415
 34
0.0
100
AcDbRotatedDimension
  0
POINT
  5
18A1
100
AcDbEntity
  8
V0-VYPLNE
  6
CONTINUOUS
 62
    41
100
AcDbPoint
 10
-74.664102
 20
89.373585
 30
0.0
  0
LINE
  5
18A9
100
AcDbEntity
  8
V0-OBRYS
  6
CONTINUOUS
100
AcDbLine
 10
-145.430779
 20
-368.143188
 30
0.0
 11
-145.430779
 21
-457.143188
 31
0.0
  0
LINE
  5
18AA
100
AcDbEntity
  8
V0-OBRYS
  6
CONTINUOUS
100
AcDbLine
 10
-146.930779
 20
-368.143188
 30
0.0
 11
-146.930779
 21
-457.143188
 31
0.0
  0
LINE
  5
18AB
100
AcDbEntity
  8
V0-OBRYS
  6
CONTINUOUS
100
AcDbLine
 10
-140.44724
 20
-352.143188
 30
0.0
 11
-140.44724
 21
-457.143188
 31
0.0
  0
LINE
  5
18AC
100
AcDbEntity
  8
V0-OBRYS
  6
CONTINUOUS
100
AcDbLine
 10
-141.94724
 20
-352.143188
 30
0.0
 11
-141.94724
 21
-457.143188
 31
0.0
  0
LINE
  5
18AD
100
AcDbEntity
  8
V0-OBRYS
100
AcDbLine
 10
-74.664102
 20
-355.143188
 30
0.0
 11
-74.664102
 21
-457.143188
 31
0.0
  0
LINE
  5
18AE
100
AcDbEntity
  8
V0-OBRYS
100
AcDbLine
 10
-135.664102
 20
-300.643188
 30
0.0
 11
-135.664102
 21
-613.643188
 31
0.0
  0
LINE
  5
18AF
100
AcDbEntity
  8
V0-OBRYS
100
AcDbLine
 10
-120.664102
 20
-613.643188
 30
0.0
 11
-120.664102
 21
-300.643188
 31
0.0
  0
LINE
  5
18B0
100
AcDbEntity
  8
V0-OBRYS
100
AcDbLine
 10
-110.450154
 20
-351.780833
 30
0.0
 11
-74.664102
 21
-355.143188
 31
0.0
  0
LINE
  5
18B1
100
AcDbEntity
  8
V0-OBRYS
100
AcDbLine
 10
-135.664102
 20
-300.643188
 30
0.0
 11
-120.664102
 21
-300.643188
 31
0.0
  0
ARC
  5
18B2
100
AcDbEntity
  8
V0-OBRYS
100
AcDbCircle
 10
-107.571571
 20
-338.49894
 30
0.0
 40
13.590251
100
AcDbArc
 50
195.554308
 51
271.493402
  0
LINE
  5
18B3
100
AcDbEntity
  8
V0-OBRYS
  6
CONTINUOUS
100
AcDbLine
 10
-140.44724
 20
-352.143188
 30
0.0
 11
-141.94724
 21
-352.143188
 31
0.0
  0
LINE
  5
18B4
100
AcDbEntity
  8
V0-OBRYS
  6
CONTINUOUS
100
AcDbLine
 10
-145.430779
 20
-368.143188
 30
0.0
 11
-146.930779
 21
-368.143188
 31
0.0
  0
LINE
  5
18B6
100
AcDbEntity
  8
V0-OBRYS
  6
CONTINUOUS
100
AcDbLine
 10
-135.664102
 20
-422.143188
 30
0.0
 11
-167.664102
 21
-422.143188
 31
0.0
  0
LINE
  5
18B7
100
AcDbEntity
  8
V0-OBRYS
  6
CONTINUOUS
100
AcDbLine
 10
-135.664102
 20
-492.143188
 30
0.0
 11
-167.664102
 21
-492.143188
 31
0.0
  0
LINE
  5
18B8
100
AcDbEntity
  8
V0-OBRYS
  6
CONTINUOUS
100
AcDbLine
 10
-141.94724
 20
-562.143188
 30
0.0
 11
-141.94724
 21
-457.143188
 31
0.0
  0
LINE
  5
18B9
100
AcDbEntity
  8
V0-OBRYS
  6
CONTINUOUS
100
AcDbLine
 10
-140.44724
 20
-562.143188
 30
0.0
 11
-140.44724
 21
-457.143188
 31
0.0
  0
ARC
  5
18BA
100
AcDbEntity
  8
V0-OBRYS
100
AcDbCircle
 10
-107.571571
 20
-575.787437
 30
0.0
 40
13.590251
100
AcDbArc
 50
88.506598
 51
164.445692
  0
LINE
  5
18BB
100
AcDbEntity
  8
V0-OBRYS
100
AcDbLine
 10
-110.450154
 20
-562.505544
 30
0.0
 11
-74.664102
 21
-559.143188
 31
0.0
  0
LINE
  5
18BC
100
AcDbEntity
  8
V0-OBRYS
  6
CONTINUOUS
100
AcDbLine
 10
-146.930779
 20
-546.143188
 30
0.0
 11
-146.930779
 21
-457.143188
 31
0.0
  0
LINE
  5
18BD
100
AcDbEntity
  8
V0-OBRYS
  6
CONTINUOUS
100
AcDbLine
 10
-145.430779
 20
-546.143188
 30
0.0
 11
-145.430779
 21
-457.143188
 31
0.0
  0
LINE
  5
18BE
100
AcDbEntity
  8
V0-OBRYS
100
AcDbLine
 10
-74.664102
 20
-559.143188
 30
0.0
 11
-74.664102
 21
-457.143188
 31
0.0
  0
POINT
  5
18BF
100
AcDbEntity
  8
V0-VYPLNE
  6
CONTINUOUS
 62
    41
100
AcDbPoint
 10
-74.664102
 20
-457.143188
 30
0.0
  0
LINE
  5
18C0
100
AcDbEntity
  8
V0-OBRYS
  6
CONTINUOUS
100
AcDbLine
 10
-145.430779
 20
-546.143188
 30
0.0
 11
-146.930779
 21
-546.143188
 31
0.0
  0
LINE
  5
18C1
100
AcDbEntity
  8
V0-OBRYS
  6
CONTINUOUS
100
AcDbLine
 10
-140.44724
 20
-562.143188
 30
0.0
 11
-141.94724
 21
-562.143188
 31
0.0
  0
LINE
  5
18C2
100
AcDbEntity
  8
V0-OBRYS
100
AcDbLine
 10
-120.664102
 20
-613.643188
 30
0.0
 11
-135.664102
 21
-613.643188
 31
0.0
  0
LINE
  5
18C3
100
AcDbEntity
  8
V0-OBRYS
  6
CONTINUOUS
100
AcDbLine
 10
-156.142773
 20
-508.143188
 30
0.0
 11
-156.142773
 21
-457.143188
 31
0.0
  0
LINE
  5
18C4
100
AcDbEntity
  8
V0-OBRYS
  6
CONTINUOUS
100
AcDbLine
 10
-151.108897
 20
-527.143188
 30
0.0
 11
-151.108897
 21
-457.143188
 31
0.0
  0
LINE
  5
18C5
100
AcDbEntity
  8
V0-OBRYS
  6
CONTINUOUS
100
AcDbLine
 10
-149.608897
 20
-527.143188
 30
0.0
 11
-149.608897
 21
-457.143188
 31
0.0
  0
LINE
  5
18C6
100
AcDbEntity
  8
V0-OBRYS
  6
CONTINUOUS
100
AcDbLine
 10
-154.642773
 20
-508.143188
 30
0.0
 11
-154.642773
 21
-457.143188
 31
0.0
  0
LINE
  5
18C7
100
AcDbEntity
  8
V0-OBRYS
100
AcDbLine
 10
-170.664102
 20
-457.143188
 30
0.0
 11
-170.664102
 21
-489.143188
 31
0.0
  0
LINE
  5
18C8
100
AcDbEntity
  8
V0-OBRYS
100
AcDbLine
 10
-170.664102
 20
-457.143188
 30
0.0
 11
-170.664102
 21
-425.143188
 31
0.0
  0
LINE
  5
18C9
100
AcDbEntity
  8
V0-OBRYS
  6
CONTINUOUS
100
AcDbLine
 10
-149.608897
 20
-387.143188
 30
0.0
 11
-149.608897
 21
-457.143188
 31
0.0
  0
LINE
  5
18CA
100
AcDbEntity
  8
V0-OBRYS
  6
CONTINUOUS
100
AcDbLine
 10
-151.108897
 20
-387.143188
 30
0.0
 11
-151.108897
 21
-457.143188
 31
0.0
  0
LINE
  5
18CB
100
AcDbEntity
  8
V0-OBRYS
  6
CONTINUOUS
100
AcDbLine
 10
-154.642773
 20
-406.143188
 30
0.0
 11
-154.642773
 21
-457.143188
 31
0.0
  0
LINE
  5
18CC
100
AcDbEntity
  8
V0-OBRYS
  6
CONTINUOUS
100
AcDbLine
 10
-156.142773
 20
-406.143188
 30
0.0
 11
-156.142773
 21
-457.143188
 31
0.0
  0
LINE
  5
18CD
100
AcDbEntity
  8
V0-OBRYS
  6
CONTINUOUS
100
AcDbLine
 10
-149.608897
 20
-387.143188
 30
0.0
 11
-151.108897
 21
-387.143188
 31
0.0
  0
LINE
  5
18CE
100
AcDbEntity
  8
V0-OBRYS
  6
CONTINUOUS
100
AcDbLine
 10
-154.642773
 20
-406.143188
 30
0.0
 11
-156.142773
 21
-406.143188
 31
0.0
  0
ARC
  5
18CF
100
AcDbEntity
  8
V0-OBRYS
  6
CONTINUOUS
100
AcDbCircle
 10
-167.664102
 20
-425.143188
 30
0.0
 40
3.0
100
AcDbArc
 50
90.0
 51
180.0
  0
ARC
  5
18D0
100
AcDbEntity
  8
V0-OBRYS
  6
CONTINUOUS
100
AcDbCircle
 10
-167.664102
 20
-489.143188
 30
0.0
 40
3.0
100
AcDbArc
 50
180.0
 51
270.0
  0
LINE
  5
18D1
100
AcDbEntity
  8
V0-OBRYS
  6
CONTINUOUS
100
AcDbLine
 10
-154.642773
 20
-508.143188
 30
0.0
 11
-156.142773
 21
-508.143188
 31
0.0
  0
LINE
  5
18D2
100
AcDbEntity
  8
V0-OBRYS
  6
CONTINUOUS
100
AcDbLine
 10
-149.608897
 20
-527.143188
 30
0.0
 11
-151.108897
 21
-527.143188
 31
0.0
  0
LINE
  5
18D3
100
AcDbEntity
  8
V0-VYPLNE
  6
CONTINUOUS
 62
    41
100
AcDbLine
 10
-98.774872
 20
-455.843546
 30
0.0
 11
-145.682108
 21
-455.843546
 31
0.0
  0
LINE
  5
18D4
100
AcDbEntity
  8
V0-VYPLNE
  6
CONTINUOUS
 62
    41
100
AcDbLine
 10
-98.774872
 20
-455.843546
 30
0.0
 11
-98.774872
 21
-455.843546
 31
0.0
  0
LINE
  5
18D5
100
AcDbEntity
  8
V0-VYPLNE
  6
CONTINUOUS
 62
    41
100
AcDbLine
 10
-98.774872
 20
-455.843546
 30
0.0
 11
-121.904211
 21
-446.047434
 31
0.0
  0
LINE
  5
18D6
100
AcDbEntity
  8
V0-VYPLNE
  6
CONTINUOUS
 62
    41
100
AcDbLine
 10
-98.774872
 20
-455.843546
 30
0.0
 11
-121.904211
 21
-465.639658
 31
0.0
  0
LINE
  5
18D7
100
AcDbEntity
  8
V0-VYPLNE
  6
CONTINUOUS
 62
    41
100
AcDbLine
 10
-102.76877
 20
89.373585
 30
0.0
 11
-149.676005
 21
89.373585
 31
0.0
  0
LINE
  5
18D8
100
AcDbEntity
  8
V0-VYPLNE
  6
CONTINUOUS
 62
    41
100
AcDbLine
 10
-102.76877
 20
89.373585
 30
0.0
 11
-125.898108
 21
99.169697
 31
0.0
  0
LINE
  5
18D9
100
AcDbEntity
  8
V0-VYPLNE
  6
CONTINUOUS
 62
    41
100
AcDbLine
 10
-102.76877
 20
89.373585
 30
0.0
 11
-125.898108
 21
79.577473
 31
0.0
  0
LINE
  5
18DA
100
AcDbEntity
  8
V0-VYPLNE
  6
CONTINUOUS
 62
    41
100
AcDbLine
 10
-102.76877
 20
89.373585
 30
0.0
 11
-102.76877
 21
89.373585
 31
0.0
  0
TEXT
  5
18DC
100
AcDbEntity
  8
V0-VYPLNE
 62
     6
100
AcDbText
 10
-259.953155
 20
-235.305123
 30
0.0
 40
30.0
  1
EDAV-200-4Q
  7
ED30
100
AcDbText
  0
TEXT
  5
18DD
100
AcDbEntity
  8
V0-VYPLNE
 62
     6
100
AcDbText
 10
-262.064108
 20
274.056644
 30
0.0
 40
30.0
  1
EDAV-200-4Q
  7
ED30
100
AcDbText
  0
TEXT
  5
18DE
100
AcDbEntity
  8
V0-VYPLNE
 62
     6
100
AcDbText
 10
235.399406
 20
276.111733
 30
0.0
 40
30.0
  1
EDAV-200-4Q
  7
ED30
100
AcDbText
  0
LEADER
  5
1949
100
AcDbEntity
  8
VO-OBRYS
  6
CONTINUOUS
 62
    41
100
AcDbLeader
  3
ED20
 73
     0
 75
     1
 40
20.0
 41
72.0
 76
     3
 10
233.374168
 20
-40.626415
 30
0.0
 10
163.58234
 20
-117.403686
 30
0.0
 10
143.58234
 20
-117.403686
 30
0.0
 77
   256
340
194A
  0
MTEXT
  5
194A
102
{ACAD_REACTORS
330
1949
102
}
100
AcDbEntity
  8
VO-OBRYS
  6
CONTINUOUS
 62
    41
100
AcDbMText
 10
141.58234
 20
-105.403686
 30
0.0
 40
20.0
 41
0.0
 71
     6
 72
     1
  1
\A1;4 x %%c7
  7
ED20
  0
LINE
  5
1950
100
AcDbEntity
  8
V0-VYPLNE
100
AcDbLine
 10
-34.797006
 20
-457.143188
 30
0.0
 11
-203.027121
 21
-457.143188
 31
0.0
  0
VIEWPORT
  5
22
100
AcDbEntity
 67
     1
  8
0
100
AcDbViewport
 10
261.517699
 20
148.5
 30
0.0
 40
523.035398
 41
297.0
 68
    -1
 69
     1
1001
ACAD
1000
MVIEW
1002
{
1070
    16
1010
0.0
1020
0.0
1030
0.0
1010
0.0
1020
0.0
1030
1.0
1040
0.0
1040
297.0
1040
261.517699
1040
148.5
1040
50.0
1040
0.0
1040
0.0
1070
     0
1070
   100
1070
     1
1070
     1
1070
     0
1070
     0
1070
     0
1070
     0
1040
0.0
1040
0.0
1040
0.0
1040
1.0
1040
1.0
1040
10.0
1040
10.0
1070
     0
1002
{
1002
}
1002
}
  0
ENDSEC
  0
SECTION
  2
OBJECTS
  0
DICTIONARY
  5
C
100
AcDbDictionary
  3
ACAD_GROUP
350
D
  3
ACAD_MLINESTYLE
350
E
  3
ACDBVARIABLEDICTIONARY
350
5D
  0
DICTIONARY
  5
D
102
{ACAD_REACTORS
330
C
102
}
100
AcDbDictionary
  0
DICTIONARY
  5
E
102
{ACAD_REACTORS
330
C
102
}
100
AcDbDictionary
  3
STANDARD
350
13
  0
DICTIONARY
  5
5D
102
{ACAD_REACTORS
330
C
102
}
100
AcDbDictionary
  3
DIMADEC
350
5E
  3
SORTENTS
350
3D8
  0
MLINESTYLE
  5
13
102
{ACAD_REACTORS
330
E
102
}
100
AcDbMlineStyle
  2
STANDARD
 70
     0
  3

 62
     0
 51
90.0
 52
90.0
 71
     2
 49
0.5
 62
   256
  6
BYLAYER
 49
-0.5
 62
   256
  6
BYLAYER
  0
DICTIONARYVAR
  5
5E
102
{ACAD_REACTORS
330
5D
102
}
100
DictionaryVariables
280
     0
  1
0
  0
DICTIONARYVAR
  5
3D8
102
{ACAD_REACTORS
330
5D
102
}
100
DictionaryVariables
280
     0
  1
96
  0
ENDSEC
  0
EOF
