  0
SECTION
  2
HEADER
  9
$ACADVER
  1
AC1014
  9
$ACADMAINTVER
 70
     0
  9
$DWGCODEPAGE
  3
ANSI_1250
  9
$INSBASE
 10
0.0
 20
0.0
 30
0.0
  9
$EXTMIN
 10
-215.276531
 20
-840.82232
 30
0.0
  9
$EXTMAX
 10
354.820412
 20
-249.666578
 30
0.0
  9
$LIMMIN
 10
0.0
 20
0.0
  9
$LIMMAX
 10
420.0
 20
297.0
  9
$ORTHOMODE
 70
     1
  9
$REGENMODE
 70
     1
  9
$FILLMODE
 70
     1
  9
$QTEXTMODE
 70
     0
  9
$MIRRTEXT
 70
     1
  9
$DRAGMODE
 70
     2
  9
$LTSCALE
 40
1.0
  9
$OSMODE
 70
    45
  9
$ATTMODE
 70
     1
  9
$TEXTSIZE
 40
40.0
  9
$TRACEWID
 40
1.0
  9
$TEXTSTYLE
  7
ED40
  9
$CLAYER
  8
V0-OBRYS
  9
$CELTYPE
  6
BYLAYER
  9
$CECOLOR
 62
   256
  9
$CELTSCALE
 40
1.0
  9
$DELOBJ
 70
     1
  9
$DISPSILH
 70
     0
  9
$DIMSCALE
 40
1.0
  9
$DIMASZ
 40
15.0
  9
$DIMEXO
 40
1.0
  9
$DIMDLI
 40
3.75
  9
$DIMRND
 40
0.0
  9
$DIMDLE
 40
0.0
  9
$DIMEXE
 40
1.25
  9
$DIMTP
 40
0.0
  9
$DIMTM
 40
0.0
  9
$DIMTXT
 40
10.0
  9
$DIMCEN
 40
2.0
  9
$DIMTSZ
 40
0.0
  9
$DIMTOL
 70
     0
  9
$DIMLIM
 70
     0
  9
$DIMTIH
 70
     0
  9
$DIMTOH
 70
     0
  9
$DIMSE1
 70
     0
  9
$DIMSE2
 70
     0
  9
$DIMTAD
 70
     1
  9
$DIMZIN
 70
     8
  9
$DIMBLK
  1

  9
$DIMASO
 70
     1
  9
$DIMSHO
 70
     1
  9
$DIMPOST
  1

  9
$DIMAPOST
  1

  9
$DIMALT
 70
     0
  9
$DIMALTD
 70
     4
  9
$DIMALTF
 40
0.0394
  9
$DIMLFAC
 40
1.0
  9
$DIMTOFL
 70
     1
  9
$DIMTVP
 40
0.0
  9
$DIMTIX
 70
     0
  9
$DIMSOXD
 70
     0
  9
$DIMSAH
 70
     1
  9
$DIMBLK1
  1
_OPEN
  9
$DIMBLK2
  1
_OPEN
  9
$DIMSTYLE
  2
ED10
  9
$DIMCLRD
 70
     0
  9
$DIMCLRE
 70
     0
  9
$DIMCLRT
 70
     0
  9
$DIMTFAC
 40
1.0
  9
$DIMGAP
 40
1.5
  9
$DIMJUST
 70
     0
  9
$DIMSD1
 70
     0
  9
$DIMSD2
 70
     0
  9
$DIMTOLJ
 70
     1
  9
$DIMTZIN
 70
     8
  9
$DIMALTZ
 70
     0
  9
$DIMALTTZ
 70
     0
  9
$DIMFIT
 70
     3
  9
$DIMUPT
 70
     0
  9
$DIMUNIT
 70
     2
  9
$DIMDEC
 70
     0
  9
$DIMTDEC
 70
     1
  9
$DIMALTU
 70
     8
  9
$DIMALTTD
 70
     4
  9
$DIMTXSTY
  7
ED10
  9
$DIMAUNIT
 70
     0
  9
$LUNITS
 70
     2
  9
$LUPREC
 70
     4
  9
$SKETCHINC
 40
1.0
  9
$FILLETRAD
 40
2.0
  9
$AUNITS
 70
     0
  9
$AUPREC
 70
     0
  9
$MENU
  1
.
  9
$ELEVATION
 40
0.0
  9
$PELEVATION
 40
0.0
  9
$THICKNESS
 40
0.0
  9
$LIMCHECK
 70
     0
  9
$BLIPMODE
 70
     0
  9
$CHAMFERA
 40
0.5
  9
$CHAMFERB
 40
0.5
  9
$CHAMFERC
 40
20.0
  9
$CHAMFERD
 40
0.0
  9
$SKPOLY
 70
     1
  9
$TDCREATE
 40
2451196.643769328
  9
$TDUPDATE
 40
2452915.473863888
  9
$TDINDWG
 40
0.7022708333
  9
$TDUSRTIMER
 40
0.7022708333
  9
$USRTIMER
 70
     1
  9
$ANGBASE
 50
0.0
  9
$ANGDIR
 70
     0
  9
$PDMODE
 70
     3
  9
$PDSIZE
 40
20.0
  9
$PLINEWID
 40
0.0
  9
$COORDS
 70
     1
  9
$SPLFRAME
 70
     0
  9
$SPLINETYPE
 70
     6
  9
$SPLINESEGS
 70
     8
  9
$ATTDIA
 70
     0
  9
$ATTREQ
 70
     1
  9
$HANDLING
 70
     1
  9
$HANDSEED
  5
185E
  9
$SURFTAB1
 70
     6
  9
$SURFTAB2
 70
     6
  9
$SURFTYPE
 70
     6
  9
$SURFU
 70
     6
  9
$SURFV
 70
     6
  9
$UCSNAME
  2

  9
$UCSORG
 10
-184.8931118030747
 20
-707.8223202174252
 30
0.0
  9
$UCSXDIR
 10
1.0
 20
0.0
 30
0.0
  9
$UCSYDIR
 10
0.0
 20
1.0
 30
0.0
  9
$PUCSNAME
  2

  9
$PUCSORG
 10
0.0
 20
0.0
 30
0.0
  9
$PUCSXDIR
 10
1.0
 20
0.0
 30
0.0
  9
$PUCSYDIR
 10
0.0
 20
1.0
 30
0.0
  9
$USERI1
 70
     0
  9
$USERI2
 70
     0
  9
$USERI3
 70
     0
  9
$USERI4
 70
     0
  9
$USERI5
 70
     0
  9
$USERR1
 40
0.0
  9
$USERR2
 40
0.0
  9
$USERR3
 40
0.0
  9
$USERR4
 40
0.0
  9
$USERR5
 40
0.0
  9
$WORLDVIEW
 70
     1
  9
$SHADEDGE
 70
     3
  9
$SHADEDIF
 70
    70
  9
$TILEMODE
 70
     1
  9
$MAXACTVP
 70
    48
  9
$PINSBASE
 10
0.0
 20
0.0
 30
0.0
  9
$PLIMCHECK
 70
     0
  9
$PEXTMIN
 10
1.000000E+20
 20
1.000000E+20
 30
1.000000E+20
  9
$PEXTMAX
 10
-1.000000E+20
 20
-1.000000E+20
 30
-1.000000E+20
  9
$PLIMMIN
 10
0.0
 20
0.0
  9
$PLIMMAX
 10
420.0
 20
297.0
  9
$UNITMODE
 70
     0
  9
$VISRETAIN
 70
     1
  9
$PLINEGEN
 70
     0
  9
$PSLTSCALE
 70
     0
  9
$TREEDEPTH
 70
  3020
  9
$PICKSTYLE
 70
     0
  9
$CMLSTYLE
  2
STANDARD
  9
$CMLJUST
 70
     1
  9
$CMLSCALE
 40
3.0
  9
$PROXYGRAPHICS
 70
     1
  9
$MEASUREMENT
 70
     1
  0
ENDSEC
  0
SECTION
  2
CLASSES
  0
CLASS
  1
DICTIONARYVAR
  2
AcDbDictionaryVar
  3
"AutoCAD"
 90
        0
280
     0
281
     0
  0
CLASS
  1
LWPOLYLINE
  2
AcDbPolyline
  3
"AutoCAD"
 90
        0
280
     0
281
     1
  0
CLASS
  1
HATCH
  2
AcDbHatch
  3
"ACAD_SEDONA"
 90
        0
280
     0
281
     1
  0
ENDSEC
  0
SECTION
  2
TABLES
  0
TABLE
  2
VPORT
  5
8
100
AcDbSymbolTable
 70
     3
  0
VPORT
  5
185D
100
AcDbSymbolTableRecord
100
AcDbViewportTableRecord
  2
*ACTIVE
 70
     0
 10
0.0
 20
0.0
 11
1.0
 21
1.0
 12
109.106632
 22
-516.975985
 13
0.0
 23
0.0
 14
10.0
 24
10.0
 15
10.0
 25
10.0
 16
0.0
 26
0.0
 36
1.0
 17
0.0
 27
0.0
 37
0.0
 40
696.433763
 41
1.730469
 42
50.0
 43
0.0
 44
0.0
 50
0.0
 51
0.0
 71
     0
 72
   100
 73
     1
 74
     1
 75
     0
 76
     0
 77
     0
 78
     0
  0
ENDTAB
  0
TABLE
  2
LTYPE
  5
5
100
AcDbSymbolTable
 70
     3
  0
LTYPE
  5
14
100
AcDbSymbolTableRecord
100
AcDbLinetypeTableRecord
  2
BYBLOCK
 70
     0
  3

 72
    65
 73
     0
 40
0.0
  0
LTYPE
  5
15
100
AcDbSymbolTableRecord
100
AcDbLinetypeTableRecord
  2
BYLAYER
 70
     0
  3

 72
    65
 73
     0
 40
0.0
  0
LTYPE
  5
16
100
AcDbSymbolTableRecord
100
AcDbLinetypeTableRecord
  2
CONTINUOUS
 70
     0
  3
Solid line
 72
    65
 73
     0
 40
0.0
  0
LTYPE
  5
7F
100
AcDbSymbolTableRecord
100
AcDbLinetypeTableRecord
  2
DASHDOT
 70
     0
  3
Dash dot __ . __ . __ . __ . __ . __ . __ . __
 72
    65
 73
     4
 40
25.4
 49
12.7
 74
     0
 49
-6.35
 74
     0
 49
0.0
 74
     0
 49
-6.35
 74
     0
  0
LTYPE
  5
80
100
AcDbSymbolTableRecord
100
AcDbLinetypeTableRecord
  2
DASHED
 70
     0
  3
Dashed __ __ __ __ __ __ __ __ __ __ __ __ __ _
 72
    65
 73
     2
 40
19.05
 49
12.7
 74
     0
 49
-6.35
 74
     0
  0
ENDTAB
  0
TABLE
  2
LAYER
  5
2
100
AcDbSymbolTable
 70
     6
  0
LAYER
  5
F
100
AcDbSymbolTableRecord
100
AcDbLayerTableRecord
  2
0
 70
     0
 62
     7
  6
CONTINUOUS
  0
LAYER
  5
9E
100
AcDbSymbolTableRecord
100
AcDbLayerTableRecord
  2
DEFPOINTS
 70
     0
 62
     7
  6
CONTINUOUS
  0
LAYER
  5
377
100
AcDbSymbolTableRecord
100
AcDbLayerTableRecord
  2
V0-OBRYS
 70
     0
 62
    90
  6
CONTINUOUS
  0
LAYER
  5
378
100
AcDbSymbolTableRecord
100
AcDbLayerTableRecord
  2
V0-VYPLNE
 70
     0
 62
    63
  6
DASHDOT
  0
LAYER
  5
37A
100
AcDbSymbolTableRecord
100
AcDbLayerTableRecord
  2
V0-NAZVY
 70
     0
 62
   210
  6
CONTINUOUS
  0
LAYER
  5
559
100
AcDbSymbolTableRecord
100
AcDbLayerTableRecord
  2
V0-ZBYTEK
 70
     0
 62
    51
  6
CONTINUOUS
  0
ENDTAB
  0
TABLE
  2
STYLE
  5
3
100
AcDbSymbolTable
 70
     5
  0
STYLE
  5
10
100
AcDbSymbolTableRecord
100
AcDbTextStyleTableRecord
  2
STANDARD
 70
     0
 40
0.0
 41
1.0
 50
0.0
 71
     0
 42
2.5
  3
ISOCP
  4

  0
STYLE
  5
331
100
AcDbSymbolTableRecord
100
AcDbTextStyleTableRecord
  2
ED20
 70
     0
 40
20.0
 41
1.0
 50
0.0
 71
     0
 42
2.5
  3
ISOCP.shx
  4

  0
STYLE
  5
648
100
AcDbSymbolTableRecord
100
AcDbTextStyleTableRecord
  2
ED10
 70
     0
 40
10.0
 41
1.0
 50
0.0
 71
     0
 42
10.0
  3
ISOCP.shx
  4

  0
STYLE
  5
F38
100
AcDbSymbolTableRecord
100
AcDbTextStyleTableRecord
  2
ED30
 70
     0
 40
30.0
 41
1.0
 50
0.0
 71
     0
 42
2.5
  3
ISOCP.shx
  4

  0
STYLE
  5
F39
100
AcDbSymbolTableRecord
100
AcDbTextStyleTableRecord
  2
ED40
 70
     0
 40
40.0
 41
1.0
 50
0.0
 71
     0
 42
40.0
  3
ISOCP.shx
  4

  0
ENDTAB
  0
TABLE
  2
VIEW
  5
6
100
AcDbSymbolTable
 70
     0
  0
ENDTAB
  0
TABLE
  2
UCS
  5
7
100
AcDbSymbolTable
 70
     0
  0
ENDTAB
  0
TABLE
  2
APPID
  5
9
100
AcDbSymbolTable
 70
     1
  0
APPID
  5
11
100
AcDbSymbolTableRecord
100
AcDbRegAppTableRecord
  2
ACAD
 70
     0
  0
ENDTAB
  0
TABLE
  2
DIMSTYLE
  5
A
100
AcDbSymbolTable
 70
     5
  0
DIMSTYLE
105
1D
100
AcDbSymbolTableRecord
100
AcDbDimStyleTableRecord
  2
STANDARD
 70
     0
  3

  4

  5

  6
_OPEN
  7
_OPEN
 40
0.0
 41
15.0
 42
0.625
 43
3.75
 44
1.25
 45
0.0
 46
0.0
 47
0.0
 48
0.0
140
15.0
141
2.5
142
0.0
143
0.0394
144
1.0
145
0.0
146
1.0
147
3.0
 71
     0
 72
     0
 73
     0
 74
     0
 75
     0
 76
     0
 77
     1
 78
     8
170
     0
171
     4
172
     1
173
     1
174
     0
175
     0
176
     0
177
     0
178
     0
270
     2
271
     0
272
     1
273
     8
274
     4
340
331
275
     0
280
     0
281
     0
282
     0
283
     1
284
     8
285
     0
286
     0
287
     3
288
     0
  0
DIMSTYLE
105
397
100
AcDbSymbolTableRecord
100
AcDbDimStyleTableRecord
  2
ED40
 70
     0
  3

  4

  5

  6
_OPEN
  7
_OPEN
 40
1.0
 41
35.0
 42
1.0
 43
3.75
 44
1.25
 45
0.0
 46
0.0
 47
0.0
 48
0.0
140
40.0
141
3.0
142
0.0
143
0.0394
144
1.0
145
0.0
146
1.0
147
4.0
 71
     0
 72
     0
 73
     0
 74
     0
 75
     0
 76
     0
 77
     1
 78
     8
170
     0
171
     4
172
     1
173
     1
174
     0
175
     0
176
     0
177
     0
178
     0
270
     2
271
     0
272
     1
273
     8
274
     4
340
F39
275
     0
280
     0
281
     0
282
     0
283
     1
284
     8
285
     0
286
     0
287
     3
288
     0
  0
DIMSTYLE
105
649
102
{ACAD_REACTORS
330
15FF
330
16FA
330
160E
330
161B
330
15F2
102
}
100
AcDbSymbolTableRecord
100
AcDbDimStyleTableRecord
  2
ED10
 70
     0
  3

  4

  5

  6
_OPEN
  7
_OPEN
 40
1.0
 41
15.0
 42
1.0
 43
3.75
 44
1.25
 45
0.0
 46
0.0
 47
0.0
 48
0.0
140
10.0
141
2.0
142
0.0
143
0.0394
144
1.0
145
0.0
146
1.0
147
1.5
 71
     0
 72
     0
 73
     0
 74
     0
 75
     0
 76
     0
 77
     1
 78
     8
170
     0
171
     4
172
     1
173
     1
174
     0
175
     0
176
     0
177
     0
178
     0
270
     2
271
     0
272
     1
273
     8
274
     4
340
648
275
     0
280
     0
281
     0
282
     0
283
     1
284
     8
285
     0
286
     0
287
     3
288
     0
  0
DIMSTYLE
105
FE9
100
AcDbSymbolTableRecord
100
AcDbDimStyleTableRecord
  2
ED20
 70
     0
  3

  4

  5

  6
_OPEN
  7
_OPEN
 40
1.0
 41
20.0
 42
1.0
 43
3.75
 44
1.25
 45
0.0
 46
0.0
 47
0.0
 48
0.0
140
20.0
141
3.0
142
0.0
143
0.0394
144
1.0
145
0.0
146
1.0
147
2.0
 71
     0
 72
     0
 73
     0
 74
     0
 75
     0
 76
     0
 77
     1
 78
     8
170
     0
171
     4
172
     1
173
     1
174
     0
175
     0
176
    41
177
    41
178
    41
270
     2
271
     0
272
     1
273
     8
274
     4
340
331
275
     0
280
     0
281
     0
282
     0
283
     1
284
     8
285
     0
286
     0
287
     3
288
     0
  0
DIMSTYLE
105
FEA
100
AcDbSymbolTableRecord
100
AcDbDimStyleTableRecord
  2
ED30
 70
     0
  3

  4

  5

  6
_OPEN
  7
_OPEN
 40
1.0
 41
25.0
 42
1.0
 43
3.75
 44
1.25
 45
0.0
 46
0.0
 47
0.0
 48
0.0
140
30.0
141
3.0
142
0.0
143
0.0394
144
1.0
145
0.0
146
1.0
147
4.0
 71
     0
 72
     0
 73
     0
 74
     0
 75
     0
 76
     0
 77
     1
 78
     8
170
     0
171
     4
172
     1
173
     1
174
     0
175
     0
176
     0
177
     0
178
     0
270
     2
271
     0
272
     1
273
     8
274
     4
340
F38
275
     0
280
     0
281
     0
282
     0
283
     1
284
     8
285
     0
286
     0
287
     3
288
     0
  0
ENDTAB
  0
TABLE
  2
BLOCK_RECORD
  5
1
100
AcDbSymbolTable
 70
     6
  0
BLOCK_RECORD
  5
1A
100
AcDbSymbolTableRecord
100
AcDbBlockTableRecord
  2
*MODEL_SPACE
  0
BLOCK_RECORD
  5
17
100
AcDbSymbolTableRecord
100
AcDbBlockTableRecord
  2
*PAPER_SPACE
  0
BLOCK_RECORD
  5
90
100
AcDbSymbolTableRecord
100
AcDbBlockTableRecord
  2
_OPEN
  0
BLOCK_RECORD
  5
15F3
100
AcDbSymbolTableRecord
100
AcDbBlockTableRecord
  2
*D1
  0
BLOCK_RECORD
  5
1736
100
AcDbSymbolTableRecord
100
AcDbBlockTableRecord
  2
*D2
  0
BLOCK_RECORD
  5
1742
100
AcDbSymbolTableRecord
100
AcDbBlockTableRecord
  2
*D3
  0
BLOCK_RECORD
  5
1750
100
AcDbSymbolTableRecord
100
AcDbBlockTableRecord
  2
*D4
  0
BLOCK_RECORD
  5
180C
100
AcDbSymbolTableRecord
100
AcDbBlockTableRecord
  2
*D5
  0
ENDTAB
  0
ENDSEC
  0
SECTION
  2
BLOCKS
  0
BLOCK
  5
1B
100
AcDbEntity
  8
0
100
AcDbBlockBegin
  2
*MODEL_SPACE
 70
     0
 10
0.0
 20
0.0
 30
0.0
  3
*MODEL_SPACE
  1

  0
ENDBLK
  5
1C
100
AcDbEntity
  8
0
100
AcDbBlockEnd
  0
BLOCK
  5
18
100
AcDbEntity
 67
     1
  8
0
100
AcDbBlockBegin
  2
*PAPER_SPACE
 70
     0
 10
0.0
 20
0.0
 30
0.0
  3
*PAPER_SPACE
  1

  0
ENDBLK
  5
19
100
AcDbEntity
 67
     1
  8
0
100
AcDbBlockEnd
  0
BLOCK
  5
91
100
AcDbEntity
  8
0
100
AcDbBlockBegin
  2
_OPEN
 70
     0
 10
0.0
 20
0.0
 30
0.0
  3
_OPEN
  1

  0
LINE
  5
92
100
AcDbEntity
  8
0
  6
BYBLOCK
 62
     0
100
AcDbLine
 10
-1.0
 20
0.166667
 30
0.0
 11
0.0
 21
0.0
 31
0.0
  0
LINE
  5
93
100
AcDbEntity
  8
0
  6
BYBLOCK
 62
     0
100
AcDbLine
 10
0.0
 20
0.0
 30
0.0
 11
-1.0
 21
-0.166667
 31
0.0
  0
LINE
  5
94
100
AcDbEntity
  8
0
  6
BYBLOCK
 62
     0
100
AcDbLine
 10
0.0
 20
0.0
 30
0.0
 11
-1.0
 21
0.0
 31
0.0
  0
ENDBLK
  5
95
100
AcDbEntity
  8
0
100
AcDbBlockEnd
  0
BLOCK
  5
15F4
100
AcDbEntity
  8
0
100
AcDbBlockBegin
  2
*D1
 70
     1
 10
0.0
 20
0.0
 30
0.0
  3
*D1
  1

  0
LINE
  5
15F5
100
AcDbEntity
  8
0
  6
BYBLOCK
 62
     0
100
AcDbLine
 10
235.581306
 20
-349.954471
 30
0.0
 11
299.114551
 21
-349.954471
 31
0.0
  0
LINE
  5
15F6
100
AcDbEntity
  8
0
  6
BYBLOCK
 62
     0
100
AcDbLine
 10
235.581306
 20
-528.954471
 30
0.0
 11
299.114551
 21
-528.954471
 31
0.0
  0
LINE
  5
15F7
100
AcDbEntity
  8
0
  6
BYBLOCK
 62
     0
100
AcDbLine
 10
297.864551
 20
-364.954471
 30
0.0
 11
297.864551
 21
-513.954471
 31
0.0
  0
INSERT
  5
15F8
100
AcDbEntity
  8
0
  6
BYBLOCK
 62
     0
100
AcDbBlockReference
  2
_OPEN
 10
297.864551
 20
-349.954471
 30
0.0
 41
15.0
 42
15.0
 43
15.0
 50
90.0
  0
INSERT
  5
15F9
100
AcDbEntity
  8
0
  6
BYBLOCK
 62
     0
100
AcDbBlockReference
  2
_OPEN
 10
297.864551
 20
-528.954471
 30
0.0
 41
15.0
 42
15.0
 43
15.0
 50
270.0
  0
MTEXT
  5
15FA
100
AcDbEntity
  8
0
  6
BYBLOCK
 62
     0
100
AcDbMText
 10
291.364551
 20
-439.454471
 30
0.0
 40
10.0
 41
0.0
 71
     5
 72
     1
  1
\A1;179
  7
ED10
 11
0.0
 21
1.0
 31
0.0
  0
POINT
  5
15FB
100
AcDbEntity
  8
DEFPOINTS
  6
BYBLOCK
 62
     0
100
AcDbPoint
 10
234.581306
 20
-349.954471
 30
0.0
  0
POINT
  5
15FC
100
AcDbEntity
  8
DEFPOINTS
  6
BYBLOCK
 62
     0
100
AcDbPoint
 10
234.581306
 20
-528.954471
 30
0.0
  0
POINT
  5
15FD
100
AcDbEntity
  8
DEFPOINTS
  6
BYBLOCK
 62
     0
100
AcDbPoint
 10
297.864551
 20
-528.954471
 30
0.0
  0
ENDBLK
  5
15FE
100
AcDbEntity
  8
0
100
AcDbBlockEnd
  0
BLOCK
  5
1737
100
AcDbEntity
  8
0
100
AcDbBlockBegin
  2
*D2
 70
     1
 10
0.0
 20
0.0
 30
0.0
  3
*D2
  1

  0
LINE
  5
1738
100
AcDbEntity
  8
0
  6
BYBLOCK
 62
     0
100
AcDbLine
 10
-195.464591
 20
-438.454471
 30
0.0
 11
-195.464591
 21
-311.471422
 31
0.0
  0
LINE
  5
1739
100
AcDbEntity
  8
0
  6
BYBLOCK
 62
     0
100
AcDbLine
 10
-68.920293
 20
-348.954471
 30
0.0
 11
-68.920293
 21
-311.471422
 31
0.0
  0
LINE
  5
173A
100
AcDbEntity
  8
0
  6
BYBLOCK
 62
     0
100
AcDbLine
 10
-180.464591
 20
-312.721422
 30
0.0
 11
-83.920293
 21
-312.721422
 31
0.0
  0
INSERT
  5
173B
100
AcDbEntity
  8
0
  6
BYBLOCK
 62
     0
100
AcDbBlockReference
  2
_OPEN
 10
-195.464591
 20
-312.721422
 30
0.0
 41
15.0
 42
15.0
 43
15.0
 50
180.0
  0
INSERT
  5
173C
100
AcDbEntity
  8
0
  6
BYBLOCK
 62
     0
100
AcDbBlockReference
  2
_OPEN
 10
-68.920293
 20
-312.721422
 30
0.0
 41
15.0
 42
15.0
 43
15.0
  0
MTEXT
  5
173D
100
AcDbEntity
  8
0
  6
BYBLOCK
 62
     0
100
AcDbMText
 10
-132.192442
 20
-306.220438
 30
0.0
 40
10.0
 41
0.0
 71
     5
 72
     1
  1
\A1;126.5
  7
ED10
  0
POINT
  5
173E
100
AcDbEntity
  8
DEFPOINTS
  6
BYBLOCK
 62
     0
100
AcDbPoint
 10
-195.464591
 20
-439.454471
 30
0.0
  0
POINT
  5
173F
100
AcDbEntity
  8
DEFPOINTS
  6
BYBLOCK
 62
     0
100
AcDbPoint
 10
-68.920293
 20
-349.954471
 30
0.0
  0
POINT
  5
1740
100
AcDbEntity
  8
DEFPOINTS
  6
BYBLOCK
 62
     0
100
AcDbPoint
 10
-68.920293
 20
-312.721422
 30
0.0
  0
ENDBLK
  5
1741
100
AcDbEntity
  8
0
100
AcDbBlockEnd
  0
BLOCK
  5
1743
100
AcDbEntity
  8
0
100
AcDbBlockBegin
  2
*D3
 70
     1
 10
0.0
 20
0.0
 30
0.0
  3
*D3
  1

  0
LINE
  5
1744
100
AcDbEntity
  8
0
  6
BYBLOCK
 62
     0
100
AcDbLine
 10
-68.920293
 20
-348.954471
 30
0.0
 11
-68.920293
 21
-311.471422
 31
0.0
  0
LINE
  5
1745
100
AcDbEntity
  8
0
  6
BYBLOCK
 62
     0
100
AcDbLine
 10
-43.920293
 20
-358.954471
 30
0.0
 11
-43.920293
 21
-311.471422
 31
0.0
  0
LINE
  5
1746
100
AcDbEntity
  8
0
  6
BYBLOCK
 62
     0
100
AcDbLine
 10
-83.920293
 20
-312.721422
 30
0.0
 11
-98.920293
 21
-312.721422
 31
0.0
  0
LINE
  5
1747
100
AcDbEntity
  8
0
  6
BYBLOCK
 62
     0
100
AcDbLine
 10
-28.920293
 20
-312.721422
 30
0.0
 11
-13.920293
 21
-312.721422
 31
0.0
  0
LINE
  5
1748
100
AcDbEntity
  8
0
  6
BYBLOCK
 62
     0
100
AcDbLine
 10
-68.920293
 20
-312.721422
 30
0.0
 11
-43.920293
 21
-312.721422
 31
0.0
  0
INSERT
  5
1749
100
AcDbEntity
  8
0
  6
BYBLOCK
 62
     0
100
AcDbBlockReference
  2
_OPEN
 10
-68.920293
 20
-312.721422
 30
0.0
 41
15.0
 42
15.0
 43
15.0
  0
INSERT
  5
174A
100
AcDbEntity
  8
0
  6
BYBLOCK
 62
     0
100
AcDbBlockReference
  2
_OPEN
 10
-43.920293
 20
-312.721422
 30
0.0
 41
15.0
 42
15.0
 43
15.0
 50
180.0
  0
MTEXT
  5
174B
100
AcDbEntity
  8
0
  6
BYBLOCK
 62
     0
100
AcDbMText
 10
-56.420293
 20
-306.220438
 30
0.0
 40
10.0
 41
0.0
 71
     5
 72
     1
  1
\A1;25
  7
ED10
  0
POINT
  5
174C
100
AcDbEntity
  8
DEFPOINTS
  6
BYBLOCK
 62
     0
100
AcDbPoint
 10
-68.920293
 20
-349.954471
 30
0.0
  0
POINT
  5
174D
100
AcDbEntity
  8
DEFPOINTS
  6
BYBLOCK
 62
     0
100
AcDbPoint
 10
-43.920293
 20
-359.954471
 30
0.0
  0
POINT
  5
174E
100
AcDbEntity
  8
DEFPOINTS
  6
BYBLOCK
 62
     0
100
AcDbPoint
 10
-43.920293
 20
-312.721422
 30
0.0
  0
ENDBLK
  5
174F
100
AcDbEntity
  8
0
100
AcDbBlockEnd
  0
BLOCK
  5
1751
100
AcDbEntity
  8
0
100
AcDbBlockBegin
  2
*D4
 70
     1
 10
0.0
 20
0.0
 30
0.0
  3
*D4
  1

  0
LINE
  5
1752
100
AcDbEntity
  8
0
  6
BYBLOCK
 62
     0
100
AcDbLine
 10
-42.920293
 20
-359.954471
 30
0.0
 11
11.510145
 21
-359.954471
 31
0.0
  0
LINE
  5
1753
100
AcDbEntity
  8
0
  6
BYBLOCK
 62
     0
100
AcDbLine
 10
-42.920293
 20
-457.954471
 30
0.0
 11
11.510145
 21
-457.954471
 31
0.0
  0
LINE
  5
1754
100
AcDbEntity
  8
0
  6
BYBLOCK
 62
     0
100
AcDbLine
 10
10.260145
 20
-374.954471
 30
0.0
 11
10.260145
 21
-442.954471
 31
0.0
  0
INSERT
  5
1755
100
AcDbEntity
  8
0
  6
BYBLOCK
 62
     0
100
AcDbBlockReference
  2
_OPEN
 10
10.260145
 20
-359.954471
 30
0.0
 41
15.0
 42
15.0
 43
15.0
 50
90.0
  0
INSERT
  5
1756
100
AcDbEntity
  8
0
  6
BYBLOCK
 62
     0
100
AcDbBlockReference
  2
_OPEN
 10
10.260145
 20
-457.954471
 30
0.0
 41
15.0
 42
15.0
 43
15.0
 50
270.0
  0
MTEXT
  5
1757
100
AcDbEntity
  8
0
  6
BYBLOCK
 62
     0
100
AcDbMText
 10
3.760145
 20
-408.954471
 30
0.0
 40
10.0
 41
0.0
 71
     5
 72
     1
  1
\A1;\U+220598
  7
ED10
 11
0.0
 21
1.0
 31
0.0
  0
POINT
  5
1758
100
AcDbEntity
  8
DEFPOINTS
  6
BYBLOCK
 62
     0
100
AcDbPoint
 10
-43.920293
 20
-359.954471
 30
0.0
  0
POINT
  5
1759
100
AcDbEntity
  8
DEFPOINTS
  6
BYBLOCK
 62
     0
100
AcDbPoint
 10
-43.920293
 20
-457.954471
 30
0.0
  0
POINT
  5
175A
100
AcDbEntity
  8
DEFPOINTS
  6
BYBLOCK
 62
     0
100
AcDbPoint
 10
10.260145
 20
-457.954471
 30
0.0
  0
ENDBLK
  5
175B
100
AcDbEntity
  8
0
100
AcDbBlockEnd
  0
BLOCK
  5
180D
100
AcDbEntity
  8
0
100
AcDbBlockBegin
  2
*D5
 70
     1
 10
0.0
 20
0.0
 30
0.0
  3
*D5
  1

  0
LINE
  5
180E
100
AcDbEntity
  8
0
  6
BYBLOCK
 62
     0
100
AcDbLine
 10
82.581306
 20
-352.954471
 30
0.0
 11
82.581306
 21
-309.326281
 31
0.0
  0
LINE
  5
180F
100
AcDbEntity
  8
0
  6
BYBLOCK
 62
     0
100
AcDbLine
 10
238.581306
 20
-352.954471
 30
0.0
 11
238.581306
 21
-309.326281
 31
0.0
  0
LINE
  5
1810
100
AcDbEntity
  8
0
  6
BYBLOCK
 62
     0
100
AcDbLine
 10
97.581306
 20
-310.576281
 30
0.0
 11
223.581306
 21
-310.576281
 31
0.0
  0
INSERT
  5
1811
100
AcDbEntity
  8
0
  6
BYBLOCK
 62
     0
100
AcDbBlockReference
  2
_OPEN
 10
82.581306
 20
-310.576281
 30
0.0
 41
15.0
 42
15.0
 43
15.0
 50
180.0
  0
INSERT
  5
1812
100
AcDbEntity
  8
0
  6
BYBLOCK
 62
     0
100
AcDbBlockReference
  2
_OPEN
 10
238.581306
 20
-310.576281
 30
0.0
 41
15.0
 42
15.0
 43
15.0
  0
MTEXT
  5
1813
100
AcDbEntity
  8
0
  6
BYBLOCK
 62
     0
100
AcDbMText
 10
160.581306
 20
-304.076281
 30
0.0
 40
10.0
 41
0.0
 71
     5
 72
     1
  1
\A1;156
  7
ED10
  0
POINT
  5
1814
100
AcDbEntity
  8
DEFPOINTS
  6
BYBLOCK
 62
     0
100
AcDbPoint
 10
82.581306
 20
-353.954471
 30
0.0
  0
POINT
  5
1815
100
AcDbEntity
  8
DEFPOINTS
  6
BYBLOCK
 62
     0
100
AcDbPoint
 10
238.581306
 20
-353.954471
 30
0.0
  0
POINT
  5
1816
100
AcDbEntity
  8
DEFPOINTS
  6
BYBLOCK
 62
     0
100
AcDbPoint
 10
238.581306
 20
-310.576281
 30
0.0
  0
ENDBLK
  5
1817
100
AcDbEntity
  8
0
100
AcDbBlockEnd
  0
ENDSEC
  0
SECTION
  2
ENTITIES
  0
LINE
  5
1129
100
AcDbEntity
  8
V0-VYPLNE
  6
DASHDOT
 48
3.0
100
AcDbLine
 10
160.581306
 20
-326.700595
 30
0.0
 11
160.581306
 21
-559.938629
 31
0.0
  0
LINE
  5
1174
100
AcDbEntity
  8
V0-VYPLNE
 48
3.0
100
AcDbLine
 10
-215.276531
 20
-439.454471
 30
0.0
 11
-22.114104
 21
-439.454471
 31
0.0
  0
LINE
  5
12C0
100
AcDbEntity
  8
V0-OBRYS
100
AcDbLine
 10
86.581306
 20
-349.954471
 30
0.0
 11
160.581306
 21
-349.954471
 31
0.0
  0
LINE
  5
12C1
100
AcDbEntity
  8
V0-OBRYS
100
AcDbLine
 10
82.581306
 20
-353.954471
 30
0.0
 11
82.581306
 21
-439.454471
 31
0.0
  0
LINE
  5
12C6
100
AcDbEntity
  8
V0-OBRYS
100
AcDbLine
 10
238.581306
 20
-353.954471
 30
0.0
 11
238.581306
 21
-439.454471
 31
0.0
  0
LINE
  5
12C7
100
AcDbEntity
  8
V0-OBRYS
100
AcDbLine
 10
234.581306
 20
-349.954471
 30
0.0
 11
160.581306
 21
-349.954471
 31
0.0
  0
ARC
  5
12DC
100
AcDbEntity
  8
V0-OBRYS
100
AcDbCircle
 10
234.581306
 20
-353.954471
 30
0.0
 40
4.0
100
AcDbArc
 50
0.0
 51
90.0
  0
ARC
  5
12DD
100
AcDbEntity
  8
V0-OBRYS
100
AcDbCircle
 10
86.581306
 20
-353.954471
 30
0.0
 40
4.0
100
AcDbArc
 50
90.0
 51
180.0
  0
LINE
  5
12E4
100
AcDbEntity
  8
V0-OBRYS
100
AcDbLine
 10
85.081306
 20
-354.454471
 30
0.0
 11
85.081306
 21
-439.454471
 31
0.0
  0
LINE
  5
12E5
100
AcDbEntity
  8
V0-OBRYS
100
AcDbLine
 10
87.081306
 20
-352.454471
 30
0.0
 11
160.581306
 21
-352.454471
 31
0.0
  0
LINE
  5
12E6
100
AcDbEntity
  8
V0-OBRYS
100
AcDbLine
 10
234.081306
 20
-352.454471
 30
0.0
 11
160.581306
 21
-352.454471
 31
0.0
  0
LINE
  5
12E7
100
AcDbEntity
  8
V0-OBRYS
100
AcDbLine
 10
236.081306
 20
-354.454471
 30
0.0
 11
236.081306
 21
-439.454471
 31
0.0
  0
ARC
  5
12ED
100
AcDbEntity
  8
V0-OBRYS
100
AcDbCircle
 10
87.081306
 20
-354.454471
 30
0.0
 40
2.0
100
AcDbArc
 50
90.0
 51
180.0
  0
ARC
  5
12EE
100
AcDbEntity
  8
V0-OBRYS
100
AcDbCircle
 10
234.081306
 20
-354.454471
 30
0.0
 40
2.0
100
AcDbArc
 50
0.0
 51
90.0
  0
LINE
  5
12F0
100
AcDbEntity
  8
V0-OBRYS
100
AcDbLine
 10
82.581306
 20
-524.954471
 30
0.0
 11
82.581306
 21
-439.454471
 31
0.0
  0
LINE
  5
12F1
100
AcDbEntity
  8
V0-OBRYS
100
AcDbLine
 10
85.081306
 20
-524.454471
 30
0.0
 11
85.081306
 21
-439.454471
 31
0.0
  0
ARC
  5
12F2
100
AcDbEntity
  8
V0-OBRYS
100
AcDbCircle
 10
86.581306
 20
-524.954471
 30
0.0
 40
4.0
100
AcDbArc
 50
180.0
 51
270.0
  0
ARC
  5
12F3
100
AcDbEntity
  8
V0-OBRYS
100
AcDbCircle
 10
87.081306
 20
-524.454471
 30
0.0
 40
2.0
100
AcDbArc
 50
180.0
 51
270.0
  0
LINE
  5
12F4
100
AcDbEntity
  8
V0-OBRYS
100
AcDbLine
 10
238.581306
 20
-524.954471
 30
0.0
 11
238.581306
 21
-439.454471
 31
0.0
  0
LINE
  5
12F5
100
AcDbEntity
  8
V0-OBRYS
100
AcDbLine
 10
236.081306
 20
-524.454471
 30
0.0
 11
236.081306
 21
-439.454471
 31
0.0
  0
ARC
  5
12F6
100
AcDbEntity
  8
V0-OBRYS
100
AcDbCircle
 10
234.581306
 20
-524.954471
 30
0.0
 40
4.0
100
AcDbArc
 50
270.0
 51
0.0
  0
ARC
  5
12F7
100
AcDbEntity
  8
V0-OBRYS
100
AcDbCircle
 10
234.081306
 20
-524.454471
 30
0.0
 40
2.0
100
AcDbArc
 50
270.0
 51
0.0
  0
LINE
  5
12F8
100
AcDbEntity
  8
V0-OBRYS
100
AcDbLine
 10
86.581306
 20
-528.954471
 30
0.0
 11
160.581306
 21
-528.954471
 31
0.0
  0
LINE
  5
12F9
100
AcDbEntity
  8
V0-OBRYS
100
AcDbLine
 10
87.081306
 20
-526.454471
 30
0.0
 11
160.581306
 21
-526.454471
 31
0.0
  0
LINE
  5
12FA
100
AcDbEntity
  8
V0-OBRYS
100
AcDbLine
 10
234.581306
 20
-528.954471
 30
0.0
 11
160.581306
 21
-528.954471
 31
0.0
  0
LINE
  5
12FB
100
AcDbEntity
  8
V0-OBRYS
100
AcDbLine
 10
234.081306
 20
-526.454471
 30
0.0
 11
160.581306
 21
-526.454471
 31
0.0
  0
LWPOLYLINE
  5
155D
100
AcDbEntity
  8
V0-OBRYS
100
AcDbPolyline
 90
        4
 70
     1
 43
0.0
 10
183.274598
 20
-501.32381
 10
208.791102
 20
-501.32381
 10
208.791102
 20
-518.118728
 10
183.274598
 20
-518.118728
  0
LINE
  5
1564
100
AcDbEntity
  8
V0-OBRYS
100
AcDbLine
 10
-68.920293
 20
-349.954471
 30
0.0
 11
-68.920293
 21
-528.954471
 31
0.0
  0
LINE
  5
156F
100
AcDbEntity
  8
V0-OBRYS
100
AcDbLine
 10
-93.920293
 20
-349.954471
 30
0.0
 11
-93.920293
 21
-528.954471
 31
0.0
  0
LINE
  5
1571
100
AcDbEntity
  8
V0-OBRYS
100
AcDbLine
 10
-93.920293
 20
-352.454471
 30
0.0
 11
-152.492693
 21
-352.454471
 31
0.0
  0
LINE
  5
1572
100
AcDbEntity
  8
V0-OBRYS
100
AcDbLine
 10
-93.920293
 20
-526.454471
 30
0.0
 11
-152.492693
 21
-526.454471
 31
0.0
  0
LINE
  5
1573
100
AcDbEntity
  8
V0-OBRYS
100
AcDbLine
 10
-93.920293
 20
-349.954471
 30
0.0
 11
-68.920293
 21
-349.954471
 31
0.0
  0
LINE
  5
1574
100
AcDbEntity
  8
V0-OBRYS
100
AcDbLine
 10
-93.920293
 20
-528.954471
 30
0.0
 11
-68.920293
 21
-528.954471
 31
0.0
  0
LINE
  5
1577
100
AcDbEntity
  8
V0-OBRYS
  6
CONTINUOUS
100
AcDbLine
 10
-152.492693
 20
-352.454471
 30
0.0
 11
-152.492693
 21
-526.454471
 31
0.0
  0
LINE
  5
1578
100
AcDbEntity
  8
V0-OBRYS
  6
CONTINUOUS
100
AcDbLine
 10
-166.197561
 20
-354.509337
 30
0.0
 11
-152.492693
 21
-354.509337
 31
0.0
  0
ARC
  5
157B
100
AcDbEntity
  8
V0-OBRYS
  6
CONTINUOUS
100
AcDbCircle
 10
-166.197561
 20
-356.509337
 30
0.0
 40
2.0
100
AcDbArc
 50
90.0
 51
145.183456
  0
LWPOLYLINE
  5
157E
100
AcDbEntity
  8
V0-OBRYS
  6
CONTINUOUS
100
AcDbPolyline
 90
        4
 70
     1
 43
0.0
 10
-68.920293
 20
-359.954471
 10
-43.920293
 20
-359.954471
 10
-43.920293
 20
-457.954471
 10
-68.920293
 20
-457.954471
  0
LINE
  5
157F
100
AcDbEntity
  8
V0-VYPLNE
 48
3.0
100
AcDbLine
 10
-118.099831
 20
-408.954471
 30
0.0
 11
-12.855616
 21
-408.954471
 31
0.0
  0
LWPOLYLINE
  5
1580
100
AcDbEntity
  8
V0-OBRYS
  6
CONTINUOUS
100
AcDbPolyline
 90
        4
 70
     1
 43
0.0
 10
-68.920293
 20
-713.82232
 10
-43.920293
 20
-713.82232
 10
-43.920293
 20
-811.82232
 10
-68.920293
 20
-811.82232
  0
LINE
  5
1582
100
AcDbEntity
  8
V0-OBRYS
  6
CONTINUOUS
100
AcDbLine
 10
-154.492693
 20
-687.32232
 30
0.0
 11
-154.492693
 21
-838.32232
 31
0.0
  0
LINE
  5
1583
100
AcDbEntity
  8
V0-OBRYS
100
AcDbLine
 10
-93.920293
 20
-684.82232
 30
0.0
 11
-93.920293
 21
-840.82232
 31
0.0
  0
LINE
  5
1584
100
AcDbEntity
  8
V0-OBRYS
100
AcDbLine
 10
-68.920293
 20
-684.82232
 30
0.0
 11
-68.920293
 21
-840.82232
 31
0.0
  0
LINE
  5
1585
100
AcDbEntity
  8
V0-OBRYS
100
AcDbLine
 10
-93.920293
 20
-840.82232
 30
0.0
 11
-68.920293
 21
-840.82232
 31
0.0
  0
LINE
  5
1586
100
AcDbEntity
  8
V0-OBRYS
100
AcDbLine
 10
-93.920293
 20
-838.32232
 30
0.0
 11
-154.492693
 21
-838.32232
 31
0.0
  0
LINE
  5
158A
100
AcDbEntity
  8
V0-OBRYS
100
AcDbLine
 10
-93.920293
 20
-684.82232
 30
0.0
 11
-68.920293
 21
-684.82232
 31
0.0
  0
LINE
  5
158B
100
AcDbEntity
  8
V0-OBRYS
100
AcDbLine
 10
-93.920293
 20
-687.32232
 30
0.0
 11
-154.492693
 21
-687.32232
 31
0.0
  0
LINE
  5
158C
100
AcDbEntity
  8
V0-OBRYS
  6
CONTINUOUS
100
AcDbLine
 10
-193.420293
 20
-689.377186
 30
0.0
 11
-154.492693
 21
-689.377186
 31
0.0
  0
LINE
  5
158E
100
AcDbEntity
  8
V0-VYPLNE
 48
3.0
100
AcDbLine
 10
-214.605172
 20
-762.82232
 30
0.0
 11
-11.896177
 21
-762.82232
 31
0.0
  0
LINE
  5
158F
100
AcDbEntity
  8
V0-OBRYS
  6
CONTINUOUS
100
AcDbLine
 10
-195.420293
 20
-762.82232
 30
0.0
 11
-195.420293
 21
-691.377186
 31
0.0
  0
ARC
  5
1590
100
AcDbEntity
  8
V0-OBRYS
100
AcDbCircle
 10
-46.50619
 20
-440.704471
 30
0.0
 40
146.914104
100
AcDbArc
 50
179.5125
 51
214.322244
  0
LINE
  5
1591
100
AcDbEntity
  8
V0-OBRYS
  6
CONTINUOUS
100
AcDbLine
 10
-166.197561
 20
-524.399605
 30
0.0
 11
-152.492693
 21
-524.399605
 31
0.0
  0
ARC
  5
1592
100
AcDbEntity
  8
V0-OBRYS
  6
CONTINUOUS
100
AcDbCircle
 10
-166.197561
 20
-522.399605
 30
0.0
 40
2.0
100
AcDbArc
 50
214.816544
 51
270.0
  0
ARC
  5
1593
100
AcDbEntity
  8
V0-OBRYS
100
AcDbCircle
 10
-46.50619
 20
-438.204471
 30
0.0
 40
146.914104
100
AcDbArc
 50
145.677756
 51
180.4875
  0
ARC
  5
1594
100
AcDbEntity
  8
V0-OBRYS
  6
CONTINUOUS
100
AcDbCircle
 10
-193.420293
 20
-691.377186
 30
0.0
 40
2.0
100
AcDbArc
 50
90.0
 51
180.0
  0
ARC
  5
1595
100
AcDbEntity
  8
V0-OBRYS
  6
CONTINUOUS
100
AcDbCircle
 10
-193.420293
 20
-834.267454
 30
0.0
 40
2.0
100
AcDbArc
 50
180.0
 51
270.0
  0
LINE
  5
1596
100
AcDbEntity
  8
V0-OBRYS
  6
CONTINUOUS
100
AcDbLine
 10
-193.420293
 20
-836.267454
 30
0.0
 11
-154.492693
 21
-836.267454
 31
0.0
  0
LINE
  5
1597
100
AcDbEntity
  8
V0-OBRYS
  6
CONTINUOUS
100
AcDbLine
 10
-195.420293
 20
-762.82232
 30
0.0
 11
-195.420293
 21
-834.267454
 31
0.0
  0
LINE
  5
1599
100
AcDbEntity
  8
V0-OBRYS
  6
CONTINUOUS
100
AcDbLine
 10
-184.893112
 20
-707.82232
 30
0.0
 11
-184.893112
 21
-817.82232
 31
0.0
  0
LINE
  5
159A
100
AcDbEntity
  8
V0-OBRYS
  6
CONTINUOUS
100
AcDbLine
 10
-184.893112
 20
-707.82232
 30
0.0
 11
-195.420293
 21
-707.82232
 31
0.0
  0
LINE
  5
159B
100
AcDbEntity
  8
V0-OBRYS
  6
CONTINUOUS
100
AcDbLine
 10
-184.893112
 20
-817.82232
 30
0.0
 11
-195.420293
 21
-817.82232
 31
0.0
  0
LINE
  5
159C
100
AcDbEntity
  8
V0-OBRYS
  6
CONTINUOUS
100
AcDbLine
 10
-169.83953
 20
-689.377186
 30
0.0
 11
-169.83953
 21
-836.267454
 31
0.0
  0
LINE
  5
159D
100
AcDbEntity
  8
V0-OBRYS
  6
CONTINUOUS
100
AcDbLine
 10
-187.683138
 20
-707.82232
 30
0.0
 11
-187.683138
 21
-817.82232
 31
0.0
  0
LINE
  5
159E
100
AcDbEntity
  8
V0-OBRYS
  6
CONTINUOUS
100
AcDbLine
 10
-190.385213
 20
-707.82232
 30
0.0
 11
-190.385213
 21
-817.82232
 31
0.0
  0
LINE
  5
159F
100
AcDbEntity
  8
V0-OBRYS
  6
CONTINUOUS
100
AcDbLine
 10
-193.087287
 20
-707.82232
 30
0.0
 11
-193.087287
 21
-817.82232
 31
0.0
  0
LINE
  5
15A0
100
AcDbEntity
  8
V0-VYPLNE
 48
3.0
100
AcDbLine
 10
63.716489
 20
-439.454471
 30
0.0
 11
258.878916
 21
-439.454471
 31
0.0
  0
TEXT
  5
15A2
100
AcDbEntity
  8
V0-NAZVY
  6
CONTINUOUS
 62
   210
100
AcDbText
 10
120.195128
 20
-626.148197
 30
0.0
 40
30.0
  1
EB 100
  7
ED30
100
AcDbText
  0
TEXT
  5
15A3
100
AcDbEntity
  8
V0-NAZVY
  6
CONTINUOUS
 62
    51
100
AcDbText
 10
-0.179588
 20
-673.611813
 30
0.0
 40
20.0
  1
MALE RADIALNI VENTILATORY
  7
ED20
100
AcDbText
  0
TEXT
  5
15A7
100
AcDbEntity
  8
V0-NAZVY
  6
CONTINUOUS
 62
   210
100
AcDbText
 10
-156.176554
 20
-268.674452
 30
0.0
 40
20.0
  1
EB 100
  7
ED20
100
AcDbText
  0
TEXT
  5
15A8
100
AcDbEntity
  8
V0-NAZVY
  6
CONTINUOUS
 62
   210
100
AcDbText
 10
-173.684263
 20
-643.646913
 30
0.0
 40
20.0
  1
EB 100
  7
ED20
100
AcDbText
  0
TEXT
  5
15A9
100
AcDbEntity
  8
V0-NAZVY
  6
CONTINUOUS
 62
   210
100
AcDbText
 10
117.694027
 20
-271.17427
 30
0.0
 40
20.0
  1
EB 100
  7
ED20
100
AcDbText
  0
DIMENSION
  5
15F2
100
AcDbEntity
  8
V0-VYPLNE
  6
CONTINUOUS
 62
    41
100
AcDbDimension
  2
*D5
 10
238.581306
 20
-310.576281
 30
0.0
 11
160.581306
 21
-304.076281
 31
0.0
 70
    32
  3
ED10
100
AcDbAlignedDimension
 13
82.581306
 23
-353.954471
 33
0.0
 14
238.581306
 24
-353.954471
 34
0.0
100
AcDbRotatedDimension
  0
DIMENSION
  5
15FF
100
AcDbEntity
  8
V0-VYPLNE
  6
CONTINUOUS
 62
    41
100
AcDbDimension
  2
*D1
 10
297.864551
 20
-528.954471
 30
0.0
 11
291.364551
 21
-439.454471
 31
0.0
 70
    32
  3
ED10
100
AcDbAlignedDimension
 13
234.581306
 23
-349.954471
 33
0.0
 14
234.581306
 24
-528.954471
 34
0.0
 50
90.0
100
AcDbRotatedDimension
  0
DIMENSION
  5
160E
100
AcDbEntity
  8
V0-VYPLNE
  6
CONTINUOUS
 62
    41
100
AcDbDimension
  2
*D3
 10
-43.920293
 20
-312.721422
 30
0.0
 11
-56.420293
 21
-306.220438
 31
0.0
 70
    32
  3
ED10
100
AcDbAlignedDimension
 13
-68.920293
 23
-349.954471
 33
0.0
 14
-43.920293
 24
-359.954471
 34
0.0
100
AcDbRotatedDimension
  0
DIMENSION
  5
161B
100
AcDbEntity
  8
V0-VYPLNE
  6
CONTINUOUS
 62
    41
100
AcDbDimension
  2
*D4
 10
10.260145
 20
-457.954471
 30
0.0
 11
3.760145
 21
-408.954471
 31
0.0
 70
    32
  1
%%c<>
  3
ED10
100
AcDbAlignedDimension
 13
-43.920293
 23
-359.954471
 33
0.0
 14
-43.920293
 24
-457.954471
 34
0.0
 50
90.0
100
AcDbRotatedDimension
  0
ARC
  5
1638
100
AcDbEntity
  8
V0-OBRYS
  6
CONTINUOUS
100
AcDbCircle
 10
-183.568836
 20
-385.312271
 30
0.0
 40
2.049616
100
AcDbArc
 50
68.498825
 51
249.298172
  0
ARC
  5
1639
100
AcDbEntity
  8
V0-OBRYS
  6
CONTINUOUS
100
AcDbCircle
 10
-186.307996
 20
-393.046871
 30
0.0
 40
2.049616
100
AcDbArc
 50
68.498825
 51
249.298172
  0
ARC
  5
163A
100
AcDbEntity
  8
V0-OBRYS
  6
CONTINUOUS
100
AcDbCircle
 10
-188.574036
 20
-400.781471
 30
0.0
 40
2.049616
100
AcDbArc
 50
68.498825
 51
249.298172
  0
ARC
  5
163B
100
AcDbEntity
  8
V0-OBRYS
  6
CONTINUOUS
100
AcDbCircle
 10
-190.389312
 20
-408.516071
 30
0.0
 40
2.049616
100
AcDbArc
 50
68.498825
 51
258.741056
  0
ARC
  5
163C
100
AcDbEntity
  8
V0-OBRYS
  6
CONTINUOUS
100
AcDbCircle
 10
-191.770723
 20
-416.250671
 30
0.0
 40
2.049616
100
AcDbArc
 50
68.498825
 51
261.80561
  0
ARC
  5
163D
100
AcDbEntity
  8
V0-OBRYS
  6
CONTINUOUS
100
AcDbCircle
 10
-192.730566
 20
-423.985271
 30
0.0
 40
2.049616
100
AcDbArc
 50
84.046214
 51
264.845561
  0
ARC
  5
163E
100
AcDbEntity
  8
V0-OBRYS
  6
CONTINUOUS
100
AcDbCircle
 10
-193.277113
 20
-431.719871
 30
0.0
 40
2.049616
100
AcDbArc
 50
87.070543
 51
267.869889
  0
ARC
  5
163F
100
AcDbEntity
  8
V0-OBRYS
  6
CONTINUOUS
100
AcDbCircle
 10
-193.414975
 20
-439.454471
 30
0.0
 40
2.049616
100
AcDbArc
 50
90.087827
 51
269.912173
  0
ARC
  5
1640
100
AcDbEntity
  8
V0-OBRYS
  6
CONTINUOUS
100
AcDbCircle
 10
-191.770723
 20
-462.658271
 30
0.0
 40
2.049616
100
AcDbArc
 50
98.19439
 51
291.501175
  0
ARC
  5
1641
100
AcDbEntity
  8
V0-OBRYS
  6
CONTINUOUS
100
AcDbCircle
 10
-193.277113
 20
-447.189071
 30
0.0
 40
2.049616
100
AcDbArc
 50
92.130111
 51
272.929457
  0
ARC
  5
1642
100
AcDbEntity
  8
V0-OBRYS
  6
CONTINUOUS
100
AcDbCircle
 10
-192.730566
 20
-454.923671
 30
0.0
 40
2.049616
100
AcDbArc
 50
95.154439
 51
275.953786
  0
ARC
  5
1643
100
AcDbEntity
  8
V0-OBRYS
  6
CONTINUOUS
100
AcDbCircle
 10
-190.389312
 20
-470.392871
 30
0.0
 40
2.049616
100
AcDbArc
 50
101.258944
 51
291.501175
  0
ARC
  5
1644
100
AcDbEntity
  8
V0-OBRYS
  6
CONTINUOUS
100
AcDbCircle
 10
-188.574036
 20
-478.127471
 30
0.0
 40
2.049616
100
AcDbArc
 50
110.701828
 51
291.501175
  0
ARC
  5
1645
100
AcDbEntity
  8
V0-OBRYS
  6
CONTINUOUS
100
AcDbCircle
 10
-186.307996
 20
-485.862071
 30
0.0
 40
2.049616
100
AcDbArc
 50
110.701828
 51
291.501175
  0
ARC
  5
1646
100
AcDbEntity
  8
V0-OBRYS
  6
CONTINUOUS
100
AcDbCircle
 10
-183.568836
 20
-493.596671
 30
0.0
 40
2.049616
100
AcDbArc
 50
110.701828
 51
291.501175
  0
LINE
  5
164C
100
AcDbEntity
  8
V0-OBRYS
100
AcDbLine
 10
184.050704
 20
-410.234871
 30
0.0
 11
184.050704
 21
-416.250671
 31
0.0
  0
LINE
  5
164D
100
AcDbEntity
  8
V0-OBRYS
100
AcDbLine
 10
182.321944
 20
-410.234871
 30
0.0
 11
182.321944
 21
-416.250671
 31
0.0
  0
LINE
  5
164E
100
AcDbEntity
  8
V0-OBRYS
100
AcDbLine
 10
138.840668
 20
-410.234871
 30
0.0
 11
138.840668
 21
-416.250671
 31
0.0
  0
LINE
  5
164F
100
AcDbEntity
  8
V0-OBRYS
100
AcDbLine
 10
137.111908
 20
-410.234871
 30
0.0
 11
137.111908
 21
-416.250671
 31
0.0
  0
LINE
  5
1650
100
AcDbEntity
  8
V0-OBRYS
100
AcDbLine
 10
206.969278
 20
-410.234871
 30
0.0
 11
206.969278
 21
-416.250671
 31
0.0
  0
LINE
  5
1651
100
AcDbEntity
  8
V0-OBRYS
100
AcDbLine
 10
114.193334
 20
-410.234871
 30
0.0
 11
114.193334
 21
-416.250671
 31
0.0
  0
LINE
  5
1652
100
AcDbEntity
  8
V0-OBRYS
100
AcDbLine
 10
105.581306
 20
-417.969471
 30
0.0
 11
215.581306
 21
-417.969471
 31
0.0
  0
LINE
  5
1653
100
AcDbEntity
  8
V0-OBRYS
100
AcDbLine
 10
105.581306
 20
-416.250671
 30
0.0
 11
215.581306
 21
-416.250671
 31
0.0
  0
LINE
  5
1654
100
AcDbEntity
  8
V0-OBRYS
100
AcDbLine
 10
105.581306
 20
-431.719871
 30
0.0
 11
215.581306
 21
-431.719871
 31
0.0
  0
LINE
  5
1655
100
AcDbEntity
  8
V0-OBRYS
100
AcDbLine
 10
105.581306
 20
-433.438671
 30
0.0
 11
215.581306
 21
-433.438671
 31
0.0
  0
LINE
  5
1656
100
AcDbEntity
  8
V0-OBRYS
100
AcDbLine
 10
105.581306
 20
-423.985271
 30
0.0
 11
215.581306
 21
-423.985271
 31
0.0
  0
LINE
  5
1657
100
AcDbEntity
  8
V0-OBRYS
100
AcDbLine
 10
105.581306
 20
-425.704071
 30
0.0
 11
215.581306
 21
-425.704071
 31
0.0
  0
LINE
  5
1658
100
AcDbEntity
  8
V0-OBRYS
100
AcDbLine
 10
105.581306
 20
-479.846271
 30
0.0
 11
215.581306
 21
-479.846271
 31
0.0
  0
LINE
  5
1659
100
AcDbEntity
  8
V0-OBRYS
100
AcDbLine
 10
105.581306
 20
-478.127471
 30
0.0
 11
215.581306
 21
-478.127471
 31
0.0
  0
LINE
  5
165A
100
AcDbEntity
  8
V0-OBRYS
100
AcDbLine
 10
105.581306
 20
-470.392871
 30
0.0
 11
215.581306
 21
-470.392871
 31
0.0
  0
LINE
  5
165B
100
AcDbEntity
  8
V0-OBRYS
100
AcDbLine
 10
105.581306
 20
-472.111671
 30
0.0
 11
215.581306
 21
-472.111671
 31
0.0
  0
LINE
  5
165C
100
AcDbEntity
  8
V0-OBRYS
100
AcDbLine
 10
105.581306
 20
-487.580871
 30
0.0
 11
215.581306
 21
-487.580871
 31
0.0
  0
LINE
  5
165D
100
AcDbEntity
  8
V0-OBRYS
100
AcDbLine
 10
105.581306
 20
-485.862071
 30
0.0
 11
215.581306
 21
-485.862071
 31
0.0
  0
LINE
  5
165E
100
AcDbEntity
  8
V0-OBRYS
100
AcDbLine
 10
105.581306
 20
-493.596671
 30
0.0
 11
215.581306
 21
-493.596671
 31
0.0
  0
LINE
  5
165F
100
AcDbEntity
  8
V0-OBRYS
100
AcDbLine
 10
105.581306
 20
-495.315471
 30
0.0
 11
215.581306
 21
-495.315471
 31
0.0
  0
LINE
  5
1660
100
AcDbEntity
  8
V0-OBRYS
100
AcDbLine
 10
105.581306
 20
-454.923671
 30
0.0
 11
215.581306
 21
-454.923671
 31
0.0
  0
LINE
  5
1661
100
AcDbEntity
  8
V0-OBRYS
100
AcDbLine
 10
105.581306
 20
-456.642471
 30
0.0
 11
215.581306
 21
-456.642471
 31
0.0
  0
LINE
  5
1662
100
AcDbEntity
  8
V0-OBRYS
100
AcDbLine
 10
105.581306
 20
-447.189071
 30
0.0
 11
215.581306
 21
-447.189071
 31
0.0
  0
LINE
  5
1663
100
AcDbEntity
  8
V0-OBRYS
100
AcDbLine
 10
105.581306
 20
-448.907871
 30
0.0
 11
215.581306
 21
-448.907871
 31
0.0
  0
LINE
  5
1664
100
AcDbEntity
  8
V0-OBRYS
100
AcDbLine
 10
105.581306
 20
-464.377071
 30
0.0
 11
215.581306
 21
-464.377071
 31
0.0
  0
LINE
  5
1665
100
AcDbEntity
  8
V0-OBRYS
100
AcDbLine
 10
105.581306
 20
-462.658271
 30
0.0
 11
215.581306
 21
-462.658271
 31
0.0
  0
LINE
  5
1666
100
AcDbEntity
  8
V0-OBRYS
100
AcDbLine
 10
105.581306
 20
-441.173271
 30
0.0
 11
215.581306
 21
-441.173271
 31
0.0
  0
LINE
  5
1667
100
AcDbEntity
  8
V0-OBRYS
100
AcDbLine
 10
105.581306
 20
-439.454471
 30
0.0
 11
215.581306
 21
-439.454471
 31
0.0
  0
LINE
  5
1668
100
AcDbEntity
  8
V0-OBRYS
100
AcDbLine
 10
138.840668
 20
-456.642471
 30
0.0
 11
138.840668
 21
-462.658271
 31
0.0
  0
LINE
  5
1669
100
AcDbEntity
  8
V0-OBRYS
100
AcDbLine
 10
137.111908
 20
-456.642471
 30
0.0
 11
137.111908
 21
-462.658271
 31
0.0
  0
LINE
  5
166A
100
AcDbEntity
  8
V0-OBRYS
100
AcDbLine
 10
114.193334
 20
-456.642471
 30
0.0
 11
114.193334
 21
-462.658271
 31
0.0
  0
LINE
  5
166B
100
AcDbEntity
  8
V0-OBRYS
100
AcDbLine
 10
105.581306
 20
-487.580871
 30
0.0
 11
105.581306
 21
-485.862071
 31
0.0
  0
LINE
  5
166C
100
AcDbEntity
  8
V0-OBRYS
100
AcDbLine
 10
105.581306
 20
-495.315471
 30
0.0
 11
105.581306
 21
-493.596671
 31
0.0
  0
LINE
  5
166D
100
AcDbEntity
  8
V0-OBRYS
100
AcDbLine
 10
105.581306
 20
-479.846271
 30
0.0
 11
105.581306
 21
-478.127471
 31
0.0
  0
LINE
  5
166E
100
AcDbEntity
  8
V0-OBRYS
100
AcDbLine
 10
105.581306
 20
-472.111671
 30
0.0
 11
105.581306
 21
-470.392871
 31
0.0
  0
LINE
  5
166F
100
AcDbEntity
  8
V0-OBRYS
100
AcDbLine
 10
105.581306
 20
-464.377071
 30
0.0
 11
105.581306
 21
-462.658271
 31
0.0
  0
LINE
  5
1670
100
AcDbEntity
  8
V0-OBRYS
100
AcDbLine
 10
138.840668
 20
-472.111671
 30
0.0
 11
138.840668
 21
-478.127471
 31
0.0
  0
LINE
  5
1671
100
AcDbEntity
  8
V0-OBRYS
100
AcDbLine
 10
137.111908
 20
-472.111671
 30
0.0
 11
137.111908
 21
-478.127471
 31
0.0
  0
LINE
  5
1672
100
AcDbEntity
  8
V0-OBRYS
100
AcDbLine
 10
114.193334
 20
-472.111671
 30
0.0
 11
114.193334
 21
-478.127471
 31
0.0
  0
LINE
  5
1673
100
AcDbEntity
  8
V0-OBRYS
100
AcDbLine
 10
114.193334
 20
-487.580871
 30
0.0
 11
114.193334
 21
-493.596671
 31
0.0
  0
LINE
  5
1674
100
AcDbEntity
  8
V0-OBRYS
100
AcDbLine
 10
114.193334
 20
-479.846271
 30
0.0
 11
114.193334
 21
-485.862071
 31
0.0
  0
LINE
  5
1675
100
AcDbEntity
  8
V0-OBRYS
100
AcDbLine
 10
138.840668
 20
-487.580871
 30
0.0
 11
138.840668
 21
-493.596671
 31
0.0
  0
LINE
  5
1676
100
AcDbEntity
  8
V0-OBRYS
100
AcDbLine
 10
138.840668
 20
-479.846271
 30
0.0
 11
138.840668
 21
-485.862071
 31
0.0
  0
LINE
  5
1677
100
AcDbEntity
  8
V0-OBRYS
100
AcDbLine
 10
137.111908
 20
-479.846271
 30
0.0
 11
137.111908
 21
-485.862071
 31
0.0
  0
LINE
  5
1678
100
AcDbEntity
  8
V0-OBRYS
100
AcDbLine
 10
137.111908
 20
-487.580871
 30
0.0
 11
137.111908
 21
-493.596671
 31
0.0
  0
LINE
  5
1679
100
AcDbEntity
  8
V0-OBRYS
100
AcDbLine
 10
114.193334
 20
-464.377071
 30
0.0
 11
114.193334
 21
-470.392871
 31
0.0
  0
LINE
  5
167A
100
AcDbEntity
  8
V0-OBRYS
100
AcDbLine
 10
138.840668
 20
-464.377071
 30
0.0
 11
138.840668
 21
-470.392871
 31
0.0
  0
LINE
  5
167B
100
AcDbEntity
  8
V0-OBRYS
100
AcDbLine
 10
137.111908
 20
-464.377071
 30
0.0
 11
137.111908
 21
-470.392871
 31
0.0
  0
LINE
  5
167C
100
AcDbEntity
  8
V0-OBRYS
100
AcDbLine
 10
105.581306
 20
-456.642471
 30
0.0
 11
105.581306
 21
-454.923671
 31
0.0
  0
LINE
  5
167D
100
AcDbEntity
  8
V0-OBRYS
100
AcDbLine
 10
105.581306
 20
-448.907871
 30
0.0
 11
105.581306
 21
-447.189071
 31
0.0
  0
LINE
  5
167E
100
AcDbEntity
  8
V0-OBRYS
100
AcDbLine
 10
105.581306
 20
-439.454471
 30
0.0
 11
105.581306
 21
-441.173271
 31
0.0
  0
LINE
  5
167F
100
AcDbEntity
  8
V0-OBRYS
100
AcDbLine
 10
105.581306
 20
-416.250671
 30
0.0
 11
105.581306
 21
-417.969471
 31
0.0
  0
LINE
  5
1680
100
AcDbEntity
  8
V0-OBRYS
100
AcDbLine
 10
105.581306
 20
-431.719871
 30
0.0
 11
105.581306
 21
-433.438671
 31
0.0
  0
LINE
  5
1681
100
AcDbEntity
  8
V0-OBRYS
100
AcDbLine
 10
105.581306
 20
-423.985271
 30
0.0
 11
105.581306
 21
-425.704071
 31
0.0
  0
LINE
  5
1682
100
AcDbEntity
  8
V0-OBRYS
100
AcDbLine
 10
138.840668
 20
-433.438671
 30
0.0
 11
138.840668
 21
-439.454471
 31
0.0
  0
LINE
  5
1683
100
AcDbEntity
  8
V0-OBRYS
100
AcDbLine
 10
137.111908
 20
-433.438671
 30
0.0
 11
137.111908
 21
-439.454471
 31
0.0
  0
LINE
  5
1684
100
AcDbEntity
  8
V0-OBRYS
100
AcDbLine
 10
114.193334
 20
-433.438671
 30
0.0
 11
114.193334
 21
-439.454471
 31
0.0
  0
LINE
  5
1685
100
AcDbEntity
  8
V0-OBRYS
100
AcDbLine
 10
114.193334
 20
-448.907871
 30
0.0
 11
114.193334
 21
-454.923671
 31
0.0
  0
LINE
  5
1686
100
AcDbEntity
  8
V0-OBRYS
100
AcDbLine
 10
114.193334
 20
-441.173271
 30
0.0
 11
114.193334
 21
-447.189071
 31
0.0
  0
LINE
  5
1687
100
AcDbEntity
  8
V0-OBRYS
100
AcDbLine
 10
138.840668
 20
-448.907871
 30
0.0
 11
138.840668
 21
-454.923671
 31
0.0
  0
LINE
  5
1688
100
AcDbEntity
  8
V0-OBRYS
100
AcDbLine
 10
138.840668
 20
-441.173271
 30
0.0
 11
138.840668
 21
-447.189071
 31
0.0
  0
LINE
  5
1689
100
AcDbEntity
  8
V0-OBRYS
100
AcDbLine
 10
137.111908
 20
-441.173271
 30
0.0
 11
137.111908
 21
-447.189071
 31
0.0
  0
LINE
  5
168A
100
AcDbEntity
  8
V0-OBRYS
100
AcDbLine
 10
137.111908
 20
-448.907871
 30
0.0
 11
137.111908
 21
-454.923671
 31
0.0
  0
LINE
  5
168B
100
AcDbEntity
  8
V0-OBRYS
100
AcDbLine
 10
114.193334
 20
-425.704071
 30
0.0
 11
114.193334
 21
-431.719871
 31
0.0
  0
LINE
  5
168C
100
AcDbEntity
  8
V0-OBRYS
100
AcDbLine
 10
114.193334
 20
-417.969471
 30
0.0
 11
114.193334
 21
-423.985271
 31
0.0
  0
LINE
  5
168D
100
AcDbEntity
  8
V0-OBRYS
100
AcDbLine
 10
138.840668
 20
-425.704071
 30
0.0
 11
138.840668
 21
-431.719871
 31
0.0
  0
LINE
  5
168E
100
AcDbEntity
  8
V0-OBRYS
100
AcDbLine
 10
138.840668
 20
-417.969471
 30
0.0
 11
138.840668
 21
-423.985271
 31
0.0
  0
LINE
  5
168F
100
AcDbEntity
  8
V0-OBRYS
100
AcDbLine
 10
137.111908
 20
-417.969471
 30
0.0
 11
137.111908
 21
-423.985271
 31
0.0
  0
LINE
  5
1690
100
AcDbEntity
  8
V0-OBRYS
100
AcDbLine
 10
137.111908
 20
-425.704071
 30
0.0
 11
137.111908
 21
-431.719871
 31
0.0
  0
LINE
  5
1691
100
AcDbEntity
  8
V0-OBRYS
100
AcDbLine
 10
184.050704
 20
-456.642471
 30
0.0
 11
184.050704
 21
-462.658271
 31
0.0
  0
LINE
  5
1692
100
AcDbEntity
  8
V0-OBRYS
100
AcDbLine
 10
182.321944
 20
-456.642471
 30
0.0
 11
182.321944
 21
-462.658271
 31
0.0
  0
LINE
  5
1693
100
AcDbEntity
  8
V0-OBRYS
100
AcDbLine
 10
184.050704
 20
-472.111671
 30
0.0
 11
184.050704
 21
-478.127471
 31
0.0
  0
LINE
  5
1694
100
AcDbEntity
  8
V0-OBRYS
100
AcDbLine
 10
182.321944
 20
-472.111671
 30
0.0
 11
182.321944
 21
-478.127471
 31
0.0
  0
LINE
  5
1695
100
AcDbEntity
  8
V0-OBRYS
100
AcDbLine
 10
182.321944
 20
-479.846271
 30
0.0
 11
182.321944
 21
-485.862071
 31
0.0
  0
LINE
  5
1696
100
AcDbEntity
  8
V0-OBRYS
100
AcDbLine
 10
182.321944
 20
-487.580871
 30
0.0
 11
182.321944
 21
-493.596671
 31
0.0
  0
LINE
  5
1697
100
AcDbEntity
  8
V0-OBRYS
100
AcDbLine
 10
184.050704
 20
-487.580871
 30
0.0
 11
184.050704
 21
-493.596671
 31
0.0
  0
LINE
  5
1698
100
AcDbEntity
  8
V0-OBRYS
100
AcDbLine
 10
184.050704
 20
-479.846271
 30
0.0
 11
184.050704
 21
-485.862071
 31
0.0
  0
LINE
  5
1699
100
AcDbEntity
  8
V0-OBRYS
100
AcDbLine
 10
182.321944
 20
-464.377071
 30
0.0
 11
182.321944
 21
-470.392871
 31
0.0
  0
LINE
  5
169A
100
AcDbEntity
  8
V0-OBRYS
100
AcDbLine
 10
184.050704
 20
-464.377071
 30
0.0
 11
184.050704
 21
-470.392871
 31
0.0
  0
POINT
  5
169B
100
AcDbEntity
  8
V0-VYPLNE
  6
CONTINUOUS
 62
    41
100
AcDbPoint
 10
160.581306
 20
-440.313871
 30
0.0
  0
LINE
  5
169C
100
AcDbEntity
  8
V0-OBRYS
100
AcDbLine
 10
184.050704
 20
-433.438671
 30
0.0
 11
184.050704
 21
-439.454471
 31
0.0
  0
LINE
  5
169D
100
AcDbEntity
  8
V0-OBRYS
100
AcDbLine
 10
182.321944
 20
-433.438671
 30
0.0
 11
182.321944
 21
-439.454471
 31
0.0
  0
LINE
  5
169E
100
AcDbEntity
  8
V0-OBRYS
100
AcDbLine
 10
182.321944
 20
-441.173271
 30
0.0
 11
182.321944
 21
-447.189071
 31
0.0
  0
LINE
  5
169F
100
AcDbEntity
  8
V0-OBRYS
100
AcDbLine
 10
182.321944
 20
-448.907871
 30
0.0
 11
182.321944
 21
-454.923671
 31
0.0
  0
LINE
  5
16A0
100
AcDbEntity
  8
V0-OBRYS
100
AcDbLine
 10
184.050704
 20
-448.907871
 30
0.0
 11
184.050704
 21
-454.923671
 31
0.0
  0
LINE
  5
16A1
100
AcDbEntity
  8
V0-OBRYS
100
AcDbLine
 10
184.050704
 20
-441.173271
 30
0.0
 11
184.050704
 21
-447.189071
 31
0.0
  0
LINE
  5
16A2
100
AcDbEntity
  8
V0-OBRYS
100
AcDbLine
 10
182.321944
 20
-417.969471
 30
0.0
 11
182.321944
 21
-423.985271
 31
0.0
  0
LINE
  5
16A3
100
AcDbEntity
  8
V0-OBRYS
100
AcDbLine
 10
182.321944
 20
-425.704071
 30
0.0
 11
182.321944
 21
-431.719871
 31
0.0
  0
LINE
  5
16A4
100
AcDbEntity
  8
V0-OBRYS
100
AcDbLine
 10
184.050704
 20
-425.704071
 30
0.0
 11
184.050704
 21
-431.719871
 31
0.0
  0
LINE
  5
16A5
100
AcDbEntity
  8
V0-OBRYS
100
AcDbLine
 10
184.050704
 20
-417.969471
 30
0.0
 11
184.050704
 21
-423.985271
 31
0.0
  0
LINE
  5
16A6
100
AcDbEntity
  8
V0-OBRYS
100
AcDbLine
 10
206.969278
 20
-456.642471
 30
0.0
 11
206.969278
 21
-462.658271
 31
0.0
  0
LINE
  5
16A7
100
AcDbEntity
  8
V0-OBRYS
100
AcDbLine
 10
206.969278
 20
-472.111671
 30
0.0
 11
206.969278
 21
-478.127471
 31
0.0
  0
LINE
  5
16A8
100
AcDbEntity
  8
V0-OBRYS
100
AcDbLine
 10
206.969278
 20
-479.846271
 30
0.0
 11
206.969278
 21
-485.862071
 31
0.0
  0
LINE
  5
16A9
100
AcDbEntity
  8
V0-OBRYS
100
AcDbLine
 10
206.969278
 20
-487.580871
 30
0.0
 11
206.969278
 21
-493.596671
 31
0.0
  0
LINE
  5
16AA
100
AcDbEntity
  8
V0-OBRYS
100
AcDbLine
 10
215.581306
 20
-487.580871
 30
0.0
 11
215.581306
 21
-485.862071
 31
0.0
  0
LINE
  5
16AB
100
AcDbEntity
  8
V0-OBRYS
100
AcDbLine
 10
215.581306
 20
-495.315471
 30
0.0
 11
215.581306
 21
-493.596671
 31
0.0
  0
LINE
  5
16AC
100
AcDbEntity
  8
V0-OBRYS
100
AcDbLine
 10
215.581306
 20
-479.846271
 30
0.0
 11
215.581306
 21
-478.127471
 31
0.0
  0
LINE
  5
16AD
100
AcDbEntity
  8
V0-OBRYS
100
AcDbLine
 10
206.969278
 20
-464.377071
 30
0.0
 11
206.969278
 21
-470.392871
 31
0.0
  0
LINE
  5
16AE
100
AcDbEntity
  8
V0-OBRYS
100
AcDbLine
 10
215.581306
 20
-472.111671
 30
0.0
 11
215.581306
 21
-470.392871
 31
0.0
  0
LINE
  5
16AF
100
AcDbEntity
  8
V0-OBRYS
100
AcDbLine
 10
215.581306
 20
-464.377071
 30
0.0
 11
215.581306
 21
-462.658271
 31
0.0
  0
LINE
  5
16B0
100
AcDbEntity
  8
V0-OBRYS
100
AcDbLine
 10
206.969278
 20
-433.438671
 30
0.0
 11
206.969278
 21
-439.454471
 31
0.0
  0
LINE
  5
16B1
100
AcDbEntity
  8
V0-OBRYS
100
AcDbLine
 10
206.969278
 20
-441.173271
 30
0.0
 11
206.969278
 21
-447.189071
 31
0.0
  0
LINE
  5
16B2
100
AcDbEntity
  8
V0-OBRYS
100
AcDbLine
 10
206.969278
 20
-448.907871
 30
0.0
 11
206.969278
 21
-454.923671
 31
0.0
  0
LINE
  5
16B3
100
AcDbEntity
  8
V0-OBRYS
100
AcDbLine
 10
215.581306
 20
-456.642471
 30
0.0
 11
215.581306
 21
-454.923671
 31
0.0
  0
LINE
  5
16B4
100
AcDbEntity
  8
V0-OBRYS
100
AcDbLine
 10
215.581306
 20
-448.907871
 30
0.0
 11
215.581306
 21
-447.189071
 31
0.0
  0
LINE
  5
16B5
100
AcDbEntity
  8
V0-OBRYS
100
AcDbLine
 10
215.581306
 20
-439.454471
 30
0.0
 11
215.581306
 21
-441.173271
 31
0.0
  0
LINE
  5
16B6
100
AcDbEntity
  8
V0-OBRYS
100
AcDbLine
 10
206.969278
 20
-417.969471
 30
0.0
 11
206.969278
 21
-423.985271
 31
0.0
  0
LINE
  5
16B7
100
AcDbEntity
  8
V0-OBRYS
100
AcDbLine
 10
206.969278
 20
-425.704071
 30
0.0
 11
206.969278
 21
-431.719871
 31
0.0
  0
LINE
  5
16B8
100
AcDbEntity
  8
V0-OBRYS
100
AcDbLine
 10
215.581306
 20
-416.250671
 30
0.0
 11
215.581306
 21
-417.969471
 31
0.0
  0
LINE
  5
16B9
100
AcDbEntity
  8
V0-OBRYS
100
AcDbLine
 10
215.581306
 20
-431.719871
 30
0.0
 11
215.581306
 21
-433.438671
 31
0.0
  0
LINE
  5
16BA
100
AcDbEntity
  8
V0-OBRYS
100
AcDbLine
 10
215.581306
 20
-423.985271
 30
0.0
 11
215.581306
 21
-425.704071
 31
0.0
  0
LINE
  5
16BB
100
AcDbEntity
  8
V0-OBRYS
100
AcDbLine
 10
105.581306
 20
-385.312271
 30
0.0
 11
215.581306
 21
-385.312271
 31
0.0
  0
LINE
  5
16BC
100
AcDbEntity
  8
V0-OBRYS
100
AcDbLine
 10
105.581306
 20
-387.031071
 30
0.0
 11
215.581306
 21
-387.031071
 31
0.0
  0
LINE
  5
16BD
100
AcDbEntity
  8
V0-OBRYS
100
AcDbLine
 10
105.581306
 20
-394.765671
 30
0.0
 11
215.581306
 21
-394.765671
 31
0.0
  0
LINE
  5
16BE
100
AcDbEntity
  8
V0-OBRYS
100
AcDbLine
 10
105.581306
 20
-393.046871
 30
0.0
 11
215.581306
 21
-393.046871
 31
0.0
  0
LINE
  5
16BF
100
AcDbEntity
  8
V0-OBRYS
100
AcDbLine
 10
105.581306
 20
-408.516071
 30
0.0
 11
215.581306
 21
-408.516071
 31
0.0
  0
LINE
  5
16C0
100
AcDbEntity
  8
V0-OBRYS
100
AcDbLine
 10
105.581306
 20
-410.234871
 30
0.0
 11
215.581306
 21
-410.234871
 31
0.0
  0
LINE
  5
16C1
100
AcDbEntity
  8
V0-OBRYS
100
AcDbLine
 10
105.581306
 20
-402.500271
 30
0.0
 11
215.581306
 21
-402.500271
 31
0.0
  0
LINE
  5
16C2
100
AcDbEntity
  8
V0-OBRYS
100
AcDbLine
 10
105.581306
 20
-400.781471
 30
0.0
 11
215.581306
 21
-400.781471
 31
0.0
  0
LINE
  5
16C3
100
AcDbEntity
  8
V0-OBRYS
100
AcDbLine
 10
105.581306
 20
-408.516071
 30
0.0
 11
105.581306
 21
-410.234871
 31
0.0
  0
LINE
  5
16C4
100
AcDbEntity
  8
V0-OBRYS
100
AcDbLine
 10
105.581306
 20
-400.781471
 30
0.0
 11
105.581306
 21
-402.500271
 31
0.0
  0
LINE
  5
16C5
100
AcDbEntity
  8
V0-OBRYS
100
AcDbLine
 10
105.581306
 20
-385.312271
 30
0.0
 11
105.581306
 21
-387.031071
 31
0.0
  0
LINE
  5
16C6
100
AcDbEntity
  8
V0-OBRYS
100
AcDbLine
 10
105.581306
 20
-393.046871
 30
0.0
 11
105.581306
 21
-394.765671
 31
0.0
  0
LINE
  5
16C7
100
AcDbEntity
  8
V0-OBRYS
100
AcDbLine
 10
138.840668
 20
-394.765671
 30
0.0
 11
138.840668
 21
-400.781471
 31
0.0
  0
LINE
  5
16C8
100
AcDbEntity
  8
V0-OBRYS
100
AcDbLine
 10
137.111908
 20
-394.765671
 30
0.0
 11
137.111908
 21
-400.781471
 31
0.0
  0
LINE
  5
16C9
100
AcDbEntity
  8
V0-OBRYS
100
AcDbLine
 10
114.193334
 20
-394.765671
 30
0.0
 11
114.193334
 21
-400.781471
 31
0.0
  0
LINE
  5
16CA
100
AcDbEntity
  8
V0-OBRYS
100
AcDbLine
 10
114.193334
 20
-402.500271
 30
0.0
 11
114.193334
 21
-408.516071
 31
0.0
  0
LINE
  5
16CB
100
AcDbEntity
  8
V0-OBRYS
100
AcDbLine
 10
138.840668
 20
-402.500271
 30
0.0
 11
138.840668
 21
-408.516071
 31
0.0
  0
LINE
  5
16CC
100
AcDbEntity
  8
V0-OBRYS
100
AcDbLine
 10
137.111908
 20
-402.500271
 30
0.0
 11
137.111908
 21
-408.516071
 31
0.0
  0
LINE
  5
16CD
100
AcDbEntity
  8
V0-OBRYS
100
AcDbLine
 10
114.193334
 20
-387.031071
 30
0.0
 11
114.193334
 21
-393.046871
 31
0.0
  0
LINE
  5
16CE
100
AcDbEntity
  8
V0-OBRYS
100
AcDbLine
 10
138.840668
 20
-387.031071
 30
0.0
 11
138.840668
 21
-393.046871
 31
0.0
  0
LINE
  5
16CF
100
AcDbEntity
  8
V0-OBRYS
100
AcDbLine
 10
137.111908
 20
-387.031071
 30
0.0
 11
137.111908
 21
-393.046871
 31
0.0
  0
LINE
  5
16D0
100
AcDbEntity
  8
V0-OBRYS
100
AcDbLine
 10
184.050704
 20
-394.765671
 30
0.0
 11
184.050704
 21
-400.781471
 31
0.0
  0
LINE
  5
16D1
100
AcDbEntity
  8
V0-OBRYS
100
AcDbLine
 10
182.321944
 20
-394.765671
 30
0.0
 11
182.321944
 21
-400.781471
 31
0.0
  0
LINE
  5
16D2
100
AcDbEntity
  8
V0-OBRYS
100
AcDbLine
 10
182.321944
 20
-402.500271
 30
0.0
 11
182.321944
 21
-408.516071
 31
0.0
  0
LINE
  5
16D3
100
AcDbEntity
  8
V0-OBRYS
100
AcDbLine
 10
184.050704
 20
-402.500271
 30
0.0
 11
184.050704
 21
-408.516071
 31
0.0
  0
LINE
  5
16D4
100
AcDbEntity
  8
V0-OBRYS
100
AcDbLine
 10
182.321944
 20
-387.031071
 30
0.0
 11
182.321944
 21
-393.046871
 31
0.0
  0
LINE
  5
16D5
100
AcDbEntity
  8
V0-OBRYS
100
AcDbLine
 10
184.050704
 20
-387.031071
 30
0.0
 11
184.050704
 21
-393.046871
 31
0.0
  0
LINE
  5
16D6
100
AcDbEntity
  8
V0-OBRYS
100
AcDbLine
 10
206.969278
 20
-394.765671
 30
0.0
 11
206.969278
 21
-400.781471
 31
0.0
  0
LINE
  5
16D7
100
AcDbEntity
  8
V0-OBRYS
100
AcDbLine
 10
206.969278
 20
-402.500271
 30
0.0
 11
206.969278
 21
-408.516071
 31
0.0
  0
LINE
  5
16D8
100
AcDbEntity
  8
V0-OBRYS
100
AcDbLine
 10
215.581306
 20
-408.516071
 30
0.0
 11
215.581306
 21
-410.234871
 31
0.0
  0
LINE
  5
16D9
100
AcDbEntity
  8
V0-OBRYS
100
AcDbLine
 10
215.581306
 20
-400.781471
 30
0.0
 11
215.581306
 21
-402.500271
 31
0.0
  0
LINE
  5
16DA
100
AcDbEntity
  8
V0-OBRYS
100
AcDbLine
 10
206.969278
 20
-387.031071
 30
0.0
 11
206.969278
 21
-393.046871
 31
0.0
  0
LINE
  5
16DB
100
AcDbEntity
  8
V0-OBRYS
100
AcDbLine
 10
215.581306
 20
-385.312271
 30
0.0
 11
215.581306
 21
-387.031071
 31
0.0
  0
LINE
  5
16DC
100
AcDbEntity
  8
V0-OBRYS
100
AcDbLine
 10
215.581306
 20
-393.046871
 30
0.0
 11
215.581306
 21
-394.765671
 31
0.0
  0
POINT
  5
16E1
100
AcDbEntity
  8
V0-VYPLNE
  6
CONTINUOUS
 62
    41
100
AcDbPoint
 10
-43.920293
 20
-408.954471
 30
0.0
  0
POINT
  5
16E2
100
AcDbEntity
  8
V0-VYPLNE
  6
CONTINUOUS
 62
    41
100
AcDbPoint
 10
-43.920293
 20
-762.82232
 30
0.0
  0
DIMENSION
  5
16FA
100
AcDbEntity
  8
V0-VYPLNE
  6
CONTINUOUS
 62
    41
100
AcDbDimension
  2
*D2
 10
-68.920293
 20
-312.721422
 30
0.0
 11
-132.192442
 21
-306.220438
 31
0.0
 70
    32
  1
126.5
  3
ED10
100
AcDbAlignedDimension
 13
-195.464591
 23
-439.454471
 33
0.0
 14
-68.920293
 24
-349.954471
 34
0.0
100
AcDbRotatedDimension
  0
VIEWPORT
  5
22
100
AcDbEntity
 67
     1
  8
0
100
AcDbViewport
 10
261.517699
 20
148.5
 30
0.0
 40
523.035398
 41
297.0
 68
    -1
 69
     1
1001
ACAD
1000
MVIEW
1002
{
1070
    16
1010
0.0
1020
0.0
1030
0.0
1010
0.0
1020
0.0
1030
1.0
1040
0.0
1040
297.0
1040
261.517699
1040
148.5
1040
50.0
1040
0.0
1040
0.0
1070
     0
1070
   100
1070
     1
1070
     1
1070
     0
1070
     0
1070
     0
1070
     0
1040
0.0
1040
0.0
1040
0.0
1040
1.0
1040
1.0
1040
10.0
1040
10.0
1070
     0
1002
{
1002
}
1002
}
  0
ENDSEC
  0
SECTION
  2
OBJECTS
  0
DICTIONARY
  5
C
100
AcDbDictionary
  3
ACAD_GROUP
350
D
  3
ACAD_MLINESTYLE
350
E
  3
ACDBVARIABLEDICTIONARY
350
5D
  0
DICTIONARY
  5
D
102
{ACAD_REACTORS
330
C
102
}
100
AcDbDictionary
  0
DICTIONARY
  5
E
102
{ACAD_REACTORS
330
C
102
}
100
AcDbDictionary
  3
STANDARD
350
13
  0
DICTIONARY
  5
5D
102
{ACAD_REACTORS
330
C
102
}
100
AcDbDictionary
  3
DIMADEC
350
5E
  3
SORTENTS
350
3D8
  0
MLINESTYLE
  5
13
102
{ACAD_REACTORS
330
E
102
}
100
AcDbMlineStyle
  2
STANDARD
 70
     0
  3

 62
     0
 51
90.0
 52
90.0
 71
     2
 49
0.5
 62
   256
  6
BYLAYER
 49
-0.5
 62
   256
  6
BYLAYER
  0
DICTIONARYVAR
  5
5E
102
{ACAD_REACTORS
330
5D
102
}
100
DictionaryVariables
280
     0
  1
0
  0
DICTIONARYVAR
  5
3D8
102
{ACAD_REACTORS
330
5D
102
}
100
DictionaryVariables
280
     0
  1
96
  0
ENDSEC
  0
EOF
