  0
SECTION
  2
HEADER
  9
$ACADVER
  1
AC1015
  9
$ACADMAINTVER
 70
     6
  9
$DWGCODEPAGE
  3
ANSI_1250
  9
$INSBASE
 10
0.0
 20
0.0
 30
0.0
  9
$EXTMIN
 10
7333.84555124331
 20
-2858.541882689264
 30
0.0
  9
$EXTMAX
 10
7971.766330573718
 20
-2407.876419298341
 30
0.0
  9
$LIMMIN
 10
0.0
 20
0.0
  9
$LIMMAX
 10
12.0
 20
9.0
  9
$ORTHOMODE
 70
     0
  9
$REGENMODE
 70
     1
  9
$FILLMODE
 70
     1
  9
$QTEXTMODE
 70
     0
  9
$MIRRTEXT
 70
     1
  9
$LTSCALE
 40
1.0
  9
$ATTMODE
 70
     1
  9
$TEXTSIZE
 40
0.2
  9
$TRACEWID
 40
0.05
  9
$TEXTSTYLE
  7
ED50
  9
$CLAYER
  8
V0-OBRYS
  9
$CELTYPE
  6
Continuous
  9
$CECOLOR
 62
   256
  9
$CELTSCALE
 40
1.0
  9
$DISPSILH
 70
     0
  9
$DIMSCALE
 40
1.0
  9
$DIMASZ
 40
35.0
  9
$DIMEXO
 40
1.0
  9
$DIMDLI
 40
0.38
  9
$DIMRND
 40
0.0
  9
$DIMDLE
 40
0.0
  9
$DIMEXE
 40
1.25
  9
$DIMTP
 40
0.0
  9
$DIMTM
 40
0.0
  9
$DIMTXT
 40
40.0
  9
$DIMCEN
 40
0.09
  9
$DIMTSZ
 40
0.0
  9
$DIMTOL
 70
     0
  9
$DIMLIM
 70
     0
  9
$DIMTIH
 70
     0
  9
$DIMTOH
 70
     0
  9
$DIMSE1
 70
     0
  9
$DIMSE2
 70
     0
  9
$DIMTAD
 70
     1
  9
$DIMZIN
 70
     0
  9
$DIMBLK
  1
OPEN
  9
$DIMASO
 70
     1
  9
$DIMSHO
 70
     1
  9
$DIMPOST
  1

  9
$DIMAPOST
  1

  9
$DIMALT
 70
     0
  9
$DIMALTD
 70
     2
  9
$DIMALTF
 40
25.4
  9
$DIMLFAC
 40
1.0
  9
$DIMTOFL
 70
     1
  9
$DIMTVP
 40
0.0
  9
$DIMTIX
 70
     1
  9
$DIMSOXD
 70
     0
  9
$DIMSAH
 70
     0
  9
$DIMBLK1
  1

  9
$DIMBLK2
  1

  9
$DIMSTYLE
  2
ED50
  9
$DIMCLRD
 70
     0
  9
$DIMCLRE
 70
     0
  9
$DIMCLRT
 70
     0
  9
$DIMTFAC
 40
1.0
  9
$DIMGAP
 40
4.0
  9
$DIMJUST
 70
     0
  9
$DIMSD1
 70
     0
  9
$DIMSD2
 70
     0
  9
$DIMTOLJ
 70
     1
  9
$DIMTZIN
 70
     0
  9
$DIMALTZ
 70
     0
  9
$DIMALTTZ
 70
     0
  9
$DIMUPT
 70
     1
  9
$DIMDEC
 70
     0
  9
$DIMTDEC
 70
     4
  9
$DIMALTU
 70
     2
  9
$DIMALTTD
 70
     2
  9
$DIMTXSTY
  7
ED40
  9
$DIMAUNIT
 70
     0
  9
$DIMADEC
 70
     0
  9
$DIMALTRND
 40
0.0
  9
$DIMAZIN
 70
     0
  9
$DIMDSEP
 70
    46
  9
$DIMATFIT
 70
     3
  9
$DIMFRAC
 70
     0
  9
$DIMLDRBLK
  1

  9
$DIMLUNIT
 70
     2
  9
$DIMLWD
 70
    -2
  9
$DIMLWE
 70
    -2
  9
$DIMTMOVE
 70
     0
  9
$LUNITS
 70
     2
  9
$LUPREC
 70
     4
  9
$SKETCHINC
 40
0.1
  9
$FILLETRAD
 40
0.5
  9
$AUNITS
 70
     0
  9
$AUPREC
 70
     0
  9
$MENU
  1
.
  9
$ELEVATION
 40
0.0
  9
$PELEVATION
 40
0.0
  9
$THICKNESS
 40
0.0
  9
$LIMCHECK
 70
     0
  9
$CHAMFERA
 40
0.5
  9
$CHAMFERB
 40
0.5
  9
$CHAMFERC
 40
1.0
  9
$CHAMFERD
 40
0.0
  9
$SKPOLY
 70
     0
  9
$TDCREATE
 40
2455593.460304722
  9
$TDUCREATE
 40
2455593.418638056
  9
$TDUPDATE
 40
2455593.460304734
  9
$TDUUPDATE
 40
2455593.418638067
  9
$TDINDWG
 40
0.0000000116
  9
$TDUSRTIMER
 40
0.0000000116
  9
$USRTIMER
 70
     1
  9
$ANGBASE
 50
0.0
  9
$ANGDIR
 70
     0
  9
$PDMODE
 70
     3
  9
$PDSIZE
 40
20.0
  9
$PLINEWID
 40
0.0
  9
$SPLFRAME
 70
     0
  9
$SPLINETYPE
 70
     6
  9
$SPLINESEGS
 70
     8
  9
$HANDSEED
  5
2B32
  9
$SURFTAB1
 70
     6
  9
$SURFTAB2
 70
     6
  9
$SURFTYPE
 70
     6
  9
$SURFU
 70
     6
  9
$SURFV
 70
     6
  9
$UCSBASE
  2

  9
$UCSNAME
  2

  9
$UCSORG
 10
0.0
 20
0.0
 30
0.0
  9
$UCSXDIR
 10
1.0
 20
0.0
 30
0.0
  9
$UCSYDIR
 10
0.0
 20
1.0
 30
0.0
  9
$UCSORTHOREF
  2

  9
$UCSORTHOVIEW
 70
     0
  9
$UCSORGTOP
 10
0.0
 20
0.0
 30
0.0
  9
$UCSORGBOTTOM
 10
0.0
 20
0.0
 30
0.0
  9
$UCSORGLEFT
 10
0.0
 20
0.0
 30
0.0
  9
$UCSORGRIGHT
 10
0.0
 20
0.0
 30
0.0
  9
$UCSORGFRONT
 10
0.0
 20
0.0
 30
0.0
  9
$UCSORGBACK
 10
0.0
 20
0.0
 30
0.0
  9
$PUCSBASE
  2

  9
$PUCSNAME
  2

  9
$PUCSORG
 10
0.0
 20
0.0
 30
0.0
  9
$PUCSXDIR
 10
1.0
 20
0.0
 30
0.0
  9
$PUCSYDIR
 10
0.0
 20
1.0
 30
0.0
  9
$PUCSORTHOREF
  2

  9
$PUCSORTHOVIEW
 70
     0
  9
$PUCSORGTOP
 10
0.0
 20
0.0
 30
0.0
  9
$PUCSORGBOTTOM
 10
0.0
 20
0.0
 30
0.0
  9
$PUCSORGLEFT
 10
0.0
 20
0.0
 30
0.0
  9
$PUCSORGRIGHT
 10
0.0
 20
0.0
 30
0.0
  9
$PUCSORGFRONT
 10
0.0
 20
0.0
 30
0.0
  9
$PUCSORGBACK
 10
0.0
 20
0.0
 30
0.0
  9
$USERI1
 70
     0
  9
$USERI2
 70
     0
  9
$USERI3
 70
     0
  9
$USERI4
 70
     0
  9
$USERI5
 70
     0
  9
$USERR1
 40
0.0
  9
$USERR2
 40
0.0
  9
$USERR3
 40
0.0
  9
$USERR4
 40
0.0
  9
$USERR5
 40
0.0
  9
$WORLDVIEW
 70
     1
  9
$SHADEDGE
 70
     3
  9
$SHADEDIF
 70
    70
  9
$TILEMODE
 70
     1
  9
$MAXACTVP
 70
    64
  9
$PINSBASE
 10
0.0
 20
0.0
 30
0.0
  9
$PLIMCHECK
 70
     0
  9
$PEXTMIN
 10
1.000000000000000E+20
 20
1.000000000000000E+20
 30
1.000000000000000E+20
  9
$PEXTMAX
 10
-1.000000000000000E+20
 20
-1.000000000000000E+20
 30
-1.000000000000000E+20
  9
$PLIMMIN
 10
0.0
 20
0.0
  9
$PLIMMAX
 10
420.0
 20
297.0
  9
$UNITMODE
 70
     0
  9
$VISRETAIN
 70
     1
  9
$PLINEGEN
 70
     0
  9
$PSLTSCALE
 70
     1
  9
$TREEDEPTH
 70
  3020
  9
$CMLSTYLE
  2
Standard
  9
$CMLJUST
 70
     0
  9
$CMLSCALE
 40
1.0
  9
$PROXYGRAPHICS
 70
     1
  9
$MEASUREMENT
 70
     0
  9
$CELWEIGHT
370
    -1
  9
$ENDCAPS
280
     0
  9
$JOINSTYLE
280
     0
  9
$LWDISPLAY
290
     0
  9
$INSUNITS
 70
     1
  9
$HYPERLINKBASE
  1

  9
$STYLESHEET
  1

  9
$XEDIT
290
     1
  9
$CEPSNTYPE
380
     0
  9
$PSTYLEMODE
290
     0
  9
$FINGERPRINTGUID
  2
{FAEB1C30-E019-11D5-929B-00C0DF256EC4}
  9
$VERSIONGUID
  2
{FAEB1C32-E019-11D5-929B-00C0DF256EC4}
  9
$EXTNAMES
290
     1
  9
$PSVPSCALE
 40
0.0
  9
$OLESTARTUP
290
     0
  0
ENDSEC
  0
SECTION
  2
CLASSES
  0
CLASS
  1
ACDBDICTIONARYWDFLT
  2
AcDbDictionaryWithDefault
  3
ObjectDBX Classes
 90
        0
280
     0
281
     0
  0
CLASS
  1
ACDBPLACEHOLDER
  2
AcDbPlaceHolder
  3
ObjectDBX Classes
 90
        0
280
     0
281
     0
  0
CLASS
  1
LAYOUT
  2
AcDbLayout
  3
ObjectDBX Classes
 90
        0
280
     0
281
     0
  0
ENDSEC
  0
SECTION
  2
TABLES
  0
TABLE
  2
VPORT
  5
2A94
330
0
100
AcDbSymbolTable
 70
     2
  0
VPORT
  5
2AB5
330
2A94
100
AcDbSymbolTableRecord
100
AcDbViewportTableRecord
  2
*Active
 70
     0
 10
0.0
 20
0.0
 11
1.0
 21
1.0
 12
7677.157009034338
 22
-2567.470982541156
 13
0.0
 23
0.0
 14
10.0
 24
10.0
 15
10.0
 25
10.0
 16
0.0
 26
0.0
 36
1.0
 17
0.0
 27
0.0
 37
0.0
 40
888.4604893307159
 41
0.0199859835849642
 42
50.0
 43
0.0
 44
0.0
 50
0.0
 51
0.0000000000007958
 71
     0
 72
   100
 73
     1
 74
     3
 75
     0
 76
     0
 77
     0
 78
     0
281
     0
 65
     1
110
0.0
120
0.0
130
0.0
111
1.0
121
0.0
131
0.0
112
0.0
122
1.0
132
0.0
 79
     0
146
0.0
  0
ENDTAB
  0
TABLE
  2
LTYPE
  5
2A91
330
0
100
AcDbSymbolTable
 70
    25
  0
LTYPE
  5
2AA0
330
2A91
100
AcDbSymbolTableRecord
100
AcDbLinetypeTableRecord
  2
ByBlock
 70
     0
  3

 72
    65
 73
     0
 40
0.0
  0
LTYPE
  5
2AA1
330
2A91
100
AcDbSymbolTableRecord
100
AcDbLinetypeTableRecord
  2
ByLayer
 70
     0
  3

 72
    65
 73
     0
 40
0.0
  0
LTYPE
  5
2AA2
330
2A91
100
AcDbSymbolTableRecord
100
AcDbLinetypeTableRecord
  2
Continuous
 70
     0
  3
Solid line
 72
    65
 73
     0
 40
0.0
  0
LTYPE
  5
2ABD
330
2A91
100
AcDbSymbolTableRecord
100
AcDbLinetypeTableRecord
  2
CENTER
 70
     0
  3
Center ____ _ ____ _ ____ _ ____ _ ____ _ ____
 72
    65
 73
     4
 40
2.0
 49
1.25
 74
     0
 49
-0.25
 74
     0
 49
0.25
 74
     0
 49
-0.25
 74
     0
  0
LTYPE
  5
2ABE
330
2A91
100
AcDbSymbolTableRecord
100
AcDbLinetypeTableRecord
  2
DASHDOT
 70
     0
  3
Dashdot __ . __ . __ . __ . __ . __ . __ . __
 72
    65
 73
     4
 40
1.0
 49
0.5
 74
     0
 49
-0.25
 74
     0
 49
0.0
 74
     0
 49
-0.25
 74
     0
  0
LTYPE
  5
2ABF
330
2A91
100
AcDbSymbolTableRecord
100
AcDbLinetypeTableRecord
  2
DASHED
 70
     0
  3
Dashed __ __ __ __ __ __ __ __ __ __ __ __ __ _
 72
    65
 73
     2
 40
0.75
 49
0.5
 74
     0
 49
-0.25
 74
     0
  0
LTYPE
  5
2AC0
330
2A91
100
AcDbSymbolTableRecord
100
AcDbLinetypeTableRecord
  2
HIDDEN
 70
     0
  3
Hidden __ __ __ __ __ __ __ __ __ __ __ __ __ __
 72
    65
 73
     2
 40
0.375
 49
0.25
 74
     0
 49
-0.125
 74
     0
  0
LTYPE
  5
2AC1
330
2A91
100
AcDbSymbolTableRecord
100
AcDbLinetypeTableRecord
  2
HIDDEN2
 70
     0
  3
Hidden2 _ _ _ _ _ _ _ _ _ _ _ _ _ _ _ _ _ 
 72
    65
 73
     2
 40
0.1875
 49
0.125
 74
     0
 49
-0.0625
 74
     0
  0
LTYPE
  5
2AC2
330
2A91
100
AcDbSymbolTableRecord
100
AcDbLinetypeTableRecord
  2
BORDER
 70
     0
  3
Border __ __ . __ __ . __ __ . __ __ . __ __ .
 72
    65
 73
     6
 40
1.75
 49
0.5
 74
     0
 49
-0.25
 74
     0
 49
0.5
 74
     0
 49
-0.25
 74
     0
 49
0.0
 74
     0
 49
-0.25
 74
     0
  0
LTYPE
  5
2AC3
330
2A91
100
AcDbSymbolTableRecord
100
AcDbLinetypeTableRecord
  2
BORDER2
 70
     0
  3
Border2 __.__.__.__.__.__.__.__.__.__.__.
 72
    65
 73
     6
 40
0.875
 49
0.25
 74
     0
 49
-0.125
 74
     0
 49
0.25
 74
     0
 49
-0.125
 74
     0
 49
0.0
 74
     0
 49
-0.125
 74
     0
  0
LTYPE
  5
2AC4
330
2A91
100
AcDbSymbolTableRecord
100
AcDbLinetypeTableRecord
  2
BORDERX2
 70
     0
  3
Borderx2  ____  ____  .  ____  ____  .  ___
 72
    65
 73
     6
 40
3.5
 49
1.0
 74
     0
 49
-0.5
 74
     0
 49
1.0
 74
     0
 49
-0.5
 74
     0
 49
0.0
 74
     0
 49
-0.5
 74
     0
  0
LTYPE
  5
2AC5
330
2A91
100
AcDbSymbolTableRecord
100
AcDbLinetypeTableRecord
  2
CENTER2
 70
     0
  3
Center2  ___ _ ___ _ ___ _ ___ _ ___ _ ___
 72
    65
 73
     4
 40
1.125
 49
0.75
 74
     0
 49
-0.125
 74
     0
 49
0.125
 74
     0
 49
-0.125
 74
     0
  0
LTYPE
  5
2AC6
330
2A91
100
AcDbSymbolTableRecord
100
AcDbLinetypeTableRecord
  2
CENTERX2
 70
     0
  3
Centerx2  ________  __  ________  __  _____
 72
    65
 73
     4
 40
4.0
 49
2.5
 74
     0
 49
-0.5
 74
     0
 49
0.5
 74
     0
 49
-0.5
 74
     0
  0
LTYPE
  5
2AC7
330
2A91
100
AcDbSymbolTableRecord
100
AcDbLinetypeTableRecord
  2
DASHDOT2
 70
     0
  3
Dashdot2  _._._._._._._._._._._._._._._.
 72
    65
 73
     4
 40
0.5
 49
0.25
 74
     0
 49
-0.125
 74
     0
 49
0.0
 74
     0
 49
-0.125
 74
     0
  0
LTYPE
  5
2AC8
330
2A91
100
AcDbSymbolTableRecord
100
AcDbLinetypeTableRecord
  2
DASHDOTX2
 70
     0
  3
Dashdotx2 ____  .  ____  .  ____  .  ___
 72
    65
 73
     4
 40
2.0
 49
1.0
 74
     0
 49
-0.5
 74
     0
 49
0.0
 74
     0
 49
-0.5
 74
     0
  0
LTYPE
  5
2AC9
330
2A91
100
AcDbSymbolTableRecord
100
AcDbLinetypeTableRecord
  2
DASHED2
 70
     0
  3
Dashed2 _ _ _ _ _ _ _ _ _ _ _ _ _ _ _ _ _ 
 72
    65
 73
     2
 40
0.375
 49
0.25
 74
     0
 49
-0.125
 74
     0
  0
LTYPE
  5
2ACA
330
2A91
100
AcDbSymbolTableRecord
100
AcDbLinetypeTableRecord
  2
DASHEDX2
 70
     0
  3
Dashedx2 ____  ____  ____  ____  ____  ___
 72
    65
 73
     2
 40
1.5
 49
1.0
 74
     0
 49
-0.5
 74
     0
  0
LTYPE
  5
2ACB
330
2A91
100
AcDbSymbolTableRecord
100
AcDbLinetypeTableRecord
  2
DIVIDE
 70
     0
  3
Divide ____ . . ____ . . ____ . . ____ . . ____
 72
    65
 73
     6
 40
1.25
 49
0.5
 74
     0
 49
-0.25
 74
     0
 49
0.0
 74
     0
 49
-0.25
 74
     0
 49
0.0
 74
     0
 49
-0.25
 74
     0
  0
LTYPE
  5
2ACC
330
2A91
100
AcDbSymbolTableRecord
100
AcDbLinetypeTableRecord
  2
DIVIDE2
 70
     0
  3
Divide2 __..__..__..__..__..__..__..__.._
 72
    65
 73
     6
 40
0.625
 49
0.25
 74
     0
 49
-0.125
 74
     0
 49
0.0
 74
     0
 49
-0.125
 74
     0
 49
0.0
 74
     0
 49
-0.125
 74
     0
  0
LTYPE
  5
2ACD
330
2A91
100
AcDbSymbolTableRecord
100
AcDbLinetypeTableRecord
  2
DIVIDEX2
 70
     0
  3
Dividex2 ________  .  .  ________  .  .  _
 72
    65
 73
     6
 40
2.5
 49
1.0
 74
     0
 49
-0.5
 74
     0
 49
0.0
 74
     0
 49
-0.5
 74
     0
 49
0.0
 74
     0
 49
-0.5
 74
     0
  0
LTYPE
  5
2ACE
330
2A91
100
AcDbSymbolTableRecord
100
AcDbLinetypeTableRecord
  2
DOT
 70
     0
  3
Dot . . . . . . . . . . . . . . . . . . . . . . . .
 72
    65
 73
     2
 40
0.25
 49
0.0
 74
     0
 49
-0.25
 74
     0
  0
LTYPE
  5
2ACF
330
2A91
100
AcDbSymbolTableRecord
100
AcDbLinetypeTableRecord
  2
DOT2
 70
     0
  3
Dot2 ........................................
 72
    65
 73
     2
 40
0.125
 49
0.0
 74
     0
 49
-0.125
 74
     0
  0
LTYPE
  5
2AD0
330
2A91
100
AcDbSymbolTableRecord
100
AcDbLinetypeTableRecord
  2
DOTX2
 70
     0
  3
Dotx2 .  .  .  .  .  .  .  .  .  .  .  .  .  .
 72
    65
 73
     2
 40
0.5
 49
0.0
 74
     0
 49
-0.5
 74
     0
  0
LTYPE
  5
2AD1
330
2A91
100
AcDbSymbolTableRecord
100
AcDbLinetypeTableRecord
  2
HIDDENX2
 70
     0
  3
Hiddenx2 ____ ____ ____ ____ ____ ____ ____ 
 72
    65
 73
     2
 40
0.75
 49
0.5
 74
     0
 49
-0.25
 74
     0
  0
LTYPE
  5
2AD2
330
2A91
100
AcDbSymbolTableRecord
100
AcDbLinetypeTableRecord
  2
PHANTOM
 70
     0
  3
Phantom ______  __  __  ______  __  __  ______ 
 72
    65
 73
     6
 40
2.5
 49
1.25
 74
     0
 49
-0.25
 74
     0
 49
0.25
 74
     0
 49
-0.25
 74
     0
 49
0.25
 74
     0
 49
-0.25
 74
     0
  0
LTYPE
  5
2AD3
330
2A91
100
AcDbSymbolTableRecord
100
AcDbLinetypeTableRecord
  2
PHANTOM2
 70
     0
  3
Phantom2 ___ _ _ ___ _ _ ___ _ _ ___ _ _
 72
    65
 73
     6
 40
1.25
 49
0.625
 74
     0
 49
-0.125
 74
     0
 49
0.125
 74
     0
 49
-0.125
 74
     0
 49
0.125
 74
     0
 49
-0.125
 74
     0
  0
LTYPE
  5
2AD4
330
2A91
100
AcDbSymbolTableRecord
100
AcDbLinetypeTableRecord
  2
PHANTOMX2
 70
     0
  3
Phantomx2 ____________    ____    ____   _
 72
    65
 73
     6
 40
5.0
 49
2.5
 74
     0
 49
-0.5
 74
     0
 49
0.5
 74
     0
 49
-0.5
 74
     0
 49
0.5
 74
     0
 49
-0.5
 74
     0
  0
ENDTAB
  0
TABLE
  2
LAYER
  5
2A8E
330
0
100
AcDbSymbolTable
 70
     6
  0
LAYER
  5
2A9C
330
2A8E
100
AcDbSymbolTableRecord
100
AcDbLayerTableRecord
  2
0
 70
     0
 62
     7
  6
Continuous
370
     0
390
2A9B
  0
LAYER
  5
9E
330
2A8E
100
AcDbSymbolTableRecord
100
AcDbLayerTableRecord
  2
DEFPOINTS
 70
     0
 62
     7
  6
Continuous
290
     0
370
     0
390
2A9B
  0
LAYER
  5
377
330
2A8E
100
AcDbSymbolTableRecord
100
AcDbLayerTableRecord
  2
V0-OBRYS
 70
     0
 62
     1
  6
Continuous
370
     0
390
2A9B
  0
LAYER
  5
378
330
2A8E
100
AcDbSymbolTableRecord
100
AcDbLayerTableRecord
  2
V0-VYPLNE
 70
     0
 62
     7
  6
DASHDOT
370
     0
390
2A9B
  0
LAYER
  5
37A
330
2A8E
100
AcDbSymbolTableRecord
100
AcDbLayerTableRecord
  2
V0-NAZVY
 70
     0
 62
   210
  6
Continuous
370
     0
390
2A9B
  0
LAYER
  5
559
330
2A8E
100
AcDbSymbolTableRecord
100
AcDbLayerTableRecord
  2
V0-ZBYTEK
 70
     0
 62
     3
  6
Continuous
370
     0
390
2A9B
  0
ENDTAB
  0
TABLE
  2
STYLE
  5
2A8F
330
0
100
AcDbSymbolTable
 70
    11
  0
STYLE
  5
2A9D
330
2A8F
100
AcDbSymbolTableRecord
100
AcDbTextStyleTableRecord
  2
STANDARD
 70
     0
 40
7.0
 41
1.0
 50
0.0
 71
     0
 42
0.2
  3
ISOCP.shx
  4

1001
ACAD
1000
ISOCP.shx
1071
        0
  0
STYLE
  5
331
330
2A8F
100
AcDbSymbolTableRecord
100
AcDbTextStyleTableRecord
  2
ED30
 70
     0
 40
30.0
 41
1.0
 50
0.0
 71
     0
 42
0.2
  3
ISOCP.shx
  4

1001
ACAD
1000
ISOCP.shx
1071
        0
  0
STYLE
  5
5D2
330
2A8F
100
AcDbSymbolTableRecord
100
AcDbTextStyleTableRecord
  2
ED20
 70
     0
 40
20.0
 41
1.0
 50
0.0
 71
     0
 42
0.2
  3
isocp.shx
  4

1001
ACAD
1000
isocp.shx
1071
        0
  0
STYLE
  5
64F
330
2A8F
100
AcDbSymbolTableRecord
100
AcDbTextStyleTableRecord
  2
ED40
 70
     0
 40
40.0
 41
1.0
 50
0.0
 71
     0
 42
0.2
  3
isocp.shx
  4

1001
ACAD
1000
isocp.shx
1071
        0
  0
STYLE
  5
650
330
2A8F
100
AcDbSymbolTableRecord
100
AcDbTextStyleTableRecord
  2
ED10
 70
     0
 40
10.0
 41
1.0
 50
0.0
 71
     0
 42
0.2
  3
isocp.shx
  4

1001
ACAD
1000
isocp.shx
1071
        0
  0
STYLE
  5
1A9E
330
2A8F
100
AcDbSymbolTableRecord
100
AcDbTextStyleTableRecord
  2
ED50
 70
     0
 40
50.0
 41
1.0
 50
0.0
 71
     0
 42
0.2
  3
isocp.shx
  4

1001
ACAD
1000
isocp.shx
1071
        0
  0
STYLE
  5
2A7F
330
2A8F
100
AcDbSymbolTableRecord
100
AcDbTextStyleTableRecord
  2
Proxy_2A7E
 70
     0
 40
35.4375
 41
1.0
 50
0.0
 71
     0
 42
0.2
  3
TAHOMA.TTF
  4

1001
ACAD
1000
Tahoma
1071
        0
  0
STYLE
  5
2A81
330
2A8F
100
AcDbSymbolTableRecord
100
AcDbTextStyleTableRecord
  2
Proxy_2A80
 70
     0
 40
35.4375
 41
1.0
 50
0.0
 71
     0
 42
0.2
  3
Tahoma
  4

1001
ACAD
1000
Tahoma
1071
        0
  0
STYLE
  5
2A83
330
2A8F
100
AcDbSymbolTableRecord
100
AcDbTextStyleTableRecord
  2
Proxy_2A82
 70
     0
 40
19.84499999999999
 41
1.0
 50
0.0
 71
     0
 42
0.2
  3
TAHOMA.TTF
  4

1001
ACAD
1000
Tahoma
1071
        0
  0
STYLE
  5
2A85
330
2A8F
100
AcDbSymbolTableRecord
100
AcDbTextStyleTableRecord
  2
Proxy_2A84
 70
     0
 40
35.4375
 41
1.0
 50
0.0
 71
     0
 42
0.2
  3
Tahoma
  4

1001
ACAD
1000
Tahoma
1071
        0
  0
STYLE
  5
2A87
330
2A8F
100
AcDbSymbolTableRecord
100
AcDbTextStyleTableRecord
  2
Proxy_2A86
 70
     0
 40
35.4375
 41
1.0
 50
0.0
 71
     0
 42
0.2
  3
Tahoma
  4

1001
ACAD
1000
Tahoma
1071
        0
  0
ENDTAB
  0
TABLE
  2
VIEW
  5
2A92
330
0
100
AcDbSymbolTable
 70
     0
  0
ENDTAB
  0
TABLE
  2
UCS
  5
2A93
330
0
100
AcDbSymbolTable
 70
     0
  0
ENDTAB
  0
TABLE
  2
APPID
  5
2A95
330
0
100
AcDbSymbolTable
 70
     6
  0
APPID
  5
2A9E
330
2A95
100
AcDbSymbolTableRecord
100
AcDbRegAppTableRecord
  2
ACAD
 70
     0
  0
APPID
  5
2AB6
330
2A95
100
AcDbSymbolTableRecord
100
AcDbRegAppTableRecord
  2
VD_INVISIBLE_NOT_FOR_READ
 70
     0
  0
APPID
  5
2AB7
330
2A95
100
AcDbSymbolTableRecord
100
AcDbRegAppTableRecord
  2
VD_TEMPHATCH
 70
     0
  0
APPID
  5
2AB8
330
2A95
100
AcDbSymbolTableRecord
100
AcDbRegAppTableRecord
  2
VDEXTRAPARAM
 70
     0
  0
APPID
  5
2AB9
330
2A95
100
AcDbSymbolTableRecord
100
AcDbRegAppTableRecord
  2
PE_URL
 70
     0
  0
APPID
  5
2ABA
330
2A95
100
AcDbSymbolTableRecord
100
AcDbRegAppTableRecord
  2
VD_UNKNOWN
 70
     0
  0
ENDTAB
  0
TABLE
  2
DIMSTYLE
  5
2A96
330
0
100
AcDbSymbolTable
 70
     6
100
AcDbDimStyleTable
  0
DIMSTYLE
105
2AB3
102
{ACAD_REACTORS
330
263D
330
2689
330
2953
330
2960
330
2992
330
29AA
330
29C3
102
}
330
2A96
100
AcDbSymbolTableRecord
100
AcDbDimStyleTableRecord
  2
STANDARD
 70
     0
 41
15.0
 42
0.625
 44
1.25
 73
     0
 74
     0
 77
     1
140
15.0
147
3.0
172
     1
174
     1
271
     0
288
     1
340
331
342
90
  0
DIMSTYLE
105
397
330
2A96
100
AcDbSymbolTableRecord
100
AcDbDimStyleTableRecord
  2
ED40
 70
     0
 41
35.0
 42
1.0
 44
1.25
 73
     0
 74
     0
 77
     1
140
40.0
147
4.0
172
     1
174
     1
271
     0
288
     1
340
64F
342
90
  0
DIMSTYLE
105
656
330
2A96
100
AcDbSymbolTableRecord
100
AcDbDimStyleTableRecord
  2
ED30
 70
     0
 41
25.0
 42
1.0
 44
1.25
 73
     0
 74
     0
 77
     1
140
30.0
147
4.0
172
     1
174
     1
271
     0
288
     1
340
331
342
90
  0
DIMSTYLE
105
657
330
2A96
100
AcDbSymbolTableRecord
100
AcDbDimStyleTableRecord
  2
ED20
 70
     0
 41
20.0
 42
1.0
 44
1.25
 73
     0
 74
     0
 77
     1
140
20.0
147
2.0
172
     1
174
     1
271
     0
288
     1
340
5D2
342
90
  0
DIMSTYLE
105
658
330
2A96
100
AcDbSymbolTableRecord
100
AcDbDimStyleTableRecord
  2
ED10
 70
     0
 41
15.0
 42
1.0
 44
1.25
 73
     0
 74
     0
 77
     1
140
10.0
147
1.5
172
     1
174
     1
271
     0
288
     1
340
5D2
342
90
  0
DIMSTYLE
105
1A9F
330
2A96
100
AcDbSymbolTableRecord
100
AcDbDimStyleTableRecord
  2
ED50
 70
     0
 41
35.0
 42
1.0
 44
1.25
 73
     0
 74
     0
 77
     1
140
40.0
147
4.0
172
     1
174
     1
271
     0
288
     1
340
64F
342
90
  0
ENDTAB
  0
TABLE
  2
BLOCK_RECORD
  5
2A8D
330
0
100
AcDbSymbolTable
 70
    11
  0
BLOCK_RECORD
  5
2AAB
330
2A8D
100
AcDbSymbolTableRecord
100
AcDbBlockTableRecord
  2
*Model_Space
340
2AAE
  0
BLOCK_RECORD
  5
2AA7
330
2A8D
100
AcDbSymbolTableRecord
100
AcDbBlockTableRecord
  2
*Paper_Space
340
2AAA
  0
BLOCK_RECORD
  5
2AAF
330
2A8D
100
AcDbSymbolTableRecord
100
AcDbBlockTableRecord
  2
*Paper_Space0
340
2AB2
  0
BLOCK_RECORD
  5
90
330
2A8D
100
AcDbSymbolTableRecord
100
AcDbBlockTableRecord
  2
_OPEN
340
0
102
{BLKREFS
331
2AE1
331
2AE0
331
2AED
331
2AEC
331
2AF9
331
2AF8
331
2B05
331
2B04
331
2B11
331
2B10
331
2B1D
331
2B1C
331
2B29
331
2B28
102
}
  0
BLOCK_RECORD
  5
2A89
330
2A8D
100
AcDbSymbolTableRecord
100
AcDbBlockTableRecord
  2
VDDIM_DEFAULT
340
0
  0
BLOCK_RECORD
  5
2A8B
330
2A8D
100
AcDbSymbolTableRecord
100
AcDbBlockTableRecord
  2
VDDIM_NONE
340
0
  0
BLOCK_RECORD
  5
2ADC
330
2A8D
100
AcDbSymbolTableRecord
100
AcDbBlockTableRecord
  2
*D4
340
0
  0
BLOCK_RECORD
  5
2AE8
330
2A8D
100
AcDbSymbolTableRecord
100
AcDbBlockTableRecord
  2
*D5
340
0
  0
BLOCK_RECORD
  5
2AF4
330
2A8D
100
AcDbSymbolTableRecord
100
AcDbBlockTableRecord
  2
*D6
340
0
  0
BLOCK_RECORD
  5
2B00
330
2A8D
100
AcDbSymbolTableRecord
100
AcDbBlockTableRecord
  2
*D7
340
0
  0
BLOCK_RECORD
  5
2B0C
330
2A8D
100
AcDbSymbolTableRecord
100
AcDbBlockTableRecord
  2
*D8
340
0
  0
BLOCK_RECORD
  5
2B18
330
2A8D
100
AcDbSymbolTableRecord
100
AcDbBlockTableRecord
  2
*D9
340
0
  0
BLOCK_RECORD
  5
2B24
330
2A8D
100
AcDbSymbolTableRecord
100
AcDbBlockTableRecord
  2
*D10
340
0
  0
ENDTAB
  0
ENDSEC
  0
SECTION
  2
BLOCKS
  0
BLOCK
  5
2AAC
330
2AAB
100
AcDbEntity
  8
0
100
AcDbBlockBegin
  2
*Model_Space
 70
     0
 71
     0
 10
0.0
 20
0.0
 30
0.0
  3
*Model_Space
  1

  0
ENDBLK
  5
2AAD
330
2AAB
100
AcDbEntity
  8
0
100
AcDbBlockEnd
  0
BLOCK
  5
2AA8
330
2AA7
100
AcDbEntity
 67
     1
  8
0
100
AcDbBlockBegin
  2
*Paper_Space
 70
     0
 71
     0
 10
0.0
 20
0.0
 30
0.0
  3
*Paper_Space
  1

  0
ENDBLK
  5
2AA9
330
2AA7
100
AcDbEntity
 67
     1
  8
0
100
AcDbBlockEnd
  0
BLOCK
  5
2AB0
330
2AAF
100
AcDbEntity
  8
0
100
AcDbBlockBegin
  2
*Paper_Space0
 70
     0
 71
     0
 10
0.0
 20
0.0
 30
0.0
  3
*Paper_Space0
  1

  0
ENDBLK
  5
2AB1
330
2AAF
100
AcDbEntity
  8
0
100
AcDbBlockEnd
  0
BLOCK
  5
2AD5
330
90
100
AcDbEntity
  8
0
100
AcDbBlockBegin
  2
_OPEN
 70
     0
 71
     0
 10
0.0
 20
0.0
 30
0.0
  3
_OPEN
  1

  0
LINE
  5
92
330
90
100
AcDbEntity
  8
0
  6
ByBlock
 62
     0
100
AcDbLine
 10
-1.0
 20
0.1666666666666666
 30
0.0
 11
0.0
 21
0.0
 31
0.0
  0
LINE
  5
93
330
90
100
AcDbEntity
  8
0
  6
ByBlock
 62
     0
100
AcDbLine
 10
0.0
 20
0.0
 30
0.0
 11
-1.0
 21
-0.1666666666666666
 31
0.0
  0
LINE
  5
94
330
90
100
AcDbEntity
  8
0
  6
ByBlock
 62
     0
100
AcDbLine
 10
0.0
 20
0.0
 30
0.0
 11
-1.0
 21
0.0
 31
0.0
  0
ENDBLK
  5
2AD6
330
90
100
AcDbEntity
  8
0
100
AcDbBlockEnd
  0
BLOCK
  5
2AD7
330
2A89
100
AcDbEntity
  8
0
100
AcDbBlockBegin
  2
VDDIM_DEFAULT
 70
     0
 71
     0
 10
0.0
 20
0.0
 30
0.0
  3
VDDIM_DEFAULT
  1

  0
LWPOLYLINE
  5
2A8A
330
2A89
100
AcDbEntity
  8
0
  6
Continuous
 62
     0
100
AcDbPolyline
 90
        4
 70
     0
 43
0.0
 10
0.0
 20
0.0
 10
-1.0
 20
-0.1665
 10
-1.0
 20
0.1665
 10
0.0
 20
0.0
1001
VDEXTRAPARAM
1071
        1
1071
        0
1071
        0
1040
1.0
1000

1000

1040
0.0
1040
0.0
  0
HATCH
  5
2ADB
330
2A89
100
AcDbEntity
  8
0
  6
Continuous
 62
     0
100
AcDbHatch
 10
0.0
 20
0.0
 30
0.0
210
0.0
220
0.0
230
1.0
  2
SOLID
 70
     1
 71
     0
 91
        1
 92
        2
 72
     0
 73
     1
 93
        3
 10
0.0
 20
0.0
 10
-1.0
 20
-0.1665
 10
-1.0
 20
0.1665
 97
        0
 75
     0
 76
     1
 98
        1
 10
0.0
 20
0.0
1001
VDEXTRAPARAM
1071
        1
1071
        0
1071
        0
1040
1.0
1000

1000

1040
0.0
1040
0.0
1001
VD_TEMPHATCH
1000
VD_TEMPHATCH
  0
ENDBLK
  5
2AD8
330
2A89
100
AcDbEntity
  8
0
100
AcDbBlockEnd
  0
BLOCK
  5
2AD9
330
2A8B
100
AcDbEntity
  8
0
100
AcDbBlockBegin
  2
VDDIM_NONE
 70
     0
 71
     0
 10
0.0
 20
0.0
 30
0.0
  3
VDDIM_NONE
  1

  0
ENDBLK
  5
2ADA
330
2A8B
100
AcDbEntity
  8
0
100
AcDbBlockEnd
  0
BLOCK
  5
2AE6
330
2ADC
100
AcDbEntity
  8
0
100
AcDbBlockBegin
  2
*D4
 70
     1
 71
     0
 10
0.0
 20
0.0
 30
0.0
  3
*D4
  1

  0
LINE
  5
2ADD
330
2ADC
100
AcDbEntity
  8
V0-ZBYTEK
 62
     0
370
    -2
100
AcDbLine
 10
7422.488358280009
 20
-2607.876419298715
 30
0.0
 11
7374.872474320233
 21
-2607.876419298715
 31
0.0
  0
LINE
  5
2ADE
330
2ADC
100
AcDbEntity
  8
V0-ZBYTEK
 62
     0
370
    -2
100
AcDbLine
 10
7422.488358280009
 20
-2407.876419298715
 30
0.0
 11
7374.872474320233
 21
-2407.876419298715
 31
0.0
  0
LINE
  5
2ADF
330
2ADC
100
AcDbEntity
  8
V0-ZBYTEK
 62
     0
370
    -2
100
AcDbLine
 10
7376.122474320233
 20
-2592.876419298715
 30
0.0
 11
7376.122474320233
 21
-2422.876419298715
 31
0.0
  0
INSERT
  5
2AE0
330
2ADC
100
AcDbEntity
  8
V0-ZBYTEK
 62
     0
370
    -2
100
AcDbBlockReference
  2
_OPEN
 10
7376.122474320233
 20
-2607.876419298715
 30
0.0
 41
15.0
 42
15.0
 43
15.0
 50
270.0
  0
INSERT
  5
2AE1
330
2ADC
100
AcDbEntity
  8
V0-ZBYTEK
 62
     0
370
    -2
100
AcDbBlockReference
  2
_OPEN
 10
7376.122474320233
 20
-2407.876419298715
 30
0.0
 41
15.0
 42
15.0
 43
15.0
 50
90.0
  0
MTEXT
  5
2AE2
330
2ADC
100
AcDbEntity
  8
V0-ZBYTEK
 62
     0
100
AcDbMText
 10
7365.622474320233
 20
-2507.876419298715
 30
0.0
 40
15.0
 41
0.0
 71
     5
 72
     1
  1
\A1;200
  7
ED30
 11
0.0
 21
-1.0
 31
0.0
 73
     1
 44
1.0
  0
POINT
  5
2AE3
330
2ADC
100
AcDbEntity
  8
DEFPOINTS
 62
     0
100
AcDbPoint
 10
7423.113358280009
 20
-2607.876419298715
 30
0.0
  0
POINT
  5
2AE4
330
2ADC
100
AcDbEntity
  8
DEFPOINTS
 62
     0
100
AcDbPoint
 10
7423.113358280009
 20
-2407.876419298715
 30
0.0
  0
POINT
  5
2AE5
330
2ADC
100
AcDbEntity
  8
DEFPOINTS
 62
     0
100
AcDbPoint
 10
7376.122474320233
 20
-2407.876419298715
 30
0.0
  0
ENDBLK
  5
2AE7
330
2ADC
100
AcDbEntity
  8
0
100
AcDbBlockEnd
  0
BLOCK
  5
2AF2
330
2AE8
100
AcDbEntity
  8
0
100
AcDbBlockBegin
  2
*D5
 70
     1
 71
     0
 10
0.0
 20
0.0
 30
0.0
  3
*D5
  1

  0
LINE
  5
2AE9
330
2AE8
100
AcDbEntity
  8
V0-ZBYTEK
 62
     0
370
    -2
100
AcDbLine
 10
7423.113358280009
 20
-2608.501419298715
 30
0.0
 11
7423.113358280009
 21
-2672.658384568989
 31
0.0
  0
LINE
  5
2AEA
330
2AE8
100
AcDbEntity
  8
V0-ZBYTEK
 62
     0
370
    -2
100
AcDbLine
 10
7623.11335828001
 20
-2608.501419298714
 30
0.0
 11
7623.11335828001
 21
-2672.658384568989
 31
0.0
  0
LINE
  5
2AEB
330
2AE8
100
AcDbEntity
  8
V0-ZBYTEK
 62
     0
370
    -2
100
AcDbLine
 10
7438.113358280009
 20
-2671.408384568989
 30
0.0
 11
7608.11335828001
 21
-2671.408384568989
 31
0.0
  0
INSERT
  5
2AEC
330
2AE8
100
AcDbEntity
  8
V0-ZBYTEK
 62
     0
370
    -2
100
AcDbBlockReference
  2
_OPEN
 10
7423.113358280009
 20
-2671.408384568989
 30
0.0
 41
15.0
 42
15.0
 43
15.0
 50
180.0
  0
INSERT
  5
2AED
330
2AE8
100
AcDbEntity
  8
V0-ZBYTEK
 62
     0
370
    -2
100
AcDbBlockReference
  2
_OPEN
 10
7623.11335828001
 20
-2671.408384568989
 30
0.0
 41
15.0
 42
15.0
 43
15.0
  0
MTEXT
  5
2AEE
330
2AE8
100
AcDbEntity
  8
V0-ZBYTEK
 62
     0
100
AcDbMText
 10
7523.11335828001
 20
-2660.908384568989
 30
0.0
 40
15.0
 41
0.0
 71
     5
 72
     1
  1
\A1;200
  7
ED30
 73
     1
 44
1.0
  0
POINT
  5
2AEF
330
2AE8
100
AcDbEntity
  8
DEFPOINTS
 62
     0
100
AcDbPoint
 10
7423.113358280009
 20
-2607.876419298715
 30
0.0
  0
POINT
  5
2AF0
330
2AE8
100
AcDbEntity
  8
DEFPOINTS
 62
     0
100
AcDbPoint
 10
7623.11335828001
 20
-2607.876419298714
 30
0.0
  0
POINT
  5
2AF1
330
2AE8
100
AcDbEntity
  8
DEFPOINTS
 62
     0
100
AcDbPoint
 10
7623.11335828001
 20
-2671.408384568989
 30
0.0
  0
ENDBLK
  5
2AF3
330
2AE8
100
AcDbEntity
  8
0
100
AcDbBlockEnd
  0
BLOCK
  5
2AFE
330
2AF4
100
AcDbEntity
  8
0
100
AcDbBlockBegin
  2
*D6
 70
     1
 71
     0
 10
0.0
 20
0.0
 30
0.0
  3
*D6
  1

  0
LINE
  5
2AF5
330
2AF4
100
AcDbEntity
  8
V0-ZBYTEK
 62
     0
370
    -2
100
AcDbLine
 10
7841.724277816788
 20
-2433.876419298714
 30
0.0
 11
7822.504278689623
 21
-2433.876419298714
 31
0.0
  0
LINE
  5
2AF6
330
2AF4
100
AcDbEntity
  8
V0-ZBYTEK
 62
     0
370
    -2
100
AcDbLine
 10
7841.724277816786
 20
-2581.876419298714
 30
0.0
 11
7822.504278689623
 21
-2581.876419298714
 31
0.0
  0
LINE
  5
2AF7
330
2AF4
100
AcDbEntity
  8
V0-ZBYTEK
 62
     0
370
    -2
100
AcDbLine
 10
7823.754278689623
 20
-2448.876419298714
 30
0.0
 11
7823.754278689623
 21
-2566.876419298714
 31
0.0
  0
INSERT
  5
2AF8
330
2AF4
100
AcDbEntity
  8
V0-ZBYTEK
 62
     0
370
    -2
100
AcDbBlockReference
  2
_OPEN
 10
7823.754278689623
 20
-2433.876419298714
 30
0.0
 41
15.0
 42
15.0
 43
15.0
 50
90.0
  0
INSERT
  5
2AF9
330
2AF4
100
AcDbEntity
  8
V0-ZBYTEK
 62
     0
370
    -2
100
AcDbBlockReference
  2
_OPEN
 10
7823.754278689623
 20
-2581.876419298714
 30
0.0
 41
15.0
 42
15.0
 43
15.0
 50
270.0
  0
MTEXT
  5
2AFA
330
2AF4
100
AcDbEntity
  8
V0-ZBYTEK
 62
     0
100
AcDbMText
 10
7813.254278689623
 20
-2507.876419298714
 30
0.0
 40
15.0
 41
0.0
 71
     5
 72
     1
  1
%%c148
  7
ED30
 11
0.0
 21
1.0
 31
0.0
 73
     1
 44
1.0
  0
POINT
  5
2AFB
330
2AF4
100
AcDbEntity
  8
DEFPOINTS
 62
     0
100
AcDbPoint
 10
7842.349277816788
 20
-2433.876419298714
 30
0.0
  0
POINT
  5
2AFC
330
2AF4
100
AcDbEntity
  8
DEFPOINTS
 62
     0
100
AcDbPoint
 10
7842.349277816786
 20
-2581.876419298714
 30
0.0
  0
POINT
  5
2AFD
330
2AF4
100
AcDbEntity
  8
DEFPOINTS
 62
     0
100
AcDbPoint
 10
7823.754278689623
 20
-2581.876419298714
 30
0.0
  0
ENDBLK
  5
2AFF
330
2AF4
100
AcDbEntity
  8
0
100
AcDbBlockEnd
  0
BLOCK
  5
2B0A
330
2B00
100
AcDbEntity
  8
0
100
AcDbBlockBegin
  2
*D7
 70
     1
 71
     0
 10
0.0
 20
0.0
 30
0.0
  3
*D7
  1

  0
LINE
  5
2B01
330
2B00
100
AcDbEntity
  8
V0-ZBYTEK
 62
     0
370
    -2
100
AcDbLine
 10
7892.724277816787
 20
-2431.876419298714
 30
0.0
 11
7752.467892542481
 21
-2431.876419298714
 31
0.0
  0
LINE
  5
2B02
330
2B00
100
AcDbEntity
  8
V0-ZBYTEK
 62
     0
370
    -2
100
AcDbLine
 10
7892.724277816788
 20
-2583.876419298714
 30
0.0
 11
7752.467892542481
 21
-2583.876419298714
 31
0.0
  0
LINE
  5
2B03
330
2B00
100
AcDbEntity
  8
V0-ZBYTEK
 62
     0
370
    -2
100
AcDbLine
 10
7753.717892542481
 20
-2446.876419298714
 30
0.0
 11
7753.717892542481
 21
-2568.876419298714
 31
0.0
  0
INSERT
  5
2B04
330
2B00
100
AcDbEntity
  8
V0-ZBYTEK
 62
     0
370
    -2
100
AcDbBlockReference
  2
_OPEN
 10
7753.717892542481
 20
-2431.876419298714
 30
0.0
 41
15.0
 42
15.0
 43
15.0
 50
90.0
  0
INSERT
  5
2B05
330
2B00
100
AcDbEntity
  8
V0-ZBYTEK
 62
     0
370
    -2
100
AcDbBlockReference
  2
_OPEN
 10
7753.717892542481
 20
-2583.876419298714
 30
0.0
 41
15.0
 42
15.0
 43
15.0
 50
270.0
  0
MTEXT
  5
2B06
330
2B00
100
AcDbEntity
  8
V0-ZBYTEK
 62
     0
100
AcDbMText
 10
7743.217892542481
 20
-2507.876419298714
 30
0.0
 40
15.0
 41
0.0
 71
     5
 72
     1
  1
%%c152
  7
ED30
 11
0.0
 21
1.0
 31
0.0
 73
     1
 44
1.0
  0
POINT
  5
2B07
330
2B00
100
AcDbEntity
  8
DEFPOINTS
 62
     0
100
AcDbPoint
 10
7893.349277816787
 20
-2431.876419298714
 30
0.0
  0
POINT
  5
2B08
330
2B00
100
AcDbEntity
  8
DEFPOINTS
 62
     0
100
AcDbPoint
 10
7893.349277816788
 20
-2583.876419298714
 30
0.0
  0
POINT
  5
2B09
330
2B00
100
AcDbEntity
  8
DEFPOINTS
 62
     0
100
AcDbPoint
 10
7753.717892542481
 20
-2583.876419298714
 30
0.0
  0
ENDBLK
  5
2B0B
330
2B00
100
AcDbEntity
  8
0
100
AcDbBlockEnd
  0
BLOCK
  5
2B16
330
2B0C
100
AcDbEntity
  8
0
100
AcDbBlockBegin
  2
*D8
 70
     1
 71
     0
 10
0.0
 20
0.0
 30
0.0
  3
*D8
  1

  0
LINE
  5
2B0D
330
2B0C
100
AcDbEntity
  8
V0-ZBYTEK
 62
     0
370
    -2
100
AcDbLine
 10
7842.349277816788
 20
-2582.501419298714
 30
0.0
 11
7842.349277816788
 21
-2634.95304270089
 31
0.0
  0
LINE
  5
2B0E
330
2B0C
100
AcDbEntity
  8
V0-ZBYTEK
 62
     0
370
    -2
100
AcDbLine
 10
7893.349277816787
 20
-2584.501419298714
 30
0.0
 11
7893.349277816787
 21
-2634.95304270089
 31
0.0
  0
LINE
  5
2B0F
330
2B0C
100
AcDbEntity
  8
V0-ZBYTEK
 62
     0
370
    -2
100
AcDbLine
 10
7857.349277816788
 20
-2633.70304270089
 30
0.0
 11
7878.349277816787
 21
-2633.70304270089
 31
0.0
  0
INSERT
  5
2B10
330
2B0C
100
AcDbEntity
  8
V0-ZBYTEK
 62
     0
370
    -2
100
AcDbBlockReference
  2
_OPEN
 10
7842.349277816788
 20
-2633.70304270089
 30
0.0
 41
15.0
 42
15.0
 43
15.0
 50
180.0
  0
INSERT
  5
2B11
330
2B0C
100
AcDbEntity
  8
V0-ZBYTEK
 62
     0
370
    -2
100
AcDbBlockReference
  2
_OPEN
 10
7893.349277816787
 20
-2633.70304270089
 30
0.0
 41
15.0
 42
15.0
 43
15.0
  0
MTEXT
  5
2B12
330
2B0C
100
AcDbEntity
  8
V0-ZBYTEK
 62
     0
100
AcDbMText
 10
7867.849277816787
 20
-2623.20304270089
 30
0.0
 40
15.0
 41
0.0
 71
     5
 72
     1
  1
\A1;51
  7
ED30
 73
     1
 44
1.0
  0
POINT
  5
2B13
330
2B0C
100
AcDbEntity
  8
DEFPOINTS
 62
     0
100
AcDbPoint
 10
7842.349277816788
 20
-2581.876419298714
 30
0.0
  0
POINT
  5
2B14
330
2B0C
100
AcDbEntity
  8
DEFPOINTS
 62
     0
100
AcDbPoint
 10
7893.349277816787
 20
-2583.876419298714
 30
0.0
  0
POINT
  5
2B15
330
2B0C
100
AcDbEntity
  8
DEFPOINTS
 62
     0
100
AcDbPoint
 10
7893.349277816787
 20
-2633.70304270089
 30
0.0
  0
ENDBLK
  5
2B17
330
2B0C
100
AcDbEntity
  8
0
100
AcDbBlockEnd
  0
BLOCK
  5
2B22
330
2B18
100
AcDbEntity
  8
0
100
AcDbBlockBegin
  2
*D9
 70
     1
 71
     0
 10
0.0
 20
0.0
 30
0.0
  3
*D9
  1

  0
LINE
  5
2B19
330
2B18
100
AcDbEntity
  8
V0-ZBYTEK
 62
     0
370
    -2
100
AcDbLine
 10
7842.349277816788
 20
-2582.501419298714
 30
0.0
 11
7842.349277816788
 21
-2706.156693972666
 31
0.0
  0
LINE
  5
2B1A
330
2B18
100
AcDbEntity
  8
V0-ZBYTEK
 62
     0
370
    -2
100
AcDbLine
 10
7946.349277816789
 20
-2608.710476385024
 30
0.0
 11
7946.349277816789
 21
-2706.156693972666
 31
0.0
  0
LINE
  5
2B1B
330
2B18
100
AcDbEntity
  8
V0-ZBYTEK
 62
     0
370
    -2
100
AcDbLine
 10
7857.349277816788
 20
-2704.906693972666
 30
0.0
 11
7931.349277816789
 21
-2704.906693972666
 31
0.0
  0
INSERT
  5
2B1C
330
2B18
100
AcDbEntity
  8
V0-ZBYTEK
 62
     0
370
    -2
100
AcDbBlockReference
  2
_OPEN
 10
7842.349277816788
 20
-2704.906693972666
 30
0.0
 41
15.0
 42
15.0
 43
15.0
 50
180.0
  0
INSERT
  5
2B1D
330
2B18
100
AcDbEntity
  8
V0-ZBYTEK
 62
     0
370
    -2
100
AcDbBlockReference
  2
_OPEN
 10
7946.349277816789
 20
-2704.906693972666
 30
0.0
 41
15.0
 42
15.0
 43
15.0
  0
MTEXT
  5
2B1E
330
2B18
100
AcDbEntity
  8
V0-ZBYTEK
 62
     0
100
AcDbMText
 10
7894.349277816789
 20
-2694.406693972666
 30
0.0
 40
15.0
 41
0.0
 71
     5
 72
     1
  1
\A1;104
  7
ED30
 73
     1
 44
1.0
  0
POINT
  5
2B1F
330
2B18
100
AcDbEntity
  8
DEFPOINTS
 62
     0
100
AcDbPoint
 10
7842.349277816788
 20
-2581.876419298714
 30
0.0
  0
POINT
  5
2B20
330
2B18
100
AcDbEntity
  8
DEFPOINTS
 62
     0
100
AcDbPoint
 10
7946.349277816789
 20
-2608.085476385024
 30
0.0
  0
POINT
  5
2B21
330
2B18
100
AcDbEntity
  8
DEFPOINTS
 62
     0
100
AcDbPoint
 10
7946.349277816789
 20
-2704.906693972666
 30
0.0
  0
ENDBLK
  5
2B23
330
2B18
100
AcDbEntity
  8
0
100
AcDbBlockEnd
  0
BLOCK
  5
2B2E
330
2B24
100
AcDbEntity
  8
0
100
AcDbBlockBegin
  2
*D10
 70
     1
 71
     0
 10
0.0
 20
0.0
 30
0.0
  3
*D10
  1

  0
LINE
  5
2B25
330
2B24
100
AcDbEntity
  8
V0-ZBYTEK
 62
     0
370
    -2
100
AcDbLine
 10
7842.349277816788
 20
-2706.781693971046
 30
0.0
 11
7842.349277816788
 21
-2783.442779887243
 31
0.0
  0
LINE
  5
2B26
330
2B24
100
AcDbEntity
  8
V0-ZBYTEK
 62
     0
370
    -2
100
AcDbLine
 10
7971.766330571421
 20
-2508.605947841869
 30
0.0
 11
7971.766330571421
 21
-2783.442779887243
 31
0.0
  0
LINE
  5
2B27
330
2B24
100
AcDbEntity
  8
V0-ZBYTEK
 62
     0
370
    -2
100
AcDbLine
 10
7857.349277816788
 20
-2782.192779887243
 30
0.0
 11
7956.766330571421
 21
-2782.192779887243
 31
0.0
  0
INSERT
  5
2B28
330
2B24
100
AcDbEntity
  8
V0-ZBYTEK
 62
     0
370
    -2
100
AcDbBlockReference
  2
_OPEN
 10
7842.349277816788
 20
-2782.192779887243
 30
0.0
 41
15.0
 42
15.0
 43
15.0
 50
180.0
  0
INSERT
  5
2B29
330
2B24
100
AcDbEntity
  8
V0-ZBYTEK
 62
     0
370
    -2
100
AcDbBlockReference
  2
_OPEN
 10
7971.766330571421
 20
-2782.192779887243
 30
0.0
 41
15.0
 42
15.0
 43
15.0
  0
MTEXT
  5
2B2A
330
2B24
100
AcDbEntity
  8
V0-ZBYTEK
 62
     0
100
AcDbMText
 10
7907.057804194104
 20
-2771.692779887243
 30
0.0
 40
15.0
 41
0.0
 71
     5
 72
     1
  1
\A1;129
  7
ED30
 73
     1
 44
1.0
  0
POINT
  5
2B2B
330
2B24
100
AcDbEntity
  8
DEFPOINTS
 62
     0
100
AcDbPoint
 10
7842.349277816788
 20
-2706.156693971046
 30
0.0
  0
POINT
  5
2B2C
330
2B24
100
AcDbEntity
  8
DEFPOINTS
 62
     0
100
AcDbPoint
 10
7971.766330571421
 20
-2507.980947841869
 30
0.0
  0
POINT
  5
2B2D
330
2B24
100
AcDbEntity
  8
DEFPOINTS
 62
     0
100
AcDbPoint
 10
7971.766330571421
 20
-2782.192779887243
 30
0.0
  0
ENDBLK
  5
2B2F
330
2B24
100
AcDbEntity
  8
0
100
AcDbBlockEnd
  0
ENDSEC
  0
SECTION
  2
ENTITIES
  0
LINE
  5
262C
330
2AAB
100
AcDbEntity
  8
V0-OBRYS
  6
Continuous
 62
     3
 48
3.0
100
AcDbLine
 10
7423.113358280009
 20
-2607.876419298715
 30
0.0
 11
7623.11335828001
 21
-2607.876419298714
 31
0.0
  0
LINE
  5
262D
330
2AAB
100
AcDbEntity
  8
V0-OBRYS
  6
Continuous
 62
     3
 48
3.0
100
AcDbLine
 10
7623.11335828001
 20
-2607.876419298714
 30
0.0
 11
7623.11335828001
 21
-2407.876419298714
 31
0.0
  0
LINE
  5
262E
330
2AAB
100
AcDbEntity
  8
V0-OBRYS
  6
Continuous
 62
     3
 48
3.0
100
AcDbLine
 10
7623.11335828001
 20
-2407.876419298714
 30
0.0
 11
7423.113358280009
 21
-2407.876419298715
 31
0.0
  0
LINE
  5
262F
330
2AAB
100
AcDbEntity
  8
V0-OBRYS
  6
Continuous
 62
     3
 48
3.0
100
AcDbLine
 10
7423.113358280009
 20
-2407.876419298715
 30
0.0
 11
7423.113358280009
 21
-2607.876419298715
 31
0.0
  0
DIMENSION
  5
263D
330
2AAB
100
AcDbEntity
  8
V0-ZBYTEK
  6
Continuous
 62
     2
 48
3.0
100
AcDbDimension
  2
*D4
 10
7376.122474320233
 20
-2407.876419298715
 30
0.0
 11
7365.622474320233
 21
-2507.876419298715
 31
0.0
 70
    32
 71
     0
 42
200.0
  3
STANDARD
100
AcDbAlignedDimension
 13
7423.113358280009
 23
-2607.876419298715
 33
0.0
 14
7423.113358280009
 24
-2407.876419298715
 34
0.0
 50
90.0
100
AcDbRotatedDimension
1001
ACAD
1000
DSTYLE
1002
{
1070
    40
1040
1.0
1002
}
  0
DIMENSION
  5
2689
330
2AAB
100
AcDbEntity
  8
V0-ZBYTEK
  6
Continuous
 62
     2
 48
3.0
100
AcDbDimension
  2
*D5
 10
7623.11335828001
 20
-2671.408384568989
 30
0.0
 11
7523.11335828001
 21
-2660.908384568989
 31
0.0
 70
    32
 71
     0
 42
200.0000000000009
  3
STANDARD
100
AcDbAlignedDimension
 13
7423.113358280009
 23
-2607.876419298715
 33
0.0
 14
7623.11335828001
 24
-2607.876419298714
 34
0.0
100
AcDbRotatedDimension
1001
ACAD
1000
DSTYLE
1002
{
1070
    40
1040
1.0
1002
}
  0
LINE
  5
274F
330
2AAB
100
AcDbEntity
  8
V0-OBRYS
  6
Continuous
 62
     3
 48
3.0
100
AcDbLine
 10
7946.349277816789
 20
-2407.876419298714
 30
0.0
 11
7946.349277816789
 21
-2608.085476385024
 31
0.0
  0
LINE
  5
2750
330
2AAB
100
AcDbEntity
  8
V0-OBRYS
  6
Continuous
 62
     3
 48
3.0
100
AcDbLine
 10
7946.349277816789
 20
-2407.876419298714
 30
0.0
 11
7959.129820561493
 21
-2410.03448780753
 31
0.0
  0
LINE
  5
2752
330
2AAB
100
AcDbEntity
  8
V0-OBRYS
  6
Continuous
 62
     3
 48
3.0
100
AcDbLine
 10
7951.658226074413
 20
-2435.320242996663
 30
0.0
 11
7961.710719092891
 21
-2435.320242996663
 31
0.0
  0
LINE
  5
2753
330
2AAB
100
AcDbEntity
  8
V0-OBRYS
  6
Continuous
 62
     3
 48
3.0
100
AcDbLine
 10
7959.129820561493
 20
-2410.03448780753
 30
0.0
 11
7961.803514124089
 21
-2435.320242996663
 31
0.0
  0
LINE
  5
2755
330
2AAB
100
AcDbEntity
  8
V0-OBRYS
  6
Continuous
 62
     3
 48
3.0
100
AcDbLine
 10
7951.658226074413
 20
-2435.320242996663
 30
0.0
 11
7951.658226074413
 21
-2507.980947841868
 31
0.0
  0
LINE
  5
275A
330
2AAB
100
AcDbEntity
  8
V0-VYPLNE
  6
Continuous
 48
3.0
100
AcDbLine
 10
7951.658226074413
 20
-2506.844163002694
 30
0.0
 11
7971.404893629259
 21
-2506.844163002693
 31
0.0
  0
LINE
  5
275C
330
2AAB
100
AcDbEntity
  8
V0-VYPLNE
  6
Continuous
 48
3.0
100
AcDbLine
 10
7951.658226074413
 20
-2496.574362815168
 30
0.0
 11
7968.267170887014
 21
-2496.574362815168
 31
0.0
  0
LINE
  5
275D
330
2AAB
100
AcDbEntity
  8
V0-VYPLNE
  6
Continuous
 48
3.0
100
AcDbLine
 10
7951.658226074413
 20
-2498.63887540721
 30
0.0
 11
7968.332598308201
 21
-2498.638875407211
 31
0.0
  0
LINE
  5
275E
330
2AAB
100
AcDbEntity
  8
V0-VYPLNE
  6
Continuous
 48
3.0
100
AcDbLine
 10
7951.658226074413
 20
-2488.369751665493
 30
0.0
 11
7967.535328614862
 21
-2488.369751665493
 31
0.0
  0
LINE
  5
275F
330
2AAB
100
AcDbEntity
  8
V0-VYPLNE
  6
Continuous
 48
3.0
100
AcDbLine
 10
7951.658226074413
 20
-2486.305239073452
 30
0.0
 11
7967.469901193675
 21
-2486.305239073452
 31
0.0
  0
LINE
  5
2760
330
2AAB
100
AcDbEntity
  8
V0-VYPLNE
  6
Continuous
 48
3.0
100
AcDbLine
 10
7951.658226074413
 20
-2475.943526812392
 30
0.0
 11
7966.447662157408
 21
-2475.943526812392
 31
0.0
  0
LINE
  5
2761
330
2AAB
100
AcDbEntity
  8
V0-VYPLNE
  6
Continuous
 48
3.0
100
AcDbLine
 10
7951.658226074413
 20
-2478.008039404434
 30
0.0
 11
7966.513089578594
 21
-2478.008039404434
 31
0.0
  0
LINE
  5
2762
330
2AAB
100
AcDbEntity
  8
V0-VYPLNE
  6
Continuous
 48
3.0
100
AcDbLine
 10
7951.658226074413
 20
-2468.31186525819
 30
0.0
 11
7966.067028819608
 21
-2468.311865258191
 31
0.0
  0
LINE
  5
2763
330
2AAB
100
AcDbEntity
  8
V0-VYPLNE
  6
Continuous
 48
3.0
100
AcDbLine
 10
7951.658226074414
 20
-2466.247352666149
 30
0.0
 11
7966.001601398423
 21
-2466.247352666149
 31
0.0
  0
ARC
  5
278A
330
2AAB
100
AcDbEntity
  8
V0-VYPLNE
  6
Continuous
 48
3.0
100
AcDbCircle
 10
7964.60795667796
 20
-2467.324812345375
 30
0.0
 40
1.761580247174058
100
AcDbArc
 50
325.9219016102984
 51
37.70845730620436
  0
ARC
  5
278B
330
2AAB
100
AcDbEntity
  8
V0-VYPLNE
  6
Continuous
 48
3.0
100
AcDbCircle
 10
7965.054017436944
 20
-2477.020986491619
 30
0.0
 40
1.761580247174058
100
AcDbArc
 50
325.9219016102984
 51
37.70845730620436
  0
ARC
  5
278C
330
2AAB
100
AcDbEntity
  8
V0-VYPLNE
  6
Continuous
 48
3.0
100
AcDbCircle
 10
7966.076256473212
 20
-2487.382698752679
 30
0.0
 40
1.761580247174058
100
AcDbArc
 50
325.9219016102984
 51
37.70845730620436
  0
ARC
  5
278D
330
2AAB
100
AcDbEntity
  8
V0-VYPLNE
  6
Continuous
 48
3.0
100
AcDbCircle
 10
7966.812254921062
 20
-2497.653764269708
 30
0.0
 40
1.811598180626045
100
AcDbArc
 50
327.058657021469
 51
36.57170189508435
  0
ARC
  5
278E
330
2AAB
100
AcDbEntity
  8
V0-VYPLNE
  6
Continuous
 48
3.0
100
AcDbCircle
 10
7969.797914690598
 20
-2507.980947841869
 30
0.0
 40
1.968415880824377
100
AcDbArc
 50
324.7242231022792
 51
35.27577689773156
  0
LINE
  5
27A9
330
2AAB
100
AcDbEntity
  8
V0-VYPLNE
  6
Continuous
 48
3.0
100
AcDbLine
 10
7623.113358280011
 20
-2549.50548593128
 30
0.0
 11
7423.113358280011
 21
-2549.50548593128
 31
0.0
  0
LINE
  5
27AA
330
2AAB
100
AcDbEntity
  8
V0-VYPLNE
  6
Continuous
 48
3.0
100
AcDbLine
 10
7623.113358280011
 20
-2466.247352666148
 30
0.0
 11
7423.113358280011
 21
-2466.247352666149
 31
0.0
  0
LINE
  5
27AD
330
2AAB
100
AcDbEntity
  8
V0-VYPLNE
  6
Continuous
 48
3.0
100
AcDbLine
 10
7623.113358280011
 20
-2547.440973339238
 30
0.0
 11
7423.113358280011
 21
-2547.440973339238
 31
0.0
  0
LINE
  5
27B6
330
2AAB
100
AcDbEntity
  8
V0-VYPLNE
  6
Continuous
 48
3.0
100
AcDbLine
 10
7623.113358280011
 20
-2508.908675594736
 30
0.0
 11
7423.113358280011
 21
-2508.908675594736
 31
0.0
  0
LINE
  5
27B7
330
2AAB
100
AcDbEntity
  8
V0-VYPLNE
  6
Continuous
 48
3.0
100
AcDbLine
 10
7623.113358280011
 20
-2517.113963190219
 30
0.0
 11
7423.113358280011
 21
-2517.113963190219
 31
0.0
  0
LINE
  5
27B8
330
2AAB
100
AcDbEntity
  8
V0-VYPLNE
  6
Continuous
 48
3.0
100
AcDbLine
 10
7623.113358280011
 20
-2519.178475782261
 30
0.0
 11
7423.113358280011
 21
-2519.17847578226
 31
0.0
  0
LINE
  5
27BB
330
2AAB
100
AcDbEntity
  8
V0-VYPLNE
  6
Continuous
 48
3.0
100
AcDbLine
 10
7623.113358280011
 20
-2537.744799192994
 30
0.0
 11
7423.113358280011
 21
-2537.744799192994
 31
0.0
  0
LINE
  5
27BC
330
2AAB
100
AcDbEntity
  8
V0-VYPLNE
  6
Continuous
 48
3.0
100
AcDbLine
 10
7623.113358280011
 20
-2539.809311785036
 30
0.0
 11
7423.113358280011
 21
-2539.809311785036
 31
0.0
  0
LINE
  5
27BE
330
2AAB
100
AcDbEntity
  8
V0-VYPLNE
  6
Continuous
 48
3.0
100
AcDbLine
 10
7623.113358280011
 20
-2468.311865258191
 30
0.0
 11
7423.113358280011
 21
-2468.31186525819
 31
0.0
  0
LINE
  5
27BF
330
2AAB
100
AcDbEntity
  8
V0-VYPLNE
  6
Continuous
 48
3.0
100
AcDbLine
 10
7623.113358280011
 20
-2475.943526812392
 30
0.0
 11
7423.113358280011
 21
-2475.943526812392
 31
0.0
  0
LINE
  5
27C0
330
2AAB
100
AcDbEntity
  8
V0-VYPLNE
  6
Continuous
 48
3.0
100
AcDbLine
 10
7623.113358280011
 20
-2478.008039404434
 30
0.0
 11
7423.113358280011
 21
-2478.008039404434
 31
0.0
  0
LINE
  5
27C3
330
2AAB
100
AcDbEntity
  8
V0-VYPLNE
  6
Continuous
 48
3.0
100
AcDbLine
 10
7623.113358280011
 20
-2496.574362815168
 30
0.0
 11
7423.113358280011
 21
-2496.574362815167
 31
0.0
  0
LINE
  5
27C4
330
2AAB
100
AcDbEntity
  8
V0-VYPLNE
  6
Continuous
 48
3.0
100
AcDbLine
 10
7623.113358280011
 20
-2498.638875407209
 30
0.0
 11
7423.113358280011
 21
-2498.638875407209
 31
0.0
  0
LINE
  5
27C5
330
2AAB
100
AcDbEntity
  8
V0-VYPLNE
  6
Continuous
 48
3.0
100
AcDbLine
 10
7623.113358280011
 20
-2506.844163002694
 30
0.0
 11
7423.113358280011
 21
-2506.844163002694
 31
0.0
  0
LWPOLYLINE
  5
27CD
330
2AAB
100
AcDbEntity
  8
V0-VYPLNE
  6
Continuous
 48
3.0
100
AcDbPolyline
 90
        4
 70
     1
 43
0.0
 10
7592.629995307643
 20
-2598.684375586366
 10
7601.096353424961
 20
-2598.684375586366
 10
7601.096353424961
 20
-2590.218017469049
 10
7592.629995307643
 20
-2590.218017469049
  0
LINE
  5
27D3
330
2AAB
100
AcDbEntity
  8
V0-VYPLNE
  6
Continuous
 48
3.0
100
AcDbLine
 10
7623.11335828001
 20
-2488.369751665492
 30
0.0
 11
7423.113358280009
 21
-2488.369751665494
 31
0.0
  0
LINE
  5
27D4
330
2AAB
100
AcDbEntity
  8
V0-VYPLNE
  6
Continuous
 48
3.0
100
AcDbLine
 10
7623.113358280011
 20
-2486.305239073452
 30
0.0
 11
7423.113358280009
 21
-2486.305239073452
 31
0.0
  0
LINE
  5
27D7
330
2AAB
100
AcDbEntity
  8
V0-VYPLNE
  6
Continuous
 48
3.0
100
AcDbLine
 10
7623.11335828001
 20
-2527.383086931937
 30
0.0
 11
7423.113358280009
 21
-2527.383086931935
 31
0.0
  0
LINE
  5
27D8
330
2AAB
100
AcDbEntity
  8
V0-VYPLNE
  6
Continuous
 48
3.0
100
AcDbLine
 10
7623.113358280011
 20
-2529.447599523976
 30
0.0
 11
7423.113358280009
 21
-2529.447599523978
 31
0.0
  0
ARC
  5
288B
330
2AAB
100
AcDbEntity
  8
V0-VYPLNE
  6
Continuous
 48
3.0
100
AcDbCircle
 10
7963.636550953473
 20
-2457.256291506993
 30
0.0
 40
1.761580247174058
100
AcDbArc
 50
325.9219016102984
 51
37.70845730620436
  0
LINE
  5
288C
330
2AAB
100
AcDbEntity
  8
V0-VYPLNE
  6
Continuous
 48
3.0
100
AcDbLine
 10
7951.658226074414
 20
-2456.178831827767
 30
0.0
 11
7965.030195673936
 21
-2456.178831827767
 31
0.0
  0
LINE
  5
288D
330
2AAB
100
AcDbEntity
  8
V0-VYPLNE
  6
Continuous
 48
3.0
100
AcDbLine
 10
7951.658226074413
 20
-2458.243344419807
 30
0.0
 11
7965.095623095122
 21
-2458.243344419809
 31
0.0
  0
LINE
  5
2892
330
2AAB
100
AcDbEntity
  8
V0-OBRYS
  6
Continuous
 62
     3
 48
3.0
100
AcDbLine
 10
7951.658226074413
 20
-2580.641652687075
 30
0.0
 11
7951.658226074413
 21
-2507.980947841868
 31
0.0
  0
LINE
  5
2893
330
2AAB
100
AcDbEntity
  8
V0-VYPLNE
  6
Continuous
 48
3.0
100
AcDbLine
 10
7951.658226074413
 20
-2509.117732681044
 30
0.0
 11
7971.40489362926
 21
-2509.117732681044
 31
0.0
  0
LINE
  5
28BC
330
2AAB
100
AcDbEntity
  8
V0-VYPLNE
  6
Continuous
 48
3.0
100
AcDbLine
 10
7623.113358280011
 20
-2458.243344419807
 30
0.0
 11
7423.113358280009
 21
-2458.243344419808
 31
0.0
  0
LINE
  5
28BE
330
2AAB
100
AcDbEntity
  8
V0-VYPLNE
  6
Continuous
 48
3.0
100
AcDbLine
 10
7623.113358280011
 20
-2456.178831827767
 30
0.0
 11
7423.113358280009
 21
-2456.178831827767
 31
0.0
  0
LINE
  5
28C0
330
2AAB
100
AcDbEntity
  8
V0-VYPLNE
  6
Continuous
 48
3.0
100
AcDbLine
 10
7623.113358280011
 20
-2559.783063855971
 30
0.0
 11
7423.113358280009
 21
-2559.783063855971
 31
0.0
  0
LINE
  5
28C2
330
2AAB
100
AcDbEntity
  8
V0-VYPLNE
  6
Continuous
 48
3.0
100
AcDbLine
 10
7623.113358280011
 20
-2557.718551263929
 30
0.0
 11
7423.113358280009
 21
-2557.718551263929
 31
0.0
  0
ARC
  5
28E1
330
2AAB
100
AcDbEntity
  8
V0-VYPLNE
  6
Continuous
 62
     3
 48
3.0
100
AcDbCircle
 10
7940.655445562282
 20
-2507.980947841868
 30
0.0
 40
15.84838669926588
100
AcDbArc
 50
313.9676731026907
 51
46.0323268973059
  0
LINE
  5
293B
330
2AAB
100
AcDbEntity
  8
V0-OBRYS
  6
Continuous
 62
     3
 48
3.0
100
AcDbLine
 10
7893.349277816787
 20
-2583.876419298714
 30
0.0
 11
7946.349277816789
 21
-2583.876419298714
 31
0.0
  0
LINE
  5
293D
330
2AAB
100
AcDbEntity
  8
V0-OBRYS
  6
Continuous
 62
     3
 48
3.0
100
AcDbLine
 10
7946.349277816789
 20
-2431.876419298714
 30
0.0
 11
7893.349277816787
 21
-2431.876419298714
 31
0.0
  0
LINE
  5
293E
330
2AAB
100
AcDbEntity
  8
V0-OBRYS
  6
Continuous
 62
     3
 48
3.0
100
AcDbLine
 10
7842.349277816786
 20
-2433.876419298714
 30
0.0
 11
7842.349277816788
 21
-2581.876419298714
 31
0.0
  0
LINE
  5
2940
330
2AAB
100
AcDbEntity
  8
V0-OBRYS
  6
Continuous
 62
     3
 48
3.0
100
AcDbLine
 10
7842.349277816786
 20
-2581.876419298714
 30
0.0
 11
7893.349277816787
 21
-2581.876419298714
 31
0.0
  0
LINE
  5
2941
330
2AAB
100
AcDbEntity
  8
V0-OBRYS
  6
Continuous
 62
     3
 48
3.0
100
AcDbLine
 10
7893.349277816787
 20
-2583.876419298714
 30
0.0
 11
7893.349277816787
 21
-2431.876419298714
 31
0.0
  0
LINE
  5
2942
330
2AAB
100
AcDbEntity
  8
V0-OBRYS
  6
Continuous
 62
     3
 48
3.0
100
AcDbLine
 10
7893.349277816787
 20
-2433.876419298714
 30
0.0
 11
7842.349277816788
 21
-2433.876419298714
 31
0.0
  0
LINE
  5
2949
330
2AAB
100
AcDbEntity
  8
V0-VYPLNE
  6
Continuous
 48
3.0
100
AcDbLine
 10
7951.658226074414
 20
-2445.72587782785
 30
0.0
 11
7964.020317453035
 21
-2445.72587782785
 31
0.0
  0
LINE
  5
294A
330
2AAB
100
AcDbEntity
  8
V0-VYPLNE
  6
Continuous
 48
3.0
100
AcDbLine
 10
7951.658226074413
 20
-2447.790390419891
 30
0.0
 11
7964.085744874221
 21
-2447.790390419892
 31
0.0
  0
ARC
  5
294B
330
2AAB
100
AcDbEntity
  8
V0-VYPLNE
  6
Continuous
 48
3.0
100
AcDbCircle
 10
7962.626672732572
 20
-2446.803337507077
 30
0.0
 40
1.761580247174058
100
AcDbArc
 50
325.9219016102984
 51
37.70845730620436
  0
LINE
  5
294C
330
2AAB
100
AcDbEntity
  8
V0-OBRYS
  6
Continuous
 62
     3
 48
3.0
100
AcDbLine
 10
7959.129820561493
 20
-2605.927407876208
 30
0.0
 11
7961.803514124089
 21
-2580.641652687075
 31
0.0
  0
LINE
  5
294D
330
2AAB
100
AcDbEntity
  8
V0-OBRYS
  6
Continuous
 62
     3
 48
3.0
100
AcDbLine
 10
7951.658226074413
 20
-2580.641652687075
 30
0.0
 11
7961.710719092891
 21
-2580.641652687075
 31
0.0
  0
LINE
  5
294E
330
2AAB
100
AcDbEntity
  8
V0-OBRYS
  6
Continuous
 62
     3
 48
3.0
100
AcDbLine
 10
7946.349277816789
 20
-2608.085476385024
 30
0.0
 11
7959.129820561493
 21
-2605.927407876208
 31
0.0
  0
DIMENSION
  5
2953
330
2AAB
100
AcDbEntity
  8
V0-ZBYTEK
  6
Continuous
 62
     2
 48
3.0
100
AcDbDimension
  2
*D6
 10
7823.754278689623
 20
-2581.876419298714
 30
0.0
 11
7813.254278689623
 21
-2507.876419298714
 31
0.0
 70
    32
  1
%%c148
 71
     0
 42
148.0
  3
STANDARD
100
AcDbAlignedDimension
 13
7842.349277816788
 23
-2433.876419298714
 33
0.0
 14
7842.349277816786
 24
-2581.876419298714
 34
0.0
 50
90.0
100
AcDbRotatedDimension
1001
ACAD
1000
DSTYLE
1002
{
1070
    40
1040
1.0
1002
}
  0
DIMENSION
  5
2960
330
2AAB
100
AcDbEntity
  8
V0-ZBYTEK
  6
Continuous
 62
     2
 48
3.0
100
AcDbDimension
  2
*D7
 10
7753.717892542481
 20
-2583.876419298714
 30
0.0
 11
7743.217892542481
 21
-2507.876419298714
 31
0.0
 70
    32
  1
%%c152
 71
     0
 42
152.0
  3
STANDARD
100
AcDbAlignedDimension
 13
7893.349277816787
 23
-2431.876419298714
 33
0.0
 14
7893.349277816788
 24
-2583.876419298714
 34
0.0
 50
90.0
100
AcDbRotatedDimension
1001
ACAD
1000
DSTYLE
1002
{
1070
    40
1040
1.0
1002
}
  0
DIMENSION
  5
2992
330
2AAB
100
AcDbEntity
  8
V0-ZBYTEK
  6
Continuous
 62
     2
 48
3.0
100
AcDbDimension
  2
*D8
 10
7893.349277816787
 20
-2633.70304270089
 30
0.0
 11
7867.849277816787
 21
-2623.20304270089
 31
0.0
 70
    32
 71
     0
 42
50.99999999999909
  3
STANDARD
100
AcDbAlignedDimension
 13
7842.349277816788
 23
-2581.876419298714
 33
0.0
 14
7893.349277816787
 24
-2583.876419298714
 34
0.0
100
AcDbRotatedDimension
1001
ACAD
1000
DSTYLE
1002
{
1070
    40
1040
1.0
1002
}
  0
DIMENSION
  5
29AA
330
2AAB
100
AcDbEntity
  8
V0-ZBYTEK
  6
Continuous
 62
     2
 48
3.0
100
AcDbDimension
  2
*D9
 10
7946.349277816789
 20
-2704.906693972666
 30
0.0
 11
7894.349277816789
 21
-2694.406693972666
 31
0.0
 70
    32
 71
     0
 42
104.0000000000009
  3
STANDARD
100
AcDbAlignedDimension
 13
7842.349277816788
 23
-2581.876419298714
 33
0.0
 14
7946.349277816789
 24
-2608.085476385024
 34
0.0
100
AcDbRotatedDimension
1001
ACAD
1000
DSTYLE
1002
{
1070
    40
1040
1.0
1002
}
  0
DIMENSION
  5
29C3
330
2AAB
100
AcDbEntity
  8
V0-ZBYTEK
  6
Continuous
 62
     2
 48
3.0
100
AcDbDimension
  2
*D10
 10
7971.766330571421
 20
-2782.192779887243
 30
0.0
 11
7907.057804194104
 21
-2771.692779887243
 31
0.0
 70
    32
 71
     0
 42
129.417052754633
  3
STANDARD
100
AcDbAlignedDimension
 13
7842.349277816788
 23
-2706.156693971046
 33
0.0
 14
7971.766330571421
 24
-2507.980947841869
 34
0.0
100
AcDbRotatedDimension
1001
ACAD
1000
DSTYLE
1002
{
1070
    40
1040
1.0
1002
}
  0
LINE
  5
29E2
330
2AAB
100
AcDbEntity
  8
V0-VYPLNE
  6
Continuous
 48
3.0
100
AcDbLine
 10
7951.658226074413
 20
-2517.323020276528
 30
0.0
 11
7968.332598308201
 21
-2517.323020276527
 31
0.0
  0
LINE
  5
29E3
330
2AAB
100
AcDbEntity
  8
V0-VYPLNE
  6
Continuous
 48
3.0
100
AcDbLine
 10
7951.658226074413
 20
-2519.38753286857
 30
0.0
 11
7968.267170887014
 21
-2519.38753286857
 31
0.0
  0
LINE
  5
29E4
330
2AAB
100
AcDbEntity
  8
V0-VYPLNE
  6
Continuous
 48
3.0
100
AcDbLine
 10
7951.658226074413
 20
-2529.656656610286
 30
0.0
 11
7967.469901193675
 21
-2529.656656610286
 31
0.0
  0
LINE
  5
29E5
330
2AAB
100
AcDbEntity
  8
V0-VYPLNE
  6
Continuous
 48
3.0
100
AcDbLine
 10
7951.658226074413
 20
-2527.592144018245
 30
0.0
 11
7967.535328614862
 21
-2527.592144018245
 31
0.0
  0
LINE
  5
29E6
330
2AAB
100
AcDbEntity
  8
V0-VYPLNE
  6
Continuous
 48
3.0
100
AcDbLine
 10
7951.658226074413
 20
-2540.018368871346
 30
0.0
 11
7966.447662157408
 21
-2540.018368871346
 31
0.0
  0
LINE
  5
29E7
330
2AAB
100
AcDbEntity
  8
V0-VYPLNE
  6
Continuous
 48
3.0
100
AcDbLine
 10
7951.658226074413
 20
-2537.953856279303
 30
0.0
 11
7966.513089578594
 21
-2537.953856279304
 31
0.0
  0
LINE
  5
29E8
330
2AAB
100
AcDbEntity
  8
V0-VYPLNE
  6
Continuous
 48
3.0
100
AcDbLine
 10
7951.658226074413
 20
-2547.650030425547
 30
0.0
 11
7966.067028819608
 21
-2547.650030425547
 31
0.0
  0
LINE
  5
29E9
330
2AAB
100
AcDbEntity
  8
V0-VYPLNE
  6
Continuous
 48
3.0
100
AcDbLine
 10
7951.658226074414
 20
-2549.714543017589
 30
0.0
 11
7966.001601398423
 21
-2549.714543017589
 31
0.0
  0
LINE
  5
29EA
330
2AAB
100
AcDbEntity
  8
V0-VYPLNE
  6
Continuous
 48
3.0
100
AcDbLine
 10
7951.658226074413
 20
-2557.71855126393
 30
0.0
 11
7965.095623095122
 21
-2557.718551263929
 31
0.0
  0
LINE
  5
29EB
330
2AAB
100
AcDbEntity
  8
V0-VYPLNE
  6
Continuous
 48
3.0
100
AcDbLine
 10
7951.658226074414
 20
-2559.783063855971
 30
0.0
 11
7965.030195673936
 21
-2559.783063855971
 31
0.0
  0
LINE
  5
29EC
330
2AAB
100
AcDbEntity
  8
V0-VYPLNE
  6
Continuous
 48
3.0
100
AcDbLine
 10
7951.658226074413
 20
-2568.171505263847
 30
0.0
 11
7964.085744874221
 21
-2568.171505263846
 31
0.0
  0
LINE
  5
29ED
330
2AAB
100
AcDbEntity
  8
V0-VYPLNE
  6
Continuous
 48
3.0
100
AcDbLine
 10
7951.658226074414
 20
-2570.236017855888
 30
0.0
 11
7964.020317453035
 21
-2570.236017855888
 31
0.0
  0
ARC
  5
29EE
330
2AAB
100
AcDbEntity
  8
V0-VYPLNE
  6
Continuous
 48
3.0
100
AcDbCircle
 10
7962.626672732572
 20
-2569.158558176662
 30
0.0
 40
1.761580247174058
100
AcDbArc
 50
322.2915426937956
 51
34.0780983897016
  0
ARC
  5
29EF
330
2AAB
100
AcDbEntity
  8
V0-VYPLNE
  6
Continuous
 48
3.0
100
AcDbCircle
 10
7964.60795667796
 20
-2548.637083338363
 30
0.0
 40
1.761580247174058
100
AcDbArc
 50
322.2915426937956
 51
34.0780983897016
  0
ARC
  5
29F0
330
2AAB
100
AcDbEntity
  8
V0-VYPLNE
  6
Continuous
 48
3.0
100
AcDbCircle
 10
7965.054017436944
 20
-2538.940909192119
 30
0.0
 40
1.761580247174058
100
AcDbArc
 50
322.2915426937956
 51
34.0780983897016
  0
ARC
  5
29F1
330
2AAB
100
AcDbEntity
  8
V0-VYPLNE
  6
Continuous
 48
3.0
100
AcDbCircle
 10
7966.076256473212
 20
-2528.57919693106
 30
0.0
 40
1.761580247174058
100
AcDbArc
 50
322.2915426937956
 51
34.0780983897016
  0
ARC
  5
29F2
330
2AAB
100
AcDbEntity
  8
V0-VYPLNE
  6
Continuous
 48
3.0
100
AcDbCircle
 10
7966.812254921062
 20
-2518.308131414029
 30
0.0
 40
1.811598180626045
100
AcDbArc
 50
323.4282981049156
 51
32.94134297853094
  0
ARC
  5
29F3
330
2AAB
100
AcDbEntity
  8
V0-VYPLNE
  6
Continuous
 48
3.0
100
AcDbCircle
 10
7963.636550953473
 20
-2558.705604176745
 30
0.0
 40
1.761580247174058
100
AcDbArc
 50
322.2915426937956
 51
34.0780983897016
  0
LINE
  5
29F7
330
2AAB
100
AcDbEntity
  8
V0-OBRYS
  6
Continuous
 62
     3
 48
3.0
100
AcDbLine
 10
7623.11335828001
 20
-2580.641652687075
 30
0.0
 11
7423.113358280009
 21
-2580.641652687075
 31
0.0
  0
LINE
  5
29F9
330
2AAB
100
AcDbEntity
  8
V0-OBRYS
  6
Continuous
 62
     3
 48
3.0
100
AcDbLine
 10
7623.11335828001
 20
-2435.320242996663
 30
0.0
 11
7423.113358280009
 21
-2435.320242996663
 31
0.0
  0
LINE
  5
29FC
330
2AAB
100
AcDbEntity
  8
V0-VYPLNE
  6
Continuous
 48
3.0
100
AcDbLine
 10
7623.11335828001
 20
-2447.790390419891
 30
0.0
 11
7423.113358280009
 21
-2447.790390419891
 31
0.0
  0
LINE
  5
29FE
330
2AAB
100
AcDbEntity
  8
V0-VYPLNE
  6
Continuous
 48
3.0
100
AcDbLine
 10
7623.11335828001
 20
-2445.72587782785
 30
0.0
 11
7423.113358280009
 21
-2445.72587782785
 31
0.0
  0
LINE
  5
2A01
330
2AAB
100
AcDbEntity
  8
V0-VYPLNE
  6
Continuous
 48
3.0
100
AcDbLine
 10
7623.11335828001
 20
-2570.236017855888
 30
0.0
 11
7423.113358280009
 21
-2570.236017855888
 31
0.0
  0
LINE
  5
2A03
330
2AAB
100
AcDbEntity
  8
V0-VYPLNE
  6
Continuous
 48
3.0
100
AcDbLine
 10
7623.11335828001
 20
-2568.171505263847
 30
0.0
 11
7423.113358280009
 21
-2568.171505263847
 31
0.0
  0
CIRCLE
  5
2A07
330
2AAB
100
AcDbEntity
  8
V0-OBRYS
  6
Continuous
 62
     3
 48
3.0
100
AcDbCircle
 10
7523.11335828001
 20
-2507.980947841869
 30
0.0
 40
72.49505700421739
  0
CIRCLE
  5
2A08
330
2AAB
100
AcDbEntity
  8
V0-OBRYS
  6
Continuous
 62
     3
 48
3.0
100
AcDbCircle
 10
7523.11335828001
 20
-2507.980947841869
 30
0.0
 40
46.9892624405672
  0
CIRCLE
  5
2A09
330
2AAB
100
AcDbEntity
  8
V0-OBRYS
  6
Continuous
 62
     3
 48
3.0
100
AcDbCircle
 10
7523.11335828001
 20
-2507.980947841869
 30
0.0
 40
23.6354768301574
  0
CIRCLE
  5
2A0B
330
2AAB
100
AcDbEntity
  8
V0-OBRYS
  6
Continuous
 62
     3
 48
3.0
100
AcDbCircle
 10
7523.11335828001
 20
-2507.980947841869
 30
0.0
 40
1.69481453067874
  0
CIRCLE
  5
2A0C
330
2AAB
100
AcDbEntity
  8
V0-OBRYS
  6
Continuous
 62
     3
 48
3.0
100
AcDbCircle
 10
7523.11335828001
 20
-2486.305239073452
 30
0.0
 40
1.693913566718093
  0
CIRCLE
  5
2A0D
330
2AAB
100
AcDbEntity
  8
V0-OBRYS
  6
Continuous
 62
     3
 48
3.0
100
AcDbCircle
 10
7523.11335828001
 20
-2529.447599523976
 30
0.0
 40
1.693913566718093
  0
LINE
  5
2A0F
330
2AAB
100
AcDbEntity
  8
V0-OBRYS
  6
Continuous
 62
     3
 48
3.0
100
AcDbLine
 10
7561.072361637812
 20
-2535.749722549999
 30
0.0
 11
7582.279654755119
 21
-2549.919982779077
 31
0.0
  0
LINE
  5
2A10
330
2AAB
100
AcDbEntity
  8
V0-OBRYS
  6
Continuous
 62
     3
 48
3.0
100
AcDbLine
 10
7563.29464256989
 20
-2532.423844100789
 30
0.0
 11
7584.501935687197
 21
-2546.594104329866
 31
0.0
  0
LINE
  5
2A12
330
2AAB
100
AcDbEntity
  8
V0-OBRYS
  6
Continuous
 62
     3
 48
3.0
100
AcDbLine
 10
7569.467080383113
 20
-2515.16209412584
 30
0.0
 11
7594.482788256129
 21
-2520.138027800539
 31
0.0
  0
LINE
  5
2A13
330
2AAB
100
AcDbEntity
  8
V0-OBRYS
  6
Continuous
 62
     3
 48
3.0
100
AcDbLine
 10
7568.686719095049
 20
-2519.085235247452
 30
0.0
 11
7593.702426968066
 21
-2524.061168922151
 31
0.0
  0
LINE
  5
2A14
330
2AAB
100
AcDbEntity
  8
V0-OBRYS
  6
Continuous
 62
     3
 48
3.0
100
AcDbLine
 10
7550.85847558003
 20
-2545.904545386362
 30
0.0
 11
7565.028735809106
 21
-2567.111838503668
 31
0.0
  0
LINE
  5
2A15
330
2AAB
100
AcDbEntity
  8
V0-OBRYS
  6
Continuous
 62
     3
 48
3.0
100
AcDbLine
 10
7547.532597130818
 20
-2548.12682631844
 30
0.0
 11
7561.702857359896
 21
-2569.334119435748
 31
0.0
  0
LINE
  5
2A17
330
2AAB
100
AcDbEntity
  8
V0-OBRYS
  6
Continuous
 62
     3
 48
3.0
100
AcDbLine
 10
7534.233771804664
 20
-2553.635380132165
 30
0.0
 11
7539.209705479364
 21
-2578.651088005182
 31
0.0
  0
LINE
  5
2A18
330
2AAB
100
AcDbEntity
  8
V0-OBRYS
  6
Continuous
 62
     3
 48
3.0
100
AcDbLine
 10
7530.31063068305
 20
-2554.41574142023
 30
0.0
 11
7535.28656435775
 21
-2579.431449293247
 31
0.0
  0
LINE
  5
2A1A
330
2AAB
100
AcDbEntity
  8
V0-OBRYS
  6
Continuous
 62
     3
 48
3.0
100
AcDbLine
 10
7515.916085876971
 20
-2554.41574142023
 30
0.0
 11
7510.94015220227
 21
-2579.431449293247
 31
0.0
  0
LINE
  5
2A1B
330
2AAB
100
AcDbEntity
  8
V0-OBRYS
  6
Continuous
 62
     3
 48
3.0
100
AcDbLine
 10
7511.992944755357
 20
-2553.635380132165
 30
0.0
 11
7507.017011080657
 21
-2578.651088005182
 31
0.0
  0
LINE
  5
2A1C
330
2AAB
100
AcDbEntity
  8
V0-OBRYS
  6
Continuous
 62
     3
 48
3.0
100
AcDbLine
 10
7498.694119429202
 20
-2548.12682631844
 30
0.0
 11
7484.523859200125
 21
-2569.334119435748
 31
0.0
  0
LINE
  5
2A1D
330
2AAB
100
AcDbEntity
  8
V0-OBRYS
  6
Continuous
 62
     3
 48
3.0
100
AcDbLine
 10
7495.368240979991
 20
-2545.904545386362
 30
0.0
 11
7481.197980750915
 21
-2567.111838503668
 31
0.0
  0
LINE
  5
2A1E
330
2AAB
100
AcDbEntity
  8
V0-OBRYS
  6
Continuous
 62
     3
 48
3.0
100
AcDbLine
 10
7482.932073990131
 20
-2532.423844100789
 30
0.0
 11
7461.724780872824
 21
-2546.594104329866
 31
0.0
  0
LINE
  5
2A1F
330
2AAB
100
AcDbEntity
  8
V0-OBRYS
  6
Continuous
 62
     3
 48
3.0
100
AcDbLine
 10
7485.154354922208
 20
-2535.749722549999
 30
0.0
 11
7463.947061804901
 21
-2549.919982779077
 31
0.0
  0
LINE
  5
2A20
330
2AAB
100
AcDbEntity
  8
V0-OBRYS
  6
Continuous
 62
     3
 48
3.0
100
AcDbLine
 10
7477.539997464972
 20
-2519.085235247452
 30
0.0
 11
7452.524289591955
 21
-2524.061168922151
 31
0.0
  0
LINE
  5
2A21
330
2AAB
100
AcDbEntity
  8
V0-OBRYS
  6
Continuous
 62
     3
 48
3.0
100
AcDbLine
 10
7476.759636176907
 20
-2515.16209412584
 30
0.0
 11
7451.743928303891
 21
-2520.138027800539
 31
0.0
  0
LINE
  5
2A22
330
2AAB
100
AcDbEntity
  8
V0-OBRYS
  6
Continuous
 62
     3
 48
3.0
100
AcDbLine
 10
7477.539997464972
 20
-2496.876660436286
 30
0.0
 11
7452.524289591955
 21
-2491.900726761587
 31
0.0
  0
LINE
  5
2A23
330
2AAB
100
AcDbEntity
  8
V0-OBRYS
  6
Continuous
 62
     3
 48
3.0
100
AcDbLine
 10
7476.759636176907
 20
-2500.799801557898
 30
0.0
 11
7451.743928303891
 21
-2495.823867883199
 31
0.0
  0
LINE
  5
2A24
330
2AAB
100
AcDbEntity
  8
V0-OBRYS
  6
Continuous
 62
     3
 48
3.0
100
AcDbLine
 10
7485.154354922208
 20
-2480.212173133739
 30
0.0
 11
7463.947061804901
 21
-2466.041912904661
 31
0.0
  0
LINE
  5
2A25
330
2AAB
100
AcDbEntity
  8
V0-OBRYS
  6
Continuous
 62
     3
 48
3.0
100
AcDbLine
 10
7482.932073990131
 20
-2483.538051582949
 30
0.0
 11
7461.724780872824
 21
-2469.367791353872
 31
0.0
  0
LINE
  5
2A26
330
2AAB
100
AcDbEntity
  8
V0-OBRYS
  6
Continuous
 62
     3
 48
3.0
100
AcDbLine
 10
7498.694119429202
 20
-2467.835069365298
 30
0.0
 11
7484.523859200125
 21
-2446.62777624799
 31
0.0
  0
LINE
  5
2A27
330
2AAB
100
AcDbEntity
  8
V0-OBRYS
  6
Continuous
 62
     3
 48
3.0
100
AcDbLine
 10
7495.368240979991
 20
-2470.057350297375
 30
0.0
 11
7481.197980750915
 21
-2448.850057180069
 31
0.0
  0
LINE
  5
2A28
330
2AAB
100
AcDbEntity
  8
V0-OBRYS
  6
Continuous
 62
     3
 48
3.0
100
AcDbLine
 10
7511.992944755357
 20
-2462.326515551573
 30
0.0
 11
7507.017011080657
 21
-2437.310807678556
 31
0.0
  0
LINE
  5
2A29
330
2AAB
100
AcDbEntity
  8
V0-OBRYS
  6
Continuous
 62
     3
 48
3.0
100
AcDbLine
 10
7515.916085876971
 20
-2461.546154263508
 30
0.0
 11
7510.94015220227
 21
-2436.530446390491
 31
0.0
  0
LINE
  5
2A2A
330
2AAB
100
AcDbEntity
  8
V0-OBRYS
  6
Continuous
 62
     3
 48
3.0
100
AcDbLine
 10
7530.31063068305
 20
-2461.546154263508
 30
0.0
 11
7535.28656435775
 21
-2436.530446390491
 31
0.0
  0
LINE
  5
2A2B
330
2AAB
100
AcDbEntity
  8
V0-OBRYS
  6
Continuous
 62
     3
 48
3.0
100
AcDbLine
 10
7534.233771804664
 20
-2462.326515551573
 30
0.0
 11
7539.209705479364
 21
-2437.310807678556
 31
0.0
  0
LINE
  5
2A2C
330
2AAB
100
AcDbEntity
  8
V0-OBRYS
  6
Continuous
 62
     3
 48
3.0
100
AcDbLine
 10
7547.532597130818
 20
-2467.835069365298
 30
0.0
 11
7561.702857359896
 21
-2446.62777624799
 31
0.0
  0
LINE
  5
2A2D
330
2AAB
100
AcDbEntity
  8
V0-OBRYS
  6
Continuous
 62
     3
 48
3.0
100
AcDbLine
 10
7550.85847558003
 20
-2470.057350297375
 30
0.0
 11
7565.028735809106
 21
-2448.850057180069
 31
0.0
  0
LINE
  5
2A2E
330
2AAB
100
AcDbEntity
  8
V0-OBRYS
  6
Continuous
 62
     3
 48
3.0
100
AcDbLine
 10
7563.29464256989
 20
-2483.538051582949
 30
0.0
 11
7584.501935687197
 21
-2469.367791353872
 31
0.0
  0
LINE
  5
2A2F
330
2AAB
100
AcDbEntity
  8
V0-OBRYS
  6
Continuous
 62
     3
 48
3.0
100
AcDbLine
 10
7561.072361637812
 20
-2480.212173133739
 30
0.0
 11
7582.279654755119
 21
-2466.041912904661
 31
0.0
  0
LINE
  5
2A30
330
2AAB
100
AcDbEntity
  8
V0-OBRYS
  6
Continuous
 62
     3
 48
3.0
100
AcDbLine
 10
7569.467080383113
 20
-2500.799801557898
 30
0.0
 11
7594.482788256129
 21
-2495.823867883199
 31
0.0
  0
LINE
  5
2A31
330
2AAB
100
AcDbEntity
  8
V0-OBRYS
  6
Continuous
 62
     3
 48
3.0
100
AcDbLine
 10
7568.686719095049
 20
-2496.876660436286
 30
0.0
 11
7593.702426968066
 21
-2491.900726761587
 31
0.0
  0
TEXT
  5
2A7E
330
2AAB
100
AcDbEntity
  8
V0-NAZVY
100
AcDbText
 10
7514.04818421484
 20
-2816.511664027391
 30
0.0
 40
35.4375
  1
DECOR 300
  7
Proxy_2A7E
100
AcDbText
  0
TEXT
  5
2A82
330
2AAB
100
AcDbEntity
  8
V0-NAZVY
100
AcDbText
 10
7474.606216844269
 20
-2853.172059159852
 30
0.0
 40
19.84499999999999
  1
MALÝ AXIÁLNÍ VENTILÁTOR
  7
Proxy_2A82
100
AcDbText
  0
VIEWPORT
  5
2B30
330
2AA7
100
AcDbEntity
 67
     1
  8
0
 60
     1
100
AcDbViewport
 10
261.5176991150442
 20
148.5
 30
0.0
 40
297.0
 41
297.0
 69
     1
 12
261.5176991150442
 22
148.5
 13
0.0
 23
0.0
 14
1.0
 24
1.0
 15
0.0
 25
0.0
 16
0.0
 26
0.0
 36
1.0
 17
0.0
 27
0.0
 37
0.0
 42
0.0
 43
0.0
 44
0.0
 45
297.0
 50
0.0
 51
0.0000000000007958
 72
   100
 90
   163872
  1

281
     0
 71
     0
 74
     0
110
0.0
120
0.0
130
0.0
111
1.0
121
0.0
131
0.0
112
0.0
122
1.0
132
0.0
 79
     0
146
0.0
1001
VD_INVISIBLE_NOT_FOR_READ
1000
VD_INVISIBLE_NOT_FOR_READ
  0
VIEWPORT
  5
2B31
330
2AA7
100
AcDbEntity
 67
     1
  8
0
 60
     1
100
AcDbViewport
 10
261.5176991150442
 20
148.5
 30
0.0
 40
297.0
 41
297.0
 69
     2
 12
261.5176991150442
 22
148.5
 13
0.0
 23
0.0
 14
1.0
 24
1.0
 15
0.0
 25
0.0
 16
0.0
 26
0.0
 36
1.0
 17
0.0
 27
0.0
 37
0.0
 42
0.0
 43
0.0
 44
0.0
 45
297.0
 50
0.0
 51
0.0000000000007958
 72
   100
 90
   163872
  1

281
     0
 71
     0
 74
     0
110
0.0
120
0.0
130
0.0
111
1.0
121
0.0
131
0.0
112
0.0
122
1.0
132
0.0
 79
     0
146
0.0
1001
VD_INVISIBLE_NOT_FOR_READ
1000
VD_INVISIBLE_NOT_FOR_READ
  0
ENDSEC
  0
SECTION
  2
OBJECTS
  0
DICTIONARY
  5
2A98
330
0
100
AcDbDictionary
281
     1
  3
ACAD_GROUP
350
2A99
  3
ACAD_LAYOUT
350
2AA6
  3
ACAD_MLINESTYLE
350
2AA3
  3
ACAD_PLOTSETTINGS
350
2AA5
  3
ACAD_PLOTSTYLENAME
350
2A9A
  3
VECTORDRAW_OBJECTS
350
2ABB
  0
DICTIONARY
  5
2A99
102
{ACAD_REACTORS
330
2A98
102
}
330
2A98
100
AcDbDictionary
281
     1
  0
DICTIONARY
  5
2AA6
102
{ACAD_REACTORS
330
2A98
102
}
330
2A98
100
AcDbDictionary
281
     1
  3
Layout2
350
2AB2
  3
Model
350
2AAE
  3
Rozvržení1
350
2AAA
  0
DICTIONARY
  5
2AA3
102
{ACAD_REACTORS
330
2A98
102
}
330
2A98
100
AcDbDictionary
281
     1
  3
Standard
350
2AA4
  0
DICTIONARY
  5
2AA5
102
{ACAD_REACTORS
330
2A98
102
}
330
2A98
100
AcDbDictionary
281
     1
  0
ACDBDICTIONARYWDFLT
  5
2A9A
102
{ACAD_REACTORS
330
2A98
102
}
330
2A98
100
AcDbDictionary
281
     1
  3
Normal
350
2A9B
100
AcDbDictionaryWithDefault
340
2A9B
  0
DICTIONARY
  5
2ABB
102
{ACAD_REACTORS
330
2A98
102
}
330
2A98
100
AcDbDictionary
281
     1
  3
SERIALNO
350
2ABC
  0
LAYOUT
  5
2AB2
102
{ACAD_REACTORS
330
2AA6
102
}
330
2AA6
100
AcDbPlotSettings
  1

  2

  4

  6

 40
0.0
 41
0.0
 42
0.0
 43
0.0
 44
0.0
 45
0.0
 46
0.0
 47
0.0
 48
0.0
 49
0.0
140
0.0
141
0.0
142
1.0
143
1.0
 70
   688
 72
     0
 73
     0
 74
     5
  7

 75
    16
147
1.0
148
0.0
149
0.0
100
AcDbLayout
  1
Layout2
 70
     1
 71
     2
 10
0.0
 20
0.0
 11
0.0
 21
0.0
 12
0.0
 22
0.0
 32
0.0
 14
0.0
 24
0.0
 34
0.0
 15
0.0
 25
0.0
 35
0.0
146
0.0
 13
0.0
 23
0.0
 33
0.0
 16
1.0
 26
0.0
 36
0.0
 17
0.0
 27
1.0
 37
0.0
 76
     0
330
2AAF
  0
LAYOUT
  5
2AAE
102
{ACAD_REACTORS
330
2AA6
102
}
330
2AA6
100
AcDbPlotSettings
  1
VectorDraw Printer Drawing
  2

  4

  6

 40
0.0
 41
0.0
 42
0.0
 43
0.0
 44
0.0
 45
0.0
 46
0.0
 47
0.0
 48
0.0
 49
0.0
140
0.0
141
0.0
142
1.0
143
1.0
 70
  1712
 72
     0
 73
     0
 74
     0
  7

 75
     0
147
1.0
148
0.0
149
0.0
100
AcDbLayout
  1
Model
 70
     1
 71
     0
 10
0.0
 20
0.0
 11
12.0
 21
9.0
 12
0.0
 22
0.0
 32
0.0
 14
7333.84555124331
 24
-2858.541882689264
 34
0.0
 15
7971.766330573718
 25
-2407.876419298341
 35
0.0
146
0.0
 13
0.0
 23
0.0
 33
0.0
 16
1.0
 26
0.0
 36
0.0
 17
0.0
 27
1.0
 37
0.0
 76
     0
330
2AAB
  0
LAYOUT
  5
2AAA
102
{ACAD_REACTORS
330
2AA6
102
}
330
2AA6
100
AcDbPlotSettings
  1
VectorDraw Printer Drawing
  2

  4

  6

 40
0.0
 41
0.0
 42
0.0
 43
0.0
 44
0.0
 45
0.0
 46
0.0
 47
0.0
 48
0.0
 49
0.0
140
0.0
141
0.0
142
1.0
143
1.0
 70
   688
 72
     0
 73
     0
 74
     5
  7

 75
    16
147
1.0
148
0.0
149
0.0
100
AcDbLayout
  1
Rozvržení1
 70
     1
 71
     1
 10
0.0
 20
0.0
 11
12.0
 21
9.0
 12
0.0
 22
0.0
 32
0.0
 14
1.000000000000000E+20
 24
1.000000000000000E+20
 34
1.000000000000000E+20
 15
-1.000000000000000E+20
 25
-1.000000000000000E+20
 35
-1.000000000000000E+20
146
0.0
 13
0.0
 23
0.0
 33
0.0
 16
1.0
 26
0.0
 36
0.0
 17
0.0
 27
1.0
 37
0.0
 76
     0
330
2AA7
331
2B30
  0
MLINESTYLE
  5
2AA4
102
{ACAD_REACTORS
330
2AA3
102
}
330
2AA3
100
AcDbMlineStyle
  2
Standard
 70
     0
  3

 62
   256
 51
90.0
 52
90.0
 71
     2
 49
0.5
 62
   256
  6
BYLAYER
 49
-0.5
 62
   256
  6
BYLAYER
  0
ACDBPLACEHOLDER
  5
2A9B
102
{ACAD_REACTORS
330
2A9A
102
}
330
2A9A
  0
XRECORD
  5
2ABC
102
{ACAD_REACTORS
330
2ABB
102
}
330
2ABB
100
AcDbXrecord
280
     1
1000
rInJVR9YY4Q8hfPWdUq5j5319
1070
     4
1070
     6
  0
ENDSEC
  0
EOF
