  0
SECTION
  2
HEADER
  9
$ACADVER
  1
AC1015
  9
$ACADMAINTVER
 70
     6
  9
$DWGCODEPAGE
  3
ANSI_1250
  9
$INSBASE
 10
0.0
 20
0.0
 30
0.0
  9
$EXTMIN
 10
7333.84555124331
 20
-2855.162824567178
 30
0.0
  9
$EXTMAX
 10
7813.537612815351
 20
-2185.986949500881
 30
0.0
  9
$LIMMIN
 10
0.0
 20
0.0
  9
$LIMMAX
 10
12.0
 20
9.0
  9
$ORTHOMODE
 70
     0
  9
$REGENMODE
 70
     1
  9
$FILLMODE
 70
     1
  9
$QTEXTMODE
 70
     0
  9
$MIRRTEXT
 70
     1
  9
$LTSCALE
 40
1.0
  9
$ATTMODE
 70
     1
  9
$TEXTSIZE
 40
0.2
  9
$TRACEWID
 40
0.05
  9
$TEXTSTYLE
  7
ED50
  9
$CLAYER
  8
V0-VYPLNE
  9
$CELTYPE
  6
Continuous
  9
$CECOLOR
 62
   256
  9
$CELTSCALE
 40
1.0
  9
$DISPSILH
 70
     0
  9
$DIMSCALE
 40
1.0
  9
$DIMASZ
 40
35.0
  9
$DIMEXO
 40
1.0
  9
$DIMDLI
 40
0.38
  9
$DIMRND
 40
0.0
  9
$DIMDLE
 40
0.0
  9
$DIMEXE
 40
1.25
  9
$DIMTP
 40
0.0
  9
$DIMTM
 40
0.0
  9
$DIMTXT
 40
40.0
  9
$DIMCEN
 40
0.09
  9
$DIMTSZ
 40
0.0
  9
$DIMTOL
 70
     0
  9
$DIMLIM
 70
     0
  9
$DIMTIH
 70
     0
  9
$DIMTOH
 70
     0
  9
$DIMSE1
 70
     0
  9
$DIMSE2
 70
     0
  9
$DIMTAD
 70
     1
  9
$DIMZIN
 70
     0
  9
$DIMBLK
  1
OPEN
  9
$DIMASO
 70
     1
  9
$DIMSHO
 70
     1
  9
$DIMPOST
  1

  9
$DIMAPOST
  1

  9
$DIMALT
 70
     0
  9
$DIMALTD
 70
     2
  9
$DIMALTF
 40
25.4
  9
$DIMLFAC
 40
1.0
  9
$DIMTOFL
 70
     1
  9
$DIMTVP
 40
0.0
  9
$DIMTIX
 70
     1
  9
$DIMSOXD
 70
     0
  9
$DIMSAH
 70
     0
  9
$DIMBLK1
  1

  9
$DIMBLK2
  1

  9
$DIMSTYLE
  2
ED50
  9
$DIMCLRD
 70
     0
  9
$DIMCLRE
 70
     0
  9
$DIMCLRT
 70
     0
  9
$DIMTFAC
 40
1.0
  9
$DIMGAP
 40
4.0
  9
$DIMJUST
 70
     0
  9
$DIMSD1
 70
     0
  9
$DIMSD2
 70
     0
  9
$DIMTOLJ
 70
     1
  9
$DIMTZIN
 70
     0
  9
$DIMALTZ
 70
     0
  9
$DIMALTTZ
 70
     0
  9
$DIMUPT
 70
     1
  9
$DIMDEC
 70
     0
  9
$DIMTDEC
 70
     4
  9
$DIMALTU
 70
     2
  9
$DIMALTTD
 70
     2
  9
$DIMTXSTY
  7
ED40
  9
$DIMAUNIT
 70
     0
  9
$DIMADEC
 70
     0
  9
$DIMALTRND
 40
0.0
  9
$DIMAZIN
 70
     0
  9
$DIMDSEP
 70
    46
  9
$DIMATFIT
 70
     3
  9
$DIMFRAC
 70
     0
  9
$DIMLDRBLK
  1

  9
$DIMLUNIT
 70
     2
  9
$DIMLWD
 70
    -2
  9
$DIMLWE
 70
    -2
  9
$DIMTMOVE
 70
     0
  9
$LUNITS
 70
     2
  9
$LUPREC
 70
     4
  9
$SKETCHINC
 40
0.1
  9
$FILLETRAD
 40
0.5
  9
$AUNITS
 70
     0
  9
$AUPREC
 70
     0
  9
$MENU
  1
.
  9
$ELEVATION
 40
0.0
  9
$PELEVATION
 40
0.0
  9
$THICKNESS
 40
0.0
  9
$LIMCHECK
 70
     0
  9
$CHAMFERA
 40
0.5
  9
$CHAMFERB
 40
0.5
  9
$CHAMFERC
 40
1.0
  9
$CHAMFERD
 40
0.0
  9
$SKPOLY
 70
     0
  9
$TDCREATE
 40
2455593.461882593
  9
$TDUCREATE
 40
2455593.420215926
  9
$TDUPDATE
 40
2455593.461882604
  9
$TDUUPDATE
 40
2455593.420215937
  9
$TDINDWG
 40
0.0000000116
  9
$TDUSRTIMER
 40
0.0000000116
  9
$USRTIMER
 70
     1
  9
$ANGBASE
 50
0.0
  9
$ANGDIR
 70
     0
  9
$PDMODE
 70
     3
  9
$PDSIZE
 40
20.0
  9
$PLINEWID
 40
0.0
  9
$SPLFRAME
 70
     0
  9
$SPLINETYPE
 70
     6
  9
$SPLINESEGS
 70
     8
  9
$HANDSEED
  5
29CA
  9
$SURFTAB1
 70
     6
  9
$SURFTAB2
 70
     6
  9
$SURFTYPE
 70
     6
  9
$SURFU
 70
     6
  9
$SURFV
 70
     6
  9
$UCSBASE
  2

  9
$UCSNAME
  2

  9
$UCSORG
 10
0.0
 20
0.0
 30
0.0
  9
$UCSXDIR
 10
1.0
 20
0.0
 30
0.0
  9
$UCSYDIR
 10
0.0
 20
1.0
 30
0.0
  9
$UCSORTHOREF
  2

  9
$UCSORTHOVIEW
 70
     0
  9
$UCSORGTOP
 10
0.0
 20
0.0
 30
0.0
  9
$UCSORGBOTTOM
 10
0.0
 20
0.0
 30
0.0
  9
$UCSORGLEFT
 10
0.0
 20
0.0
 30
0.0
  9
$UCSORGRIGHT
 10
0.0
 20
0.0
 30
0.0
  9
$UCSORGFRONT
 10
0.0
 20
0.0
 30
0.0
  9
$UCSORGBACK
 10
0.0
 20
0.0
 30
0.0
  9
$PUCSBASE
  2

  9
$PUCSNAME
  2

  9
$PUCSORG
 10
0.0
 20
0.0
 30
0.0
  9
$PUCSXDIR
 10
1.0
 20
0.0
 30
0.0
  9
$PUCSYDIR
 10
0.0
 20
1.0
 30
0.0
  9
$PUCSORTHOREF
  2

  9
$PUCSORTHOVIEW
 70
     0
  9
$PUCSORGTOP
 10
0.0
 20
0.0
 30
0.0
  9
$PUCSORGBOTTOM
 10
0.0
 20
0.0
 30
0.0
  9
$PUCSORGLEFT
 10
0.0
 20
0.0
 30
0.0
  9
$PUCSORGRIGHT
 10
0.0
 20
0.0
 30
0.0
  9
$PUCSORGFRONT
 10
0.0
 20
0.0
 30
0.0
  9
$PUCSORGBACK
 10
0.0
 20
0.0
 30
0.0
  9
$USERI1
 70
     0
  9
$USERI2
 70
     0
  9
$USERI3
 70
     0
  9
$USERI4
 70
     0
  9
$USERI5
 70
     0
  9
$USERR1
 40
0.0
  9
$USERR2
 40
0.0
  9
$USERR3
 40
0.0
  9
$USERR4
 40
0.0
  9
$USERR5
 40
0.0
  9
$WORLDVIEW
 70
     1
  9
$SHADEDGE
 70
     3
  9
$SHADEDIF
 70
    70
  9
$TILEMODE
 70
     1
  9
$MAXACTVP
 70
    64
  9
$PINSBASE
 10
0.0
 20
0.0
 30
0.0
  9
$PLIMCHECK
 70
     0
  9
$PEXTMIN
 10
1.000000000000000E+20
 20
1.000000000000000E+20
 30
1.000000000000000E+20
  9
$PEXTMAX
 10
-1.000000000000000E+20
 20
-1.000000000000000E+20
 30
-1.000000000000000E+20
  9
$PLIMMIN
 10
0.0
 20
0.0
  9
$PLIMMAX
 10
420.0
 20
297.0
  9
$UNITMODE
 70
     0
  9
$VISRETAIN
 70
     1
  9
$PLINEGEN
 70
     0
  9
$PSLTSCALE
 70
     1
  9
$TREEDEPTH
 70
  3020
  9
$CMLSTYLE
  2
Standard
  9
$CMLJUST
 70
     0
  9
$CMLSCALE
 40
1.0
  9
$PROXYGRAPHICS
 70
     1
  9
$MEASUREMENT
 70
     0
  9
$CELWEIGHT
370
    -1
  9
$ENDCAPS
280
     0
  9
$JOINSTYLE
280
     0
  9
$LWDISPLAY
290
     0
  9
$INSUNITS
 70
     1
  9
$HYPERLINKBASE
  1

  9
$STYLESHEET
  1

  9
$XEDIT
290
     1
  9
$CEPSNTYPE
380
     0
  9
$PSTYLEMODE
290
     0
  9
$FINGERPRINTGUID
  2
{FAEB1C30-E019-11D5-929B-00C0DF256EC4}
  9
$VERSIONGUID
  2
{FAEB1C32-E019-11D5-929B-00C0DF256EC4}
  9
$EXTNAMES
290
     1
  9
$PSVPSCALE
 40
0.0
  9
$OLESTARTUP
290
     0
  0
ENDSEC
  0
SECTION
  2
CLASSES
  0
CLASS
  1
ACDBDICTIONARYWDFLT
  2
AcDbDictionaryWithDefault
  3
ObjectDBX Classes
 90
        0
280
     0
281
     0
  0
CLASS
  1
ACDBPLACEHOLDER
  2
AcDbPlaceHolder
  3
ObjectDBX Classes
 90
        0
280
     0
281
     0
  0
CLASS
  1
LAYOUT
  2
AcDbLayout
  3
ObjectDBX Classes
 90
        0
280
     0
281
     0
  0
ENDSEC
  0
SECTION
  2
TABLES
  0
TABLE
  2
VPORT
  5
2944
330
0
100
AcDbSymbolTable
 70
     2
  0
VPORT
  5
2965
330
2944
100
AcDbSymbolTableRecord
100
AcDbViewportTableRecord
  2
*Active
 70
     0
 10
0.0
 20
0.0
 11
1.0
 21
1.0
 12
7674.623099431379
 22
-2606.602887545442
 13
0.0
 23
0.0
 14
10.0
 24
10.0
 15
10.0
 25
10.0
 16
0.0
 26
0.0
 36
1.0
 17
0.0
 27
0.0
 37
0.0
 40
736.7677025741913
 41
0.0241008891861202
 42
50.0
 43
0.0
 44
0.0
 50
0.0
 51
0.0000000000007958
 71
     0
 72
   100
 73
     1
 74
     3
 75
     0
 76
     0
 77
     0
 78
     0
281
     0
 65
     1
110
0.0
120
0.0
130
0.0
111
1.0
121
0.0
131
0.0
112
0.0
122
1.0
132
0.0
 79
     0
146
0.0
  0
ENDTAB
  0
TABLE
  2
LTYPE
  5
2941
330
0
100
AcDbSymbolTable
 70
    25
  0
LTYPE
  5
2950
330
2941
100
AcDbSymbolTableRecord
100
AcDbLinetypeTableRecord
  2
ByBlock
 70
     0
  3

 72
    65
 73
     0
 40
0.0
  0
LTYPE
  5
2951
330
2941
100
AcDbSymbolTableRecord
100
AcDbLinetypeTableRecord
  2
ByLayer
 70
     0
  3

 72
    65
 73
     0
 40
0.0
  0
LTYPE
  5
2952
330
2941
100
AcDbSymbolTableRecord
100
AcDbLinetypeTableRecord
  2
Continuous
 70
     0
  3
Solid line
 72
    65
 73
     0
 40
0.0
  0
LTYPE
  5
296D
330
2941
100
AcDbSymbolTableRecord
100
AcDbLinetypeTableRecord
  2
CENTER
 70
     0
  3
Center ____ _ ____ _ ____ _ ____ _ ____ _ ____
 72
    65
 73
     4
 40
2.0
 49
1.25
 74
     0
 49
-0.25
 74
     0
 49
0.25
 74
     0
 49
-0.25
 74
     0
  0
LTYPE
  5
296E
330
2941
100
AcDbSymbolTableRecord
100
AcDbLinetypeTableRecord
  2
DASHDOT
 70
     0
  3
Dashdot __ . __ . __ . __ . __ . __ . __ . __
 72
    65
 73
     4
 40
1.0
 49
0.5
 74
     0
 49
-0.25
 74
     0
 49
0.0
 74
     0
 49
-0.25
 74
     0
  0
LTYPE
  5
296F
330
2941
100
AcDbSymbolTableRecord
100
AcDbLinetypeTableRecord
  2
DASHED
 70
     0
  3
Dashed __ __ __ __ __ __ __ __ __ __ __ __ __ _
 72
    65
 73
     2
 40
0.75
 49
0.5
 74
     0
 49
-0.25
 74
     0
  0
LTYPE
  5
2970
330
2941
100
AcDbSymbolTableRecord
100
AcDbLinetypeTableRecord
  2
HIDDEN
 70
     0
  3
Hidden __ __ __ __ __ __ __ __ __ __ __ __ __ __
 72
    65
 73
     2
 40
0.375
 49
0.25
 74
     0
 49
-0.125
 74
     0
  0
LTYPE
  5
2971
330
2941
100
AcDbSymbolTableRecord
100
AcDbLinetypeTableRecord
  2
HIDDEN2
 70
     0
  3
Hidden2 _ _ _ _ _ _ _ _ _ _ _ _ _ _ _ _ _ 
 72
    65
 73
     2
 40
0.1875
 49
0.125
 74
     0
 49
-0.0625
 74
     0
  0
LTYPE
  5
2972
330
2941
100
AcDbSymbolTableRecord
100
AcDbLinetypeTableRecord
  2
BORDER
 70
     0
  3
Border __ __ . __ __ . __ __ . __ __ . __ __ .
 72
    65
 73
     6
 40
1.75
 49
0.5
 74
     0
 49
-0.25
 74
     0
 49
0.5
 74
     0
 49
-0.25
 74
     0
 49
0.0
 74
     0
 49
-0.25
 74
     0
  0
LTYPE
  5
2973
330
2941
100
AcDbSymbolTableRecord
100
AcDbLinetypeTableRecord
  2
BORDER2
 70
     0
  3
Border2 __.__.__.__.__.__.__.__.__.__.__.
 72
    65
 73
     6
 40
0.875
 49
0.25
 74
     0
 49
-0.125
 74
     0
 49
0.25
 74
     0
 49
-0.125
 74
     0
 49
0.0
 74
     0
 49
-0.125
 74
     0
  0
LTYPE
  5
2974
330
2941
100
AcDbSymbolTableRecord
100
AcDbLinetypeTableRecord
  2
BORDERX2
 70
     0
  3
Borderx2  ____  ____  .  ____  ____  .  ___
 72
    65
 73
     6
 40
3.5
 49
1.0
 74
     0
 49
-0.5
 74
     0
 49
1.0
 74
     0
 49
-0.5
 74
     0
 49
0.0
 74
     0
 49
-0.5
 74
     0
  0
LTYPE
  5
2975
330
2941
100
AcDbSymbolTableRecord
100
AcDbLinetypeTableRecord
  2
CENTER2
 70
     0
  3
Center2  ___ _ ___ _ ___ _ ___ _ ___ _ ___
 72
    65
 73
     4
 40
1.125
 49
0.75
 74
     0
 49
-0.125
 74
     0
 49
0.125
 74
     0
 49
-0.125
 74
     0
  0
LTYPE
  5
2976
330
2941
100
AcDbSymbolTableRecord
100
AcDbLinetypeTableRecord
  2
CENTERX2
 70
     0
  3
Centerx2  ________  __  ________  __  _____
 72
    65
 73
     4
 40
4.0
 49
2.5
 74
     0
 49
-0.5
 74
     0
 49
0.5
 74
     0
 49
-0.5
 74
     0
  0
LTYPE
  5
2977
330
2941
100
AcDbSymbolTableRecord
100
AcDbLinetypeTableRecord
  2
DASHDOT2
 70
     0
  3
Dashdot2  _._._._._._._._._._._._._._._.
 72
    65
 73
     4
 40
0.5
 49
0.25
 74
     0
 49
-0.125
 74
     0
 49
0.0
 74
     0
 49
-0.125
 74
     0
  0
LTYPE
  5
2978
330
2941
100
AcDbSymbolTableRecord
100
AcDbLinetypeTableRecord
  2
DASHDOTX2
 70
     0
  3
Dashdotx2 ____  .  ____  .  ____  .  ___
 72
    65
 73
     4
 40
2.0
 49
1.0
 74
     0
 49
-0.5
 74
     0
 49
0.0
 74
     0
 49
-0.5
 74
     0
  0
LTYPE
  5
2979
330
2941
100
AcDbSymbolTableRecord
100
AcDbLinetypeTableRecord
  2
DASHED2
 70
     0
  3
Dashed2 _ _ _ _ _ _ _ _ _ _ _ _ _ _ _ _ _ 
 72
    65
 73
     2
 40
0.375
 49
0.25
 74
     0
 49
-0.125
 74
     0
  0
LTYPE
  5
297A
330
2941
100
AcDbSymbolTableRecord
100
AcDbLinetypeTableRecord
  2
DASHEDX2
 70
     0
  3
Dashedx2 ____  ____  ____  ____  ____  ___
 72
    65
 73
     2
 40
1.5
 49
1.0
 74
     0
 49
-0.5
 74
     0
  0
LTYPE
  5
297B
330
2941
100
AcDbSymbolTableRecord
100
AcDbLinetypeTableRecord
  2
DIVIDE
 70
     0
  3
Divide ____ . . ____ . . ____ . . ____ . . ____
 72
    65
 73
     6
 40
1.25
 49
0.5
 74
     0
 49
-0.25
 74
     0
 49
0.0
 74
     0
 49
-0.25
 74
     0
 49
0.0
 74
     0
 49
-0.25
 74
     0
  0
LTYPE
  5
297C
330
2941
100
AcDbSymbolTableRecord
100
AcDbLinetypeTableRecord
  2
DIVIDE2
 70
     0
  3
Divide2 __..__..__..__..__..__..__..__.._
 72
    65
 73
     6
 40
0.625
 49
0.25
 74
     0
 49
-0.125
 74
     0
 49
0.0
 74
     0
 49
-0.125
 74
     0
 49
0.0
 74
     0
 49
-0.125
 74
     0
  0
LTYPE
  5
297D
330
2941
100
AcDbSymbolTableRecord
100
AcDbLinetypeTableRecord
  2
DIVIDEX2
 70
     0
  3
Dividex2 ________  .  .  ________  .  .  _
 72
    65
 73
     6
 40
2.5
 49
1.0
 74
     0
 49
-0.5
 74
     0
 49
0.0
 74
     0
 49
-0.5
 74
     0
 49
0.0
 74
     0
 49
-0.5
 74
     0
  0
LTYPE
  5
297E
330
2941
100
AcDbSymbolTableRecord
100
AcDbLinetypeTableRecord
  2
DOT
 70
     0
  3
Dot . . . . . . . . . . . . . . . . . . . . . . . .
 72
    65
 73
     2
 40
0.25
 49
0.0
 74
     0
 49
-0.25
 74
     0
  0
LTYPE
  5
297F
330
2941
100
AcDbSymbolTableRecord
100
AcDbLinetypeTableRecord
  2
DOT2
 70
     0
  3
Dot2 ........................................
 72
    65
 73
     2
 40
0.125
 49
0.0
 74
     0
 49
-0.125
 74
     0
  0
LTYPE
  5
2980
330
2941
100
AcDbSymbolTableRecord
100
AcDbLinetypeTableRecord
  2
DOTX2
 70
     0
  3
Dotx2 .  .  .  .  .  .  .  .  .  .  .  .  .  .
 72
    65
 73
     2
 40
0.5
 49
0.0
 74
     0
 49
-0.5
 74
     0
  0
LTYPE
  5
2981
330
2941
100
AcDbSymbolTableRecord
100
AcDbLinetypeTableRecord
  2
HIDDENX2
 70
     0
  3
Hiddenx2 ____ ____ ____ ____ ____ ____ ____ 
 72
    65
 73
     2
 40
0.75
 49
0.5
 74
     0
 49
-0.25
 74
     0
  0
LTYPE
  5
2982
330
2941
100
AcDbSymbolTableRecord
100
AcDbLinetypeTableRecord
  2
PHANTOM
 70
     0
  3
Phantom ______  __  __  ______  __  __  ______ 
 72
    65
 73
     6
 40
2.5
 49
1.25
 74
     0
 49
-0.25
 74
     0
 49
0.25
 74
     0
 49
-0.25
 74
     0
 49
0.25
 74
     0
 49
-0.25
 74
     0
  0
LTYPE
  5
2983
330
2941
100
AcDbSymbolTableRecord
100
AcDbLinetypeTableRecord
  2
PHANTOM2
 70
     0
  3
Phantom2 ___ _ _ ___ _ _ ___ _ _ ___ _ _
 72
    65
 73
     6
 40
1.25
 49
0.625
 74
     0
 49
-0.125
 74
     0
 49
0.125
 74
     0
 49
-0.125
 74
     0
 49
0.125
 74
     0
 49
-0.125
 74
     0
  0
LTYPE
  5
2984
330
2941
100
AcDbSymbolTableRecord
100
AcDbLinetypeTableRecord
  2
PHANTOMX2
 70
     0
  3
Phantomx2 ____________    ____    ____   _
 72
    65
 73
     6
 40
5.0
 49
2.5
 74
     0
 49
-0.5
 74
     0
 49
0.5
 74
     0
 49
-0.5
 74
     0
 49
0.5
 74
     0
 49
-0.5
 74
     0
  0
ENDTAB
  0
TABLE
  2
LAYER
  5
293E
330
0
100
AcDbSymbolTable
 70
     6
  0
LAYER
  5
294C
330
293E
100
AcDbSymbolTableRecord
100
AcDbLayerTableRecord
  2
0
 70
     0
 62
     7
  6
Continuous
370
     0
390
294B
  0
LAYER
  5
9E
330
293E
100
AcDbSymbolTableRecord
100
AcDbLayerTableRecord
  2
DEFPOINTS
 70
     0
 62
     7
  6
Continuous
290
     0
370
     0
390
294B
  0
LAYER
  5
377
330
293E
100
AcDbSymbolTableRecord
100
AcDbLayerTableRecord
  2
V0-OBRYS
 70
     0
 62
     1
  6
Continuous
370
     0
390
294B
  0
LAYER
  5
378
330
293E
100
AcDbSymbolTableRecord
100
AcDbLayerTableRecord
  2
V0-VYPLNE
 70
     0
 62
     7
  6
DASHDOT
370
     0
390
294B
  0
LAYER
  5
37A
330
293E
100
AcDbSymbolTableRecord
100
AcDbLayerTableRecord
  2
V0-NAZVY
 70
     0
 62
   210
  6
Continuous
370
     0
390
294B
  0
LAYER
  5
559
330
293E
100
AcDbSymbolTableRecord
100
AcDbLayerTableRecord
  2
V0-ZBYTEK
 70
     0
 62
     3
  6
Continuous
370
     0
390
294B
  0
ENDTAB
  0
TABLE
  2
STYLE
  5
293F
330
0
100
AcDbSymbolTable
 70
    11
  0
STYLE
  5
294D
330
293F
100
AcDbSymbolTableRecord
100
AcDbTextStyleTableRecord
  2
STANDARD
 70
     0
 40
7.0
 41
1.0
 50
0.0
 71
     0
 42
0.2
  3
ISOCP.shx
  4

1001
ACAD
1000
ISOCP.shx
1071
        0
  0
STYLE
  5
331
330
293F
100
AcDbSymbolTableRecord
100
AcDbTextStyleTableRecord
  2
ED30
 70
     0
 40
30.0
 41
1.0
 50
0.0
 71
     0
 42
0.2
  3
ISOCP.shx
  4

1001
ACAD
1000
ISOCP.shx
1071
        0
  0
STYLE
  5
5D2
330
293F
100
AcDbSymbolTableRecord
100
AcDbTextStyleTableRecord
  2
ED20
 70
     0
 40
20.0
 41
1.0
 50
0.0
 71
     0
 42
0.2
  3
isocp.shx
  4

1001
ACAD
1000
isocp.shx
1071
        0
  0
STYLE
  5
64F
330
293F
100
AcDbSymbolTableRecord
100
AcDbTextStyleTableRecord
  2
ED40
 70
     0
 40
40.0
 41
1.0
 50
0.0
 71
     0
 42
0.2
  3
isocp.shx
  4

1001
ACAD
1000
isocp.shx
1071
        0
  0
STYLE
  5
650
330
293F
100
AcDbSymbolTableRecord
100
AcDbTextStyleTableRecord
  2
ED10
 70
     0
 40
10.0
 41
1.0
 50
0.0
 71
     0
 42
0.2
  3
isocp.shx
  4

1001
ACAD
1000
isocp.shx
1071
        0
  0
STYLE
  5
1A9E
330
293F
100
AcDbSymbolTableRecord
100
AcDbTextStyleTableRecord
  2
ED50
 70
     0
 40
50.0
 41
1.0
 50
0.0
 71
     0
 42
0.2
  3
isocp.shx
  4

1001
ACAD
1000
isocp.shx
1071
        0
  0
STYLE
  5
292F
330
293F
100
AcDbSymbolTableRecord
100
AcDbTextStyleTableRecord
  2
Proxy_292E
 70
     0
 40
35.4375
 41
1.0
 50
0.0
 71
     0
 42
0.2
  3
TAHOMA.TTF
  4

1001
ACAD
1000
Tahoma
1071
        0
  0
STYLE
  5
2931
330
293F
100
AcDbSymbolTableRecord
100
AcDbTextStyleTableRecord
  2
Proxy_2930
 70
     0
 40
35.4375
 41
1.0
 50
0.0
 71
     0
 42
0.2
  3
Tahoma
  4

1001
ACAD
1000
Tahoma
1071
        0
  0
STYLE
  5
2933
330
293F
100
AcDbSymbolTableRecord
100
AcDbTextStyleTableRecord
  2
Proxy_2932
 70
     0
 40
19.84499999999999
 41
1.0
 50
0.0
 71
     0
 42
0.2
  3
TAHOMA.TTF
  4

1001
ACAD
1000
Tahoma
1071
        0
  0
STYLE
  5
2935
330
293F
100
AcDbSymbolTableRecord
100
AcDbTextStyleTableRecord
  2
Proxy_2934
 70
     0
 40
35.4375
 41
1.0
 50
0.0
 71
     0
 42
0.2
  3
TAHOMA.TTF
  4

1001
ACAD
1000
Tahoma
1071
        0
  0
STYLE
  5
2937
330
293F
100
AcDbSymbolTableRecord
100
AcDbTextStyleTableRecord
  2
Proxy_2936
 70
     0
 40
35.4375
 41
1.0
 50
0.0
 71
     0
 42
0.2
  3
Tahoma
  4

1001
ACAD
1000
Tahoma
1071
        0
  0
ENDTAB
  0
TABLE
  2
VIEW
  5
2942
330
0
100
AcDbSymbolTable
 70
     0
  0
ENDTAB
  0
TABLE
  2
UCS
  5
2943
330
0
100
AcDbSymbolTable
 70
     0
  0
ENDTAB
  0
TABLE
  2
APPID
  5
2945
330
0
100
AcDbSymbolTable
 70
     6
  0
APPID
  5
294E
330
2945
100
AcDbSymbolTableRecord
100
AcDbRegAppTableRecord
  2
ACAD
 70
     0
  0
APPID
  5
2966
330
2945
100
AcDbSymbolTableRecord
100
AcDbRegAppTableRecord
  2
VD_INVISIBLE_NOT_FOR_READ
 70
     0
  0
APPID
  5
2967
330
2945
100
AcDbSymbolTableRecord
100
AcDbRegAppTableRecord
  2
VD_TEMPHATCH
 70
     0
  0
APPID
  5
2968
330
2945
100
AcDbSymbolTableRecord
100
AcDbRegAppTableRecord
  2
VDEXTRAPARAM
 70
     0
  0
APPID
  5
2969
330
2945
100
AcDbSymbolTableRecord
100
AcDbRegAppTableRecord
  2
PE_URL
 70
     0
  0
APPID
  5
296A
330
2945
100
AcDbSymbolTableRecord
100
AcDbRegAppTableRecord
  2
VD_UNKNOWN
 70
     0
  0
ENDTAB
  0
TABLE
  2
DIMSTYLE
  5
2946
330
0
100
AcDbSymbolTable
 70
     6
100
AcDbDimStyleTable
  0
DIMSTYLE
105
2963
102
{ACAD_REACTORS
330
263D
330
2689
330
26A0
330
26BD
330
2723
102
}
330
2946
100
AcDbSymbolTableRecord
100
AcDbDimStyleTableRecord
  2
STANDARD
 70
     0
 41
15.0
 42
0.625
 44
1.25
 73
     0
 74
     0
 77
     1
140
15.0
147
3.0
172
     1
174
     1
271
     0
288
     1
340
331
342
90
  0
DIMSTYLE
105
397
330
2946
100
AcDbSymbolTableRecord
100
AcDbDimStyleTableRecord
  2
ED40
 70
     0
 41
35.0
 42
1.0
 44
1.25
 73
     0
 74
     0
 77
     1
140
40.0
147
4.0
172
     1
174
     1
271
     0
288
     1
340
64F
342
90
  0
DIMSTYLE
105
656
330
2946
100
AcDbSymbolTableRecord
100
AcDbDimStyleTableRecord
  2
ED30
 70
     0
 41
25.0
 42
1.0
 44
1.25
 73
     0
 74
     0
 77
     1
140
30.0
147
4.0
172
     1
174
     1
271
     0
288
     1
340
331
342
90
  0
DIMSTYLE
105
657
330
2946
100
AcDbSymbolTableRecord
100
AcDbDimStyleTableRecord
  2
ED20
 70
     0
 41
20.0
 42
1.0
 44
1.25
 73
     0
 74
     0
 77
     1
140
20.0
147
2.0
172
     1
174
     1
271
     0
288
     1
340
5D2
342
90
  0
DIMSTYLE
105
658
330
2946
100
AcDbSymbolTableRecord
100
AcDbDimStyleTableRecord
  2
ED10
 70
     0
 41
15.0
 42
1.0
 44
1.25
 73
     0
 74
     0
 77
     1
140
10.0
147
1.5
172
     1
174
     1
271
     0
288
     1
340
5D2
342
90
  0
DIMSTYLE
105
1A9F
330
2946
100
AcDbSymbolTableRecord
100
AcDbDimStyleTableRecord
  2
ED50
 70
     0
 41
35.0
 42
1.0
 44
1.25
 73
     0
 74
     0
 77
     1
140
40.0
147
4.0
172
     1
174
     1
271
     0
288
     1
340
64F
342
90
  0
ENDTAB
  0
TABLE
  2
BLOCK_RECORD
  5
293D
330
0
100
AcDbSymbolTable
 70
     9
  0
BLOCK_RECORD
  5
295B
330
293D
100
AcDbSymbolTableRecord
100
AcDbBlockTableRecord
  2
*Model_Space
340
295E
  0
BLOCK_RECORD
  5
2957
330
293D
100
AcDbSymbolTableRecord
100
AcDbBlockTableRecord
  2
*Paper_Space
340
295A
  0
BLOCK_RECORD
  5
295F
330
293D
100
AcDbSymbolTableRecord
100
AcDbBlockTableRecord
  2
*Paper_Space0
340
2962
  0
BLOCK_RECORD
  5
90
330
293D
100
AcDbSymbolTableRecord
100
AcDbBlockTableRecord
  2
_OPEN
340
0
102
{BLKREFS
331
2991
331
2990
331
299D
331
299C
331
29A9
331
29A8
331
29B5
331
29B4
331
29C1
331
29C0
102
}
  0
BLOCK_RECORD
  5
2939
330
293D
100
AcDbSymbolTableRecord
100
AcDbBlockTableRecord
  2
VDDIM_DEFAULT
340
0
  0
BLOCK_RECORD
  5
293B
330
293D
100
AcDbSymbolTableRecord
100
AcDbBlockTableRecord
  2
VDDIM_NONE
340
0
  0
BLOCK_RECORD
  5
298C
330
293D
100
AcDbSymbolTableRecord
100
AcDbBlockTableRecord
  2
*D4
340
0
  0
BLOCK_RECORD
  5
2998
330
293D
100
AcDbSymbolTableRecord
100
AcDbBlockTableRecord
  2
*D5
340
0
  0
BLOCK_RECORD
  5
29A4
330
293D
100
AcDbSymbolTableRecord
100
AcDbBlockTableRecord
  2
*D6
340
0
  0
BLOCK_RECORD
  5
29B0
330
293D
100
AcDbSymbolTableRecord
100
AcDbBlockTableRecord
  2
*D7
340
0
  0
BLOCK_RECORD
  5
29BC
330
293D
100
AcDbSymbolTableRecord
100
AcDbBlockTableRecord
  2
*D8
340
0
  0
ENDTAB
  0
ENDSEC
  0
SECTION
  2
BLOCKS
  0
BLOCK
  5
295C
330
295B
100
AcDbEntity
  8
0
100
AcDbBlockBegin
  2
*Model_Space
 70
     0
 71
     0
 10
0.0
 20
0.0
 30
0.0
  3
*Model_Space
  1

  0
ENDBLK
  5
295D
330
295B
100
AcDbEntity
  8
0
100
AcDbBlockEnd
  0
BLOCK
  5
2958
330
2957
100
AcDbEntity
 67
     1
  8
0
100
AcDbBlockBegin
  2
*Paper_Space
 70
     0
 71
     0
 10
0.0
 20
0.0
 30
0.0
  3
*Paper_Space
  1

  0
ENDBLK
  5
2959
330
2957
100
AcDbEntity
 67
     1
  8
0
100
AcDbBlockEnd
  0
BLOCK
  5
2960
330
295F
100
AcDbEntity
  8
0
100
AcDbBlockBegin
  2
*Paper_Space0
 70
     0
 71
     0
 10
0.0
 20
0.0
 30
0.0
  3
*Paper_Space0
  1

  0
ENDBLK
  5
2961
330
295F
100
AcDbEntity
  8
0
100
AcDbBlockEnd
  0
BLOCK
  5
2985
330
90
100
AcDbEntity
  8
0
100
AcDbBlockBegin
  2
_OPEN
 70
     0
 71
     0
 10
0.0
 20
0.0
 30
0.0
  3
_OPEN
  1

  0
LINE
  5
92
330
90
100
AcDbEntity
  8
0
  6
ByBlock
 62
     0
100
AcDbLine
 10
-1.0
 20
0.1666666666666666
 30
0.0
 11
0.0
 21
0.0
 31
0.0
  0
LINE
  5
93
330
90
100
AcDbEntity
  8
0
  6
ByBlock
 62
     0
100
AcDbLine
 10
0.0
 20
0.0
 30
0.0
 11
-1.0
 21
-0.1666666666666666
 31
0.0
  0
LINE
  5
94
330
90
100
AcDbEntity
  8
0
  6
ByBlock
 62
     0
100
AcDbLine
 10
0.0
 20
0.0
 30
0.0
 11
-1.0
 21
0.0
 31
0.0
  0
ENDBLK
  5
2986
330
90
100
AcDbEntity
  8
0
100
AcDbBlockEnd
  0
BLOCK
  5
2987
330
2939
100
AcDbEntity
  8
0
100
AcDbBlockBegin
  2
VDDIM_DEFAULT
 70
     0
 71
     0
 10
0.0
 20
0.0
 30
0.0
  3
VDDIM_DEFAULT
  1

  0
LWPOLYLINE
  5
293A
330
2939
100
AcDbEntity
  8
0
  6
Continuous
 62
     0
100
AcDbPolyline
 90
        4
 70
     0
 43
0.0
 10
0.0
 20
0.0
 10
-1.0
 20
-0.1665
 10
-1.0
 20
0.1665
 10
0.0
 20
0.0
1001
VDEXTRAPARAM
1071
        1
1071
        0
1071
        0
1040
1.0
1000

1000

1040
0.0
1040
0.0
  0
HATCH
  5
298B
330
2939
100
AcDbEntity
  8
0
  6
Continuous
 62
     0
100
AcDbHatch
 10
0.0
 20
0.0
 30
0.0
210
0.0
220
0.0
230
1.0
  2
SOLID
 70
     1
 71
     0
 91
        1
 92
        2
 72
     0
 73
     1
 93
        3
 10
0.0
 20
0.0
 10
-1.0
 20
-0.1665
 10
-1.0
 20
0.1665
 97
        0
 75
     0
 76
     1
 98
        1
 10
0.0
 20
0.0
1001
VDEXTRAPARAM
1071
        1
1071
        0
1071
        0
1040
1.0
1000

1000

1040
0.0
1040
0.0
1001
VD_TEMPHATCH
1000
VD_TEMPHATCH
  0
ENDBLK
  5
2988
330
2939
100
AcDbEntity
  8
0
100
AcDbBlockEnd
  0
BLOCK
  5
2989
330
293B
100
AcDbEntity
  8
0
100
AcDbBlockBegin
  2
VDDIM_NONE
 70
     0
 71
     0
 10
0.0
 20
0.0
 30
0.0
  3
VDDIM_NONE
  1

  0
ENDBLK
  5
298A
330
293B
100
AcDbEntity
  8
0
100
AcDbBlockEnd
  0
BLOCK
  5
2996
330
298C
100
AcDbEntity
  8
0
100
AcDbBlockBegin
  2
*D4
 70
     1
 71
     0
 10
0.0
 20
0.0
 30
0.0
  3
*D4
  1

  0
LINE
  5
298D
330
298C
100
AcDbEntity
  8
V0-ZBYTEK
 62
     0
370
    -2
100
AcDbLine
 10
7432.48835828001
 20
-2597.876419298714
 30
0.0
 11
7374.872474320233
 21
-2597.876419298714
 31
0.0
  0
LINE
  5
298E
330
298C
100
AcDbEntity
  8
V0-ZBYTEK
 62
     0
370
    -2
100
AcDbLine
 10
7432.48835828001
 20
-2417.876419298714
 30
0.0
 11
7374.872474320233
 21
-2417.876419298714
 31
0.0
  0
LINE
  5
298F
330
298C
100
AcDbEntity
  8
V0-ZBYTEK
 62
     0
370
    -2
100
AcDbLine
 10
7376.122474320233
 20
-2582.876419298714
 30
0.0
 11
7376.122474320233
 21
-2432.876419298714
 31
0.0
  0
INSERT
  5
2990
330
298C
100
AcDbEntity
  8
V0-ZBYTEK
 62
     0
370
    -2
100
AcDbBlockReference
  2
_OPEN
 10
7376.122474320233
 20
-2597.876419298714
 30
0.0
 41
15.0
 42
15.0
 43
15.0
 50
270.0
  0
INSERT
  5
2991
330
298C
100
AcDbEntity
  8
V0-ZBYTEK
 62
     0
370
    -2
100
AcDbBlockReference
  2
_OPEN
 10
7376.122474320233
 20
-2417.876419298714
 30
0.0
 41
15.0
 42
15.0
 43
15.0
 50
90.0
  0
MTEXT
  5
2992
330
298C
100
AcDbEntity
  8
V0-ZBYTEK
 62
     0
100
AcDbMText
 10
7365.622474320233
 20
-2507.876419298714
 30
0.0
 40
15.0
 41
0.0
 71
     5
 72
     1
  1
\A1;180
  7
ED30
 11
0.0
 21
-1.0
 31
0.0
 73
     1
 44
1.0
  0
POINT
  5
2993
330
298C
100
AcDbEntity
  8
DEFPOINTS
 62
     0
100
AcDbPoint
 10
7433.11335828001
 20
-2597.876419298714
 30
0.0
  0
POINT
  5
2994
330
298C
100
AcDbEntity
  8
DEFPOINTS
 62
     0
100
AcDbPoint
 10
7433.11335828001
 20
-2417.876419298714
 30
0.0
  0
POINT
  5
2995
330
298C
100
AcDbEntity
  8
DEFPOINTS
 62
     0
100
AcDbPoint
 10
7376.122474320233
 20
-2417.876419298714
 30
0.0
  0
ENDBLK
  5
2997
330
298C
100
AcDbEntity
  8
0
100
AcDbBlockEnd
  0
BLOCK
  5
29A2
330
2998
100
AcDbEntity
  8
0
100
AcDbBlockBegin
  2
*D5
 70
     1
 71
     0
 10
0.0
 20
0.0
 30
0.0
  3
*D5
  1

  0
LINE
  5
2999
330
2998
100
AcDbEntity
  8
V0-ZBYTEK
 62
     0
370
    -2
100
AcDbLine
 10
7433.113358280012
 20
-2598.501419298715
 30
0.0
 11
7433.113358280012
 21
-2672.658384568989
 31
0.0
  0
LINE
  5
299A
330
2998
100
AcDbEntity
  8
V0-ZBYTEK
 62
     0
370
    -2
100
AcDbLine
 10
7613.11335828001
 20
-2598.501419298714
 30
0.0
 11
7613.11335828001
 21
-2672.658384568989
 31
0.0
  0
LINE
  5
299B
330
2998
100
AcDbEntity
  8
V0-ZBYTEK
 62
     0
370
    -2
100
AcDbLine
 10
7448.113358280012
 20
-2671.408384568989
 30
0.0
 11
7598.11335828001
 21
-2671.408384568989
 31
0.0
  0
INSERT
  5
299C
330
2998
100
AcDbEntity
  8
V0-ZBYTEK
 62
     0
370
    -2
100
AcDbBlockReference
  2
_OPEN
 10
7433.113358280012
 20
-2671.408384568989
 30
0.0
 41
15.0
 42
15.0
 43
15.0
 50
180.0
  0
INSERT
  5
299D
330
2998
100
AcDbEntity
  8
V0-ZBYTEK
 62
     0
370
    -2
100
AcDbBlockReference
  2
_OPEN
 10
7613.11335828001
 20
-2671.408384568989
 30
0.0
 41
15.0
 42
15.0
 43
15.0
  0
MTEXT
  5
299E
330
2998
100
AcDbEntity
  8
V0-ZBYTEK
 62
     0
100
AcDbMText
 10
7523.113358280011
 20
-2660.908384568989
 30
0.0
 40
15.0
 41
0.0
 71
     5
 72
     1
  1
\A1;180
  7
ED30
 73
     1
 44
1.0
  0
POINT
  5
299F
330
2998
100
AcDbEntity
  8
DEFPOINTS
 62
     0
100
AcDbPoint
 10
7433.113358280012
 20
-2597.876419298715
 30
0.0
  0
POINT
  5
29A0
330
2998
100
AcDbEntity
  8
DEFPOINTS
 62
     0
100
AcDbPoint
 10
7613.11335828001
 20
-2597.876419298714
 30
0.0
  0
POINT
  5
29A1
330
2998
100
AcDbEntity
  8
DEFPOINTS
 62
     0
100
AcDbPoint
 10
7613.11335828001
 20
-2671.408384568989
 30
0.0
  0
ENDBLK
  5
29A3
330
2998
100
AcDbEntity
  8
0
100
AcDbBlockEnd
  0
BLOCK
  5
29AE
330
29A4
100
AcDbEntity
  8
0
100
AcDbBlockBegin
  2
*D6
 70
     1
 71
     0
 10
0.0
 20
0.0
 30
0.0
  3
*D6
  1

  0
LINE
  5
29A5
330
29A4
100
AcDbEntity
  8
V0-ZBYTEK
 62
     0
370
    -2
100
AcDbLine
 10
7705.531949034398
 20
-2567.501419298715
 30
0.0
 11
7705.531949034398
 21
-2672.284986484263
 31
0.0
  0
LINE
  5
29A6
330
29A4
100
AcDbEntity
  8
V0-ZBYTEK
 62
     0
370
    -2
100
AcDbLine
 10
7788.531949034397
 20
-2598.501419298714
 30
0.0
 11
7788.531949034397
 21
-2672.284986484263
 31
0.0
  0
LINE
  5
29A7
330
29A4
100
AcDbEntity
  8
V0-ZBYTEK
 62
     0
370
    -2
100
AcDbLine
 10
7720.531949034398
 20
-2671.034986484263
 30
0.0
 11
7773.531949034397
 21
-2671.034986484263
 31
0.0
  0
INSERT
  5
29A8
330
29A4
100
AcDbEntity
  8
V0-ZBYTEK
 62
     0
370
    -2
100
AcDbBlockReference
  2
_OPEN
 10
7705.531949034398
 20
-2671.034986484263
 30
0.0
 41
15.0
 42
15.0
 43
15.0
 50
180.0
  0
INSERT
  5
29A9
330
29A4
100
AcDbEntity
  8
V0-ZBYTEK
 62
     0
370
    -2
100
AcDbBlockReference
  2
_OPEN
 10
7788.531949034397
 20
-2671.034986484263
 30
0.0
 41
15.0
 42
15.0
 43
15.0
  0
MTEXT
  5
29AA
330
29A4
100
AcDbEntity
  8
V0-ZBYTEK
 62
     0
100
AcDbMText
 10
7747.031949034397
 20
-2660.534986484263
 30
0.0
 40
15.0
 41
0.0
 71
     5
 72
     1
  1
\A1;83
  7
ED30
 73
     1
 44
1.0
  0
POINT
  5
29AB
330
29A4
100
AcDbEntity
  8
DEFPOINTS
 62
     0
100
AcDbPoint
 10
7705.531949034398
 20
-2566.876419298715
 30
0.0
  0
POINT
  5
29AC
330
29A4
100
AcDbEntity
  8
DEFPOINTS
 62
     0
100
AcDbPoint
 10
7788.531949034397
 20
-2597.876419298714
 30
0.0
  0
POINT
  5
29AD
330
29A4
100
AcDbEntity
  8
DEFPOINTS
 62
     0
100
AcDbPoint
 10
7788.531949034397
 20
-2671.034986484263
 30
0.0
  0
ENDBLK
  5
29AF
330
29A4
100
AcDbEntity
  8
0
100
AcDbBlockEnd
  0
BLOCK
  5
29BA
330
29B0
100
AcDbEntity
  8
0
100
AcDbBlockBegin
  2
*D7
 70
     1
 71
     0
 10
0.0
 20
0.0
 30
0.0
  3
*D7
  1

  0
LINE
  5
29B1
330
29B0
100
AcDbEntity
  8
V0-ZBYTEK
 62
     0
370
    -2
100
AcDbLine
 10
7705.531949034398
 20
-2448.251419298715
 30
0.0
 11
7705.531949034398
 21
-2400.160538252933
 31
0.0
  0
LINE
  5
29B2
330
29B0
100
AcDbEntity
  8
V0-ZBYTEK
 62
     0
370
    -2
100
AcDbLine
 10
7813.537612815352
 20
-2507.355947841868
 30
0.0
 11
7813.537612815352
 21
-2400.160538252933
 31
0.0
  0
LINE
  5
29B3
330
29B0
100
AcDbEntity
  8
V0-ZBYTEK
 62
     0
370
    -2
100
AcDbLine
 10
7720.531949034398
 20
-2401.410538252933
 30
0.0
 11
7798.537612815352
 21
-2401.410538252933
 31
0.0
  0
INSERT
  5
29B4
330
29B0
100
AcDbEntity
  8
V0-ZBYTEK
 62
     0
370
    -2
100
AcDbBlockReference
  2
_OPEN
 10
7705.531949034398
 20
-2401.410538252933
 30
0.0
 41
15.0
 42
15.0
 43
15.0
 50
180.0
  0
INSERT
  5
29B5
330
29B0
100
AcDbEntity
  8
V0-ZBYTEK
 62
     0
370
    -2
100
AcDbBlockReference
  2
_OPEN
 10
7813.537612815352
 20
-2401.410538252933
 30
0.0
 41
15.0
 42
15.0
 43
15.0
  0
MTEXT
  5
29B6
330
29B0
100
AcDbEntity
  8
V0-ZBYTEK
 62
     0
100
AcDbMText
 10
7759.534780924875
 20
-2390.910538252933
 30
0.0
 40
15.0
 41
0.0
 71
     5
 72
     1
  1
\A1;108
  7
ED30
 73
     1
 44
1.0
  0
POINT
  5
29B7
330
29B0
100
AcDbEntity
  8
DEFPOINTS
 62
     0
100
AcDbPoint
 10
7705.531949034398
 20
-2448.876419298715
 30
0.0
  0
POINT
  5
29B8
330
29B0
100
AcDbEntity
  8
DEFPOINTS
 62
     0
100
AcDbPoint
 10
7813.537612815352
 20
-2507.980947841868
 30
0.0
  0
POINT
  5
29B9
330
29B0
100
AcDbEntity
  8
DEFPOINTS
 62
     0
100
AcDbPoint
 10
7813.537612815352
 20
-2401.410538252933
 30
0.0
  0
ENDBLK
  5
29BB
330
29B0
100
AcDbEntity
  8
0
100
AcDbBlockEnd
  0
BLOCK
  5
29C6
330
29BC
100
AcDbEntity
  8
0
100
AcDbBlockBegin
  2
*D8
 70
     1
 71
     0
 10
0.0
 20
0.0
 30
0.0
  3
*D8
  1

  0
LINE
  5
29BD
330
29BC
100
AcDbEntity
  8
V0-ZBYTEK
 62
     0
370
    -2
100
AcDbLine
 10
7704.906949034398
 20
-2566.876419298715
 30
0.0
 11
7671.328480765224
 21
-2566.876419298715
 31
0.0
  0
LINE
  5
29BE
330
29BC
100
AcDbEntity
  8
V0-ZBYTEK
 62
     0
370
    -2
100
AcDbLine
 10
7704.906949034398
 20
-2448.876419298715
 30
0.0
 11
7671.328480765224
 21
-2448.876419298715
 31
0.0
  0
LINE
  5
29BF
330
29BC
100
AcDbEntity
  8
V0-ZBYTEK
 62
     0
370
    -2
100
AcDbLine
 10
7672.578480765224
 20
-2551.876419298715
 30
0.0
 11
7672.578480765224
 21
-2463.876419298715
 31
0.0
  0
INSERT
  5
29C0
330
29BC
100
AcDbEntity
  8
V0-ZBYTEK
 62
     0
370
    -2
100
AcDbBlockReference
  2
_OPEN
 10
7672.578480765224
 20
-2566.876419298715
 30
0.0
 41
15.0
 42
15.0
 43
15.0
 50
270.0
  0
INSERT
  5
29C1
330
29BC
100
AcDbEntity
  8
V0-ZBYTEK
 62
     0
370
    -2
100
AcDbBlockReference
  2
_OPEN
 10
7672.578480765224
 20
-2448.876419298715
 30
0.0
 41
15.0
 42
15.0
 43
15.0
 50
90.0
  0
MTEXT
  5
29C2
330
29BC
100
AcDbEntity
  8
V0-ZBYTEK
 62
     0
100
AcDbMText
 10
7662.078480765224
 20
-2507.876419298715
 30
0.0
 40
15.0
 41
0.0
 71
     5
 72
     1
  1
%%c118
  7
ED30
 11
0.0
 21
-1.0
 31
0.0
 73
     1
 44
1.0
  0
POINT
  5
29C3
330
29BC
100
AcDbEntity
  8
DEFPOINTS
 62
     0
100
AcDbPoint
 10
7705.531949034398
 20
-2566.876419298715
 30
0.0
  0
POINT
  5
29C4
330
29BC
100
AcDbEntity
  8
DEFPOINTS
 62
     0
100
AcDbPoint
 10
7705.531949034398
 20
-2448.876419298715
 30
0.0
  0
POINT
  5
29C5
330
29BC
100
AcDbEntity
  8
DEFPOINTS
 62
     0
100
AcDbPoint
 10
7672.578480765224
 20
-2448.876419298715
 30
0.0
  0
ENDBLK
  5
29C7
330
29BC
100
AcDbEntity
  8
0
100
AcDbBlockEnd
  0
ENDSEC
  0
SECTION
  2
ENTITIES
  0
LINE
  5
262C
330
295B
100
AcDbEntity
  8
V0-OBRYS
  6
Continuous
 62
     3
 48
3.0
100
AcDbLine
 10
7433.113358280012
 20
-2597.876419298715
 30
0.0
 11
7613.11335828001
 21
-2597.876419298714
 31
0.0
  0
LINE
  5
262D
330
295B
100
AcDbEntity
  8
V0-OBRYS
  6
Continuous
 62
     3
 48
3.0
100
AcDbLine
 10
7613.11335828001
 20
-2597.876419298714
 30
0.0
 11
7613.11335828001
 21
-2417.876419298714
 31
0.0
  0
LINE
  5
262E
330
295B
100
AcDbEntity
  8
V0-OBRYS
  6
Continuous
 62
     3
 48
3.0
100
AcDbLine
 10
7613.11335828001
 20
-2417.876419298714
 30
0.0
 11
7433.113358280012
 21
-2417.876419298715
 31
0.0
  0
LINE
  5
262F
330
295B
100
AcDbEntity
  8
V0-OBRYS
  6
Continuous
 62
     3
 48
3.0
100
AcDbLine
 10
7433.11335828001
 20
-2417.876419298714
 30
0.0
 11
7433.11335828001
 21
-2597.876419298714
 31
0.0
  0
LINE
  5
2632
330
295B
100
AcDbEntity
  8
V0-OBRYS
  6
Continuous
 62
     3
 48
3.0
100
AcDbLine
 10
7705.531949034398
 20
-2566.876419298715
 30
0.0
 11
7788.531949034397
 21
-2566.876419298715
 31
0.0
  0
LINE
  5
2633
330
295B
100
AcDbEntity
  8
V0-OBRYS
  6
Continuous
 62
     3
 48
3.0
100
AcDbLine
 10
7788.531949034397
 20
-2556.876419298714
 30
0.0
 11
7788.531949034397
 21
-2458.876419298714
 31
0.0
  0
LINE
  5
2634
330
295B
100
AcDbEntity
  8
V0-OBRYS
  6
Continuous
 62
     3
 48
3.0
100
AcDbLine
 10
7788.531949034397
 20
-2448.876419298715
 30
0.0
 11
7705.531949034398
 21
-2448.876419298715
 31
0.0
  0
LINE
  5
2635
330
295B
100
AcDbEntity
  8
V0-OBRYS
  6
Continuous
 62
     3
 48
3.0
100
AcDbLine
 10
7705.531949034398
 20
-2448.876419298715
 30
0.0
 11
7705.531949034398
 21
-2566.876419298715
 31
0.0
  0
LINE
  5
2637
330
295B
100
AcDbEntity
  8
V0-OBRYS
  6
Continuous
 62
     3
 48
3.0
100
AcDbLine
 10
7788.531949034397
 20
-2458.876419298714
 30
0.0
 11
7788.531949034397
 21
-2417.876419298714
 31
0.0
  0
LINE
  5
2639
330
295B
100
AcDbEntity
  8
V0-OBRYS
  6
Continuous
 62
     3
 48
3.0
100
AcDbLine
 10
7788.531949034397
 20
-2556.876419298714
 30
0.0
 11
7788.531949034397
 21
-2597.876419298714
 31
0.0
  0
DIMENSION
  5
263D
330
295B
100
AcDbEntity
  8
V0-ZBYTEK
  6
Continuous
 62
     2
 48
3.0
100
AcDbDimension
  2
*D4
 10
7376.122474320233
 20
-2417.876419298714
 30
0.0
 11
7365.622474320233
 21
-2507.876419298714
 31
0.0
 70
    32
 71
     0
 42
180.0
  3
STANDARD
100
AcDbAlignedDimension
 13
7433.11335828001
 23
-2597.876419298714
 33
0.0
 14
7433.11335828001
 24
-2417.876419298714
 34
0.0
 50
90.0
100
AcDbRotatedDimension
1001
ACAD
1000
DSTYLE
1002
{
1070
    40
1040
1.0
1002
}
  0
DIMENSION
  5
2689
330
295B
100
AcDbEntity
  8
V0-ZBYTEK
  6
Continuous
 62
     2
 48
3.0
100
AcDbDimension
  2
*D5
 10
7613.11335828001
 20
-2671.408384568989
 30
0.0
 11
7523.113358280011
 21
-2660.908384568989
 31
0.0
 70
    32
 71
     0
 42
179.9999999999982
  3
STANDARD
100
AcDbAlignedDimension
 13
7433.113358280012
 23
-2597.876419298715
 33
0.0
 14
7613.11335828001
 24
-2597.876419298714
 34
0.0
100
AcDbRotatedDimension
1001
ACAD
1000
DSTYLE
1002
{
1070
    40
1040
1.0
1002
}
  0
LINE
  5
269F
330
295B
100
AcDbEntity
  8
V0-OBRYS
  6
Continuous
 62
     3
 48
3.0
100
AcDbLine
 10
7714.462113695161
 20
-2448.876419298715
 30
0.0
 11
7714.462113695161
 21
-2566.876419298715
 31
0.0
  0
DIMENSION
  5
26A0
330
295B
100
AcDbEntity
  8
V0-ZBYTEK
  6
Continuous
 62
     2
 48
3.0
100
AcDbDimension
  2
*D6
 10
7788.531949034397
 20
-2671.034986484263
 30
0.0
 11
7747.031949034397
 21
-2660.534986484263
 31
0.0
 70
    32
 71
     0
 42
82.99999999999909
  3
STANDARD
100
AcDbAlignedDimension
 13
7705.531949034398
 23
-2566.876419298715
 33
0.0
 14
7788.531949034397
 24
-2597.876419298714
 34
0.0
100
AcDbRotatedDimension
1001
ACAD
1000
DSTYLE
1002
{
1070
    40
1040
1.0
1002
}
  0
LINE
  5
26BA
330
295B
100
AcDbEntity
  8
V0-OBRYS
  6
Continuous
 62
     3
 48
3.0
100
AcDbLine
 10
7788.531949034397
 20
-2417.876419298714
 30
0.0
 11
7791.12056006072
 21
-2417.876419298714
 31
0.0
  0
LINE
  5
26BC
330
295B
100
AcDbEntity
  8
V0-OBRYS
  6
Continuous
 62
     3
 48
3.0
100
AcDbLine
 10
7791.12056006072
 20
-2597.876419298714
 30
0.0
 11
7788.531949034397
 21
-2597.876419298714
 31
0.0
  0
DIMENSION
  5
26BD
330
295B
100
AcDbEntity
  8
V0-ZBYTEK
  6
Continuous
 62
     2
 48
3.0
100
AcDbDimension
  2
*D7
 10
7813.537612815352
 20
-2401.410538252933
 30
0.0
 11
7759.534780924875
 21
-2390.910538252933
 31
0.0
 70
    32
 71
     0
 42
108.0056637809539
  3
STANDARD
100
AcDbAlignedDimension
 13
7705.531949034398
 23
-2448.876419298715
 33
0.0
 14
7813.537612815352
 24
-2507.980947841868
 34
0.0
100
AcDbRotatedDimension
1001
ACAD
1000
DSTYLE
1002
{
1070
    40
1040
1.0
1002
}
  0
DIMENSION
  5
2723
330
295B
100
AcDbEntity
  8
V0-ZBYTEK
  6
Continuous
 62
     2
 48
3.0
100
AcDbDimension
  2
*D8
 10
7672.578480765224
 20
-2448.876419298715
 30
0.0
 11
7662.078480765224
 21
-2507.876419298715
 31
0.0
 70
    32
  1
%%c118
 71
     0
 42
118.0
  3
STANDARD
100
AcDbAlignedDimension
 13
7705.531949034398
 23
-2566.876419298715
 33
0.0
 14
7705.531949034398
 24
-2448.876419298715
 34
0.0
 50
90.0
100
AcDbRotatedDimension
1001
ACAD
1000
DSTYLE
1002
{
1070
    40
1040
1.0
1002
}
  0
LINE
  5
274F
330
295B
100
AcDbEntity
  8
V0-OBRYS
  6
Continuous
 62
     3
 48
3.0
100
AcDbLine
 10
7791.12056006072
 20
-2417.876419298714
 30
0.0
 11
7791.120560060718
 21
-2597.876419298714
 31
0.0
  0
LINE
  5
2750
330
295B
100
AcDbEntity
  8
V0-OBRYS
  6
Continuous
 62
     3
 48
3.0
100
AcDbLine
 10
7791.120560060718
 20
-2417.876419298714
 30
0.0
 11
7799.356881770532
 21
-2421.509619377676
 31
0.0
  0
LINE
  5
2752
330
295B
100
AcDbEntity
  8
V0-OBRYS
  6
Continuous
 62
     3
 48
3.0
100
AcDbLine
 10
7796.429508318344
 20
-2448.876419298715
 30
0.0
 11
7806.482001336822
 21
-2448.876419298715
 31
0.0
  0
LINE
  5
2753
330
295B
100
AcDbEntity
  8
V0-OBRYS
  6
Continuous
 62
     3
 48
3.0
100
AcDbLine
 10
7805.447701479207
 20
-2428.757317211874
 30
0.0
 11
7806.574796368022
 21
-2448.876419298715
 31
0.0
  0
ARC
  5
2754
330
295B
100
AcDbEntity
  8
V0-OBRYS
  6
Continuous
 62
     3
 48
3.0
100
AcDbCircle
 10
7796.739361128484
 20
-2429.89248135869
 30
0.0
 40
8.782015104989606
100
AcDbArc
 50
7.426838403780846
 51
72.65920031168339
  0
LINE
  5
2755
330
295B
100
AcDbEntity
  8
V0-OBRYS
  6
Continuous
 62
     3
 48
3.0
100
AcDbLine
 10
7796.429508318344
 20
-2448.876419298715
 30
0.0
 11
7796.429508318344
 21
-2507.980947841868
 31
0.0
  0
LINE
  5
2758
330
295B
100
AcDbEntity
  8
V0-VYPLNE
  6
Continuous
 48
3.0
100
AcDbLine
 10
7800.906526796426
 20
-2448.876419298715
 30
0.0
 11
7800.906526796426
 21
-2507.980947841868
 31
0.0
  0
LINE
  5
275A
330
295B
100
AcDbEntity
  8
V0-VYPLNE
  6
Continuous
 48
3.0
100
AcDbLine
 10
7796.429508318343
 20
-2506.844163002694
 30
0.0
 11
7813.17617587319
 21
-2506.844163002693
 31
0.0
  0
LINE
  5
275C
330
295B
100
AcDbEntity
  8
V0-VYPLNE
  6
Continuous
 48
3.0
100
AcDbLine
 10
7796.429508318344
 20
-2496.574362815168
 30
0.0
 11
7811.264730039027
 21
-2496.574362815168
 31
0.0
  0
LINE
  5
275D
330
295B
100
AcDbEntity
  8
V0-VYPLNE
  6
Continuous
 48
3.0
100
AcDbLine
 10
7796.429508318343
 20
-2498.63887540721
 30
0.0
 11
7811.330157460215
 21
-2498.63887540721
 31
0.0
  0
LINE
  5
275E
330
295B
100
AcDbEntity
  8
V0-VYPLNE
  6
Continuous
 48
3.0
100
AcDbLine
 10
7796.429508318343
 20
-2488.369751665493
 30
0.0
 11
7810.532887766874
 21
-2488.369751665493
 31
0.0
  0
LINE
  5
275F
330
295B
100
AcDbEntity
  8
V0-VYPLNE
  6
Continuous
 48
3.0
100
AcDbLine
 10
7796.429508318343
 20
-2486.305239073452
 30
0.0
 11
7810.467460345688
 21
-2486.305239073452
 31
0.0
  0
LINE
  5
2760
330
295B
100
AcDbEntity
  8
V0-VYPLNE
  6
Continuous
 48
3.0
100
AcDbLine
 10
7796.429508318344
 20
-2475.943526812392
 30
0.0
 11
7809.44522130942
 21
-2475.943526812392
 31
0.0
  0
LINE
  5
2761
330
295B
100
AcDbEntity
  8
V0-VYPLNE
  6
Continuous
 48
3.0
100
AcDbLine
 10
7796.429508318344
 20
-2478.008039404434
 30
0.0
 11
7809.510648730607
 21
-2478.008039404434
 31
0.0
  0
LINE
  5
2762
330
295B
100
AcDbEntity
  8
V0-VYPLNE
  6
Continuous
 48
3.0
100
AcDbLine
 10
7796.429508318344
 20
-2468.31186525819
 30
0.0
 11
7809.064587971622
 21
-2468.311865258191
 31
0.0
  0
LINE
  5
2763
330
295B
100
AcDbEntity
  8
V0-VYPLNE
  6
Continuous
 48
3.0
100
AcDbLine
 10
7796.429508318346
 20
-2466.247352666149
 30
0.0
 11
7808.999160550435
 21
-2466.247352666149
 31
0.0
  0
ARC
  5
278A
330
295B
100
AcDbEntity
  8
V0-VYPLNE
  6
Continuous
 48
3.0
100
AcDbCircle
 10
7807.605515829973
 20
-2467.324812345375
 30
0.0
 40
1.761580247174058
100
AcDbArc
 50
325.9219016102984
 51
37.70845730620436
  0
ARC
  5
278B
330
295B
100
AcDbEntity
  8
V0-VYPLNE
  6
Continuous
 48
3.0
100
AcDbCircle
 10
7808.051576588957
 20
-2477.020986491619
 30
0.0
 40
1.761580247174058
100
AcDbArc
 50
325.9219016102984
 51
37.70845730620436
  0
ARC
  5
278C
330
295B
100
AcDbEntity
  8
V0-VYPLNE
  6
Continuous
 48
3.0
100
AcDbCircle
 10
7809.073815625225
 20
-2487.382698752679
 30
0.0
 40
1.761580247174058
100
AcDbArc
 50
325.9219016102984
 51
37.70845730620436
  0
ARC
  5
278D
330
295B
100
AcDbEntity
  8
V0-VYPLNE
  6
Continuous
 48
3.0
100
AcDbCircle
 10
7809.809814073076
 20
-2497.653764269708
 30
0.0
 40
1.811598180626045
100
AcDbArc
 50
327.058657021469
 51
36.57170189508435
  0
ARC
  5
278E
330
295B
100
AcDbEntity
  8
V0-VYPLNE
  6
Continuous
 48
3.0
100
AcDbCircle
 10
7811.569196934527
 20
-2507.980947841869
 30
0.0
 40
1.968415880824377
100
AcDbArc
 50
324.7242231022792
 51
35.27577689773156
  0
LINE
  5
27A1
330
295B
100
AcDbEntity
  8
V0-OBRYS
  6
Continuous
 62
     3
 48
3.0
100
AcDbLine
 10
7613.11335828001
 20
-2566.876419298715
 30
0.0
 11
7433.11335828001
 21
-2566.876419298715
 31
0.0
  0
LINE
  5
27A3
330
295B
100
AcDbEntity
  8
V0-OBRYS
  6
Continuous
 62
     3
 48
3.0
100
AcDbLine
 10
7613.113358280012
 20
-2448.876419298715
 30
0.0
 11
7433.113358280012
 21
-2448.876419298714
 31
0.0
  0
LINE
  5
27A9
330
295B
100
AcDbEntity
  8
V0-VYPLNE
  6
Continuous
 48
3.0
100
AcDbLine
 10
7613.113358280012
 20
-2549.50548593128
 30
0.0
 11
7433.113358280012
 21
-2549.50548593128
 31
0.0
  0
LINE
  5
27AA
330
295B
100
AcDbEntity
  8
V0-VYPLNE
  6
Continuous
 48
3.0
100
AcDbLine
 10
7613.113358280012
 20
-2466.247352666148
 30
0.0
 11
7433.113358280012
 21
-2466.247352666149
 31
0.0
  0
LINE
  5
27AD
330
295B
100
AcDbEntity
  8
V0-VYPLNE
  6
Continuous
 48
3.0
100
AcDbLine
 10
7613.113358280012
 20
-2547.440973339238
 30
0.0
 11
7433.113358280012
 21
-2547.440973339238
 31
0.0
  0
LINE
  5
27B6
330
295B
100
AcDbEntity
  8
V0-VYPLNE
  6
Continuous
 48
3.0
100
AcDbLine
 10
7613.113358280012
 20
-2508.908675594736
 30
0.0
 11
7433.113358280012
 21
-2508.908675594736
 31
0.0
  0
LINE
  5
27B7
330
295B
100
AcDbEntity
  8
V0-VYPLNE
  6
Continuous
 48
3.0
100
AcDbLine
 10
7613.113358280012
 20
-2517.113963190219
 30
0.0
 11
7433.113358280012
 21
-2517.113963190219
 31
0.0
  0
LINE
  5
27B8
330
295B
100
AcDbEntity
  8
V0-VYPLNE
  6
Continuous
 48
3.0
100
AcDbLine
 10
7613.113358280012
 20
-2519.17847578226
 30
0.0
 11
7433.113358280012
 21
-2519.17847578226
 31
0.0
  0
LINE
  5
27B9
330
295B
100
AcDbEntity
  8
V0-VYPLNE
  6
Continuous
 48
3.0
100
AcDbLine
 10
7613.113358280012
 20
-2527.383086931935
 30
0.0
 11
7576.222461016347
 21
-2527.383086931935
 31
0.0
  0
LINE
  5
27BA
330
295B
100
AcDbEntity
  8
V0-VYPLNE
  6
Continuous
 48
3.0
100
AcDbLine
 10
7613.113358280012
 20
-2529.447599523978
 30
0.0
 11
7575.417957115111
 21
-2529.447599523977
 31
0.0
  0
LINE
  5
27BB
330
295B
100
AcDbEntity
  8
V0-VYPLNE
  6
Continuous
 48
3.0
100
AcDbLine
 10
7613.113358280012
 20
-2537.744799192994
 30
0.0
 11
7433.113358280012
 21
-2537.744799192994
 31
0.0
  0
LINE
  5
27BC
330
295B
100
AcDbEntity
  8
V0-VYPLNE
  6
Continuous
 48
3.0
100
AcDbLine
 10
7613.113358280012
 20
-2539.809311785036
 30
0.0
 11
7433.113358280012
 21
-2539.809311785036
 31
0.0
  0
LINE
  5
27BE
330
295B
100
AcDbEntity
  8
V0-VYPLNE
  6
Continuous
 48
3.0
100
AcDbLine
 10
7613.113358280012
 20
-2468.31186525819
 30
0.0
 11
7433.113358280012
 21
-2468.31186525819
 31
0.0
  0
LINE
  5
27BF
330
295B
100
AcDbEntity
  8
V0-VYPLNE
  6
Continuous
 48
3.0
100
AcDbLine
 10
7613.113358280012
 20
-2475.943526812392
 30
0.0
 11
7433.113358280012
 21
-2475.943526812392
 31
0.0
  0
LINE
  5
27C0
330
295B
100
AcDbEntity
  8
V0-VYPLNE
  6
Continuous
 48
3.0
100
AcDbLine
 10
7613.113358280012
 20
-2478.008039404434
 30
0.0
 11
7433.113358280012
 21
-2478.008039404434
 31
0.0
  0
LINE
  5
27C1
330
295B
100
AcDbEntity
  8
V0-VYPLNE
  6
Continuous
 48
3.0
100
AcDbLine
 10
7613.113358280012
 20
-2486.305239073452
 30
0.0
 11
7575.417957115111
 21
-2486.305239073452
 31
0.0
  0
LINE
  5
27C2
330
295B
100
AcDbEntity
  8
V0-VYPLNE
  6
Continuous
 48
3.0
100
AcDbLine
 10
7613.113358280012
 20
-2488.369751665493
 30
0.0
 11
7576.222461016347
 21
-2488.369751665493
 31
0.0
  0
LINE
  5
27C3
330
295B
100
AcDbEntity
  8
V0-VYPLNE
  6
Continuous
 48
3.0
100
AcDbLine
 10
7613.113358280012
 20
-2496.574362815168
 30
0.0
 11
7433.113358280012
 21
-2496.574362815168
 31
0.0
  0
LINE
  5
27C4
330
295B
100
AcDbEntity
  8
V0-VYPLNE
  6
Continuous
 48
3.0
100
AcDbLine
 10
7613.113358280012
 20
-2498.638875407209
 30
0.0
 11
7433.113358280012
 21
-2498.638875407209
 31
0.0
  0
LINE
  5
27C5
330
295B
100
AcDbEntity
  8
V0-VYPLNE
  6
Continuous
 48
3.0
100
AcDbLine
 10
7613.113358280012
 20
-2506.844163002694
 30
0.0
 11
7433.113358280012
 21
-2506.844163002694
 31
0.0
  0
LWPOLYLINE
  5
27CD
330
295B
100
AcDbEntity
  8
V0-VYPLNE
  6
Continuous
 48
3.0
100
AcDbPolyline
 90
        4
 70
     1
 43
0.0
 10
7577.440588142299
 20
-2583.494968421021
 10
7585.906946259616
 20
-2583.494968421021
 10
7585.906946259616
 20
-2575.028610303704
 10
7577.440588142299
 20
-2575.028610303704
  0
LINE
  5
27D3
330
295B
100
AcDbEntity
  8
V0-VYPLNE
  6
Continuous
 48
3.0
100
AcDbLine
 10
7470.004255543678
 20
-2488.369751665493
 30
0.0
 11
7433.11335828001
 21
-2488.369751665493
 31
0.0
  0
LINE
  5
27D4
330
295B
100
AcDbEntity
  8
V0-VYPLNE
  6
Continuous
 48
3.0
100
AcDbLine
 10
7470.808759444913
 20
-2486.305239073452
 30
0.0
 11
7433.113358280012
 21
-2486.305239073452
 31
0.0
  0
LINE
  5
27D7
330
295B
100
AcDbEntity
  8
V0-VYPLNE
  6
Continuous
 48
3.0
100
AcDbLine
 10
7470.004255543678
 20
-2527.383086931935
 30
0.0
 11
7433.113358280012
 21
-2527.383086931935
 31
0.0
  0
LINE
  5
27D8
330
295B
100
AcDbEntity
  8
V0-VYPLNE
  6
Continuous
 48
3.0
100
AcDbLine
 10
7470.808759444913
 20
-2529.447599523977
 30
0.0
 11
7433.113358280012
 21
-2529.447599523978
 31
0.0
  0
ARC
  5
288B
330
295B
100
AcDbEntity
  8
V0-VYPLNE
  6
Continuous
 48
3.0
100
AcDbCircle
 10
7806.634110105486
 20
-2457.256291506993
 30
0.0
 40
1.761580247174058
100
AcDbArc
 50
325.9219016102984
 51
37.70845730620436
  0
LINE
  5
288C
330
295B
100
AcDbEntity
  8
V0-VYPLNE
  6
Continuous
 48
3.0
100
AcDbLine
 10
7796.429508318346
 20
-2456.178831827767
 30
0.0
 11
7808.027754825949
 21
-2456.178831827766
 31
0.0
  0
LINE
  5
288D
330
295B
100
AcDbEntity
  8
V0-VYPLNE
  6
Continuous
 48
3.0
100
AcDbLine
 10
7796.429508318344
 20
-2458.243344419807
 30
0.0
 11
7808.093182247135
 21
-2458.243344419809
 31
0.0
  0
LINE
  5
2890
330
295B
100
AcDbEntity
  8
V0-OBRYS
  6
Continuous
 62
     3
 48
3.0
100
AcDbLine
 10
7805.447701479207
 20
-2587.204578471864
 30
0.0
 11
7806.574796368022
 21
-2567.085476385023
 31
0.0
  0
LINE
  5
2891
330
295B
100
AcDbEntity
  8
V0-VYPLNE
  6
Continuous
 48
3.0
100
AcDbLine
 10
7800.906526796426
 20
-2567.085476385023
 30
0.0
 11
7800.906526796426
 21
-2507.980947841868
 31
0.0
  0
LINE
  5
2892
330
295B
100
AcDbEntity
  8
V0-OBRYS
  6
Continuous
 62
     3
 48
3.0
100
AcDbLine
 10
7796.429508318344
 20
-2567.085476385023
 30
0.0
 11
7796.429508318344
 21
-2507.980947841868
 31
0.0
  0
LINE
  5
2893
330
295B
100
AcDbEntity
  8
V0-VYPLNE
  6
Continuous
 48
3.0
100
AcDbLine
 10
7796.429508318343
 20
-2509.117732681044
 30
0.0
 11
7813.17617587319
 21
-2509.117732681044
 31
0.0
  0
LINE
  5
2894
330
295B
100
AcDbEntity
  8
V0-VYPLNE
  6
Continuous
 48
3.0
100
AcDbLine
 10
7796.429508318344
 20
-2519.387532868569
 30
0.0
 11
7811.264730039027
 21
-2519.387532868569
 31
0.0
  0
LINE
  5
2895
330
295B
100
AcDbEntity
  8
V0-VYPLNE
  6
Continuous
 48
3.0
100
AcDbLine
 10
7796.429508318343
 20
-2517.323020276527
 30
0.0
 11
7811.330157460215
 21
-2517.323020276527
 31
0.0
  0
LINE
  5
2896
330
295B
100
AcDbEntity
  8
V0-VYPLNE
  6
Continuous
 48
3.0
100
AcDbLine
 10
7796.429508318343
 20
-2527.592144018244
 30
0.0
 11
7810.532887766874
 21
-2527.592144018243
 31
0.0
  0
LINE
  5
2897
330
295B
100
AcDbEntity
  8
V0-VYPLNE
  6
Continuous
 48
3.0
100
AcDbLine
 10
7796.429508318343
 20
-2529.656656610285
 30
0.0
 11
7810.467460345688
 21
-2529.656656610285
 31
0.0
  0
LINE
  5
2898
330
295B
100
AcDbEntity
  8
V0-VYPLNE
  6
Continuous
 48
3.0
100
AcDbLine
 10
7796.429508318344
 20
-2537.953856279302
 30
0.0
 11
7809.510648730607
 21
-2537.953856279303
 31
0.0
  0
LINE
  5
2899
330
295B
100
AcDbEntity
  8
V0-VYPLNE
  6
Continuous
 48
3.0
100
AcDbLine
 10
7796.429508318344
 20
-2540.018368871345
 30
0.0
 11
7809.44522130942
 21
-2540.018368871345
 31
0.0
  0
LINE
  5
289A
330
295B
100
AcDbEntity
  8
V0-VYPLNE
  6
Continuous
 48
3.0
100
AcDbLine
 10
7796.429508318344
 20
-2547.650030425547
 30
0.0
 11
7809.064587971622
 21
-2547.650030425546
 31
0.0
  0
LINE
  5
289B
330
295B
100
AcDbEntity
  8
V0-VYPLNE
  6
Continuous
 48
3.0
100
AcDbLine
 10
7796.429508318346
 20
-2549.714543017588
 30
0.0
 11
7808.999160550435
 21
-2549.714543017588
 31
0.0
  0
LINE
  5
289C
330
295B
100
AcDbEntity
  8
V0-VYPLNE
  6
Continuous
 48
3.0
100
AcDbLine
 10
7796.429508318344
 20
-2557.718551263929
 30
0.0
 11
7808.093182247135
 21
-2557.718551263929
 31
0.0
  0
LINE
  5
289D
330
295B
100
AcDbEntity
  8
V0-VYPLNE
  6
Continuous
 48
3.0
100
AcDbLine
 10
7796.429508318346
 20
-2559.783063855971
 30
0.0
 11
7808.027754825949
 21
-2559.783063855971
 31
0.0
  0
LINE
  5
289E
330
295B
100
AcDbEntity
  8
V0-OBRYS
  6
Continuous
 62
     3
 48
3.0
100
AcDbLine
 10
7796.429508318344
 20
-2567.085476385023
 30
0.0
 11
7806.482001336822
 21
-2567.085476385023
 31
0.0
  0
ARC
  5
289F
330
295B
100
AcDbEntity
  8
V0-VYPLNE
  6
Continuous
 48
3.0
100
AcDbCircle
 10
7807.605515829973
 20
-2548.637083338362
 30
0.0
 40
1.761580247174058
100
AcDbArc
 50
322.2915426937956
 51
34.0780983897016
  0
ARC
  5
28A0
330
295B
100
AcDbEntity
  8
V0-VYPLNE
  6
Continuous
 48
3.0
100
AcDbCircle
 10
7806.634110105486
 20
-2558.705604176744
 30
0.0
 40
1.761580247174058
100
AcDbArc
 50
322.2915426937956
 51
34.0780983897016
  0
ARC
  5
28A1
330
295B
100
AcDbEntity
  8
V0-OBRYS
  6
Continuous
 62
     3
 48
3.0
100
AcDbCircle
 10
7796.739361128484
 20
-2586.069414325047
 30
0.0
 40
8.782015104989606
100
AcDbArc
 50
287.3407996883165
 51
352.5731615962191
  0
LINE
  5
28A2
330
295B
100
AcDbEntity
  8
V0-OBRYS
  6
Continuous
 62
     3
 48
3.0
100
AcDbLine
 10
7791.12056006072
 20
-2597.876419298714
 30
0.0
 11
7799.356881770532
 21
-2594.452276306061
 31
0.0
  0
ARC
  5
28A3
330
295B
100
AcDbEntity
  8
V0-VYPLNE
  6
Continuous
 48
3.0
100
AcDbCircle
 10
7809.809814073076
 20
-2518.308131414028
 30
0.0
 40
1.811598180626045
100
AcDbArc
 50
323.4282981049156
 51
32.94134297853094
  0
ARC
  5
28A4
330
295B
100
AcDbEntity
  8
V0-VYPLNE
  6
Continuous
 48
3.0
100
AcDbCircle
 10
7809.073815625225
 20
-2528.579196931059
 30
0.0
 40
1.761580247174058
100
AcDbArc
 50
322.2915426937956
 51
34.0780983897016
  0
ARC
  5
28A5
330
295B
100
AcDbEntity
  8
V0-VYPLNE
  6
Continuous
 48
3.0
100
AcDbCircle
 10
7808.051576588957
 20
-2538.940909192118
 30
0.0
 40
1.761580247174058
100
AcDbArc
 50
322.2915426937956
 51
34.0780983897016
  0
LINE
  5
28BC
330
295B
100
AcDbEntity
  8
V0-VYPLNE
  6
Continuous
 48
3.0
100
AcDbLine
 10
7613.11335828001
 20
-2458.243344419807
 30
0.0
 11
7433.11335828001
 21
-2458.243344419807
 31
0.0
  0
LINE
  5
28BE
330
295B
100
AcDbEntity
  8
V0-VYPLNE
  6
Continuous
 48
3.0
100
AcDbLine
 10
7613.11335828001
 20
-2456.178831827767
 30
0.0
 11
7433.11335828001
 21
-2456.178831827767
 31
0.0
  0
LINE
  5
28C0
330
295B
100
AcDbEntity
  8
V0-VYPLNE
  6
Continuous
 48
3.0
100
AcDbLine
 10
7613.11335828001
 20
-2559.783063855971
 30
0.0
 11
7433.11335828001
 21
-2559.783063855971
 31
0.0
  0
LINE
  5
28C2
330
295B
100
AcDbEntity
  8
V0-VYPLNE
  6
Continuous
 48
3.0
100
AcDbLine
 10
7613.11335828001
 20
-2557.718551263929
 30
0.0
 11
7433.11335828001
 21
-2557.718551263929
 31
0.0
  0
CIRCLE
  5
28C4
330
295B
100
AcDbEntity
  8
V0-OBRYS
  6
Continuous
 62
     3
 48
3.0
100
AcDbCircle
 10
7523.113358280013
 20
-2507.876419298714
 30
0.0
 40
56.57814839327538
  0
CIRCLE
  5
28C5
330
295B
100
AcDbEntity
  8
V0-OBRYS
  6
Continuous
 62
     3
 48
3.0
100
AcDbCircle
 10
7523.113358280013
 20
-2507.876419298714
 30
0.0
 40
53.44417799085921
  0
CIRCLE
  5
28C6
330
295B
100
AcDbEntity
  8
V0-OBRYS
  6
Continuous
 62
     3
 48
3.0
100
AcDbCircle
 10
7523.11335828001
 20
-2507.876419298714
 30
0.0
 40
24.32537702343897
  0
CIRCLE
  5
28C7
330
295B
100
AcDbEntity
  8
V0-OBRYS
  6
Continuous
 62
     3
 48
3.0
100
AcDbCircle
 10
7523.113358280013
 20
-2507.876419298714
 30
0.0
 40
34.85281021022132
  0
LINE
  5
28C8
330
295B
100
AcDbEntity
  8
V0-OBRYS
  6
Continuous
 62
     3
 48
3.0
100
AcDbLine
 10
7533.138243618174
 20
-2530.040030044464
 30
0.0
 11
7549.264629303092
 21
-2557.971749393194
 31
0.0
  0
LINE
  5
28C9
330
295B
100
AcDbEntity
  8
V0-OBRYS
  6
Continuous
 62
     3
 48
3.0
100
AcDbLine
 10
7537.29516555634
 20
-2527.640030044464
 30
0.0
 11
7553.421551241257
 21
-2555.571749393194
 31
0.0
  0
LINE
  5
28CA
330
295B
100
AcDbEntity
  8
V0-OBRYS
  6
Continuous
 62
     3
 48
3.0
100
AcDbLine
 10
7547.320050894501
 20
-2510.276419298715
 30
0.0
 11
7579.572822264339
 21
-2510.276419298715
 31
0.0
  0
LINE
  5
28CD
330
295B
100
AcDbEntity
  8
V0-OBRYS
  6
Continuous
 62
     3
 48
3.0
100
AcDbLine
 10
7470.033174850659
 20
-2527.265209887703
 30
0.0
 11
7499.830850186015
 21
-2514.922608636608
 31
0.0
  0
LINE
  5
28CE
330
295B
100
AcDbEntity
  8
V0-OBRYS
  6
Continuous
 62
     3
 48
3.0
100
AcDbLine
 10
7471.870055326009
 20
-2531.699831643758
 30
0.0
 11
7501.667730661367
 21
-2519.357230392662
 31
0.0
  0
LINE
  5
28CF
330
295B
100
AcDbEntity
  8
V0-OBRYS
  6
Continuous
 62
     3
 48
3.0
100
AcDbLine
 10
7503.698637656595
 20
-2561.019203368859
 30
0.0
 11
7516.041238907689
 21
-2531.221528033501
 31
0.0
  0
LINE
  5
28D0
330
295B
100
AcDbEntity
  8
V0-OBRYS
  6
Continuous
 62
     3
 48
3.0
100
AcDbLine
 10
7499.26401590054
 20
-2559.182322893507
 30
0.0
 11
7511.606617151636
 21
-2529.384647558149
 31
0.0
  0
LINE
  5
28D1
330
295B
100
AcDbEntity
  8
V0-OBRYS
  6
Continuous
 62
     3
 48
3.0
100
AcDbLine
 10
7533.197585822648
 20
-2485.610024839783
 30
0.0
 11
7549.323971507567
 21
-2457.678305491052
 31
0.0
  0
LINE
  5
28D2
330
295B
100
AcDbEntity
  8
V0-OBRYS
  6
Continuous
 62
     3
 48
3.0
100
AcDbLine
 10
7537.354507760814
 20
-2488.010024839783
 30
0.0
 11
7553.480893445732
 21
-2460.078305491052
 31
0.0
  0
LINE
  5
28D3
330
295B
100
AcDbEntity
  8
V0-OBRYS
  6
Continuous
 62
     3
 48
3.0
100
AcDbLine
 10
7547.320050894501
 20
-2505.476419298715
 30
0.0
 11
7579.572822264339
 21
-2505.476419298715
 31
0.0
  0
LINE
  5
28D4
330
295B
100
AcDbEntity
  8
V0-OBRYS
  6
Continuous
 62
     3
 48
3.0
100
AcDbLine
 10
7574.758530057228
 20
-2484.770941426285
 30
0.0
 11
7471.468186502796
 21
-2484.770941426285
 31
0.0
  0
LINE
  5
28D5
330
295B
100
AcDbEntity
  8
V0-OBRYS
  6
Continuous
 62
     3
 48
3.0
100
AcDbLine
 10
7576.674767928722
 20
-2489.648356536736
 30
0.0
 11
7469.551948631303
 21
-2489.648356536736
 31
0.0
  0
LINE
  5
28D6
330
295B
100
AcDbEntity
  8
V0-OBRYS
  6
Continuous
 62
     3
 48
3.0
100
AcDbLine
 10
7471.7286732876
 20
-2483.994444595888
 30
0.0
 11
7501.526348622959
 21
-2496.337045846983
 31
0.0
  0
LINE
  5
28D7
330
295B
100
AcDbEntity
  8
V0-OBRYS
  6
Continuous
 62
     3
 48
3.0
100
AcDbLine
 10
7469.891792812247
 20
-2488.429066351941
 30
0.0
 11
7499.689468147606
 21
-2500.771667603038
 31
0.0
  0
LINE
  5
28D8
330
295B
100
AcDbEntity
  8
V0-OBRYS
  6
Continuous
 62
     3
 48
3.0
100
AcDbLine
 10
7499.289945934968
 20
-2456.633116344712
 30
0.0
 11
7511.632547186066
 21
-2486.430791680069
 31
0.0
  0
LINE
  5
28D9
330
295B
100
AcDbEntity
  8
V0-OBRYS
  6
Continuous
 62
     3
 48
3.0
100
AcDbLine
 10
7503.724567691023
 20
-2454.796235869359
 30
0.0
 11
7516.067168942119
 21
-2484.593911204717
 31
0.0
  0
LINE
  5
28DA
330
295B
100
AcDbEntity
  8
V0-OBRYS
  6
Continuous
 62
     3
 48
3.0
100
AcDbLine
 10
7576.674767928722
 20
-2526.104482060692
 30
0.0
 11
7469.551948631303
 21
-2526.104482060692
 31
0.0
  0
LINE
  5
28DB
330
295B
100
AcDbEntity
  8
V0-OBRYS
  6
Continuous
 62
     3
 48
3.0
100
AcDbLine
 10
7574.758530057228
 20
-2530.981897171143
 30
0.0
 11
7471.468186502796
 21
-2530.981897171143
 31
0.0
  0
ARC
  5
28E1
330
295B
100
AcDbEntity
  8
V0-VYPLNE
  6
Continuous
 48
3.0
100
AcDbCircle
 10
7789.903746284295
 20
-2507.980947841868
 30
0.0
 40
15.84838669926588
100
AcDbArc
 50
313.9676731026907
 51
46.0323268973059
  0
TEXT
  5
292E
330
295B
100
AcDbEntity
  8
V0-NAZVY
100
AcDbText
 10
7514.18993421484
 20
-2816.511664027391
 30
0.0
 40
35.4375
  1
DECOR 200
  7
Proxy_292E
100
AcDbText
  0
TEXT
  5
2932
330
295B
100
AcDbEntity
  8
V0-NAZVY
100
AcDbText
 10
7471.277740036354
 20
-2849.793001037766
 30
0.0
 40
19.84499999999999
  1
MALÝ AXIÁLNÍ VENTILÁTOR
  7
Proxy_2932
100
AcDbText
  0
TEXT
  5
2934
330
295B
100
AcDbEntity
  8
V0-NAZVY
100
AcDbText
 10
7487.543133082208
 20
-2221.424449500881
 30
0.0
 40
35.4375
  1
DECOR 200
  7
Proxy_2934
100
AcDbText
  0
VIEWPORT
  5
29C8
330
2957
100
AcDbEntity
 67
     1
  8
0
 60
     1
100
AcDbViewport
 10
261.5176991150442
 20
148.5
 30
0.0
 40
297.0
 41
297.0
 69
     1
 12
261.5176991150442
 22
148.5
 13
0.0
 23
0.0
 14
1.0
 24
1.0
 15
0.0
 25
0.0
 16
0.0
 26
0.0
 36
1.0
 17
0.0
 27
0.0
 37
0.0
 42
0.0
 43
0.0
 44
0.0
 45
297.0
 50
0.0
 51
0.0000000000007958
 72
   100
 90
   163872
  1

281
     0
 71
     0
 74
     0
110
0.0
120
0.0
130
0.0
111
1.0
121
0.0
131
0.0
112
0.0
122
1.0
132
0.0
 79
     0
146
0.0
1001
VD_INVISIBLE_NOT_FOR_READ
1000
VD_INVISIBLE_NOT_FOR_READ
  0
VIEWPORT
  5
29C9
330
2957
100
AcDbEntity
 67
     1
  8
0
 60
     1
100
AcDbViewport
 10
261.5176991150442
 20
148.5
 30
0.0
 40
297.0
 41
297.0
 69
     2
 12
261.5176991150442
 22
148.5
 13
0.0
 23
0.0
 14
1.0
 24
1.0
 15
0.0
 25
0.0
 16
0.0
 26
0.0
 36
1.0
 17
0.0
 27
0.0
 37
0.0
 42
0.0
 43
0.0
 44
0.0
 45
297.0
 50
0.0
 51
0.0000000000007958
 72
   100
 90
   163872
  1

281
     0
 71
     0
 74
     0
110
0.0
120
0.0
130
0.0
111
1.0
121
0.0
131
0.0
112
0.0
122
1.0
132
0.0
 79
     0
146
0.0
1001
VD_INVISIBLE_NOT_FOR_READ
1000
VD_INVISIBLE_NOT_FOR_READ
  0
ENDSEC
  0
SECTION
  2
OBJECTS
  0
DICTIONARY
  5
2948
330
0
100
AcDbDictionary
281
     1
  3
ACAD_GROUP
350
2949
  3
ACAD_LAYOUT
350
2956
  3
ACAD_MLINESTYLE
350
2953
  3
ACAD_PLOTSETTINGS
350
2955
  3
ACAD_PLOTSTYLENAME
350
294A
  3
VECTORDRAW_OBJECTS
350
296B
  0
DICTIONARY
  5
2949
102
{ACAD_REACTORS
330
2948
102
}
330
2948
100
AcDbDictionary
281
     1
  0
DICTIONARY
  5
2956
102
{ACAD_REACTORS
330
2948
102
}
330
2948
100
AcDbDictionary
281
     1
  3
Layout2
350
2962
  3
Model
350
295E
  3
Rozvržení1
350
295A
  0
DICTIONARY
  5
2953
102
{ACAD_REACTORS
330
2948
102
}
330
2948
100
AcDbDictionary
281
     1
  3
Standard
350
2954
  0
DICTIONARY
  5
2955
102
{ACAD_REACTORS
330
2948
102
}
330
2948
100
AcDbDictionary
281
     1
  0
ACDBDICTIONARYWDFLT
  5
294A
102
{ACAD_REACTORS
330
2948
102
}
330
2948
100
AcDbDictionary
281
     1
  3
Normal
350
294B
100
AcDbDictionaryWithDefault
340
294B
  0
DICTIONARY
  5
296B
102
{ACAD_REACTORS
330
2948
102
}
330
2948
100
AcDbDictionary
281
     1
  3
SERIALNO
350
296C
  0
LAYOUT
  5
2962
102
{ACAD_REACTORS
330
2956
102
}
330
2956
100
AcDbPlotSettings
  1

  2

  4

  6

 40
0.0
 41
0.0
 42
0.0
 43
0.0
 44
0.0
 45
0.0
 46
0.0
 47
0.0
 48
0.0
 49
0.0
140
0.0
141
0.0
142
1.0
143
1.0
 70
   688
 72
     0
 73
     0
 74
     5
  7

 75
    16
147
1.0
148
0.0
149
0.0
100
AcDbLayout
  1
Layout2
 70
     1
 71
     2
 10
0.0
 20
0.0
 11
0.0
 21
0.0
 12
0.0
 22
0.0
 32
0.0
 14
0.0
 24
0.0
 34
0.0
 15
0.0
 25
0.0
 35
0.0
146
0.0
 13
0.0
 23
0.0
 33
0.0
 16
1.0
 26
0.0
 36
0.0
 17
0.0
 27
1.0
 37
0.0
 76
     0
330
295F
  0
LAYOUT
  5
295E
102
{ACAD_REACTORS
330
2956
102
}
330
2956
100
AcDbPlotSettings
  1
VectorDraw Printer Drawing
  2

  4

  6

 40
0.0
 41
0.0
 42
0.0
 43
0.0
 44
0.0
 45
0.0
 46
0.0
 47
0.0
 48
0.0
 49
0.0
140
0.0
141
0.0
142
1.0
143
1.0
 70
  1712
 72
     0
 73
     0
 74
     0
  7

 75
     0
147
1.0
148
0.0
149
0.0
100
AcDbLayout
  1
Model
 70
     1
 71
     0
 10
0.0
 20
0.0
 11
12.0
 21
9.0
 12
0.0
 22
0.0
 32
0.0
 14
7333.84555124331
 24
-2855.162824567178
 34
0.0
 15
7813.537612815351
 25
-2185.986949500881
 35
0.0
146
0.0
 13
0.0
 23
0.0
 33
0.0
 16
1.0
 26
0.0
 36
0.0
 17
0.0
 27
1.0
 37
0.0
 76
     0
330
295B
  0
LAYOUT
  5
295A
102
{ACAD_REACTORS
330
2956
102
}
330
2956
100
AcDbPlotSettings
  1
VectorDraw Printer Drawing
  2

  4

  6

 40
0.0
 41
0.0
 42
0.0
 43
0.0
 44
0.0
 45
0.0
 46
0.0
 47
0.0
 48
0.0
 49
0.0
140
0.0
141
0.0
142
1.0
143
1.0
 70
   688
 72
     0
 73
     0
 74
     5
  7

 75
    16
147
1.0
148
0.0
149
0.0
100
AcDbLayout
  1
Rozvržení1
 70
     1
 71
     1
 10
0.0
 20
0.0
 11
12.0
 21
9.0
 12
0.0
 22
0.0
 32
0.0
 14
1.000000000000000E+20
 24
1.000000000000000E+20
 34
1.000000000000000E+20
 15
-1.000000000000000E+20
 25
-1.000000000000000E+20
 35
-1.000000000000000E+20
146
0.0
 13
0.0
 23
0.0
 33
0.0
 16
1.0
 26
0.0
 36
0.0
 17
0.0
 27
1.0
 37
0.0
 76
     0
330
2957
331
29C8
  0
MLINESTYLE
  5
2954
102
{ACAD_REACTORS
330
2953
102
}
330
2953
100
AcDbMlineStyle
  2
Standard
 70
     0
  3

 62
   256
 51
90.0
 52
90.0
 71
     2
 49
0.5
 62
   256
  6
BYLAYER
 49
-0.5
 62
   256
  6
BYLAYER
  0
ACDBPLACEHOLDER
  5
294B
102
{ACAD_REACTORS
330
294A
102
}
330
294A
  0
XRECORD
  5
296C
102
{ACAD_REACTORS
330
296B
102
}
330
296B
100
AcDbXrecord
280
     1
1000
rInJVR9YY4Q8hfPWdUq5j5319
1070
     4
1070
     6
  0
ENDSEC
  0
EOF
