  0
SECTION
  2
HEADER
  9
$ACADVER
  1
AC1014
  9
$ACADMAINTVER
 70
     0
  9
$DWGCODEPAGE
  3
ANSI_1250
  9
$INSBASE
 10
0.0
 20
0.0
 30
0.0
  9
$EXTMIN
 10
-387.774495
 20
-1605.033075
 30
0.0
  9
$EXTMAX
 10
2358.942262
 20
628.104996
 30
0.0
  9
$LIMMIN
 10
0.0
 20
0.0
  9
$LIMMAX
 10
420.0
 20
297.0
  9
$ORTHOMODE
 70
     1
  9
$REGENMODE
 70
     1
  9
$FILLMODE
 70
     1
  9
$QTEXTMODE
 70
     0
  9
$MIRRTEXT
 70
     1
  9
$DRAGMODE
 70
     2
  9
$LTSCALE
 40
1.0
  9
$OSMODE
 70
    32
  9
$ATTMODE
 70
     1
  9
$TEXTSIZE
 40
20.0
  9
$TRACEWID
 40
1.0
  9
$TEXTSTYLE
  7
ED70
  9
$CLAYER
  8
V0-ZBYTEK
  9
$CELTYPE
  6
CONTINUOUS
  9
$CECOLOR
 62
   256
  9
$CELTSCALE
 40
3.0
  9
$DELOBJ
 70
     1
  9
$DISPSILH
 70
     0
  9
$DIMSCALE
 40
1.0
  9
$DIMASZ
 40
70.0
  9
$DIMEXO
 40
1.0
  9
$DIMDLI
 40
3.75
  9
$DIMRND
 40
0.0
  9
$DIMDLE
 40
0.0
  9
$DIMEXE
 40
1.25
  9
$DIMTP
 40
0.0
  9
$DIMTM
 40
0.0
  9
$DIMTXT
 40
40.0
  9
$DIMCEN
 40
3.0
  9
$DIMTSZ
 40
0.0
  9
$DIMTOL
 70
     0
  9
$DIMLIM
 70
     0
  9
$DIMTIH
 70
     0
  9
$DIMTOH
 70
     0
  9
$DIMSE1
 70
     0
  9
$DIMSE2
 70
     0
  9
$DIMTAD
 70
     1
  9
$DIMZIN
 70
     8
  9
$DIMBLK
  1

  9
$DIMASO
 70
     1
  9
$DIMSHO
 70
     1
  9
$DIMPOST
  1

  9
$DIMAPOST
  1

  9
$DIMALT
 70
     0
  9
$DIMALTD
 70
     4
  9
$DIMALTF
 40
0.0394
  9
$DIMLFAC
 40
1.0
  9
$DIMTOFL
 70
     1
  9
$DIMTVP
 40
0.0
  9
$DIMTIX
 70
     0
  9
$DIMSOXD
 70
     0
  9
$DIMSAH
 70
     1
  9
$DIMBLK1
  1
_OPEN
  9
$DIMBLK2
  1
_OPEN
  9
$DIMSTYLE
  2
ED70
  9
$DIMCLRD
 70
     0
  9
$DIMCLRE
 70
     0
  9
$DIMCLRT
 70
     0
  9
$DIMTFAC
 40
1.0
  9
$DIMGAP
 40
4.0
  9
$DIMJUST
 70
     0
  9
$DIMSD1
 70
     0
  9
$DIMSD2
 70
     0
  9
$DIMTOLJ
 70
     1
  9
$DIMTZIN
 70
     8
  9
$DIMALTZ
 70
     0
  9
$DIMALTTZ
 70
     0
  9
$DIMFIT
 70
     3
  9
$DIMUPT
 70
     0
  9
$DIMUNIT
 70
     2
  9
$DIMDEC
 70
     0
  9
$DIMTDEC
 70
     1
  9
$DIMALTU
 70
     8
  9
$DIMALTTD
 70
     4
  9
$DIMTXSTY
  7
ED70
  9
$DIMAUNIT
 70
     0
  9
$LUNITS
 70
     2
  9
$LUPREC
 70
     4
  9
$SKETCHINC
 40
1.0
  9
$FILLETRAD
 40
0.0
  9
$AUNITS
 70
     0
  9
$AUPREC
 70
     0
  9
$MENU
  1
.
  9
$ELEVATION
 40
0.0
  9
$PELEVATION
 40
0.0
  9
$THICKNESS
 40
0.0
  9
$LIMCHECK
 70
     0
  9
$BLIPMODE
 70
     0
  9
$CHAMFERA
 40
10.0
  9
$CHAMFERB
 40
10.0
  9
$CHAMFERC
 40
20.0
  9
$CHAMFERD
 40
0.0
  9
$SKPOLY
 70
     1
  9
$TDCREATE
 40
2451196.643769328
  9
$TDUPDATE
 40
2453318.462805718
  9
$TDINDWG
 40
0.2933532755
  9
$TDUSRTIMER
 40
0.2933532755
  9
$USRTIMER
 70
     1
  9
$ANGBASE
 50
0.0
  9
$ANGDIR
 70
     0
  9
$PDMODE
 70
     3
  9
$PDSIZE
 40
20.0
  9
$PLINEWID
 40
0.0
  9
$COORDS
 70
     1
  9
$SPLFRAME
 70
     0
  9
$SPLINETYPE
 70
     6
  9
$SPLINESEGS
 70
     8
  9
$ATTDIA
 70
     0
  9
$ATTREQ
 70
     1
  9
$HANDLING
 70
     1
  9
$HANDSEED
  5
19BA
  9
$SURFTAB1
 70
     6
  9
$SURFTAB2
 70
     6
  9
$SURFTYPE
 70
     6
  9
$SURFU
 70
     6
  9
$SURFV
 70
     6
  9
$UCSNAME
  2

  9
$UCSORG
 10
80.00000000000001
 20
0.0
 30
0.0
  9
$UCSXDIR
 10
1.0
 20
0.0
 30
0.0
  9
$UCSYDIR
 10
0.0
 20
1.0
 30
0.0
  9
$PUCSNAME
  2

  9
$PUCSORG
 10
0.0
 20
0.0
 30
0.0
  9
$PUCSXDIR
 10
1.0
 20
0.0
 30
0.0
  9
$PUCSYDIR
 10
0.0
 20
1.0
 30
0.0
  9
$USERI1
 70
     0
  9
$USERI2
 70
     0
  9
$USERI3
 70
     0
  9
$USERI4
 70
     0
  9
$USERI5
 70
     0
  9
$USERR1
 40
0.0
  9
$USERR2
 40
0.0
  9
$USERR3
 40
0.0
  9
$USERR4
 40
0.0
  9
$USERR5
 40
0.0
  9
$WORLDVIEW
 70
     1
  9
$SHADEDGE
 70
     3
  9
$SHADEDIF
 70
    70
  9
$TILEMODE
 70
     1
  9
$MAXACTVP
 70
    48
  9
$PINSBASE
 10
0.0
 20
0.0
 30
0.0
  9
$PLIMCHECK
 70
     0
  9
$PEXTMIN
 10
1.000000E+20
 20
1.000000E+20
 30
1.000000E+20
  9
$PEXTMAX
 10
-1.000000E+20
 20
-1.000000E+20
 30
-1.000000E+20
  9
$PLIMMIN
 10
0.0
 20
0.0
  9
$PLIMMAX
 10
420.0
 20
297.0
  9
$UNITMODE
 70
     0
  9
$VISRETAIN
 70
     1
  9
$PLINEGEN
 70
     0
  9
$PSLTSCALE
 70
     0
  9
$TREEDEPTH
 70
  3020
  9
$PICKSTYLE
 70
     1
  9
$CMLSTYLE
  2
STANDARD
  9
$CMLJUST
 70
     0
  9
$CMLSCALE
 40
1.0
  9
$PROXYGRAPHICS
 70
     1
  9
$MEASUREMENT
 70
     1
  0
ENDSEC
  0
SECTION
  2
CLASSES
  0
CLASS
  1
DICTIONARYVAR
  2
AcDbDictionaryVar
  3
"AutoCAD"
 90
        0
280
     0
281
     0
  0
CLASS
  1
LWPOLYLINE
  2
AcDbPolyline
  3
"AutoCAD"
 90
        0
280
     0
281
     1
  0
CLASS
  1
HATCH
  2
AcDbHatch
  3
"ACAD_SEDONA"
 90
        0
280
     0
281
     1
  0
ENDSEC
  0
SECTION
  2
TABLES
  0
TABLE
  2
VPORT
  5
8
100
AcDbSymbolTable
 70
     2
  0
VPORT
  5
19B9
100
AcDbSymbolTableRecord
100
AcDbViewportTableRecord
  2
*ACTIVE
 70
     0
 10
0.0
 20
0.0
 11
1.0
 21
1.0
 12
1003.64742
 22
-400.090474
 13
0.0
 23
0.0
 14
10.0
 24
10.0
 15
10.0
 25
10.0
 16
0.0
 26
0.0
 36
1.0
 17
0.0
 27
0.0
 37
0.0
 40
2510.866082
 41
1.585567
 42
50.0
 43
0.0
 44
0.0
 50
0.0
 51
0.0
 71
     0
 72
   100
 73
     1
 74
     1
 75
     0
 76
     0
 77
     0
 78
     0
  0
ENDTAB
  0
TABLE
  2
LTYPE
  5
5
100
AcDbSymbolTable
 70
     3
  0
LTYPE
  5
14
100
AcDbSymbolTableRecord
100
AcDbLinetypeTableRecord
  2
BYBLOCK
 70
     0
  3

 72
    65
 73
     0
 40
0.0
  0
LTYPE
  5
15
100
AcDbSymbolTableRecord
100
AcDbLinetypeTableRecord
  2
BYLAYER
 70
     0
  3

 72
    65
 73
     0
 40
0.0
  0
LTYPE
  5
16
100
AcDbSymbolTableRecord
100
AcDbLinetypeTableRecord
  2
CONTINUOUS
 70
     0
  3
Solid line
 72
    65
 73
     0
 40
0.0
  0
LTYPE
  5
7F
100
AcDbSymbolTableRecord
100
AcDbLinetypeTableRecord
  2
DASHDOT
 70
     0
  3
Dash dot __ . __ . __ . __ . __ . __ . __ . __
 72
    65
 73
     4
 40
25.4
 49
12.7
 74
     0
 49
-6.35
 74
     0
 49
0.0
 74
     0
 49
-6.35
 74
     0
  0
LTYPE
  5
80
100
AcDbSymbolTableRecord
100
AcDbLinetypeTableRecord
  2
DASHED
 70
     0
  3
Dashed __ __ __ __ __ __ __ __ __ __ __ __ __ _
 72
    65
 73
     2
 40
19.05
 49
12.7
 74
     0
 49
-6.35
 74
     0
  0
ENDTAB
  0
TABLE
  2
LAYER
  5
2
100
AcDbSymbolTable
 70
     6
  0
LAYER
  5
F
100
AcDbSymbolTableRecord
100
AcDbLayerTableRecord
  2
0
 70
     0
 62
     7
  6
CONTINUOUS
  0
LAYER
  5
9E
100
AcDbSymbolTableRecord
100
AcDbLayerTableRecord
  2
DEFPOINTS
 70
     0
 62
     7
  6
CONTINUOUS
  0
LAYER
  5
377
100
AcDbSymbolTableRecord
100
AcDbLayerTableRecord
  2
V0-OBRYS
 70
     0
 62
    90
  6
CONTINUOUS
  0
LAYER
  5
378
100
AcDbSymbolTableRecord
100
AcDbLayerTableRecord
  2
V0-VYPLNE
 70
     0
 62
    63
  6
DASHDOT
  0
LAYER
  5
37A
100
AcDbSymbolTableRecord
100
AcDbLayerTableRecord
  2
V0-NAZVY
 70
     0
 62
   210
  6
CONTINUOUS
  0
LAYER
  5
559
100
AcDbSymbolTableRecord
100
AcDbLayerTableRecord
  2
V0-ZBYTEK
 70
     0
 62
    51
  6
CONTINUOUS
  0
ENDTAB
  0
TABLE
  2
STYLE
  5
3
100
AcDbSymbolTable
 70
     7
  0
STYLE
  5
10
100
AcDbSymbolTableRecord
100
AcDbTextStyleTableRecord
  2
STANDARD
 70
     0
 40
7.0
 41
1.0
 50
0.0
 71
     0
 42
20.0
  3
ISOCP.shx
  4

  0
STYLE
  5
331
100
AcDbSymbolTableRecord
100
AcDbTextStyleTableRecord
  2
ED30
 70
     0
 40
30.0
 41
1.0
 50
0.0
 71
     0
 42
2.5
  3
ISOCP.shx
  4

  0
STYLE
  5
5D2
100
AcDbSymbolTableRecord
100
AcDbTextStyleTableRecord
  2
ED20
 70
     0
 40
20.0
 41
1.0
 50
0.0
 71
     0
 42
20.0
  3
isocp.shx
  4

  0
STYLE
  5
64F
100
AcDbSymbolTableRecord
100
AcDbTextStyleTableRecord
  2
ED40
 70
     0
 40
40.0
 41
1.0
 50
0.0
 71
     0
 42
20.0
  3
isocp.shx
  4

  0
STYLE
  5
650
100
AcDbSymbolTableRecord
100
AcDbTextStyleTableRecord
  2
ED10
 70
     0
 40
10.0
 41
1.0
 50
0.0
 71
     0
 42
20.0
  3
isocp.shx
  4

  0
STYLE
  5
15E9
100
AcDbSymbolTableRecord
100
AcDbTextStyleTableRecord
  2
ED50
 70
     0
 40
50.0
 41
1.0
 50
0.0
 71
     0
 42
20.0
  3
isocp.shx
  4

  0
STYLE
  5
1650
100
AcDbSymbolTableRecord
100
AcDbTextStyleTableRecord
  2
ED70
 70
     0
 40
70.0
 41
1.0
 50
0.0
 71
     0
 42
20.0
  3
isocp.shx
  4

  0
ENDTAB
  0
TABLE
  2
VIEW
  5
6
100
AcDbSymbolTable
 70
     0
  0
ENDTAB
  0
TABLE
  2
UCS
  5
7
100
AcDbSymbolTable
 70
     0
  0
ENDTAB
  0
TABLE
  2
APPID
  5
9
100
AcDbSymbolTable
 70
     3
  0
APPID
  5
11
100
AcDbSymbolTableRecord
100
AcDbRegAppTableRecord
  2
ACAD
 70
     0
  0
APPID
  5
17A4
100
AcDbSymbolTableRecord
100
AcDbRegAppTableRecord
  2
CONTENTBLOCKICON
 70
     0
  0
APPID
  5
17A5
100
AcDbSymbolTableRecord
100
AcDbRegAppTableRecord
  2
CONTENTBLOCKDESCRIPTION
 70
     0
  0
ENDTAB
  0
TABLE
  2
DIMSTYLE
  5
A
100
AcDbSymbolTable
 70
     7
  0
DIMSTYLE
105
1D
100
AcDbSymbolTableRecord
100
AcDbDimStyleTableRecord
  2
STANDARD
 70
     0
  3

  4

  5

  6
_OPEN
  7
_OPEN
 40
0.0
 41
15.0
 42
0.625
 43
3.75
 44
1.25
 45
0.0
 46
0.0
 47
0.0
 48
0.0
140
15.0
141
2.5
142
0.0
143
0.0394
144
1.0
145
0.0
146
1.0
147
3.0
 71
     0
 72
     0
 73
     0
 74
     0
 75
     0
 76
     0
 77
     1
 78
     8
170
     0
171
     4
172
     1
173
     1
174
     0
175
     0
176
     0
177
     0
178
     0
270
     2
271
     0
272
     1
273
     8
274
     4
340
331
275
     0
280
     0
281
     0
282
     0
283
     1
284
     8
285
     0
286
     0
287
     3
288
     0
  0
DIMSTYLE
105
397
100
AcDbSymbolTableRecord
100
AcDbDimStyleTableRecord
  2
ED40
 70
     0
  3

  4

  5

  6
_OPEN
  7
_OPEN
 40
0.0
 41
35.0
 42
1.0
 43
3.75
 44
1.25
 45
0.0
 46
0.0
 47
0.0
 48
0.0
140
40.0
141
3.0
142
0.0
143
0.0394
144
1.0
145
0.0
146
1.0
147
4.0
 71
     0
 72
     0
 73
     0
 74
     0
 75
     0
 76
     0
 77
     1
 78
     8
170
     0
171
     4
172
     1
173
     1
174
     0
175
     0
176
     0
177
     0
178
     0
270
     2
271
     0
272
     1
273
     8
274
     4
340
64F
275
     0
280
     0
281
     0
282
     0
283
     1
284
     8
285
     0
286
     0
287
     3
288
     0
  0
DIMSTYLE
105
656
102
{ACAD_REACTORS
330
E5F
330
E6C
330
E79
330
EA0
102
}
100
AcDbSymbolTableRecord
100
AcDbDimStyleTableRecord
  2
ED30
 70
     0
  3

  4

  5

  6
_OPEN
  7
_OPEN
 40
1.0
 41
25.0
 42
1.0
 43
3.75
 44
1.25
 45
0.0
 46
0.0
 47
0.0
 48
0.0
140
30.0
141
3.0
142
0.0
143
0.0394
144
1.0
145
0.0
146
1.0
147
4.0
 71
     0
 72
     0
 73
     0
 74
     0
 75
     0
 76
     0
 77
     1
 78
     8
170
     0
171
     4
172
     1
173
     1
174
     0
175
     0
176
     0
177
     0
178
     0
270
     2
271
     0
272
     1
273
     8
274
     4
340
331
275
     0
280
     0
281
     0
282
     0
283
     1
284
     8
285
     0
286
     0
287
     3
288
     0
  0
DIMSTYLE
105
657
100
AcDbSymbolTableRecord
100
AcDbDimStyleTableRecord
  2
ED20
 70
     0
  3

  4

  5

  6
_OPEN
  7
_OPEN
 40
0.0
 41
20.0
 42
1.0
 43
3.75
 44
1.25
 45
0.0
 46
0.0
 47
0.0
 48
0.0
140
20.0
141
3.0
142
0.0
143
0.0394
144
1.0
145
0.0
146
1.0
147
2.0
 71
     0
 72
     0
 73
     0
 74
     0
 75
     0
 76
     0
 77
     1
 78
     8
170
     0
171
     4
172
     1
173
     1
174
     0
175
     0
176
     0
177
     0
178
     0
270
     2
271
     0
272
     1
273
     8
274
     4
340
5D2
275
     0
280
     0
281
     0
282
     0
283
     1
284
     8
285
     0
286
     0
287
     3
288
     0
  0
DIMSTYLE
105
658
100
AcDbSymbolTableRecord
100
AcDbDimStyleTableRecord
  2
ED10
 70
     0
  3

  4

  5

  6
_OPEN
  7
_OPEN
 40
0.0
 41
15.0
 42
1.0
 43
3.75
 44
1.25
 45
0.0
 46
0.0
 47
0.0
 48
0.0
140
10.0
141
3.0
142
0.0
143
0.0394
144
1.0
145
0.0
146
1.0
147
1.5
 71
     0
 72
     0
 73
     0
 74
     0
 75
     0
 76
     0
 77
     1
 78
     8
170
     0
171
     4
172
     1
173
     1
174
     0
175
     0
176
     0
177
     0
178
     0
270
     2
271
     0
272
     1
273
     8
274
     4
340
5D2
275
     0
280
     0
281
     0
282
     0
283
     1
284
     8
285
     0
286
     0
287
     3
288
     0
  0
DIMSTYLE
105
15EA
100
AcDbSymbolTableRecord
100
AcDbDimStyleTableRecord
  2
ED50
 70
     0
  3

  4

  5

  6
_OPEN
  7
_OPEN
 40
0.0
 41
35.0
 42
1.0
 43
3.75
 44
1.25
 45
0.0
 46
0.0
 47
0.0
 48
0.0
140
40.0
141
3.0
142
0.0
143
0.0394
144
1.0
145
0.0
146
1.0
147
4.0
 71
     0
 72
     0
 73
     0
 74
     0
 75
     0
 76
     0
 77
     1
 78
     8
170
     0
171
     4
172
     1
173
     1
174
     0
175
     0
176
     0
177
     0
178
     0
270
     2
271
     0
272
     1
273
     8
274
     4
340
64F
275
     0
280
     0
281
     0
282
     0
283
     1
284
     8
285
     0
286
     0
287
     3
288
     0
  0
DIMSTYLE
105
1651
102
{ACAD_REACTORS
330
1955
330
196A
330
19B4
102
}
100
AcDbSymbolTableRecord
100
AcDbDimStyleTableRecord
  2
ED70
 70
     0
  3

  4

  5

  6
_OPEN
  7
_OPEN
 40
1.0
 41
45.0
 42
1.0
 43
3.75
 44
1.25
 45
0.0
 46
0.0
 47
0.0
 48
0.0
140
40.0
141
3.0
142
0.0
143
0.0394
144
1.0
145
0.0
146
1.0
147
4.0
 71
     0
 72
     0
 73
     0
 74
     0
 75
     0
 76
     0
 77
     1
 78
     8
170
     0
171
     4
172
     1
173
     1
174
     0
175
     0
176
     0
177
     0
178
     0
270
     2
271
     0
272
     1
273
     8
274
     4
340
15E9
275
     0
280
     0
281
     0
282
     0
283
     1
284
     8
285
     0
286
     0
287
     3
288
     0
  0
ENDTAB
  0
TABLE
  2
BLOCK_RECORD
  5
1
100
AcDbSymbolTable
 70
     9
  0
BLOCK_RECORD
  5
1A
100
AcDbSymbolTableRecord
100
AcDbBlockTableRecord
  2
*MODEL_SPACE
  0
BLOCK_RECORD
  5
17
100
AcDbSymbolTableRecord
100
AcDbBlockTableRecord
  2
*PAPER_SPACE
  0
BLOCK_RECORD
  5
90
100
AcDbSymbolTableRecord
100
AcDbBlockTableRecord
  2
_OPEN
  0
BLOCK_RECORD
  5
E53
100
AcDbSymbolTableRecord
100
AcDbBlockTableRecord
  2
*D1
  0
BLOCK_RECORD
  5
E60
100
AcDbSymbolTableRecord
100
AcDbBlockTableRecord
  2
*D2
  0
BLOCK_RECORD
  5
E6D
100
AcDbSymbolTableRecord
100
AcDbBlockTableRecord
  2
*D3
  0
BLOCK_RECORD
  5
E94
100
AcDbSymbolTableRecord
100
AcDbBlockTableRecord
  2
*D4
  0
BLOCK_RECORD
  5
1949
100
AcDbSymbolTableRecord
100
AcDbBlockTableRecord
  2
*D6
  0
BLOCK_RECORD
  5
195C
100
AcDbSymbolTableRecord
100
AcDbBlockTableRecord
  2
*D7
  0
BLOCK_RECORD
  5
19A8
100
AcDbSymbolTableRecord
100
AcDbBlockTableRecord
  2
*D8
  0
ENDTAB
  0
ENDSEC
  0
SECTION
  2
BLOCKS
  0
BLOCK
  5
1B
100
AcDbEntity
  8
0
100
AcDbBlockBegin
  2
*MODEL_SPACE
 70
     0
 10
0.0
 20
0.0
 30
0.0
  3
*MODEL_SPACE
  1

  0
ENDBLK
  5
1C
100
AcDbEntity
  8
0
100
AcDbBlockEnd
  0
BLOCK
  5
18
100
AcDbEntity
 67
     1
  8
0
100
AcDbBlockBegin
  2
*PAPER_SPACE
 70
     0
 10
0.0
 20
0.0
 30
0.0
  3
*PAPER_SPACE
  1

  0
ENDBLK
  5
19
100
AcDbEntity
 67
     1
  8
0
100
AcDbBlockEnd
  0
BLOCK
  5
91
100
AcDbEntity
  8
0
100
AcDbBlockBegin
  2
_OPEN
 70
     0
 10
0.0
 20
0.0
 30
0.0
  3
_OPEN
  1

  0
LINE
  5
92
100
AcDbEntity
  8
0
  6
BYBLOCK
 62
     0
100
AcDbLine
 10
-1.0
 20
0.166667
 30
0.0
 11
0.0
 21
0.0
 31
0.0
  0
LINE
  5
93
100
AcDbEntity
  8
0
  6
BYBLOCK
 62
     0
100
AcDbLine
 10
0.0
 20
0.0
 30
0.0
 11
-1.0
 21
-0.166667
 31
0.0
  0
LINE
  5
94
100
AcDbEntity
  8
0
  6
BYBLOCK
 62
     0
100
AcDbLine
 10
0.0
 20
0.0
 30
0.0
 11
-1.0
 21
0.0
 31
0.0
  0
ENDBLK
  5
95
100
AcDbEntity
  8
0
100
AcDbBlockEnd
  0
BLOCK
  5
196B
100
AcDbEntity
  8
0
 48
3.0
100
AcDbBlockBegin
  2
*D1
 70
     1
 10
0.0
 20
0.0
 30
0.0
  3
*D1
  1

  0
LINE
  5
196C
100
AcDbEntity
  8
0
  6
BYBLOCK
 62
     0
 48
3.0
100
AcDbLine
 10
-159.875
 20
-221.0
 30
0.0
 11
-159.875
 21
-567.585033
 31
0.0
  0
LINE
  5
196D
100
AcDbEntity
  8
0
  6
BYBLOCK
 62
     0
 48
3.0
100
AcDbLine
 10
809.875
 20
-221.0
 30
0.0
 11
809.875
 21
-567.585033
 31
0.0
  0
LINE
  5
196E
100
AcDbEntity
  8
0
  6
BYBLOCK
 62
     0
 48
3.0
100
AcDbLine
 10
-89.875
 20
-566.335033
 30
0.0
 11
739.875
 21
-566.335033
 31
0.0
  0
INSERT
  5
196F
100
AcDbEntity
  8
0
  6
BYBLOCK
 62
     0
 48
3.0
100
AcDbBlockReference
  2
_OPEN
 10
-159.875
 20
-566.335033
 30
0.0
 41
70.0
 42
70.0
 43
70.0
 50
180.0
  0
INSERT
  5
1970
100
AcDbEntity
  8
0
  6
BYBLOCK
 62
     0
 48
3.0
100
AcDbBlockReference
  2
_OPEN
 10
809.875
 20
-566.335033
 30
0.0
 41
70.0
 42
70.0
 43
70.0
  0
MTEXT
  5
1971
100
AcDbEntity
  8
0
  6
BYBLOCK
 62
     0
 48
3.0
100
AcDbMText
 10
357.584185
 20
-527.335033
 30
0.0
 40
70.0
 41
0.0
 71
     5
 72
     1
  1
\A1;970
  7
ED70
  0
POINT
  5
1972
100
AcDbEntity
  8
DEFPOINTS
  6
BYBLOCK
 62
     0
 48
3.0
100
AcDbPoint
 10
-159.875
 20
-220.0
 30
0.0
  0
POINT
  5
1973
100
AcDbEntity
  8
DEFPOINTS
  6
BYBLOCK
 62
     0
 48
3.0
100
AcDbPoint
 10
809.875
 20
-220.0
 30
0.0
  0
POINT
  5
1974
100
AcDbEntity
  8
DEFPOINTS
  6
BYBLOCK
 62
     0
 48
3.0
100
AcDbPoint
 10
809.875
 20
-566.335033
 30
0.0
  0
ENDBLK
  5
1975
100
AcDbEntity
  8
0
 48
3.0
100
AcDbBlockEnd
  0
BLOCK
  5
1976
100
AcDbEntity
  8
0
 48
3.0
100
AcDbBlockBegin
  2
*D2
 70
     1
 10
0.0
 20
0.0
 30
0.0
  3
*D2
  1

  0
LINE
  5
1977
100
AcDbEntity
  8
0
  6
BYBLOCK
 62
     0
 48
3.0
100
AcDbLine
 10
-160.875
 20
280.0
 30
0.0
 11
-288.111318
 21
280.0
 31
0.0
  0
LINE
  5
1978
100
AcDbEntity
  8
0
  6
BYBLOCK
 62
     0
 48
3.0
100
AcDbLine
 10
-160.875
 20
-220.0
 30
0.0
 11
-288.111318
 21
-220.0
 31
0.0
  0
LINE
  5
1979
100
AcDbEntity
  8
0
  6
BYBLOCK
 62
     0
 48
3.0
100
AcDbLine
 10
-286.861318
 20
210.0
 30
0.0
 11
-286.861318
 21
-150.0
 31
0.0
  0
INSERT
  5
197A
100
AcDbEntity
  8
0
  6
BYBLOCK
 62
     0
 48
3.0
100
AcDbBlockReference
  2
_OPEN
 10
-286.861318
 20
280.0
 30
0.0
 41
70.0
 42
70.0
 43
70.0
 50
90.0
  0
INSERT
  5
197B
100
AcDbEntity
  8
0
  6
BYBLOCK
 62
     0
 48
3.0
100
AcDbBlockReference
  2
_OPEN
 10
-286.861318
 20
-220.0
 30
0.0
 41
70.0
 42
70.0
 43
70.0
 50
270.0
  0
MTEXT
  5
197C
100
AcDbEntity
  8
0
  6
BYBLOCK
 62
     0
 48
3.0
100
AcDbMText
 10
-325.861318
 20
35.460849
 30
0.0
 40
70.0
 41
0.0
 71
     5
 72
     1
  1
\A1;\U+2205500
  7
ED70
 11
0.0
 21
1.0
 31
0.0
  0
POINT
  5
197D
100
AcDbEntity
  8
DEFPOINTS
  6
BYBLOCK
 62
     0
 48
3.0
100
AcDbPoint
 10
-159.875
 20
280.0
 30
0.0
  0
POINT
  5
197E
100
AcDbEntity
  8
DEFPOINTS
  6
BYBLOCK
 62
     0
 48
3.0
100
AcDbPoint
 10
-159.875
 20
-220.0
 30
0.0
  0
POINT
  5
197F
100
AcDbEntity
  8
DEFPOINTS
  6
BYBLOCK
 62
     0
 48
3.0
100
AcDbPoint
 10
-286.861318
 20
-220.0
 30
0.0
  0
ENDBLK
  5
1980
100
AcDbEntity
  8
0
 48
3.0
100
AcDbBlockEnd
  0
BLOCK
  5
18EE
100
AcDbEntity
  8
0
 48
3.0
100
AcDbBlockBegin
  2
*D3
 70
     1
 10
0.0
 20
0.0
 30
0.0
  3
*D3
  1

  0
LINE
  5
18EF
100
AcDbEntity
  8
0
  6
BYBLOCK
 62
     0
 48
3.0
100
AcDbLine
 10
756.0
 20
460.0
 30
0.0
 11
1054.15839
 21
460.0
 31
0.0
  0
LINE
  5
18F0
100
AcDbEntity
  8
0
  6
BYBLOCK
 62
     0
 48
3.0
100
AcDbLine
 10
756.0
 20
-400.0
 30
0.0
 11
1054.15839
 21
-400.0
 31
0.0
  0
LINE
  5
18F1
100
AcDbEntity
  8
0
  6
BYBLOCK
 62
     0
 48
3.0
100
AcDbLine
 10
1052.90839
 20
390.0
 30
0.0
 11
1052.90839
 21
-330.0
 31
0.0
  0
INSERT
  5
18F2
100
AcDbEntity
  8
0
  6
BYBLOCK
 62
     0
 48
3.0
100
AcDbBlockReference
  2
_OPEN
 10
1052.90839
 20
460.0
 30
0.0
 41
70.0
 42
70.0
 43
70.0
 50
90.0
  0
INSERT
  5
18F3
100
AcDbEntity
  8
0
  6
BYBLOCK
 62
     0
 48
3.0
100
AcDbBlockReference
  2
_OPEN
 10
1052.90839
 20
-400.0
 30
0.0
 41
70.0
 42
70.0
 43
70.0
 50
270.0
  0
MTEXT
  5
18F4
100
AcDbEntity
  8
0
  6
BYBLOCK
 62
     0
 48
3.0
100
AcDbMText
 10
1013.90839
 20
40.331456
 30
0.0
 40
70.0
 41
0.0
 71
     5
 72
     1
  1
\A1;860
  7
ED70
 11
0.0
 21
1.0
 31
0.0
  0
POINT
  5
18F5
100
AcDbEntity
  8
DEFPOINTS
  6
BYBLOCK
 62
     0
 48
3.0
100
AcDbPoint
 10
755.0
 20
460.0
 30
0.0
  0
POINT
  5
18F6
100
AcDbEntity
  8
DEFPOINTS
  6
BYBLOCK
 62
     0
 48
3.0
100
AcDbPoint
 10
755.0
 20
-400.0
 30
0.0
  0
POINT
  5
18F7
100
AcDbEntity
  8
DEFPOINTS
  6
BYBLOCK
 62
     0
 48
3.0
100
AcDbPoint
 10
1052.90839
 20
-400.0
 30
0.0
  0
ENDBLK
  5
18F8
100
AcDbEntity
  8
0
 48
3.0
100
AcDbBlockEnd
  0
BLOCK
  5
18CB
100
AcDbEntity
  8
0
 48
3.0
100
AcDbBlockBegin
  2
*D4
 70
     1
 10
0.0
 20
0.0
 30
0.0
  3
*D4
  1

  0
LINE
  5
18CC
100
AcDbEntity
  8
0
  6
BYBLOCK
 62
     0
 48
3.0
100
AcDbLine
 10
1366.595142
 20
-401.0
 30
0.0
 11
1366.595142
 21
-618.450662
 31
0.0
  0
LINE
  5
18CD
100
AcDbEntity
  8
0
  6
BYBLOCK
 62
     0
 48
3.0
100
AcDbLine
 10
2226.595142
 20
-401.0
 30
0.0
 11
2226.595142
 21
-618.450662
 31
0.0
  0
LINE
  5
18CE
100
AcDbEntity
  8
0
  6
BYBLOCK
 62
     0
 48
3.0
100
AcDbLine
 10
1436.595142
 20
-617.200662
 30
0.0
 11
2156.595142
 21
-617.200662
 31
0.0
  0
INSERT
  5
18CF
100
AcDbEntity
  8
0
  6
BYBLOCK
 62
     0
 48
3.0
100
AcDbBlockReference
  2
_OPEN
 10
1366.595142
 20
-617.200662
 30
0.0
 41
70.0
 42
70.0
 43
70.0
 50
180.0
  0
INSERT
  5
18D0
100
AcDbEntity
  8
0
  6
BYBLOCK
 62
     0
 48
3.0
100
AcDbBlockReference
  2
_OPEN
 10
2226.595142
 20
-617.200662
 30
0.0
 41
70.0
 42
70.0
 43
70.0
  0
MTEXT
  5
18D1
100
AcDbEntity
  8
0
  6
BYBLOCK
 62
     0
 48
3.0
100
AcDbMText
 10
1813.726068
 20
-578.200662
 30
0.0
 40
70.0
 41
0.0
 71
     5
 72
     1
  1
\A1;860
  7
ED70
  0
POINT
  5
18D2
100
AcDbEntity
  8
DEFPOINTS
  6
BYBLOCK
 62
     0
 48
3.0
100
AcDbPoint
 10
1366.595142
 20
-400.0
 30
0.0
  0
POINT
  5
18D3
100
AcDbEntity
  8
DEFPOINTS
  6
BYBLOCK
 62
     0
 48
3.0
100
AcDbPoint
 10
2226.595142
 20
-400.0
 30
0.0
  0
POINT
  5
18D4
100
AcDbEntity
  8
DEFPOINTS
  6
BYBLOCK
 62
     0
 48
3.0
100
AcDbPoint
 10
2226.595142
 20
-617.200662
 30
0.0
  0
ENDBLK
  5
18D5
100
AcDbEntity
  8
0
 48
3.0
100
AcDbBlockEnd
  0
BLOCK
  5
194A
100
AcDbEntity
  8
0
 48
3.0
100
AcDbBlockBegin
  2
*D6
 70
     1
 10
0.0
 20
0.0
 30
0.0
  3
*D6
  1

  0
LINE
  5
194B
100
AcDbEntity
  8
0
  6
BYBLOCK
 62
     0
 48
3.0
100
AcDbLine
 10
-105.0
 20
461.0
 30
0.0
 11
-105.0
 21
555.713264
 31
0.0
  0
LINE
  5
194C
100
AcDbEntity
  8
0
  6
BYBLOCK
 62
     0
 48
3.0
100
AcDbLine
 10
755.0
 20
461.0
 30
0.0
 11
755.0
 21
555.713264
 31
0.0
  0
LINE
  5
194D
100
AcDbEntity
  8
0
  6
BYBLOCK
 62
     0
 48
3.0
100
AcDbLine
 10
-35.0
 20
554.463264
 30
0.0
 11
685.0
 21
554.463264
 31
0.0
  0
INSERT
  5
194E
100
AcDbEntity
  8
0
  6
BYBLOCK
 62
     0
 48
3.0
100
AcDbBlockReference
  2
_OPEN
 10
-105.0
 20
554.463264
 30
0.0
 41
70.0
 42
70.0
 43
70.0
 50
180.0
  0
INSERT
  5
194F
100
AcDbEntity
  8
0
  6
BYBLOCK
 62
     0
 48
3.0
100
AcDbBlockReference
  2
_OPEN
 10
755.0
 20
554.463264
 30
0.0
 41
70.0
 42
70.0
 43
70.0
  0
MTEXT
  5
1950
100
AcDbEntity
  8
0
  6
BYBLOCK
 62
     0
 48
3.0
100
AcDbMText
 10
325.0
 20
593.463264
 30
0.0
 40
70.0
 41
0.0
 71
     5
 72
     1
  1
\A1;860
  7
ED70
  0
POINT
  5
1951
100
AcDbEntity
  8
DEFPOINTS
  6
BYBLOCK
 62
     0
 48
3.0
100
AcDbPoint
 10
-105.0
 20
460.0
 30
0.0
  0
POINT
  5
1952
100
AcDbEntity
  8
DEFPOINTS
  6
BYBLOCK
 62
     0
 48
3.0
100
AcDbPoint
 10
755.0
 20
460.0
 30
0.0
  0
POINT
  5
1953
100
AcDbEntity
  8
DEFPOINTS
  6
BYBLOCK
 62
     0
 48
3.0
100
AcDbPoint
 10
755.0
 20
554.463264
 30
0.0
  0
ENDBLK
  5
1954
100
AcDbEntity
  8
0
 48
3.0
100
AcDbBlockEnd
  0
BLOCK
  5
195D
100
AcDbEntity
  8
0
 48
3.0
100
AcDbBlockBegin
  2
*D7
 70
     1
 10
0.0
 20
0.0
 30
0.0
  3
*D7
  1

  0
LINE
  5
195E
100
AcDbEntity
  8
0
  6
BYBLOCK
 62
     0
 48
3.0
100
AcDbLine
 10
-105.0
 20
461.0
 30
0.0
 11
-105.0
 21
461.25
 31
0.0
  0
LINE
  5
195F
100
AcDbEntity
  8
0
  6
BYBLOCK
 62
     0
 48
3.0
100
AcDbLine
 10
-159.875
 20
281.0
 30
0.0
 11
-159.875
 21
461.25
 31
0.0
  0
LINE
  5
1960
100
AcDbEntity
  8
0
  6
BYBLOCK
 62
     0
 48
3.0
100
AcDbLine
 10
-35.0
 20
460.0
 30
0.0
 11
35.0
 21
460.0
 31
0.0
  0
LINE
  5
1961
100
AcDbEntity
  8
0
  6
BYBLOCK
 62
     0
 48
3.0
100
AcDbLine
 10
-229.875
 20
460.0
 30
0.0
 11
-387.774495
 21
460.0
 31
0.0
  0
LINE
  5
1962
100
AcDbEntity
  8
0
  6
BYBLOCK
 62
     0
 48
3.0
100
AcDbLine
 10
-105.0
 20
460.0
 30
0.0
 11
-159.875
 21
460.0
 31
0.0
  0
INSERT
  5
1963
100
AcDbEntity
  8
0
  6
BYBLOCK
 62
     0
 48
3.0
100
AcDbBlockReference
  2
_OPEN
 10
-105.0
 20
460.0
 30
0.0
 41
70.0
 42
70.0
 43
70.0
 50
180.0
  0
INSERT
  5
1964
100
AcDbEntity
  8
0
  6
BYBLOCK
 62
     0
 48
3.0
100
AcDbBlockReference
  2
_OPEN
 10
-159.875
 20
460.0
 30
0.0
 41
70.0
 42
70.0
 43
70.0
  0
MTEXT
  5
1965
100
AcDbEntity
  8
0
  6
BYBLOCK
 62
     0
 48
3.0
100
AcDbMText
 10
-343.824747
 20
499.0
 30
0.0
 40
70.0
 41
0.0
 71
     5
 72
     1
  1
\A1;55
  7
ED70
  0
POINT
  5
1966
100
AcDbEntity
  8
DEFPOINTS
  6
BYBLOCK
 62
     0
 48
3.0
100
AcDbPoint
 10
-105.0
 20
460.0
 30
0.0
  0
POINT
  5
1967
100
AcDbEntity
  8
DEFPOINTS
  6
BYBLOCK
 62
     0
 48
3.0
100
AcDbPoint
 10
-159.875
 20
280.0
 30
0.0
  0
POINT
  5
1968
100
AcDbEntity
  8
DEFPOINTS
  6
BYBLOCK
 62
     0
 48
3.0
100
AcDbPoint
 10
-159.875
 20
460.0
 30
0.0
  0
ENDBLK
  5
1969
100
AcDbEntity
  8
0
 48
3.0
100
AcDbBlockEnd
  0
BLOCK
  5
19A9
100
AcDbEntity
  8
0
 48
3.0
100
AcDbBlockBegin
  2
*D8
 70
     1
 10
0.0
 20
0.0
 30
0.0
  3
*D8
  1

  0
LINE
  5
19AA
100
AcDbEntity
  8
0
  6
BYBLOCK
 62
     0
 48
3.0
100
AcDbLine
 10
-185.0
 20
-481.0
 30
0.0
 11
-185.0
 21
-662.297076
 31
0.0
  0
LINE
  5
19AB
100
AcDbEntity
  8
0
  6
BYBLOCK
 62
     0
 48
3.0
100
AcDbLine
 10
835.0
 20
-481.0
 30
0.0
 11
835.0
 21
-662.297076
 31
0.0
  0
LINE
  5
19AC
100
AcDbEntity
  8
0
  6
BYBLOCK
 62
     0
 48
3.0
100
AcDbLine
 10
-115.0
 20
-661.047076
 30
0.0
 11
765.0
 21
-661.047076
 31
0.0
  0
INSERT
  5
19AD
100
AcDbEntity
  8
0
  6
BYBLOCK
 62
     0
 48
3.0
100
AcDbBlockReference
  2
_OPEN
 10
-185.0
 20
-661.047076
 30
0.0
 41
70.0
 42
70.0
 43
70.0
 50
180.0
  0
INSERT
  5
19AE
100
AcDbEntity
  8
0
  6
BYBLOCK
 62
     0
 48
3.0
100
AcDbBlockReference
  2
_OPEN
 10
835.0
 20
-661.047076
 30
0.0
 41
70.0
 42
70.0
 43
70.0
  0
MTEXT
  5
19AF
100
AcDbEntity
  8
0
  6
BYBLOCK
 62
     0
 48
3.0
100
AcDbMText
 10
325.0
 20
-622.040186
 30
0.0
 40
70.0
 41
0.0
 71
     5
 72
     1
  1
\A1;1020
  7
ED70
  0
POINT
  5
19B0
100
AcDbEntity
  8
DEFPOINTS
  6
BYBLOCK
 62
     0
 48
3.0
100
AcDbPoint
 10
-185.0
 20
-480.0
 30
0.0
  0
POINT
  5
19B1
100
AcDbEntity
  8
DEFPOINTS
  6
BYBLOCK
 62
     0
 48
3.0
100
AcDbPoint
 10
835.0
 20
-480.0
 30
0.0
  0
POINT
  5
19B2
100
AcDbEntity
  8
DEFPOINTS
  6
BYBLOCK
 62
     0
 48
3.0
100
AcDbPoint
 10
835.0
 20
-661.047076
 30
0.0
  0
ENDBLK
  5
19B3
100
AcDbEntity
  8
0
 48
3.0
100
AcDbBlockEnd
  0
ENDSEC
  0
SECTION
  2
ENTITIES
  0
LINE
  5
D86
100
AcDbEntity
  8
V0-VYPLNE
 48
3.0
100
AcDbLine
 10
-183.342617
 20
30.0
 30
0.0
 11
816.596591
 21
30.0
 31
0.0
  0
LINE
  5
D87
100
AcDbEntity
  8
V0-VYPLNE
 48
3.0
100
AcDbLine
 10
1247.391352
 20
30.0
 30
0.0
 11
2358.942262
 21
30.0
 31
0.0
  0
LINE
  5
D88
100
AcDbEntity
  8
V0-VYPLNE
 48
3.0
100
AcDbLine
 10
1796.595142
 20
566.187934
 30
0.0
 11
1796.595142
 21
-509.86374
 31
0.0
  0
LINE
  5
D89
100
AcDbEntity
  8
V0-VYPLNE
 48
3.0
100
AcDbLine
 10
-65.202336
 20
374.0
 30
0.0
 11
49.11171
 21
374.0
 31
0.0
  0
LINE
  5
D8A
100
AcDbEntity
  8
V0-VYPLNE
 48
3.0
100
AcDbLine
 10
-61.031609
 20
-314.0
 30
0.0
 11
63.735584
 21
-314.0
 31
0.0
  0
LINE
  5
D8B
100
AcDbEntity
  8
V0-VYPLNE
 48
3.0
100
AcDbLine
 10
-19.0
 20
420.002517
 30
0.0
 11
-19.0
 21
222.329023
 31
0.0
  0
LINE
  5
D8D
100
AcDbEntity
  8
V0-VYPLNE
 48
3.0
100
AcDbLine
 10
669.0
 20
420.002517
 30
0.0
 11
669.0
 21
218.1632
 31
0.0
  0
LINE
  5
D8E
100
AcDbEntity
  8
V0-VYPLNE
 48
3.0
100
AcDbLine
 10
1452.595142
 20
420.002517
 30
0.0
 11
1452.595142
 21
303.544807
 31
0.0
  0
LINE
  5
D90
100
AcDbEntity
  8
V0-OBRYS
  6
CONTINUOUS
 62
    90
 48
3.0
100
AcDbLine
 10
-105.0
 20
460.0
 30
0.0
 11
-105.0
 21
-400.0
 31
0.0
  0
LINE
  5
D92
100
AcDbEntity
  8
V0-OBRYS
  6
CONTINUOUS
 62
    90
 48
3.0
100
AcDbLine
 10
-105.0
 20
460.0
 30
0.0
 11
755.0
 21
460.0
 31
0.0
  0
LINE
  5
D93
100
AcDbEntity
  8
V0-OBRYS
  6
CONTINUOUS
 62
    90
 48
3.0
100
AcDbLine
 10
-105.0
 20
-400.0
 30
0.0
 11
755.0
 21
-400.0
 31
0.0
  0
LINE
  5
D94
100
AcDbEntity
  8
V0-OBRYS
  6
CONTINUOUS
 62
    90
 48
3.0
100
AcDbLine
 10
755.0
 20
460.0
 30
0.0
 11
755.0
 21
-400.0
 31
0.0
  0
LINE
  5
D95
100
AcDbEntity
  8
V0-OBRYS
  6
CONTINUOUS
 62
    90
 48
3.0
100
AcDbLine
 10
1366.595142
 20
460.0
 30
0.0
 11
1366.595142
 21
-400.0
 31
0.0
  0
LINE
  5
D96
100
AcDbEntity
  8
V0-OBRYS
  6
CONTINUOUS
 62
    90
 48
3.0
100
AcDbLine
 10
2226.595142
 20
460.0
 30
0.0
 11
2226.595142
 21
-400.0
 31
0.0
  0
LINE
  5
D97
100
AcDbEntity
  8
V0-OBRYS
  6
CONTINUOUS
 62
    90
 48
3.0
100
AcDbLine
 10
1366.595142
 20
460.0
 30
0.0
 11
2226.595142
 21
460.0
 31
0.0
  0
LINE
  5
D98
100
AcDbEntity
  8
V0-VYPLNE
 48
3.0
100
AcDbLine
 10
1426.91745
 20
374.0
 30
0.0
 11
1503.355958
 21
374.0
 31
0.0
  0
LINE
  5
D99
100
AcDbEntity
  8
V0-VYPLNE
 48
3.0
100
AcDbLine
 10
1429.002814
 20
-314.0
 30
0.0
 11
1510.972564
 21
-314.0
 31
0.0
  0
LINE
  5
D9A
100
AcDbEntity
  8
V0-OBRYS
  6
CONTINUOUS
 62
    90
 48
3.0
100
AcDbLine
 10
1366.595142
 20
-400.0
 30
0.0
 11
2226.595142
 21
-400.0
 31
0.0
  0
LINE
  5
D9B
100
AcDbEntity
  8
V0-OBRYS
  6
CONTINUOUS
 62
    90
 48
3.0
100
AcDbLine
 10
-83.5
 20
438.5
 30
0.0
 11
733.5
 21
438.5
 31
0.0
  0
LINE
  5
D9C
100
AcDbEntity
  8
V0-OBRYS
  6
CONTINUOUS
 62
    90
 48
3.0
100
AcDbLine
 10
-83.5
 20
-378.5
 30
0.0
 11
733.5
 21
-378.5
 31
0.0
  0
LINE
  5
D9E
100
AcDbEntity
  8
V0-OBRYS
  6
CONTINUOUS
 62
    90
 48
3.0
100
AcDbLine
 10
-83.5
 20
460.0
 30
0.0
 11
-83.5
 21
-400.0
 31
0.0
  0
LINE
  5
D9F
100
AcDbEntity
  8
V0-OBRYS
  6
CONTINUOUS
 62
    90
 48
3.0
100
AcDbLine
 10
733.5
 20
460.0
 30
0.0
 11
733.5
 21
-400.0
 31
0.0
  0
LINE
  5
DA0
100
AcDbEntity
  8
V0-OBRYS
  6
CONTINUOUS
 62
    90
 48
3.0
100
AcDbLine
 10
1388.095142
 20
438.5
 30
0.0
 11
1388.095142
 21
-378.5
 31
0.0
  0
LINE
  5
DA1
100
AcDbEntity
  8
V0-OBRYS
  6
CONTINUOUS
 62
    90
 48
3.0
100
AcDbLine
 10
1388.095142
 20
438.5
 30
0.0
 11
2205.095142
 21
438.5
 31
0.0
  0
LINE
  5
DA2
100
AcDbEntity
  8
V0-OBRYS
  6
CONTINUOUS
 62
    90
 48
3.0
100
AcDbLine
 10
2205.095142
 20
438.5
 30
0.0
 11
2205.095142
 21
-378.5
 31
0.0
  0
LINE
  5
DA3
100
AcDbEntity
  8
V0-OBRYS
  6
CONTINUOUS
 62
    90
 48
3.0
100
AcDbLine
 10
1388.095142
 20
-378.5
 30
0.0
 11
2205.095142
 21
-378.5
 31
0.0
  0
LINE
  5
DA4
100
AcDbEntity
  8
V0-VYPLNE
 48
3.0
100
AcDbLine
 10
491.426115
 20
-313.283653
 30
0.0
 11
762.407836
 21
-313.283653
 31
0.0
  0
LINE
  5
DA5
100
AcDbEntity
  8
V0-VYPLNE
 48
3.0
100
AcDbLine
 10
634.14257
 20
374.716347
 30
0.0
 11
758.237109
 21
374.716347
 31
0.0
  0
LINE
  5
DA6
100
AcDbEntity
  8
V0-VYPLNE
 48
3.0
100
AcDbLine
 10
2112.124872
 20
374.0
 30
0.0
 11
2159.765118
 21
374.0
 31
0.0
  0
LINE
  5
DA7
100
AcDbEntity
  8
V0-VYPLNE
 48
3.0
100
AcDbLine
 10
2082.217713
 20
-314.0
 30
0.0
 11
2188.725502
 21
-314.0
 31
0.0
  0
LINE
  5
DA8
100
AcDbEntity
  8
V0-VYPLNE
 48
3.0
100
AcDbLine
 10
2140.595142
 20
438.5
 30
0.0
 11
2140.595142
 21
311.155133
 31
0.0
  0
LINE
  5
DA9
100
AcDbEntity
  8
V0-VYPLNE
 48
3.0
100
AcDbLine
 10
-19.0
 20
-242.163821
 30
0.0
 11
-19.0
 21
-358.204423
 31
0.0
  0
LINE
  5
DAA
100
AcDbEntity
  8
V0-VYPLNE
 48
3.0
100
AcDbLine
 10
669.0
 20
-247.034428
 30
0.0
 11
669.0
 21
-339.677357
 31
0.0
  0
LINE
  5
DAB
100
AcDbEntity
  8
V0-VYPLNE
 48
3.0
100
AcDbLine
 10
1452.595142
 20
-236.788299
 30
0.0
 11
1452.595142
 21
-366.174914
 31
0.0
  0
CIRCLE
  5
DAD
100
AcDbEntity
  8
V0-OBRYS
 48
3.0
100
AcDbCircle
 10
1796.595142
 20
30.0
 30
0.0
 40
249.716838
  0
CIRCLE
  5
DB0
100
AcDbEntity
  8
V0-OBRYS
 48
3.0
100
AcDbCircle
 10
-19.0
 20
374.0
 30
0.0
 40
5.375
  0
CIRCLE
  5
DB1
100
AcDbEntity
  8
V0-OBRYS
 48
3.0
100
AcDbCircle
 10
669.0
 20
374.0
 30
0.0
 40
5.375
  0
CIRCLE
  5
DB2
100
AcDbEntity
  8
V0-OBRYS
 48
3.0
100
AcDbCircle
 10
-20.043794
 20
-314.0
 30
0.0
 40
5.375
  0
CIRCLE
  5
DB3
100
AcDbEntity
  8
V0-OBRYS
 48
3.0
100
AcDbCircle
 10
667.733744
 20
-314.0
 30
0.0
 40
5.375
  0
CIRCLE
  5
DB4
100
AcDbEntity
  8
V0-OBRYS
 48
3.0
100
AcDbCircle
 10
1451.618685
 20
374.0
 30
0.0
 40
5.375
  0
CIRCLE
  5
DB5
100
AcDbEntity
  8
V0-OBRYS
 48
3.0
100
AcDbCircle
 10
2141.319995
 20
374.0
 30
0.0
 40
5.375
  0
CIRCLE
  5
DB6
100
AcDbEntity
  8
V0-OBRYS
 48
3.0
100
AcDbCircle
 10
2140.595142
 20
-314.0
 30
0.0
 40
5.375
  0
CIRCLE
  5
DB7
100
AcDbEntity
  8
V0-OBRYS
 48
3.0
100
AcDbCircle
 10
1452.595142
 20
-314.640461
 30
0.0
 40
5.375
  0
CIRCLE
  5
DBB
100
AcDbEntity
  8
V0-OBRYS
 48
3.0
100
AcDbCircle
 10
1796.595142
 20
310.931442
 30
0.0
 40
10.404868
  0
LINE
  5
DC7
100
AcDbEntity
  8
V0-OBRYS
 48
3.0
100
AcDbLine
 10
1671.736724
 20
248.502233
 30
0.0
 11
1921.453561
 21
248.502233
 31
0.0
  0
LINE
  5
DC8
100
AcDbEntity
  8
V0-OBRYS
 48
3.0
100
AcDbLine
 10
1578.092909
 20
-94.858419
 30
0.0
 11
1578.092909
 21
154.858419
 31
0.0
  0
LINE
  5
DC9
100
AcDbEntity
  8
V0-OBRYS
 48
3.0
100
AcDbLine
 10
1921.453561
 20
-188.502233
 30
0.0
 11
1671.736724
 21
-188.502233
 31
0.0
  0
LINE
  5
DCA
100
AcDbEntity
  8
V0-OBRYS
 48
3.0
100
AcDbLine
 10
2015.097376
 20
154.858419
 30
0.0
 11
2015.097376
 21
-94.858419
 31
0.0
  0
CIRCLE
  5
DCC
100
AcDbEntity
  8
V0-OBRYS
 48
3.0
100
AcDbCircle
 10
1796.595142
 20
30.0
 30
0.0
 40
49.943368
  0
CIRCLE
  5
DCD
100
AcDbEntity
  8
V0-OBRYS
 48
3.0
100
AcDbCircle
 10
1796.595142
 20
30.0
 30
0.0
 40
62.429209
  0
CIRCLE
  5
DCE
100
AcDbEntity
  8
V0-OBRYS
 48
3.0
100
AcDbCircle
 10
1796.595142
 20
30.0
 30
0.0
 40
87.400893
  0
LINE
  5
DCF
100
AcDbEntity
  8
V0-OBRYS
 48
3.0
100
AcDbLine
 10
-159.875
 20
-220.0
 30
0.0
 11
-159.875
 21
280.0
 31
0.0
  0
LINE
  5
DD1
100
AcDbEntity
  8
V0-OBRYS
 48
3.0
100
AcDbLine
 10
-159.875
 20
-220.0
 30
0.0
 11
-149.125
 21
-220.0
 31
0.0
  0
LINE
  5
DD3
100
AcDbEntity
  8
V0-OBRYS
 48
3.0
100
AcDbLine
 10
-159.875
 20
280.0
 30
0.0
 11
-149.125
 21
280.0
 31
0.0
  0
LINE
  5
DD4
100
AcDbEntity
  8
V0-OBRYS
 48
3.0
100
AcDbLine
 10
-149.125
 20
280.0
 30
0.0
 11
-149.125
 21
-220.0
 31
0.0
  0
LINE
  5
DD6
100
AcDbEntity
  8
V0-OBRYS
 48
3.0
100
AcDbLine
 10
-138.375
 20
-220.0
 30
0.0
 11
-138.375
 21
280.0
 31
0.0
  0
ARC
  5
DD9
100
AcDbEntity
  8
V0-OBRYS
 48
3.0
100
AcDbCircle
 10
-143.75
 20
280.0
 30
0.0
 40
5.375
100
AcDbArc
 50
0.0
 51
180.0
  0
ARC
  5
DDA
100
AcDbEntity
  8
V0-OBRYS
 48
3.0
100
AcDbCircle
 10
-143.75
 20
-220.0
 30
0.0
 40
5.375
100
AcDbArc
 50
180.0
 51
0.0
  0
LINE
  5
DDB
100
AcDbEntity
  8
V0-OBRYS
 48
3.0
100
AcDbLine
 10
-138.375
 20
280.0
 30
0.0
 11
-105.0
 21
280.0
 31
0.0
  0
LINE
  5
DDC
100
AcDbEntity
  8
V0-OBRYS
 48
3.0
100
AcDbLine
 10
-138.375
 20
-220.0
 30
0.0
 11
-105.0
 21
-220.0
 31
0.0
  0
LINE
  5
DDE
100
AcDbEntity
  8
V0-OBRYS
 48
3.0
100
AcDbLine
 10
788.375
 20
-220.0
 30
0.0
 11
788.375
 21
280.0
 31
0.0
  0
LINE
  5
DDF
100
AcDbEntity
  8
V0-OBRYS
 48
3.0
100
AcDbLine
 10
799.125
 20
280.0
 30
0.0
 11
799.125
 21
-220.0
 31
0.0
  0
LINE
  5
DE0
100
AcDbEntity
  8
V0-OBRYS
 48
3.0
100
AcDbLine
 10
809.875
 20
-220.0
 30
0.0
 11
809.875
 21
280.0
 31
0.0
  0
LINE
  5
DE1
100
AcDbEntity
  8
V0-OBRYS
 48
3.0
100
AcDbLine
 10
788.375
 20
-220.0
 30
0.0
 11
755.0
 21
-220.0
 31
0.0
  0
LINE
  5
DE2
100
AcDbEntity
  8
V0-OBRYS
 48
3.0
100
AcDbLine
 10
809.875
 20
-220.0
 30
0.0
 11
799.125
 21
-220.0
 31
0.0
  0
ARC
  5
DE3
100
AcDbEntity
  8
V0-OBRYS
 48
3.0
100
AcDbCircle
 10
793.75
 20
-220.0
 30
0.0
 40
5.375
100
AcDbArc
 50
180.0
 51
360.0
  0
LINE
  5
DE4
100
AcDbEntity
  8
V0-OBRYS
 48
3.0
100
AcDbLine
 10
788.375
 20
280.0
 30
0.0
 11
755.0
 21
280.0
 31
0.0
  0
LINE
  5
DE5
100
AcDbEntity
  8
V0-OBRYS
 48
3.0
100
AcDbLine
 10
809.875
 20
280.0
 30
0.0
 11
799.125
 21
280.0
 31
0.0
  0
ARC
  5
DE6
100
AcDbEntity
  8
V0-OBRYS
 48
3.0
100
AcDbCircle
 10
793.75
 20
280.0
 30
0.0
 40
5.375
100
AcDbArc
 50
360.0
 51
180.0
  0
LINE
  5
DE7
100
AcDbEntity
  8
V0-VYPLNE
  6
DASHED
 48
3.0
100
AcDbLine
 10
-63.116973
 20
278.364741
 30
0.0
 11
-63.116973
 21
30.038164
 31
0.0
  0
LINE
  5
DE8
100
AcDbEntity
  8
V0-VYPLNE
  6
DASHED
 48
3.0
100
AcDbLine
 10
354.163575
 20
278.364741
 30
0.0
 11
354.163575
 21
30.038164
 31
0.0
  0
LINE
  5
DE9
100
AcDbEntity
  8
V0-VYPLNE
  6
DASHED
 48
3.0
100
AcDbLine
 10
-63.116973
 20
278.364741
 30
0.0
 11
354.163596
 21
278.364741
 31
0.0
  0
LINE
  5
DEA
100
AcDbEntity
  8
V0-VYPLNE
  6
DASHED
 48
3.0
100
AcDbLine
 10
352.078232
 20
224.411934
 30
0.0
 11
402.127023
 21
224.411934
 31
0.0
  0
LINE
  5
DEB
100
AcDbEntity
  8
V0-VYPLNE
  6
DASHED
 48
3.0
100
AcDbLine
 10
402.127023
 20
224.411934
 30
0.0
 11
670.427469
 21
-164.411934
 31
0.0
  0
LINE
  5
DEC
100
AcDbEntity
  8
V0-VYPLNE
  6
DASHED
 48
3.0
100
AcDbLine
 10
-63.116973
 20
-218.364741
 30
0.0
 11
-63.116973
 21
29.961836
 31
0.0
  0
LINE
  5
DED
100
AcDbEntity
  8
V0-VYPLNE
  6
DASHED
 48
3.0
100
AcDbLine
 10
-63.116973
 20
-218.364741
 30
0.0
 11
354.163596
 21
-218.364741
 31
0.0
  0
LINE
  5
DEE
100
AcDbEntity
  8
V0-VYPLNE
  6
DASHED
 48
3.0
100
AcDbLine
 10
352.078232
 20
-164.411934
 30
0.0
 11
670.427469
 21
-164.411934
 31
0.0
  0
LINE
  5
DEF
100
AcDbEntity
  8
V0-VYPLNE
  6
DASHED
 48
3.0
100
AcDbLine
 10
354.163575
 20
-218.364741
 30
0.0
 11
354.163575
 21
29.961836
 31
0.0
  0
LINE
  5
DF0
100
AcDbEntity
  8
V0-VYPLNE
  6
DASHED
 48
3.0
100
AcDbLine
 10
364.590414
 20
-7.45419
 30
0.0
 11
441.748974
 21
-7.45419
 31
0.0
  0
LINE
  5
DF1
100
AcDbEntity
  8
V0-VYPLNE
  6
DASHED
 48
3.0
100
AcDbLine
 10
441.748974
 20
-7.45419
 30
0.0
 11
441.748974
 21
-158.086872
 31
0.0
  0
LINE
  5
DF2
100
AcDbEntity
  8
V0-VYPLNE
  6
DASHED
 48
3.0
100
AcDbLine
 10
441.748974
 20
-158.086872
 30
0.0
 11
366.675799
 21
-158.086872
 31
0.0
  0
LINE
  5
DF3
100
AcDbEntity
  8
V0-VYPLNE
  6
DASHED
 48
3.0
100
AcDbLine
 10
366.675799
 20
-158.086872
 30
0.0
 11
366.675799
 21
-7.45419
 31
0.0
  0
LINE
  5
DF6
100
AcDbEntity
  8
V0-VYPLNE
  6
DASHED
 48
3.0
100
AcDbLine
 10
-54.775497
 20
113.354528
 30
0.0
 11
341.651393
 21
113.354528
 31
0.0
  0
LINE
  5
DF7
100
AcDbEntity
  8
V0-VYPLNE
  6
DASHED
 48
3.0
100
AcDbLine
 10
-54.775497
 20
14.465731
 30
0.0
 11
341.651393
 21
14.465731
 31
0.0
  0
LINE
  5
DF8
100
AcDbEntity
  8
V0-VYPLNE
  6
DASHED
 48
3.0
100
AcDbLine
 10
-61.230242
 20
-69.792873
 30
0.0
 11
335.196648
 21
-69.792873
 31
0.0
  0
LINE
  5
DF9
100
AcDbEntity
  8
V0-VYPLNE
  6
DASHED
 48
3.0
100
AcDbLine
 10
341.651393
 20
278.364741
 30
0.0
 11
341.651393
 21
-218.288414
 31
0.0
  0
LINE
  5
DFA
100
AcDbEntity
  8
V0-VYPLNE
  6
DASHED
 48
3.0
100
AcDbLine
 10
-54.775497
 20
280.447653
 30
0.0
 11
-54.775497
 21
-218.288414
 31
0.0
  0
LINE
  5
DFB
100
AcDbEntity
  8
V0-VYPLNE
  6
DASHED
 48
3.0
100
AcDbLine
 10
406.29775
 20
213.997387
 30
0.0
 11
733.907534
 21
213.997387
 31
0.0
  0
LINE
  5
DFC
100
AcDbEntity
  8
V0-VYPLNE
  6
DASHED
 48
3.0
100
AcDbLine
 10
663.563016
 20
-153.92105
 30
0.0
 11
735.992898
 21
-153.92105
 31
0.0
  0
LINE
  5
DFF
100
AcDbEntity
  8
V0-OBRYS
  6
CONTINUOUS
 62
    90
 48
3.0
100
AcDbLine
 10
769.62387
 20
-745.033075
 30
0.0
 11
769.62387
 21
-1605.033075
 31
0.0
  0
LINE
  5
E00
100
AcDbEntity
  8
V0-OBRYS
  6
CONTINUOUS
 62
    90
 48
3.0
100
AcDbLine
 10
-90.37613
 20
-745.033075
 30
0.0
 11
-90.37613
 21
-1605.033075
 31
0.0
  0
LINE
  5
E01
100
AcDbEntity
  8
V0-OBRYS
  6
CONTINUOUS
 62
    90
 48
3.0
100
AcDbLine
 10
-90.37613
 20
-1605.033075
 30
0.0
 11
769.62387
 21
-1605.033075
 31
0.0
  0
LINE
  5
E07
100
AcDbEntity
  8
V0-VYPLNE
 48
3.0
100
AcDbLine
 10
-168.718747
 20
-1175.033075
 30
0.0
 11
831.220462
 21
-1175.033075
 31
0.0
  0
LINE
  5
E0D
100
AcDbEntity
  8
V0-OBRYS
  6
CONTINUOUS
 62
    90
 48
3.0
100
AcDbLine
 10
-90.37613
 20
-745.033075
 30
0.0
 11
769.62387
 21
-745.033075
 31
0.0
  0
LINE
  5
E10
100
AcDbEntity
  8
V0-OBRYS
 48
3.0
100
AcDbLine
 10
-123.75113
 20
-1425.033075
 30
0.0
 11
-123.75113
 21
-925.033075
 31
0.0
  0
LINE
  5
E11
100
AcDbEntity
  8
V0-OBRYS
 48
3.0
100
AcDbLine
 10
-134.50113
 20
-925.033075
 30
0.0
 11
-134.50113
 21
-1425.033075
 31
0.0
  0
LINE
  5
E12
100
AcDbEntity
  8
V0-OBRYS
 48
3.0
100
AcDbLine
 10
-145.25113
 20
-1425.033075
 30
0.0
 11
-145.25113
 21
-925.033075
 31
0.0
  0
LINE
  5
E14
100
AcDbEntity
  8
V0-OBRYS
 48
3.0
100
AcDbLine
 10
-123.75113
 20
-1425.033075
 30
0.0
 11
-90.37613
 21
-1425.033075
 31
0.0
  0
LINE
  5
E15
100
AcDbEntity
  8
V0-OBRYS
 48
3.0
100
AcDbLine
 10
-145.25113
 20
-1425.033075
 30
0.0
 11
-134.50113
 21
-1425.033075
 31
0.0
  0
ARC
  5
E16
100
AcDbEntity
  8
V0-OBRYS
 48
3.0
100
AcDbCircle
 10
-129.12613
 20
-1425.033075
 30
0.0
 40
5.375
100
AcDbArc
 50
180.0
 51
0.0
  0
LINE
  5
E19
100
AcDbEntity
  8
V0-OBRYS
 48
3.0
100
AcDbLine
 10
-123.75113
 20
-925.033075
 30
0.0
 11
-90.37613
 21
-925.033075
 31
0.0
  0
LINE
  5
E1A
100
AcDbEntity
  8
V0-OBRYS
 48
3.0
100
AcDbLine
 10
-145.25113
 20
-925.033075
 30
0.0
 11
-134.50113
 21
-925.033075
 31
0.0
  0
ARC
  5
E1B
100
AcDbEntity
  8
V0-OBRYS
 48
3.0
100
AcDbCircle
 10
-129.12613
 20
-925.033075
 30
0.0
 40
5.375
100
AcDbArc
 50
0.0
 51
180.0
  0
LINE
  5
E20
100
AcDbEntity
  8
V0-OBRYS
 48
3.0
100
AcDbLine
 10
824.49887
 20
-1425.033075
 30
0.0
 11
824.49887
 21
-925.033075
 31
0.0
  0
LINE
  5
E21
100
AcDbEntity
  8
V0-OBRYS
 48
3.0
100
AcDbLine
 10
813.74887
 20
-925.033075
 30
0.0
 11
813.74887
 21
-1425.033075
 31
0.0
  0
LINE
  5
E22
100
AcDbEntity
  8
V0-OBRYS
 48
3.0
100
AcDbLine
 10
802.99887
 20
-1425.033075
 30
0.0
 11
802.99887
 21
-925.033075
 31
0.0
  0
LINE
  5
E2B
100
AcDbEntity
  8
V0-OBRYS
 48
3.0
100
AcDbLine
 10
802.99887
 20
-1425.033075
 30
0.0
 11
769.62387
 21
-1425.033075
 31
0.0
  0
ARC
  5
E2D
100
AcDbEntity
  8
V0-OBRYS
 48
3.0
100
AcDbCircle
 10
808.37387
 20
-1425.033075
 30
0.0
 40
5.375
100
AcDbArc
 50
180.0
 51
360.0
  0
LINE
  5
E2E
100
AcDbEntity
  8
V0-OBRYS
 48
3.0
100
AcDbLine
 10
824.49887
 20
-1425.033075
 30
0.0
 11
813.74887
 21
-1425.033075
 31
0.0
  0
LINE
  5
E33
100
AcDbEntity
  8
V0-OBRYS
 48
3.0
100
AcDbLine
 10
802.99887
 20
-925.033075
 30
0.0
 11
769.62387
 21
-925.033075
 31
0.0
  0
ARC
  5
E34
100
AcDbEntity
  8
V0-OBRYS
 48
3.0
100
AcDbCircle
 10
808.37387
 20
-925.033075
 30
0.0
 40
5.375
100
AcDbArc
 50
360.0
 51
180.0
  0
LINE
  5
E35
100
AcDbEntity
  8
V0-OBRYS
 48
3.0
100
AcDbLine
 10
824.49887
 20
-925.033075
 30
0.0
 11
813.74887
 21
-925.033075
 31
0.0
  0
DIMENSION
  5
E5F
100
AcDbEntity
  8
V0-VYPLNE
  6
CONTINUOUS
 62
    41
 48
3.0
100
AcDbDimension
  2
*D1
 10
809.875
 20
-566.335033
 30
0.0
 11
357.584185
 21
-566.335033
 31
0.0
 70
   160
  3
ED70
100
AcDbAlignedDimension
 13
-159.875
 23
-220.0
 33
0.0
 14
809.875
 24
-220.0
 34
0.0
100
AcDbRotatedDimension
1001
ACAD
1000
DSTYLE
1002
{
1070
   340
1005
1650
1070
    41
1040
70.0
1002
}
  0
DIMENSION
  5
E6C
100
AcDbEntity
  8
V0-VYPLNE
  6
CONTINUOUS
 62
    41
 48
3.0
100
AcDbDimension
  2
*D2
 10
-286.861318
 20
-220.0
 30
0.0
 11
-286.861318
 21
35.460849
 31
0.0
 70
   160
  1
%%c<>
  3
ED70
100
AcDbAlignedDimension
 13
-159.875
 23
280.0
 33
0.0
 14
-159.875
 24
-220.0
 34
0.0
 50
90.0
100
AcDbRotatedDimension
1001
ACAD
1000
DSTYLE
1002
{
1070
   340
1005
1650
1070
    41
1040
70.0
1002
}
  0
DIMENSION
  5
E79
100
AcDbEntity
  8
V0-VYPLNE
  6
CONTINUOUS
 62
    41
 48
3.0
100
AcDbDimension
  2
*D3
 10
966.739391
 20
-400.0
 30
0.0
 11
966.739391
 21
40.331456
 31
0.0
 12
-86.168999
 22
0.0
 32
0.0
 70
   160
  3
ED70
100
AcDbAlignedDimension
 13
668.831001
 23
460.0
 33
0.0
 14
668.831001
 24
-400.0
 34
0.0
 50
90.0
100
AcDbRotatedDimension
1001
ACAD
1000
DSTYLE
1002
{
1070
   340
1005
1650
1070
    41
1040
70.0
1002
}
  0
DIMENSION
  5
EA0
100
AcDbEntity
  8
V0-VYPLNE
  6
CONTINUOUS
 62
    41
 48
3.0
100
AcDbDimension
  2
*D4
 10
2226.595142
 20
-617.200662
 30
0.0
 11
1813.726068
 21
-617.200662
 31
0.0
 70
   160
  3
ED70
100
AcDbAlignedDimension
 13
1366.595142
 23
-400.0
 33
0.0
 14
2226.595142
 24
-400.0
 34
0.0
100
AcDbRotatedDimension
1001
ACAD
1000
DSTYLE
1002
{
1070
   340
1005
1650
1070
    41
1040
70.0
1002
}
  0
MTEXT
  5
EB5
100
AcDbEntity
  8
V0-ZBYTEK
100
AcDbMText
 10
1678.579039
 20
-1237.140541
 30
0.0
 40
43.5375
 41
683.954582
 71
     5
 72
     5
  1
ZVUKOVE  IZOLOVANY
  7
ED10
  0
MTEXT
  5
EB6
100
AcDbEntity
  8
V0-ZBYTEK
 62
    51
100
AcDbMText
 10
1685.518536
 20
-1105.202845
 30
0.0
 40
60.9525
 41
1726.664162
 71
     5
 72
     5
  1
RADIALNI VENTILATOR
  7
ED10
  0
MTEXT
  5
EB7
100
AcDbEntity
  8
V0-NAZVY
100
AcDbMText
 10
1657.584183
 20
-945.657432
 30
0.0
 40
108.84375
 41
895.3073
 71
     5
 72
     5
  1
CVAT - 500
  7
ED70
  0
MTEXT
  5
EB8
100
AcDbEntity
  8
V0-NAZVY
100
AcDbMText
 10
315.883544
 20
-848.410612
 30
0.0
 40
70.0
 41
537.1845
 71
     5
 72
     5
  1
CVAT - 500
  7
ED70
  0
MTEXT
  5
EB9
100
AcDbEntity
  8
V0-NAZVY
100
AcDbMText
 10
328.570519
 20
-291.193759
 30
0.0
 40
70.0
 41
537.1845
 71
     5
 72
     5
  1
CVAT-500
  7
ED70
  0
MTEXT
  5
EBB
100
AcDbEntity
  8
V0-NAZVY
100
AcDbMText
 10
1754.248864
 20
534.12015
 30
0.0
 40
70.0
 41
537.1845
 71
     5
 72
     5
  1
CVAT-500
  7
ED70
  0
LINE
  5
EBD
100
AcDbEntity
  8
V0-VYPLNE
  6
DASHED
 48
3.0
100
AcDbLine
 10
-48.493102
 20
-926.668334
 30
0.0
 11
368.787466
 21
-926.668334
 31
0.0
  0
LINE
  5
EBE
100
AcDbEntity
  8
V0-VYPLNE
  6
DASHED
 48
3.0
100
AcDbLine
 10
-48.493102
 20
-1439.522816
 30
0.0
 11
368.787466
 21
-1439.522816
 31
0.0
  0
LINE
  5
EBF
100
AcDbEntity
  8
V0-VYPLNE
  6
DASHED
 48
3.0
100
AcDbLine
 10
-48.493102
 20
-926.668334
 30
0.0
 11
-48.493102
 21
-1174.994911
 31
0.0
  0
LINE
  5
EC0
100
AcDbEntity
  8
V0-VYPLNE
  6
DASHED
 48
3.0
100
AcDbLine
 10
-48.493102
 20
-1439.522816
 30
0.0
 11
-48.493102
 21
-1175.071239
 31
0.0
  0
LINE
  5
EC1
100
AcDbEntity
  8
V0-VYPLNE
  6
DASHED
 48
3.0
100
AcDbLine
 10
368.787445
 20
-926.668334
 30
0.0
 11
368.787445
 21
-1174.994911
 31
0.0
  0
LINE
  5
EC2
100
AcDbEntity
  8
V0-VYPLNE
  6
DASHED
 48
3.0
100
AcDbLine
 10
356.275263
 20
-926.668334
 30
0.0
 11
356.275263
 21
-1439.446489
 31
0.0
  0
LINE
  5
EC3
100
AcDbEntity
  8
V0-VYPLNE
  6
DASHED
 48
3.0
100
AcDbLine
 10
-40.151627
 20
-924.585422
 30
0.0
 11
-40.151627
 21
-1439.446489
 31
0.0
  0
LINE
  5
EC5
100
AcDbEntity
  8
V0-VYPLNE
  6
DASHED
 48
3.0
100
AcDbLine
 10
366.702102
 20
-980.621141
 30
0.0
 11
674.30134
 21
-980.621141
 31
0.0
  0
LINE
  5
EC6
100
AcDbEntity
  8
V0-VYPLNE
  6
DASHED
 48
3.0
100
AcDbLine
 10
456.372845
 20
-1426.947641
 30
0.0
 11
381.299669
 21
-1426.947641
 31
0.0
  0
LINE
  5
EC7
100
AcDbEntity
  8
V0-VYPLNE
  6
DASHED
 48
3.0
100
AcDbLine
 10
366.702102
 20
-1369.445009
 30
0.0
 11
674.30134
 21
-1369.445009
 31
0.0
  0
LINE
  5
EC9
100
AcDbEntity
  8
V0-VYPLNE
  6
DASHED
 48
3.0
100
AcDbLine
 10
368.787445
 20
-1439.522816
 30
0.0
 11
368.787445
 21
-1175.071239
 31
0.0
  0
LINE
  5
ECA
100
AcDbEntity
  8
V0-VYPLNE
  6
DASHED
 48
3.0
100
AcDbLine
 10
381.299669
 20
-1426.947641
 30
0.0
 11
381.299669
 21
-1369.445009
 31
0.0
  0
LINE
  5
ECB
100
AcDbEntity
  8
V0-VYPLNE
  6
DASHED
 48
3.0
100
AcDbLine
 10
-46.606371
 20
-1274.825948
 30
0.0
 11
349.820519
 21
-1274.825948
 31
0.0
  0
LINE
  5
ECC
100
AcDbEntity
  8
V0-VYPLNE
  6
DASHED
 48
3.0
100
AcDbLine
 10
-40.151627
 20
-1091.678547
 30
0.0
 11
356.275263
 21
-1091.678547
 31
0.0
  0
LINE
  5
ECD
100
AcDbEntity
  8
V0-VYPLNE
  6
DASHED
 48
3.0
100
AcDbLine
 10
-40.151627
 20
-1190.567344
 30
0.0
 11
356.275263
 21
-1190.567344
 31
0.0
  0
LINE
  5
ECE
100
AcDbEntity
  8
V0-VYPLNE
  6
DASHED
 48
3.0
100
AcDbLine
 10
456.372845
 20
-1369.445009
 30
0.0
 11
456.372845
 21
-1426.947641
 31
0.0
  0
LINE
  5
ED0
100
AcDbEntity
  8
V0-VYPLNE
  6
DASHED
 48
3.0
100
AcDbLine
 10
667.436887
 20
-1358.954125
 30
0.0
 11
750.616768
 21
-1358.954125
 31
0.0
  0
LINE
  5
ED1
100
AcDbEntity
  8
V0-VYPLNE
  6
DASHED
 48
3.0
100
AcDbLine
 10
674.30134
 20
-991.035688
 30
0.0
 11
748.531405
 21
-991.035688
 31
0.0
  0
LINE
  5
ED2
100
AcDbEntity
  8
V0-VYPLNE
  6
DASHED
 48
3.0
100
AcDbLine
 10
674.30134
 20
-980.621141
 30
0.0
 11
674.30134
 21
-1369.445009
 31
0.0
  0
CIRCLE
  5
FBE
100
AcDbEntity
  8
V0-OBRYS
  6
CONTINUOUS
 62
    90
 48
3.0
100
AcDbCircle
 10
1796.595142
 20
30.0
 30
0.0
 40
312.446247
  0
CIRCLE
  5
FBF
100
AcDbEntity
  8
V0-OBRYS
 48
3.0
100
AcDbCircle
 10
1656.129421
 20
273.293766
 30
0.0
 40
10.404868
  0
CIRCLE
  5
FC0
100
AcDbEntity
  8
V0-OBRYS
 48
3.0
100
AcDbCircle
 10
1553.301377
 20
170.465721
 30
0.0
 40
10.404868
  0
CIRCLE
  5
FC1
100
AcDbEntity
  8
V0-OBRYS
 48
3.0
100
AcDbCircle
 10
1515.6637
 20
30.0
 30
0.0
 40
10.404868
  0
CIRCLE
  5
FC2
100
AcDbEntity
  8
V0-OBRYS
 48
3.0
100
AcDbCircle
 10
1553.301377
 20
-110.465721
 30
0.0
 40
10.404868
  0
CIRCLE
  5
FC3
100
AcDbEntity
  8
V0-OBRYS
 48
3.0
100
AcDbCircle
 10
1656.129421
 20
-213.293766
 30
0.0
 40
10.404868
  0
CIRCLE
  5
FC4
100
AcDbEntity
  8
V0-OBRYS
 48
3.0
100
AcDbCircle
 10
1796.595142
 20
-250.931442
 30
0.0
 40
10.404868
  0
CIRCLE
  5
FC5
100
AcDbEntity
  8
V0-OBRYS
 48
3.0
100
AcDbCircle
 10
1937.060864
 20
-213.293766
 30
0.0
 40
10.404868
  0
CIRCLE
  5
FC6
100
AcDbEntity
  8
V0-OBRYS
 48
3.0
100
AcDbCircle
 10
2039.888908
 20
-110.465721
 30
0.0
 40
10.404868
  0
CIRCLE
  5
FC7
100
AcDbEntity
  8
V0-OBRYS
 48
3.0
100
AcDbCircle
 10
2077.526585
 20
30.0
 30
0.0
 40
10.404868
  0
CIRCLE
  5
FC8
100
AcDbEntity
  8
V0-OBRYS
 48
3.0
100
AcDbCircle
 10
2039.888908
 20
170.465721
 30
0.0
 40
10.404868
  0
CIRCLE
  5
FC9
100
AcDbEntity
  8
V0-OBRYS
 48
3.0
100
AcDbCircle
 10
1937.060864
 20
273.293766
 30
0.0
 40
10.404868
  0
LINE
  5
117D
100
AcDbEntity
  8
V0-VYPLNE
 48
3.0
100
AcDbLine
 10
2140.595142
 20
-240.59346
 30
0.0
 11
2140.595142
 21
-364.092002
 31
0.0
  0
POINT
  5
171C
100
AcDbEntity
  8
V0-VYPLNE
  6
CONTINUOUS
 62
    41
 48
3.0
100
AcDbPoint
 10
-159.875
 20
30.0
 30
0.0
  0
POINT
  5
171D
100
AcDbEntity
  8
V0-VYPLNE
  6
CONTINUOUS
 62
    41
 48
3.0
100
AcDbPoint
 10
809.875
 20
30.0
 30
0.0
  0
POINT
  5
171E
100
AcDbEntity
  8
V0-VYPLNE
  6
CONTINUOUS
 62
    41
 48
3.0
100
AcDbPoint
 10
-145.25113
 20
-1175.033075
 30
0.0
  0
POINT
  5
171F
100
AcDbEntity
  8
V0-VYPLNE
  6
CONTINUOUS
 62
    41
 48
3.0
100
AcDbPoint
 10
824.49887
 20
-1175.033075
 30
0.0
  0
POINT
  5
1720
100
AcDbEntity
  8
V0-VYPLNE
  6
CONTINUOUS
 62
    41
 48
3.0
100
AcDbPoint
 10
1796.595142
 20
30.0
 30
0.0
  0
DIMENSION
  5
1955
100
AcDbEntity
  8
V0-ZBYTEK
  6
CONTINUOUS
 62
    41
 48
3.0
100
AcDbDimension
  2
*D6
 10
755.0
 20
554.463264
 30
0.0
 11
325.0
 21
593.463264
 31
0.0
 70
    32
  3
ED70
100
AcDbAlignedDimension
 13
-105.0
 23
460.0
 33
0.0
 14
755.0
 24
460.0
 34
0.0
100
AcDbRotatedDimension
1001
ACAD
1000
DSTYLE
1002
{
1070
   340
1005
1650
1070
    41
1040
70.0
1002
}
  0
DIMENSION
  5
196A
100
AcDbEntity
  8
V0-ZBYTEK
  6
CONTINUOUS
 62
    41
 48
3.0
100
AcDbDimension
  2
*D7
 10
-159.875
 20
460.0
 30
0.0
 11
-343.824747
 21
499.0
 31
0.0
 70
    32
  3
ED70
100
AcDbAlignedDimension
 13
-105.0
 23
460.0
 33
0.0
 14
-159.875
 24
280.0
 34
0.0
100
AcDbRotatedDimension
1001
ACAD
1000
DSTYLE
1002
{
1070
   340
1005
1650
1070
    41
1040
70.0
1002
}
  0
LINE
  5
1985
100
AcDbEntity
  8
V0-OBRYS
  6
CONTINUOUS
 48
3.0
100
AcDbLine
 10
-105.0
 20
-400.0
 30
0.0
 11
-185.0
 21
-400.0
 31
0.0
  0
LINE
  5
1986
100
AcDbEntity
  8
V0-OBRYS
  6
CONTINUOUS
 48
3.0
100
AcDbLine
 10
-185.0
 20
-400.0
 30
0.0
 11
-185.0
 21
-480.0
 31
0.0
  0
LINE
  5
1987
100
AcDbEntity
  8
V0-OBRYS
  6
CONTINUOUS
 48
3.0
100
AcDbLine
 10
-185.0
 20
-480.0
 30
0.0
 11
835.0
 21
-480.0
 31
0.0
  0
LINE
  5
1988
100
AcDbEntity
  8
V0-OBRYS
  6
CONTINUOUS
 48
3.0
100
AcDbLine
 10
835.0
 20
-480.0
 30
0.0
 11
835.0
 21
-400.0
 31
0.0
  0
LINE
  5
1989
100
AcDbEntity
  8
V0-OBRYS
  6
CONTINUOUS
 48
3.0
100
AcDbLine
 10
835.0
 20
-400.0
 30
0.0
 11
755.0
 21
-400.0
 31
0.0
  0
LINE
  5
198A
100
AcDbEntity
  8
V0-OBRYS
  6
CONTINUOUS
 48
3.0
100
AcDbLine
 10
1366.595142
 20
-400.0
 30
0.0
 11
1426.595142
 21
-400.0
 31
0.0
  0
LINE
  5
198B
100
AcDbEntity
  8
V0-OBRYS
  6
CONTINUOUS
 48
3.0
100
AcDbLine
 10
1426.595142
 20
-400.0
 30
0.0
 11
1426.595142
 21
-480.0
 31
0.0
  0
LINE
  5
198C
100
AcDbEntity
  8
V0-OBRYS
  6
CONTINUOUS
 48
3.0
100
AcDbLine
 10
1426.595142
 20
-480.0
 30
0.0
 11
1366.595142
 21
-480.0
 31
0.0
  0
LINE
  5
198D
100
AcDbEntity
  8
V0-OBRYS
  6
CONTINUOUS
 48
3.0
100
AcDbLine
 10
2166.595142
 20
-400.0
 30
0.0
 11
2166.595142
 21
-480.0
 31
0.0
  0
LINE
  5
198E
100
AcDbEntity
  8
V0-OBRYS
  6
CONTINUOUS
 48
3.0
100
AcDbLine
 10
2166.595142
 20
-480.0
 30
0.0
 11
2226.595142
 21
-480.0
 31
0.0
  0
LINE
  5
198F
100
AcDbEntity
  8
V0-OBRYS
  6
CONTINUOUS
 48
3.0
100
AcDbLine
 10
2226.595142
 20
-400.0
 30
0.0
 11
2166.595142
 21
-400.0
 31
0.0
  0
LINE
  5
1990
100
AcDbEntity
  8
V0-OBRYS
  6
CONTINUOUS
 48
3.0
100
AcDbLine
 10
1426.595142
 20
-480.0
 30
0.0
 11
2166.595142
 21
-480.0
 31
0.0
  0
LINE
  5
1991
100
AcDbEntity
  8
V0-OBRYS
  6
CONTINUOUS
 48
3.0
100
AcDbLine
 10
849.62387
 20
-825.033075
 30
0.0
 11
849.62387
 21
-745.033075
 31
0.0
  0
LINE
  5
1992
100
AcDbEntity
  8
V0-OBRYS
  6
CONTINUOUS
 48
3.0
100
AcDbLine
 10
-170.37613
 20
-745.033075
 30
0.0
 11
-170.37613
 21
-825.033075
 31
0.0
  0
LINE
  5
1994
100
AcDbEntity
  8
V0-OBRYS
  6
CONTINUOUS
 62
    90
 48
3.0
100
AcDbLine
 10
-90.37613
 20
-745.033075
 30
0.0
 11
769.62387
 21
-745.033075
 31
0.0
  0
LINE
  5
1995
100
AcDbEntity
  8
V0-OBRYS
  6
CONTINUOUS
 48
3.0
100
AcDbLine
 10
-90.37613
 20
-745.033075
 30
0.0
 11
-170.37613
 21
-745.033075
 31
0.0
  0
LINE
  5
1996
100
AcDbEntity
  8
V0-OBRYS
  6
CONTINUOUS
 48
3.0
100
AcDbLine
 10
849.62387
 20
-745.033075
 30
0.0
 11
769.62387
 21
-745.033075
 31
0.0
  0
LINE
  5
1998
100
AcDbEntity
  8
V0-OBRYS
  6
CONTINUOUS
 48
3.0
100
AcDbLine
 10
-170.37613
 20
-1605.033075
 30
0.0
 11
849.62387
 21
-1605.033075
 31
0.0
  0
LINE
  5
199A
100
AcDbEntity
  8
V0-OBRYS
  6
CONTINUOUS
 48
3.0
100
AcDbLine
 10
-170.37613
 20
-1525.033075
 30
0.0
 11
-170.37613
 21
-1605.033075
 31
0.0
  0
LINE
  5
199B
100
AcDbEntity
  8
V0-OBRYS
  6
CONTINUOUS
 48
3.0
100
AcDbLine
 10
-90.37613
 20
-1525.033075
 30
0.0
 11
-170.37613
 21
-1525.033075
 31
0.0
  0
LINE
  5
199C
100
AcDbEntity
  8
V0-OBRYS
  6
CONTINUOUS
 48
3.0
100
AcDbLine
 10
849.62387
 20
-1605.033075
 30
0.0
 11
849.62387
 21
-1525.033075
 31
0.0
  0
LINE
  5
199D
100
AcDbEntity
  8
V0-OBRYS
  6
CONTINUOUS
 48
3.0
100
AcDbLine
 10
849.62387
 20
-1525.033075
 30
0.0
 11
769.62387
 21
-1525.033075
 31
0.0
  0
LINE
  5
19A6
100
AcDbEntity
  8
V0-OBRYS
  6
CONTINUOUS
 48
3.0
100
AcDbLine
 10
849.62387
 20
-825.033075
 30
0.0
 11
769.62387
 21
-825.033075
 31
0.0
  0
LINE
  5
19A7
100
AcDbEntity
  8
V0-OBRYS
  6
CONTINUOUS
 48
3.0
100
AcDbLine
 10
-90.37613
 20
-825.033075
 30
0.0
 11
-170.37613
 21
-825.033075
 31
0.0
  0
DIMENSION
  5
19B4
100
AcDbEntity
  8
V0-ZBYTEK
  6
CONTINUOUS
 48
3.0
100
AcDbDimension
  2
*D8
 10
835.0
 20
-661.047076
 30
0.0
 11
325.0
 21
-622.040186
 31
0.0
 70
    32
  3
ED70
100
AcDbAlignedDimension
 13
-185.0
 23
-480.0
 33
0.0
 14
835.0
 24
-480.0
 34
0.0
100
AcDbRotatedDimension
1001
ACAD
1000
DSTYLE
1002
{
1070
   340
1005
1650
1070
    41
1040
70.0
1002
}
  0
VIEWPORT
  5
22
100
AcDbEntity
 67
     1
  8
0
100
AcDbViewport
 10
261.517699
 20
148.5
 30
0.0
 40
523.035398
 41
297.0
 68
    -1
 69
     1
1001
ACAD
1000
MVIEW
1002
{
1070
    16
1010
0.0
1020
0.0
1030
0.0
1010
0.0
1020
0.0
1030
1.0
1040
0.0
1040
297.0
1040
261.517699
1040
148.5
1040
50.0
1040
0.0
1040
0.0
1070
     0
1070
   100
1070
     1
1070
     1
1070
     0
1070
     0
1070
     0
1070
     0
1040
0.0
1040
0.0
1040
0.0
1040
1.0
1040
1.0
1040
10.0
1040
10.0
1070
     0
1002
{
1002
}
1002
}
  0
ENDSEC
  0
SECTION
  2
OBJECTS
  0
DICTIONARY
  5
C
100
AcDbDictionary
  3
ACAD_GROUP
350
D
  3
ACAD_MLINESTYLE
350
E
  3
ACDBVARIABLEDICTIONARY
350
5D
  0
DICTIONARY
  5
D
102
{ACAD_REACTORS
330
C
102
}
100
AcDbDictionary
  0
DICTIONARY
  5
E
102
{ACAD_REACTORS
330
C
102
}
100
AcDbDictionary
  3
STANDARD
350
13
  0
DICTIONARY
  5
5D
102
{ACAD_REACTORS
330
C
102
}
100
AcDbDictionary
  3
DIMADEC
350
5E
  3
SORTENTS
350
3D8
  0
MLINESTYLE
  5
13
102
{ACAD_REACTORS
330
E
102
}
100
AcDbMlineStyle
  2
STANDARD
 70
     0
  3

 62
     0
 51
90.0
 52
90.0
 71
     2
 49
0.5
 62
   256
  6
BYLAYER
 49
-0.5
 62
   256
  6
BYLAYER
  0
DICTIONARYVAR
  5
5E
102
{ACAD_REACTORS
330
5D
102
}
100
DictionaryVariables
280
     0
  1
0
  0
DICTIONARYVAR
  5
3D8
102
{ACAD_REACTORS
330
5D
102
}
100
DictionaryVariables
280
     0
  1
96
  0
ENDSEC
  0
EOF
