  0
SECTION
  2
HEADER
  9
$ACADVER
  1
AC1014
  9
$ACADMAINTVER
 70
     9
  9
$DWGCODEPAGE
  3
ANSI_1250
  9
$INSBASE
 10
0.0
 20
0.0
 30
0.0
  9
$EXTMIN
 10
-429.0943984615367
 20
-1689.777278
 30
0.0
  9
$EXTMAX
 10
2575.685026
 20
736.698997
 30
5.0
  9
$LIMMIN
 10
0.0
 20
0.0
  9
$LIMMAX
 10
0.0
 20
0.0
  9
$ORTHOMODE
 70
     0
  9
$REGENMODE
 70
     1
  9
$FILLMODE
 70
     1
  9
$QTEXTMODE
 70
     0
  9
$MIRRTEXT
 70
     1
  9
$DRAGMODE
 70
     2
  9
$LTSCALE
 40
1.0
  9
$OSMODE
 70
    37
  9
$ATTMODE
 70
     1
  9
$TEXTSIZE
 40
0.2
  9
$TRACEWID
 40
0.05
  9
$TEXTSTYLE
  7
ED70
  9
$CLAYER
  8
V0-ZBYTEK
  9
$CELTYPE
  6
CONTINUOUS
  9
$CECOLOR
 62
    41
  9
$CELTSCALE
 40
1.0
  9
$DELOBJ
 70
     1
  9
$DISPSILH
 70
     0
  9
$DIMSCALE
 40
1.0
  9
$DIMASZ
 40
45.0
  9
$DIMEXO
 40
1.0
  9
$DIMDLI
 40
0.38
  9
$DIMRND
 40
0.0
  9
$DIMDLE
 40
0.0
  9
$DIMEXE
 40
1.25
  9
$DIMTP
 40
0.0
  9
$DIMTM
 40
0.0
  9
$DIMTXT
 40
40.0
  9
$DIMCEN
 40
0.09
  9
$DIMTSZ
 40
0.0
  9
$DIMTOL
 70
     0
  9
$DIMLIM
 70
     0
  9
$DIMTIH
 70
     0
  9
$DIMTOH
 70
     0
  9
$DIMSE1
 70
     0
  9
$DIMSE2
 70
     0
  9
$DIMTAD
 70
     1
  9
$DIMZIN
 70
     0
  9
$DIMBLK
  1
OPEN
  9
$DIMASO
 70
     1
  9
$DIMSHO
 70
     1
  9
$DIMPOST
  1

  9
$DIMAPOST
  1

  9
$DIMALT
 70
     0
  9
$DIMALTD
 70
     2
  9
$DIMALTF
 40
25.4
  9
$DIMLFAC
 40
1.0
  9
$DIMTOFL
 70
     1
  9
$DIMTVP
 40
0.0
  9
$DIMTIX
 70
     1
  9
$DIMSOXD
 70
     0
  9
$DIMSAH
 70
     0
  9
$DIMBLK1
  1

  9
$DIMBLK2
  1

  9
$DIMSTYLE
  2
ED70
  9
$DIMCLRD
 70
     0
  9
$DIMCLRE
 70
     0
  9
$DIMCLRT
 70
     0
  9
$DIMTFAC
 40
1.0
  9
$DIMGAP
 40
4.0
  9
$DIMJUST
 70
     0
  9
$DIMSD1
 70
     0
  9
$DIMSD2
 70
     0
  9
$DIMTOLJ
 70
     1
  9
$DIMTZIN
 70
     0
  9
$DIMALTZ
 70
     0
  9
$DIMALTTZ
 70
     0
  9
$DIMFIT
 70
     3
  9
$DIMUPT
 70
     1
  9
$DIMUNIT
 70
     2
  9
$DIMDEC
 70
     0
  9
$DIMTDEC
 70
     4
  9
$DIMALTU
 70
     2
  9
$DIMALTTD
 70
     2
  9
$DIMTXSTY
  7
ED50
  9
$DIMAUNIT
 70
     0
  9
$LUNITS
 70
     2
  9
$LUPREC
 70
     4
  9
$SKETCHINC
 40
0.1
  9
$FILLETRAD
 40
0.5
  9
$AUNITS
 70
     0
  9
$AUPREC
 70
     0
  9
$MENU
  1
.
  9
$ELEVATION
 40
0.0
  9
$PELEVATION
 40
0.0
  9
$THICKNESS
 40
0.0
  9
$LIMCHECK
 70
     0
  9
$BLIPMODE
 70
     0
  9
$CHAMFERA
 40
0.5
  9
$CHAMFERB
 40
0.5
  9
$CHAMFERC
 40
1.0
  9
$CHAMFERD
 40
0.0
  9
$SKPOLY
 70
     0
  9
$TDCREATE
 40
2455639.602467083
  9
$TDUPDATE
 40
2455639.602467095
  9
$TDINDWG
 40
0.0000000116
  9
$TDUSRTIMER
 40
0.0000000116
  9
$USRTIMER
 70
     1
  9
$ANGBASE
 50
0.0
  9
$ANGDIR
 70
     0
  9
$PDMODE
 70
     3
  9
$PDSIZE
 40
20.0
  9
$PLINEWID
 40
0.0
  9
$COORDS
 70
     1
  9
$SPLFRAME
 70
     0
  9
$SPLINETYPE
 70
     6
  9
$SPLINESEGS
 70
     8
  9
$ATTDIA
 70
     0
  9
$ATTREQ
 70
     1
  9
$HANDLING
 70
     1
  9
$HANDSEED
  5
1C25
  9
$SURFTAB1
 70
     6
  9
$SURFTAB2
 70
     6
  9
$SURFTYPE
 70
     6
  9
$SURFU
 70
     6
  9
$SURFV
 70
     6
  9
$UCSNAME
  2

  9
$UCSORG
 10
0.0
 20
0.0
 30
0.0
  9
$UCSXDIR
 10
1.0
 20
0.0
 30
0.0
  9
$UCSYDIR
 10
0.0
 20
1.0
 30
0.0
  9
$PUCSNAME
  2

  9
$PUCSORG
 10
0.0
 20
0.0
 30
0.0
  9
$PUCSXDIR
 10
1.0
 20
0.0
 30
0.0
  9
$PUCSYDIR
 10
0.0
 20
1.0
 30
0.0
  9
$USERI1
 70
     0
  9
$USERI2
 70
     0
  9
$USERI3
 70
     0
  9
$USERI4
 70
     0
  9
$USERI5
 70
     0
  9
$USERR1
 40
0.0
  9
$USERR2
 40
0.0
  9
$USERR3
 40
0.0
  9
$USERR4
 40
0.0
  9
$USERR5
 40
0.0
  9
$WORLDVIEW
 70
     1
  9
$SHADEDGE
 70
     3
  9
$SHADEDIF
 70
    70
  9
$TILEMODE
 70
     1
  9
$MAXACTVP
 70
    64
  9
$PINSBASE
 10
0.0
 20
0.0
 30
0.0
  9
$PLIMCHECK
 70
     0
  9
$PEXTMIN
 10
1.000000000000000E+20
 20
1.000000000000000E+20
 30
1.000000000000000E+20
  9
$PEXTMAX
 10
-1.000000000000000E+20
 20
-1.000000000000000E+20
 30
-1.000000000000000E+20
  9
$PLIMMIN
 10
0.0
 20
0.0
  9
$PLIMMAX
 10
0.0
 20
0.0
  9
$UNITMODE
 70
     0
  9
$VISRETAIN
 70
     1
  9
$PLINEGEN
 70
     0
  9
$PSLTSCALE
 70
     1
  9
$TREEDEPTH
 70
  3020
  9
$PICKSTYLE
 70
     1
  9
$CMLSTYLE
  2
STANDARD
  9
$CMLJUST
 70
     0
  9
$CMLSCALE
 40
1.0
  9
$PROXYGRAPHICS
 70
     1
  9
$MEASUREMENT
 70
     0
  0
ENDSEC
  0
SECTION
  2
CLASSES
  0
CLASS
  1
ACDBDICTIONARYWDFLT
  2
AcDbDictionaryWithDefault
  3
ObjectDBX Classes
 90
        0
280
     0
281
     0
  0
CLASS
  1
XRECORD
  2
AcDbXrecord
  3
AutoCAD 2000
 90
        0
280
     0
281
     0
  0
CLASS
  1
LWPOLYLINE
  2
AcDbPolyline
  3
AutoCAD 2000
 90
        0
280
     0
281
     1
  0
CLASS
  1
HATCH
  2
AcDbHatch
  3
AutoCAD 2000
 90
        0
280
     0
281
     1
  0
CLASS
  1
ACDBPLACEHOLDER
  2
AcDbPlaceHolder
  3
ObjectDBX Classes
 90
        0
280
     0
281
     0
  0
CLASS
  1
LAYOUT
  2
AcDbLayout
  3
ObjectDBX Classes
 90
        0
280
     0
281
     0
  0
ENDSEC
  0
SECTION
  2
TABLES
  0
TABLE
  2
VPORT
  5
1B60
330
0
100
AcDbSymbolTable
 70
     2
  0
VPORT
  5
1B81
102
{ACAD_XDICTIONARY
360
1C23
102
}
330
1B60
100
AcDbSymbolTableRecord
100
AcDbViewportTableRecord
  2
*ACTIVE
 70
     0
 10
0.0
 20
0.0
 11
1.0
 21
1.0
 12
987.2444594619049
 22
-441.7913211390477
 13
0.0
 23
0.0
 14
10.0
 24
10.0
 15
10.0
 25
10.0
 16
0.0
 26
0.0
 36
1.0
 17
0.0
 27
0.0
 37
0.0
 40
2591.967452
 41
0.0068506866249233
 42
50.0
 43
0.0
 44
0.0
 50
0.0
 51
0.0000000000007958
 71
     0
 72
   100
 73
     1
 74
     3
 75
     0
 76
     0
 77
     0
 78
     0
  0
ENDTAB
  0
TABLE
  2
LTYPE
  5
1B5D
330
0
100
AcDbSymbolTable
 70
    25
  0
LTYPE
  5
1B6C
330
1B5D
100
AcDbSymbolTableRecord
100
AcDbLinetypeTableRecord
  2
BYBLOCK
 70
     0
  3

 72
    65
 73
     0
 40
0.0
  0
LTYPE
  5
1B6D
330
1B5D
100
AcDbSymbolTableRecord
100
AcDbLinetypeTableRecord
  2
BYLAYER
 70
     0
  3

 72
    65
 73
     0
 40
0.0
  0
LTYPE
  5
1B6E
330
1B5D
100
AcDbSymbolTableRecord
100
AcDbLinetypeTableRecord
  2
CONTINUOUS
 70
     0
  3
Solid line
 72
    65
 73
     0
 40
0.0
  0
LTYPE
  5
1B89
330
1B5D
100
AcDbSymbolTableRecord
100
AcDbLinetypeTableRecord
  2
CENTER
 70
     0
  3
Center ____ _ ____ _ ____ _ ____ _ ____ _ ____
 72
    65
 73
     4
 40
2.0
 49
1.25
 74
     0
 49
-0.25
 74
     0
 49
0.25
 74
     0
 49
-0.25
 74
     0
  0
LTYPE
  5
1B8A
330
1B5D
100
AcDbSymbolTableRecord
100
AcDbLinetypeTableRecord
  2
DASHDOT
 70
     0
  3
Dashdot __ . __ . __ . __ . __ . __ . __ . __
 72
    65
 73
     4
 40
1.0
 49
0.5
 74
     0
 49
-0.25
 74
     0
 49
0.0
 74
     0
 49
-0.25
 74
     0
  0
LTYPE
  5
1B8B
330
1B5D
100
AcDbSymbolTableRecord
100
AcDbLinetypeTableRecord
  2
DASHED
 70
     0
  3
Dashed __ __ __ __ __ __ __ __ __ __ __ __ __ _
 72
    65
 73
     2
 40
0.75
 49
0.5
 74
     0
 49
-0.25
 74
     0
  0
LTYPE
  5
1B8C
330
1B5D
100
AcDbSymbolTableRecord
100
AcDbLinetypeTableRecord
  2
HIDDEN
 70
     0
  3
Hidden __ __ __ __ __ __ __ __ __ __ __ __ __ __
 72
    65
 73
     2
 40
0.375
 49
0.25
 74
     0
 49
-0.125
 74
     0
  0
LTYPE
  5
1B8D
330
1B5D
100
AcDbSymbolTableRecord
100
AcDbLinetypeTableRecord
  2
HIDDEN2
 70
     0
  3
Hidden2 _ _ _ _ _ _ _ _ _ _ _ _ _ _ _ _ _ 
 72
    65
 73
     2
 40
0.1875
 49
0.125
 74
     0
 49
-0.0625
 74
     0
  0
LTYPE
  5
1B8E
330
1B5D
100
AcDbSymbolTableRecord
100
AcDbLinetypeTableRecord
  2
BORDER
 70
     0
  3
Border __ __ . __ __ . __ __ . __ __ . __ __ .
 72
    65
 73
     6
 40
1.75
 49
0.5
 74
     0
 49
-0.25
 74
     0
 49
0.5
 74
     0
 49
-0.25
 74
     0
 49
0.0
 74
     0
 49
-0.25
 74
     0
  0
LTYPE
  5
1B8F
330
1B5D
100
AcDbSymbolTableRecord
100
AcDbLinetypeTableRecord
  2
BORDER2
 70
     0
  3
Border2 __.__.__.__.__.__.__.__.__.__.__.
 72
    65
 73
     6
 40
0.875
 49
0.25
 74
     0
 49
-0.125
 74
     0
 49
0.25
 74
     0
 49
-0.125
 74
     0
 49
0.0
 74
     0
 49
-0.125
 74
     0
  0
LTYPE
  5
1B90
330
1B5D
100
AcDbSymbolTableRecord
100
AcDbLinetypeTableRecord
  2
BORDERX2
 70
     0
  3
Borderx2  ____  ____  .  ____  ____  .  ___
 72
    65
 73
     6
 40
3.5
 49
1.0
 74
     0
 49
-0.5
 74
     0
 49
1.0
 74
     0
 49
-0.5
 74
     0
 49
0.0
 74
     0
 49
-0.5
 74
     0
  0
LTYPE
  5
1B91
330
1B5D
100
AcDbSymbolTableRecord
100
AcDbLinetypeTableRecord
  2
CENTER2
 70
     0
  3
Center2  ___ _ ___ _ ___ _ ___ _ ___ _ ___
 72
    65
 73
     4
 40
1.125
 49
0.75
 74
     0
 49
-0.125
 74
     0
 49
0.125
 74
     0
 49
-0.125
 74
     0
  0
LTYPE
  5
1B92
330
1B5D
100
AcDbSymbolTableRecord
100
AcDbLinetypeTableRecord
  2
CENTERX2
 70
     0
  3
Centerx2  ________  __  ________  __  _____
 72
    65
 73
     4
 40
4.0
 49
2.5
 74
     0
 49
-0.5
 74
     0
 49
0.5
 74
     0
 49
-0.5
 74
     0
  0
LTYPE
  5
1B93
330
1B5D
100
AcDbSymbolTableRecord
100
AcDbLinetypeTableRecord
  2
DASHDOT2
 70
     0
  3
Dashdot2  _._._._._._._._._._._._._._._.
 72
    65
 73
     4
 40
0.5
 49
0.25
 74
     0
 49
-0.125
 74
     0
 49
0.0
 74
     0
 49
-0.125
 74
     0
  0
LTYPE
  5
1B94
330
1B5D
100
AcDbSymbolTableRecord
100
AcDbLinetypeTableRecord
  2
DASHDOTX2
 70
     0
  3
Dashdotx2 ____  .  ____  .  ____  .  ___
 72
    65
 73
     4
 40
2.0
 49
1.0
 74
     0
 49
-0.5
 74
     0
 49
0.0
 74
     0
 49
-0.5
 74
     0
  0
LTYPE
  5
1B95
330
1B5D
100
AcDbSymbolTableRecord
100
AcDbLinetypeTableRecord
  2
DASHED2
 70
     0
  3
Dashed2 _ _ _ _ _ _ _ _ _ _ _ _ _ _ _ _ _ 
 72
    65
 73
     2
 40
0.375
 49
0.25
 74
     0
 49
-0.125
 74
     0
  0
LTYPE
  5
1B96
330
1B5D
100
AcDbSymbolTableRecord
100
AcDbLinetypeTableRecord
  2
DASHEDX2
 70
     0
  3
Dashedx2 ____  ____  ____  ____  ____  ___
 72
    65
 73
     2
 40
1.5
 49
1.0
 74
     0
 49
-0.5
 74
     0
  0
LTYPE
  5
1B97
330
1B5D
100
AcDbSymbolTableRecord
100
AcDbLinetypeTableRecord
  2
DIVIDE
 70
     0
  3
Divide ____ . . ____ . . ____ . . ____ . . ____
 72
    65
 73
     6
 40
1.25
 49
0.5
 74
     0
 49
-0.25
 74
     0
 49
0.0
 74
     0
 49
-0.25
 74
     0
 49
0.0
 74
     0
 49
-0.25
 74
     0
  0
LTYPE
  5
1B98
330
1B5D
100
AcDbSymbolTableRecord
100
AcDbLinetypeTableRecord
  2
DIVIDE2
 70
     0
  3
Divide2 __..__..__..__..__..__..__..__.._
 72
    65
 73
     6
 40
0.625
 49
0.25
 74
     0
 49
-0.125
 74
     0
 49
0.0
 74
     0
 49
-0.125
 74
     0
 49
0.0
 74
     0
 49
-0.125
 74
     0
  0
LTYPE
  5
1B99
330
1B5D
100
AcDbSymbolTableRecord
100
AcDbLinetypeTableRecord
  2
DIVIDEX2
 70
     0
  3
Dividex2 ________  .  .  ________  .  .  _
 72
    65
 73
     6
 40
2.5
 49
1.0
 74
     0
 49
-0.5
 74
     0
 49
0.0
 74
     0
 49
-0.5
 74
     0
 49
0.0
 74
     0
 49
-0.5
 74
     0
  0
LTYPE
  5
1B9A
330
1B5D
100
AcDbSymbolTableRecord
100
AcDbLinetypeTableRecord
  2
DOT
 70
     0
  3
Dot . . . . . . . . . . . . . . . . . . . . . . . .
 72
    65
 73
     2
 40
0.25
 49
0.0
 74
     0
 49
-0.25
 74
     0
  0
LTYPE
  5
1B9B
330
1B5D
100
AcDbSymbolTableRecord
100
AcDbLinetypeTableRecord
  2
DOT2
 70
     0
  3
Dot2 ........................................
 72
    65
 73
     2
 40
0.125
 49
0.0
 74
     0
 49
-0.125
 74
     0
  0
LTYPE
  5
1B9C
330
1B5D
100
AcDbSymbolTableRecord
100
AcDbLinetypeTableRecord
  2
DOTX2
 70
     0
  3
Dotx2 .  .  .  .  .  .  .  .  .  .  .  .  .  .
 72
    65
 73
     2
 40
0.5
 49
0.0
 74
     0
 49
-0.5
 74
     0
  0
LTYPE
  5
1B9D
330
1B5D
100
AcDbSymbolTableRecord
100
AcDbLinetypeTableRecord
  2
HIDDENX2
 70
     0
  3
Hiddenx2 ____ ____ ____ ____ ____ ____ ____ 
 72
    65
 73
     2
 40
0.75
 49
0.5
 74
     0
 49
-0.25
 74
     0
  0
LTYPE
  5
1B9E
330
1B5D
100
AcDbSymbolTableRecord
100
AcDbLinetypeTableRecord
  2
PHANTOM
 70
     0
  3
Phantom ______  __  __  ______  __  __  ______ 
 72
    65
 73
     6
 40
2.5
 49
1.25
 74
     0
 49
-0.25
 74
     0
 49
0.25
 74
     0
 49
-0.25
 74
     0
 49
0.25
 74
     0
 49
-0.25
 74
     0
  0
LTYPE
  5
1B9F
330
1B5D
100
AcDbSymbolTableRecord
100
AcDbLinetypeTableRecord
  2
PHANTOM2
 70
     0
  3
Phantom2 ___ _ _ ___ _ _ ___ _ _ ___ _ _
 72
    65
 73
     6
 40
1.25
 49
0.625
 74
     0
 49
-0.125
 74
     0
 49
0.125
 74
     0
 49
-0.125
 74
     0
 49
0.125
 74
     0
 49
-0.125
 74
     0
  0
LTYPE
  5
1BA0
330
1B5D
100
AcDbSymbolTableRecord
100
AcDbLinetypeTableRecord
  2
PHANTOMX2
 70
     0
  3
Phantomx2 ____________    ____    ____   _
 72
    65
 73
     6
 40
5.0
 49
2.5
 74
     0
 49
-0.5
 74
     0
 49
0.5
 74
     0
 49
-0.5
 74
     0
 49
0.5
 74
     0
 49
-0.5
 74
     0
  0
ENDTAB
  0
TABLE
  2
LAYER
  5
1B5A
330
0
100
AcDbSymbolTable
 70
     6
  0
LAYER
  5
1B68
330
1B5A
100
AcDbSymbolTableRecord
100
AcDbLayerTableRecord
  2
0
 70
     0
 62
     7
  6
CONTINUOUS
  0
LAYER
  5
9E
330
1B5A
100
AcDbSymbolTableRecord
100
AcDbLayerTableRecord
  2
DEFPOINTS
 70
     0
 62
     7
  6
CONTINUOUS
  0
LAYER
  5
377
330
1B5A
100
AcDbSymbolTableRecord
100
AcDbLayerTableRecord
  2
V0-OBRYS
 70
     0
 62
    90
  6
CONTINUOUS
  0
LAYER
  5
378
330
1B5A
100
AcDbSymbolTableRecord
100
AcDbLayerTableRecord
  2
V0-VYPLNE
 70
     0
 62
    63
  6
DASHDOT
  0
LAYER
  5
37A
330
1B5A
100
AcDbSymbolTableRecord
100
AcDbLayerTableRecord
  2
V0-NAZVY
 70
     0
 62
   210
  6
CONTINUOUS
  0
LAYER
  5
559
330
1B5A
100
AcDbSymbolTableRecord
100
AcDbLayerTableRecord
  2
V0-ZBYTEK
 70
     0
 62
    51
  6
CONTINUOUS
  0
ENDTAB
  0
TABLE
  2
STYLE
  5
1B5B
330
0
100
AcDbSymbolTable
 70
     7
  0
STYLE
  5
1B69
330
1B5B
100
AcDbSymbolTableRecord
100
AcDbTextStyleTableRecord
  2
STANDARD
 70
     0
 40
7.0
 41
1.0
 50
0.0
 71
     0
 42
0.2
  3
ISOCP.shx
  4

1001
ACAD
1000
ISOCP.shx
1071
        0
  0
STYLE
  5
331
330
1B5B
100
AcDbSymbolTableRecord
100
AcDbTextStyleTableRecord
  2
ED30
 70
     0
 40
30.0
 41
1.0
 50
0.0
 71
     0
 42
0.2
  3
ISOCP.shx
  4

1001
ACAD
1000
ISOCP.shx
1071
        0
  0
STYLE
  5
5D2
330
1B5B
100
AcDbSymbolTableRecord
100
AcDbTextStyleTableRecord
  2
ED20
 70
     0
 40
20.0
 41
1.0
 50
0.0
 71
     0
 42
0.2
  3
isocp.shx
  4

1001
ACAD
1000
isocp.shx
1071
        0
  0
STYLE
  5
64F
330
1B5B
100
AcDbSymbolTableRecord
100
AcDbTextStyleTableRecord
  2
ED40
 70
     0
 40
40.0
 41
1.0
 50
0.0
 71
     0
 42
0.2
  3
isocp.shx
  4

1001
ACAD
1000
isocp.shx
1071
        0
  0
STYLE
  5
650
330
1B5B
100
AcDbSymbolTableRecord
100
AcDbTextStyleTableRecord
  2
ED10
 70
     0
 40
10.0
 41
1.0
 50
0.0
 71
     0
 42
0.2
  3
isocp.shx
  4

1001
ACAD
1000
isocp.shx
1071
        0
  0
STYLE
  5
15E9
330
1B5B
100
AcDbSymbolTableRecord
100
AcDbTextStyleTableRecord
  2
ED50
 70
     0
 40
50.0
 41
1.0
 50
0.0
 71
     0
 42
0.2
  3
isocp.shx
  4

1001
ACAD
1000
isocp.shx
1071
        0
  0
STYLE
  5
1650
330
1B5B
100
AcDbSymbolTableRecord
100
AcDbTextStyleTableRecord
  2
ED70
 70
     0
 40
70.0
 41
1.0
 50
0.0
 71
     0
 42
0.2
  3
isocp.shx
  4

1001
ACAD
1000
isocp.shx
1071
        0
  0
ENDTAB
  0
TABLE
  2
VIEW
  5
1B5E
330
0
100
AcDbSymbolTable
 70
     0
  0
ENDTAB
  0
TABLE
  2
UCS
  5
1B5F
330
0
100
AcDbSymbolTable
 70
     0
  0
ENDTAB
  0
TABLE
  2
APPID
  5
1B61
330
0
100
AcDbSymbolTable
 70
     6
  0
APPID
  5
1B6A
330
1B61
100
AcDbSymbolTableRecord
100
AcDbRegAppTableRecord
  2
ACAD
 70
     0
  0
APPID
  5
1B82
330
1B61
100
AcDbSymbolTableRecord
100
AcDbRegAppTableRecord
  2
VD_INVISIBLE_NOT_FOR_READ
 70
     0
  0
APPID
  5
1B83
330
1B61
100
AcDbSymbolTableRecord
100
AcDbRegAppTableRecord
  2
VD_TEMPHATCH
 70
     0
  0
APPID
  5
1B84
330
1B61
100
AcDbSymbolTableRecord
100
AcDbRegAppTableRecord
  2
VDEXTRAPARAM
 70
     0
  0
APPID
  5
1B85
330
1B61
100
AcDbSymbolTableRecord
100
AcDbRegAppTableRecord
  2
PE_URL
 70
     0
  0
APPID
  5
1B86
330
1B61
100
AcDbSymbolTableRecord
100
AcDbRegAppTableRecord
  2
VD_UNKNOWN
 70
     0
  0
ENDTAB
  0
TABLE
  2
DIMSTYLE
  5
1B62
330
0
100
AcDbSymbolTable
 70
     7
  0
DIMSTYLE
105
1B7F
330
1B62
100
AcDbSymbolTableRecord
100
AcDbDimStyleTableRecord
  2
STANDARD
 70
     0
  3

  4

  5
OPEN
  6

  7

 40
1.0
 41
15.0
 42
0.625
 43
0.38
 44
1.25
 45
0.0
 46
0.0
 47
0.0
 48
0.0
140
15.0
141
0.09
142
0.0
143
25.4
144
1.0
145
0.0
146
1.0
147
3.0
 71
     0
 72
     0
 73
     0
 74
     0
 75
     0
 76
     0
 77
     1
 78
     0
170
     0
171
     2
172
     1
173
     0
174
     1
175
     0
176
     0
177
     0
178
     0
270
     2
271
     0
272
     4
273
     2
274
     2
340
331
275
     0
280
     0
281
     0
282
     0
283
     1
284
     0
285
     0
286
     0
287
     3
288
     1
  0
DIMSTYLE
105
397
330
1B62
100
AcDbSymbolTableRecord
100
AcDbDimStyleTableRecord
  2
ED40
 70
     0
  3

  4

  5
OPEN
  6

  7

 40
1.0
 41
35.0
 42
1.0
 43
0.38
 44
1.25
 45
0.0
 46
0.0
 47
0.0
 48
0.0
140
40.0
141
0.09
142
0.0
143
25.4
144
1.0
145
0.0
146
1.0
147
4.0
 71
     0
 72
     0
 73
     0
 74
     0
 75
     0
 76
     0
 77
     1
 78
     0
170
     0
171
     2
172
     1
173
     0
174
     1
175
     0
176
     0
177
     0
178
     0
270
     2
271
     0
272
     4
273
     2
274
     2
340
64F
275
     0
280
     0
281
     0
282
     0
283
     1
284
     0
285
     0
286
     0
287
     3
288
     1
  0
DIMSTYLE
105
656
330
1B62
100
AcDbSymbolTableRecord
100
AcDbDimStyleTableRecord
  2
ED30
 70
     0
  3

  4

  5
OPEN
  6

  7

 40
1.0
 41
25.0
 42
1.0
 43
0.38
 44
1.25
 45
0.0
 46
0.0
 47
0.0
 48
0.0
140
30.0
141
0.09
142
0.0
143
25.4
144
1.0
145
0.0
146
1.0
147
4.0
 71
     0
 72
     0
 73
     0
 74
     0
 75
     0
 76
     0
 77
     1
 78
     0
170
     0
171
     2
172
     1
173
     0
174
     1
175
     0
176
     0
177
     0
178
     0
270
     2
271
     0
272
     4
273
     2
274
     2
340
331
275
     0
280
     0
281
     0
282
     0
283
     1
284
     0
285
     0
286
     0
287
     3
288
     1
  0
DIMSTYLE
105
657
330
1B62
100
AcDbSymbolTableRecord
100
AcDbDimStyleTableRecord
  2
ED20
 70
     0
  3

  4

  5
OPEN
  6

  7

 40
1.0
 41
20.0
 42
1.0
 43
0.38
 44
1.25
 45
0.0
 46
0.0
 47
0.0
 48
0.0
140
20.0
141
0.09
142
0.0
143
25.4
144
1.0
145
0.0
146
1.0
147
2.0
 71
     0
 72
     0
 73
     0
 74
     0
 75
     0
 76
     0
 77
     1
 78
     0
170
     0
171
     2
172
     1
173
     0
174
     1
175
     0
176
     0
177
     0
178
     0
270
     2
271
     0
272
     4
273
     2
274
     2
340
5D2
275
     0
280
     0
281
     0
282
     0
283
     1
284
     0
285
     0
286
     0
287
     3
288
     1
  0
DIMSTYLE
105
658
330
1B62
100
AcDbSymbolTableRecord
100
AcDbDimStyleTableRecord
  2
ED10
 70
     0
  3

  4

  5
OPEN
  6

  7

 40
1.0
 41
15.0
 42
1.0
 43
0.38
 44
1.25
 45
0.0
 46
0.0
 47
0.0
 48
0.0
140
10.0
141
0.09
142
0.0
143
25.4
144
1.0
145
0.0
146
1.0
147
1.5
 71
     0
 72
     0
 73
     0
 74
     0
 75
     0
 76
     0
 77
     1
 78
     0
170
     0
171
     2
172
     1
173
     0
174
     1
175
     0
176
     0
177
     0
178
     0
270
     2
271
     0
272
     4
273
     2
274
     2
340
5D2
275
     0
280
     0
281
     0
282
     0
283
     1
284
     0
285
     0
286
     0
287
     3
288
     1
  0
DIMSTYLE
105
15EA
330
1B62
100
AcDbSymbolTableRecord
100
AcDbDimStyleTableRecord
  2
ED50
 70
     0
  3

  4

  5
OPEN
  6

  7

 40
1.0
 41
35.0
 42
1.0
 43
0.38
 44
1.25
 45
0.0
 46
0.0
 47
0.0
 48
0.0
140
40.0
141
0.09
142
0.0
143
25.4
144
1.0
145
0.0
146
1.0
147
4.0
 71
     0
 72
     0
 73
     0
 74
     0
 75
     0
 76
     0
 77
     1
 78
     0
170
     0
171
     2
172
     1
173
     0
174
     1
175
     0
176
     0
177
     0
178
     0
270
     2
271
     0
272
     4
273
     2
274
     2
340
64F
275
     0
280
     0
281
     0
282
     0
283
     1
284
     0
285
     0
286
     0
287
     3
288
     1
  0
DIMSTYLE
105
1651
102
{ACAD_REACTORS
330
E5F
330
E6C
330
E79
330
EA0
330
1955
330
1AB6
330
1ACE
102
}
330
1B62
100
AcDbSymbolTableRecord
100
AcDbDimStyleTableRecord
  2
ED70
 70
     0
  3

  4

  5
OPEN
  6

  7

 40
1.0
 41
45.0
 42
1.0
 43
0.38
 44
1.25
 45
0.0
 46
0.0
 47
0.0
 48
0.0
140
40.0
141
0.09
142
0.0
143
25.4
144
1.0
145
0.0
146
1.0
147
4.0
 71
     0
 72
     0
 73
     0
 74
     0
 75
     0
 76
     0
 77
     1
 78
     0
170
     0
171
     2
172
     1
173
     0
174
     1
175
     0
176
     0
177
     0
178
     0
270
     2
271
     0
272
     4
273
     2
274
     2
340
15E9
275
     0
280
     0
281
     0
282
     0
283
     1
284
     0
285
     0
286
     0
287
     3
288
     1
  0
ENDTAB
  0
TABLE
  2
BLOCK_RECORD
  5
1B59
330
0
100
AcDbSymbolTable
 70
    11
  0
BLOCK_RECORD
  5
1B77
330
1B59
100
AcDbSymbolTableRecord
100
AcDbBlockTableRecord
  2
*MODEL_SPACE
  0
BLOCK_RECORD
  5
1B73
330
1B59
100
AcDbSymbolTableRecord
100
AcDbBlockTableRecord
  2
*PAPER_SPACE
  0
BLOCK_RECORD
  5
90
330
1B59
100
AcDbSymbolTableRecord
100
AcDbBlockTableRecord
  2
_OPEN
  0
BLOCK_RECORD
  5
1B55
330
1B59
100
AcDbSymbolTableRecord
100
AcDbBlockTableRecord
  2
VDDIM_DEFAULT
  0
BLOCK_RECORD
  5
1B57
330
1B59
100
AcDbSymbolTableRecord
100
AcDbBlockTableRecord
  2
VDDIM_NONE
  0
BLOCK_RECORD
  5
1BA8
330
1B59
100
AcDbSymbolTableRecord
100
AcDbBlockTableRecord
  2
*D4
  0
BLOCK_RECORD
  5
1BB5
330
1B59
100
AcDbSymbolTableRecord
100
AcDbBlockTableRecord
  2
*D5
  0
BLOCK_RECORD
  5
1BC1
330
1B59
100
AcDbSymbolTableRecord
100
AcDbBlockTableRecord
  2
*D6
  0
BLOCK_RECORD
  5
1BCE
330
1B59
100
AcDbSymbolTableRecord
100
AcDbBlockTableRecord
  2
*D7
  0
BLOCK_RECORD
  5
1BDB
330
1B59
100
AcDbSymbolTableRecord
100
AcDbBlockTableRecord
  2
*D8
  0
BLOCK_RECORD
  5
1BE7
330
1B59
100
AcDbSymbolTableRecord
100
AcDbBlockTableRecord
  2
*D9
  0
BLOCK_RECORD
  5
1BF5
330
1B59
100
AcDbSymbolTableRecord
100
AcDbBlockTableRecord
  2
*D10
  0
ENDTAB
  0
ENDSEC
  0
SECTION
  2
BLOCKS
  0
BLOCK
  5
1B78
330
1B77
100
AcDbEntity
  8
0
100
AcDbBlockBegin
  2
*MODEL_SPACE
 70
     0
 71
     0
 10
0.0
 20
0.0
 30
0.0
  3
*MODEL_SPACE
  1

  0
ENDBLK
  5
1B79
330
1B77
100
AcDbEntity
  8
0
100
AcDbBlockEnd
  0
BLOCK
  5
1B74
330
1B73
100
AcDbEntity
 67
     1
  8
0
100
AcDbBlockBegin
  2
*PAPER_SPACE
 70
     0
 71
     0
 10
0.0
 20
0.0
 30
0.0
  3
*PAPER_SPACE
  1

  0
ENDBLK
  5
1B75
330
1B73
100
AcDbEntity
 67
     1
  8
0
100
AcDbBlockEnd
  0
BLOCK
  5
1BA1
330
90
100
AcDbEntity
  8
0
100
AcDbBlockBegin
  2
_OPEN
 70
     0
 71
     0
 10
0.0
 20
0.0
 30
0.0
  3
_OPEN
  1

  0
LINE
  5
92
330
90
100
AcDbEntity
  8
0
  6
BYBLOCK
 62
     0
100
AcDbLine
 10
-1.0
 20
0.166667
 30
0.0
 11
0.0
 21
0.0
 31
0.0
  0
LINE
  5
93
330
90
100
AcDbEntity
  8
0
  6
BYBLOCK
 62
     0
100
AcDbLine
 10
0.0
 20
0.0
 30
0.0
 11
-1.0
 21
-0.166667
 31
0.0
  0
LINE
  5
94
330
90
100
AcDbEntity
  8
0
  6
BYBLOCK
 62
     0
100
AcDbLine
 10
0.0
 20
0.0
 30
0.0
 11
-1.0
 21
0.0
 31
0.0
  0
ENDBLK
  5
1BA2
330
90
100
AcDbEntity
  8
0
100
AcDbBlockEnd
  0
BLOCK
  5
1BA3
330
1B55
100
AcDbEntity
  8
0
100
AcDbBlockBegin
  2
VDDIM_DEFAULT
 70
     0
 71
     0
 10
0.0
 20
0.0
 30
0.0
  3
VDDIM_DEFAULT
  1

  0
LWPOLYLINE
  5
1B56
330
1B55
100
AcDbEntity
  8
0
  6
CONTINUOUS
 62
     0
100
AcDbPolyline
 90
        4
 70
     0
 43
0.0
 10
0.0
 20
0.0
 10
-1.0
 20
-0.1665
 10
-1.0
 20
0.1665
 10
0.0
 20
0.0
1001
VDEXTRAPARAM
1071
        1
1071
        0
1071
        0
1040
1.0
1000

1000

1040
0.0
1040
0.0
  0
HATCH
  5
1BA7
330
1B55
100
AcDbEntity
  8
0
  6
CONTINUOUS
 62
     0
100
AcDbHatch
 10
0.0
 20
0.0
 30
0.0
210
0.0
220
0.0
230
1.0
  2
SOLID
 70
     1
 71
     0
 91
        1
 92
        2
 72
     0
 73
     1
 93
        3
 10
0.0
 20
0.0
 10
-1.0
 20
-0.1665
 10
-1.0
 20
0.1665
 97
        0
 75
     0
 76
     1
 98
        1
 10
0.0
 20
0.0
1001
VDEXTRAPARAM
1071
        1
1071
        0
1071
        0
1040
1.0
1000

1000

1040
0.0
1040
0.0
1001
VD_TEMPHATCH
1000
VD_TEMPHATCH
  0
ENDBLK
  5
1BA4
330
1B55
100
AcDbEntity
  8
0
100
AcDbBlockEnd
  0
BLOCK
  5
1BA5
330
1B57
100
AcDbEntity
  8
0
100
AcDbBlockBegin
  2
VDDIM_NONE
 70
     0
 71
     0
 10
0.0
 20
0.0
 30
0.0
  3
VDDIM_NONE
  1

  0
ENDBLK
  5
1BA6
330
1B57
100
AcDbEntity
  8
0
100
AcDbBlockEnd
  0
BLOCK
  5
1BB3
330
1BA8
100
AcDbEntity
  8
0
100
AcDbBlockBegin
  2
*D4
 70
     1
 71
     0
 10
0.0
 20
0.0
 30
0.0
  3
*D4
  1

  0
LINE
  5
1BA9
330
1BA8
100
AcDbEntity
  8
V0-VYPLNE
 62
     0
100
AcDbLine
 10
-223.7575
 20
-256.291888
 30
0.0
 11
-223.7574999999999
 21
-578.4258430000044
 31
0.0
  0
LINE
  5
1BAA
330
1BA8
100
AcDbEntity
  8
V0-VYPLNE
 62
     0
100
AcDbLine
 10
805.875
 20
-256.291888
 30
0.0
 11
805.875
 21
-578.4258430000045
 31
0.0
  0
LINE
  5
1BAB
330
1BA8
100
AcDbEntity
  8
V0-VYPLNE
 62
     0
100
AcDbLine
 10
-153.7574999999999
 20
-577.1758430000044
 30
0.0
 11
231.1797203809524
 21
-577.1758430000045
 31
0.0
  0
LINE
  5
1BAC
330
1BA8
100
AcDbEntity
  8
V0-VYPLNE
 62
     0
100
AcDbLine
 10
735.875
 20
-577.1758430000045
 30
0.0
 11
374.4178156190476
 21
-577.1758430000045
 31
0.0
  0
INSERT
  5
1BAD
330
1BA8
100
AcDbEntity
  8
V0-VYPLNE
 62
     0
100
AcDbBlockReference
  2
_OPEN
 10
-223.7574999999999
 20
-577.1758430000044
 30
0.0
 41
70.0
 42
70.0
 43
70.0
 50
180.0
  0
INSERT
  5
1BAE
330
1BA8
100
AcDbEntity
  8
V0-VYPLNE
 62
     0
100
AcDbBlockReference
  2
_OPEN
 10
805.875
 20
-577.1758430000045
 30
0.0
 41
70.0
 42
70.0
 43
70.0
 50
360.0
  0
MTEXT
  5
1BAF
330
1BA8
100
AcDbEntity
  8
V0-VYPLNE
 62
     0
100
AcDbMText
 10
302.798768
 20
-577.175843
 30
0.0
 40
40.0
 41
0.0
 71
     5
 72
     1
  1
\A1;1030
  7
ED50
  0
POINT
  5
1BB0
330
1BA8
100
AcDbEntity
  8
DEFPOINTS
 62
     0
100
AcDbPoint
 10
-223.7575
 20
-255.291888
 30
0.0
  0
POINT
  5
1BB1
330
1BA8
100
AcDbEntity
  8
DEFPOINTS
 62
     0
100
AcDbPoint
 10
805.875
 20
-255.291888
 30
0.0
  0
POINT
  5
1BB2
330
1BA8
100
AcDbEntity
  8
DEFPOINTS
 62
     0
100
AcDbPoint
 10
805.875
 20
-577.1758430000045
 30
0.0
  0
ENDBLK
  5
1BB4
330
1BA8
100
AcDbEntity
  8
0
100
AcDbBlockEnd
  0
BLOCK
  5
1BBF
330
1BB5
100
AcDbEntity
  8
0
100
AcDbBlockBegin
  2
*D5
 70
     1
 71
     0
 10
0.0
 20
0.0
 30
0.0
  3
*D5
  1

  0
LINE
  5
1BB6
330
1BB5
100
AcDbEntity
  8
V0-VYPLNE
 62
     0
100
AcDbLine
 10
-224.7575
 20
374.708112
 30
0.0
 11
-360.8828599999978
 21
374.708112
 31
0.0
  0
LINE
  5
1BB7
330
1BB5
100
AcDbEntity
  8
V0-VYPLNE
 62
     0
100
AcDbLine
 10
-224.7575
 20
-255.291888
 30
0.0
 11
-360.8828599999979
 21
-255.291888
 31
0.0
  0
LINE
  5
1BB8
330
1BB5
100
AcDbEntity
  8
V0-VYPLNE
 62
     0
100
AcDbLine
 10
-359.6328599999978
 20
304.708112
 30
0.0
 11
-359.632859999998
 21
-185.291888
 31
0.0
  0
INSERT
  5
1BB9
330
1BB5
100
AcDbEntity
  8
V0-VYPLNE
 62
     0
100
AcDbBlockReference
  2
_OPEN
 10
-359.6328599999978
 20
374.708112
 30
0.0
 41
70.0
 42
70.0
 43
70.0
 50
89.99999999999999
  0
INSERT
  5
1BBA
330
1BB5
100
AcDbEntity
  8
V0-VYPLNE
 62
     0
100
AcDbBlockReference
  2
_OPEN
 10
-359.632859999998
 20
-255.291888
 30
0.0
 41
70.0
 42
70.0
 43
70.0
 50
270.0
  0
MTEXT
  5
1BBB
330
1BB5
100
AcDbEntity
  8
V0-VYPLNE
 62
     0
100
AcDbMText
 10
-383.6328599999979
 20
59.70811200000006
 30
0.0
 40
40.0
 41
0.0
 71
     5
 72
     1
  1
%%c\A1;630
  7
ED50
 11
9.022764898540955E-17
 21
1.0
 31
0.0
  0
POINT
  5
1BBC
330
1BB5
100
AcDbEntity
  8
DEFPOINTS
 62
     0
100
AcDbPoint
 10
-223.7575
 20
374.708112
 30
0.0
  0
POINT
  5
1BBD
330
1BB5
100
AcDbEntity
  8
DEFPOINTS
 62
     0
100
AcDbPoint
 10
-223.7575
 20
-255.291888
 30
0.0
  0
POINT
  5
1BBE
330
1BB5
100
AcDbEntity
  8
DEFPOINTS
 62
     0
100
AcDbPoint
 10
-359.6328599999979
 20
-255.291888
 30
0.0
  0
ENDBLK
  5
1BC0
330
1BB5
100
AcDbEntity
  8
0
100
AcDbBlockEnd
  0
BLOCK
  5
1BCC
330
1BC1
100
AcDbEntity
  8
0
100
AcDbBlockBegin
  2
*D6
 70
     1
 71
     0
 10
0.0
 20
0.0
 30
0.0
  3
*D6
  1

  0
LINE
  5
1BC2
330
1BC1
100
AcDbEntity
  8
V0-VYPLNE
 62
     0
100
AcDbLine
 10
659.9579210000001
 20
525.798398
 30
0.0
 11
974.9698989999597
 21
525.7983980000001
 31
0.0
  0
LINE
  5
1BC3
330
1BC1
100
AcDbEntity
  8
V0-VYPLNE
 62
     0
100
AcDbLine
 10
659.9579210000001
 20
-394.401602
 30
0.0
 11
974.9698989999597
 21
-394.401602
 31
0.0
  0
LINE
  5
1BC4
330
1BC1
100
AcDbEntity
  8
V0-VYPLNE
 62
     0
100
AcDbLine
 10
973.7198989999598
 20
455.798398
 30
0.0
 11
973.7198989999598
 21
132.1816274285715
 31
0.0
  0
LINE
  5
1BC5
330
1BC1
100
AcDbEntity
  8
V0-VYPLNE
 62
     0
100
AcDbLine
 10
973.7198989999597
 20
-324.4016020000001
 30
0.0
 11
973.7198989999598
 21
21.32448457142857
 31
0.0
  0
INSERT
  5
1BC6
330
1BC1
100
AcDbEntity
  8
V0-VYPLNE
 62
     0
100
AcDbBlockReference
  2
_OPEN
 10
973.7198989999598
 20
525.798398
 30
0.0
 41
70.0
 42
70.0
 43
70.0
 50
90.0
  0
INSERT
  5
1BC7
330
1BC1
100
AcDbEntity
  8
V0-VYPLNE
 62
     0
100
AcDbBlockReference
  2
_OPEN
 10
973.7198989999597
 20
-394.4016020000001
 30
0.0
 41
70.0
 42
70.0
 43
70.0
 50
270.0
  0
MTEXT
  5
1BC8
330
1BC1
100
AcDbEntity
  8
V0-VYPLNE
 62
     0
100
AcDbMText
 10
973.7198990000001
 20
76.753056
 30
0.0
 40
40.0
 41
0.0
 71
     5
 72
     1
  1
\A1;920
  7
ED50
 11
0.0
 21
1.0
 31
0.0
  0
POINT
  5
1BC9
330
1BC1
100
AcDbEntity
  8
DEFPOINTS
 62
     0
100
AcDbPoint
 10
658.9579210000001
 20
525.798398
 30
0.0
  0
POINT
  5
1BCA
330
1BC1
100
AcDbEntity
  8
DEFPOINTS
 62
     0
100
AcDbPoint
 10
658.9579210000001
 20
-394.401602
 30
0.0
  0
POINT
  5
1BCB
330
1BC1
100
AcDbEntity
  8
DEFPOINTS
 62
     0
100
AcDbPoint
 10
973.7198989999597
 20
-394.401602
 30
0.0
  0
ENDBLK
  5
1BCD
330
1BC1
100
AcDbEntity
  8
0
100
AcDbBlockEnd
  0
BLOCK
  5
1BD9
330
1BCE
100
AcDbEntity
  8
0
100
AcDbBlockBegin
  2
*D7
 70
     1
 71
     0
 10
0.0
 20
0.0
 30
0.0
  3
*D7
  1

  0
LINE
  5
1BCF
330
1BCE
100
AcDbEntity
  8
V0-VYPLNE
 62
     0
100
AcDbLine
 10
1405.565552
 20
-401.391888
 30
0.0
 11
1405.565552
 21
-634.046595999971
 31
0.0
  0
LINE
  5
1BD0
330
1BCE
100
AcDbEntity
  8
V0-VYPLNE
 62
     0
100
AcDbLine
 10
2325.765552
 20
-401.391888
 30
0.0
 11
2325.765552
 21
-634.046595999971
 31
0.0
  0
LINE
  5
1BD1
330
1BCE
100
AcDbEntity
  8
V0-VYPLNE
 62
     0
100
AcDbLine
 10
1475.565552
 20
-632.796595999971
 30
0.0
 11
1828.567071571429
 21
-632.796595999971
 31
0.0
  0
LINE
  5
1BD2
330
1BCE
100
AcDbEntity
  8
V0-VYPLNE
 62
     0
100
AcDbLine
 10
2255.765552
 20
-632.796595999971
 30
0.0
 11
1939.424214428571
 21
-632.796595999971
 31
0.0
  0
INSERT
  5
1BD3
330
1BCE
100
AcDbEntity
  8
V0-VYPLNE
 62
     0
100
AcDbBlockReference
  2
_OPEN
 10
1405.565552
 20
-632.796595999971
 30
0.0
 41
70.0
 42
70.0
 43
70.0
 50
180.0
  0
INSERT
  5
1BD4
330
1BCE
100
AcDbEntity
  8
V0-VYPLNE
 62
     0
100
AcDbBlockReference
  2
_OPEN
 10
2325.765552
 20
-632.796595999971
 30
0.0
 41
70.0
 42
70.0
 43
70.0
  0
MTEXT
  5
1BD5
330
1BCE
100
AcDbEntity
  8
V0-VYPLNE
 62
     0
100
AcDbMText
 10
1883.995643
 20
-632.796596
 30
0.0
 40
40.0
 41
0.0
 71
     5
 72
     1
  1
\A1;920
  7
ED50
  0
POINT
  5
1BD6
330
1BCE
100
AcDbEntity
  8
DEFPOINTS
 62
     0
100
AcDbPoint
 10
1405.565552
 20
-400.391888
 30
0.0
  0
POINT
  5
1BD7
330
1BCE
100
AcDbEntity
  8
DEFPOINTS
 62
     0
100
AcDbPoint
 10
2325.765552
 20
-400.391888
 30
0.0
  0
POINT
  5
1BD8
330
1BCE
100
AcDbEntity
  8
DEFPOINTS
 62
     0
100
AcDbPoint
 10
2325.765552
 20
-632.796595999971
 30
0.0
  0
ENDBLK
  5
1BDA
330
1BCE
100
AcDbEntity
  8
0
100
AcDbBlockEnd
  0
BLOCK
  5
1BE5
330
1BDB
100
AcDbEntity
  8
0
100
AcDbBlockBegin
  2
*D8
 70
     1
 71
     0
 10
0.0
 20
0.0
 30
0.0
  3
*D8
  1

  0
LINE
  5
1BDC
330
1BDB
100
AcDbEntity
  8
V0-ZBYTEK
 62
     0
100
AcDbLine
 10
-169.04125
 20
520.8081120000001
 30
0.0
 11
-169.04125
 21
622.1338039999828
 31
0.0
  0
LINE
  5
1BDD
330
1BDB
100
AcDbEntity
  8
V0-ZBYTEK
 62
     0
100
AcDbLine
 10
751.1587500000001
 20
520.8081120000001
 30
0.0
 11
751.1587500000001
 21
622.1338039999828
 31
0.0
  0
LINE
  5
1BDE
330
1BDB
100
AcDbEntity
  8
V0-ZBYTEK
 62
     0
100
AcDbLine
 10
-99.04124999999999
 20
620.8838039999828
 30
0.0
 11
681.1587500000001
 21
620.8838039999828
 31
0.0
  0
INSERT
  5
1BDF
330
1BDB
100
AcDbEntity
  8
V0-ZBYTEK
 62
     0
100
AcDbBlockReference
  2
_OPEN
 10
-169.04125
 20
620.8838039999828
 30
0.0
 41
70.0
 42
70.0
 43
70.0
 50
180.0
  0
INSERT
  5
1BE0
330
1BDB
100
AcDbEntity
  8
V0-ZBYTEK
 62
     0
100
AcDbBlockReference
  2
_OPEN
 10
751.1587500000001
 20
620.8838039999828
 30
0.0
 41
70.0
 42
70.0
 43
70.0
  0
MTEXT
  5
1BE1
330
1BDB
100
AcDbEntity
  8
V0-ZBYTEK
 62
     0
100
AcDbMText
 10
291.0587500000001
 20
644.8838039999828
 30
0.0
 40
40.0
 41
0.0
 71
     5
 72
     1
  1
\A1;920
  7
ED50
  0
POINT
  5
1BE2
330
1BDB
100
AcDbEntity
  8
DEFPOINTS
 62
     0
100
AcDbPoint
 10
-169.04125
 20
519.8081120000001
 30
0.0
  0
POINT
  5
1BE3
330
1BDB
100
AcDbEntity
  8
DEFPOINTS
 62
     0
100
AcDbPoint
 10
751.1587500000001
 20
519.8081120000001
 30
0.0
  0
POINT
  5
1BE4
330
1BDB
100
AcDbEntity
  8
DEFPOINTS
 62
     0
100
AcDbPoint
 10
751.1587500000001
 20
620.8838039999828
 30
0.0
  0
ENDBLK
  5
1BE6
330
1BDB
100
AcDbEntity
  8
0
100
AcDbBlockEnd
  0
BLOCK
  5
1BF3
330
1BE7
100
AcDbEntity
  8
0
100
AcDbBlockBegin
  2
*D9
 70
     1
 71
     0
 10
0.0
 20
0.0
 30
0.0
  3
*D9
  1

  0
LINE
  5
1BE8
330
1BE7
100
AcDbEntity
  8
V0-ZBYTEK
 62
     0
100
AcDbLine
 10
-169.04125
 20
519.8081120000001
 30
0.0
 11
-169.04125
 21
519.8081120000173
 31
0.0
  0
LINE
  5
1BE9
330
1BE7
100
AcDbEntity
  8
V0-ZBYTEK
 62
     0
100
AcDbLine
 10
-223.7575
 20
375.708112
 30
0.0
 11
-223.7575
 21
521.0581120000173
 31
0.0
  0
LINE
  5
1BEA
330
1BE7
100
AcDbEntity
  8
V0-ZBYTEK
 62
     0
100
AcDbLine
 10
-99.04124999999999
 20
519.8081120000173
 30
0.0
 11
-29.04124999999999
 21
519.8081120000173
 31
0.0
  0
LINE
  5
1BEB
330
1BE7
100
AcDbEntity
  8
V0-ZBYTEK
 62
     0
100
AcDbLine
 10
-293.7575
 20
519.8081120000173
 30
0.0
 11
-436.5194047619048
 21
519.8081120000173
 31
0.0
  0
LINE
  5
1BEC
330
1BE7
100
AcDbEntity
  8
V0-ZBYTEK
 62
     0
100
AcDbLine
 10
-169.04125
 20
519.8081120000173
 30
0.0
 11
-223.7575
 21
519.8081120000173
 31
0.0
  0
INSERT
  5
1BED
330
1BE7
100
AcDbEntity
  8
V0-ZBYTEK
 62
     0
100
AcDbBlockReference
  2
_OPEN
 10
-169.04125
 20
519.8081120000173
 30
0.0
 41
70.0
 42
70.0
 43
70.0
 50
180.0
  0
INSERT
  5
1BEE
330
1BE7
100
AcDbEntity
  8
V0-ZBYTEK
 62
     0
100
AcDbBlockReference
  2
_OPEN
 10
-223.7575
 20
519.8081120000173
 30
0.0
 41
70.0
 42
70.0
 43
70.0
  0
MTEXT
  5
1BEF
330
1BE7
100
AcDbEntity
  8
V0-ZBYTEK
 62
     0
100
AcDbMText
 10
-400.1384523809523
 20
543.8081120000173
 30
0.0
 40
40.0
 41
0.0
 71
     5
 72
     1
  1
\A1;55
  7
ED50
  0
POINT
  5
1BF0
330
1BE7
100
AcDbEntity
  8
DEFPOINTS
 62
     0
100
AcDbPoint
 10
-169.04125
 20
519.8081120000001
 30
0.0
  0
POINT
  5
1BF1
330
1BE7
100
AcDbEntity
  8
DEFPOINTS
 62
     0
100
AcDbPoint
 10
-223.7575
 20
374.708112
 30
0.0
  0
POINT
  5
1BF2
330
1BE7
100
AcDbEntity
  8
DEFPOINTS
 62
     0
100
AcDbPoint
 10
-223.7575
 20
519.8081120000173
 30
0.0
  0
ENDBLK
  5
1BF4
330
1BE7
100
AcDbEntity
  8
0
100
AcDbBlockEnd
  0
BLOCK
  5
1BFF
330
1BF5
100
AcDbEntity
  8
0
100
AcDbBlockBegin
  2
*D10
 70
     1
 71
     0
 10
0.0
 20
0.0
 30
0.0
  3
*D10
  1

  0
LINE
  5
1BF6
330
1BF5
100
AcDbEntity
  8
V0-ZBYTEK
 62
     0
100
AcDbLine
 10
-249.04125
 20
-481.391888
 30
0.0
 11
-249.04125
 21
-686.4888049999717
 31
0.0
  0
LINE
  5
1BF7
330
1BF5
100
AcDbEntity
  8
V0-ZBYTEK
 62
     0
100
AcDbLine
 10
830.95875
 20
-481.391888
 30
0.0
 11
830.95875
 21
-686.4888049999718
 31
0.0
  0
LINE
  5
1BF8
330
1BF5
100
AcDbEntity
  8
V0-ZBYTEK
 62
     0
100
AcDbLine
 10
-179.04125
 20
-685.2388049999717
 30
0.0
 11
760.95875
 21
-685.2388049999718
 31
0.0
  0
INSERT
  5
1BF9
330
1BF5
100
AcDbEntity
  8
V0-ZBYTEK
 62
     0
100
AcDbBlockReference
  2
_OPEN
 10
-249.04125
 20
-685.2388049999717
 30
0.0
 41
70.0
 42
70.0
 43
70.0
 50
180.0
  0
INSERT
  5
1BFA
330
1BF5
100
AcDbEntity
  8
V0-ZBYTEK
 62
     0
100
AcDbBlockReference
  2
_OPEN
 10
830.95875
 20
-685.2388049999718
 30
0.0
 41
70.0
 42
70.0
 43
70.0
 50
360.0
  0
MTEXT
  5
1BFB
330
1BF5
100
AcDbEntity
  8
V0-ZBYTEK
 62
     0
100
AcDbMText
 10
290.9587499999999
 20
-661.2388049999718
 30
0.0
 40
40.0
 41
0.0
 71
     5
 72
     1
  1
\A1;1080
  7
ED50
  0
POINT
  5
1BFC
330
1BF5
100
AcDbEntity
  8
DEFPOINTS
 62
     0
100
AcDbPoint
 10
-249.04125
 20
-480.391888
 30
0.0
  0
POINT
  5
1BFD
330
1BF5
100
AcDbEntity
  8
DEFPOINTS
 62
     0
100
AcDbPoint
 10
830.95875
 20
-480.391888
 30
0.0
  0
POINT
  5
1BFE
330
1BF5
100
AcDbEntity
  8
DEFPOINTS
 62
     0
100
AcDbPoint
 10
830.95875
 20
-685.2388049999718
 30
0.0
  0
ENDBLK
  5
1C00
330
1BF5
100
AcDbEntity
  8
0
100
AcDbBlockEnd
  0
ENDSEC
  0
SECTION
  2
ENTITIES
  0
LINE
  5
D86
330
1B77
100
AcDbEntity
  8
V0-VYPLNE
 48
3.0
100
AcDbLine
 10
-248.867851
 20
59.708112
 30
0.0
 11
813.0671030000001
 21
59.708112
 31
0.0
  0
LINE
  5
D87
330
1B77
100
AcDbEntity
  8
V0-VYPLNE
 48
3.0
100
AcDbLine
 10
1172.240846
 20
59.708112
 30
0.0
 11
2575.685026
 21
59.708112
 31
0.0
  0
LINE
  5
D88
330
1B77
100
AcDbEntity
  8
V0-VYPLNE
 48
3.0
100
AcDbLine
 10
1865.665552
 20
736.698997
 30
0.0
 11
1865.665552
 21
-621.9238460000001
 31
0.0
  0
LINE
  5
D89
330
1B77
100
AcDbEntity
  8
V0-VYPLNE
 48
3.0
100
AcDbLine
 10
-126.45775
 20
427.788112
 30
0.0
 11
-4.141720000000007
 21
427.788112
 31
0.0
  0
LINE
  5
D8A
330
1B77
100
AcDbEntity
  8
V0-VYPLNE
 48
3.0
100
AcDbLine
 10
-121.995072
 20
-308.371888
 30
0.0
 11
11.50582499999999
 21
-308.371888
 31
0.0
  0
LINE
  5
D8B
330
1B77
100
AcDbEntity
  8
V0-VYPLNE
 48
3.0
100
AcDbLine
 10
-77.02125
 20
477.010805
 30
0.0
 11
-77.02125
 21
313.000166
 31
0.0
  0
LINE
  5
D8D
330
1B77
100
AcDbEntity
  8
V0-VYPLNE
 48
3.0
100
AcDbLine
 10
659.13875
 20
477.010805
 30
0.0
 11
659.13875
 21
308.542736
 31
0.0
  0
LINE
  5
D8E
330
1B77
100
AcDbEntity
  8
V0-VYPLNE
 48
3.0
100
AcDbLine
 10
1497.585552
 20
477.010805
 30
0.0
 11
1497.585552
 21
352.401056
 31
0.0
  0
LINE
  5
D90
330
1B77
100
AcDbEntity
  8
V0-OBRYS
  6
CONTINUOUS
 62
    90
 48
3.0
100
AcDbLine
 10
-169.04125
 20
519.8081120000001
 30
0.0
 11
-169.04125
 21
-400.391888
 31
0.0
  0
LINE
  5
D92
330
1B77
100
AcDbEntity
  8
V0-OBRYS
  6
CONTINUOUS
 62
    90
 48
3.0
100
AcDbLine
 10
-169.04125
 20
519.8081120000001
 30
0.0
 11
751.1587500000001
 21
519.8081120000001
 31
0.0
  0
LINE
  5
D93
330
1B77
100
AcDbEntity
  8
V0-OBRYS
  6
CONTINUOUS
 62
    90
 48
3.0
100
AcDbLine
 10
-169.04125
 20
-400.391888
 30
0.0
 11
751.1587500000001
 21
-400.391888
 31
0.0
  0
LINE
  5
D94
330
1B77
100
AcDbEntity
  8
V0-OBRYS
  6
CONTINUOUS
 62
    90
 48
3.0
100
AcDbLine
 10
751.1587500000001
 20
519.8081120000001
 30
0.0
 11
751.1587500000001
 21
-400.391888
 31
0.0
  0
LINE
  5
D95
330
1B77
100
AcDbEntity
  8
V0-OBRYS
  6
CONTINUOUS
 62
    90
 48
3.0
100
AcDbLine
 10
1405.565552
 20
519.8081120000001
 30
0.0
 11
1405.565552
 21
-400.391888
 31
0.0
  0
LINE
  5
D96
330
1B77
100
AcDbEntity
  8
V0-OBRYS
  6
CONTINUOUS
 62
    90
 48
3.0
100
AcDbLine
 10
2325.765552
 20
519.8081120000001
 30
0.0
 11
2325.765552
 21
-400.391888
 31
0.0
  0
LINE
  5
D97
330
1B77
100
AcDbEntity
  8
V0-OBRYS
  6
CONTINUOUS
 62
    90
 48
3.0
100
AcDbLine
 10
1405.565552
 20
519.8081120000001
 30
0.0
 11
2325.765552
 21
519.8081120000001
 31
0.0
  0
LINE
  5
D98
330
1B77
100
AcDbEntity
  8
V0-VYPLNE
 48
3.0
100
AcDbLine
 10
1470.110422
 20
427.788112
 30
0.0
 11
1551.899625
 21
427.788112
 31
0.0
  0
LINE
  5
D99
330
1B77
100
AcDbEntity
  8
V0-VYPLNE
 48
3.0
100
AcDbLine
 10
1472.341761
 20
-308.371888
 30
0.0
 11
1560.049394
 21
-308.371888
 31
0.0
  0
LINE
  5
D9A
330
1B77
100
AcDbEntity
  8
V0-OBRYS
  6
CONTINUOUS
 62
    90
 48
3.0
100
AcDbLine
 10
1405.565552
 20
-400.391888
 30
0.0
 11
2325.765552
 21
-400.391888
 31
0.0
  0
LINE
  5
D9B
330
1B77
100
AcDbEntity
  8
V0-OBRYS
  6
CONTINUOUS
 62
    90
 48
3.0
100
AcDbLine
 10
-146.03625
 20
496.803112
 30
0.0
 11
728.15375
 21
496.803112
 31
0.0
  0
LINE
  5
D9C
330
1B77
100
AcDbEntity
  8
V0-OBRYS
  6
CONTINUOUS
 62
    90
 48
3.0
100
AcDbLine
 10
-146.03625
 20
-377.386888
 30
0.0
 11
728.15375
 21
-377.386888
 31
0.0
  0
LINE
  5
D9E
330
1B77
100
AcDbEntity
  8
V0-OBRYS
  6
CONTINUOUS
 62
    90
 48
3.0
100
AcDbLine
 10
-146.03625
 20
519.8081120000001
 30
0.0
 11
-146.03625
 21
-400.391888
 31
0.0
  0
LINE
  5
D9F
330
1B77
100
AcDbEntity
  8
V0-OBRYS
  6
CONTINUOUS
 62
    90
 48
3.0
100
AcDbLine
 10
728.15375
 20
519.8081120000001
 30
0.0
 11
728.15375
 21
-400.391888
 31
0.0
  0
LINE
  5
DA0
330
1B77
100
AcDbEntity
  8
V0-OBRYS
  6
CONTINUOUS
 62
    90
 48
3.0
100
AcDbLine
 10
1428.570552
 20
496.803112
 30
0.0
 11
1428.570552
 21
-377.3868880000001
 31
0.0
  0
LINE
  5
DA1
330
1B77
100
AcDbEntity
  8
V0-OBRYS
  6
CONTINUOUS
 62
    90
 48
3.0
100
AcDbLine
 10
1428.570552
 20
496.803112
 30
0.0
 11
2302.760552
 21
496.803112
 31
0.0
  0
LINE
  5
DA2
330
1B77
100
AcDbEntity
  8
V0-OBRYS
  6
CONTINUOUS
 62
    90
 48
3.0
100
AcDbLine
 10
2302.760552
 20
496.803112
 30
0.0
 11
2302.760552
 21
-377.3868880000001
 31
0.0
  0
LINE
  5
DA3
330
1B77
100
AcDbEntity
  8
V0-OBRYS
  6
CONTINUOUS
 62
    90
 48
3.0
100
AcDbLine
 10
1428.570552
 20
-377.386888
 30
0.0
 11
2302.760552
 21
-377.386888
 31
0.0
  0
LINE
  5
DA4
330
1B77
100
AcDbEntity
  8
V0-VYPLNE
 48
3.0
100
AcDbLine
 10
469.134694
 20
-307.605396
 30
0.0
 11
759.085135
 21
-307.605396
 31
0.0
  0
LINE
  5
DA5
330
1B77
100
AcDbEntity
  8
V0-VYPLNE
 48
3.0
100
AcDbLine
 10
621.8413000000001
 20
428.554604
 30
0.0
 11
754.6224570000001
 21
428.554604
 31
0.0
  0
LINE
  5
DA6
330
1B77
100
AcDbEntity
  8
V0-VYPLNE
 48
3.0
100
AcDbLine
 10
2203.282364
 20
427.788112
 30
0.0
 11
2254.257426
 21
427.788112
 31
0.0
  0
LINE
  5
DA7
330
1B77
100
AcDbEntity
  8
V0-VYPLNE
 48
3.0
100
AcDbLine
 10
2171.281703
 20
-308.371888
 30
0.0
 11
2285.245038
 21
-308.371888
 31
0.0
  0
LINE
  5
DA8
330
1B77
100
AcDbEntity
  8
V0-VYPLNE
 48
3.0
100
AcDbLine
 10
2233.745552
 20
496.803112
 30
0.0
 11
2233.745552
 21
360.544104
 31
0.0
  0
LINE
  5
DA9
330
1B77
100
AcDbEntity
  8
V0-VYPLNE
 48
3.0
100
AcDbLine
 10
-77.02125
 20
-279.007177
 30
0.0
 11
-77.02125
 21
-355.670621
 31
0.0
  0
LINE
  5
DAA
330
1B77
100
AcDbEntity
  8
V0-VYPLNE
 48
3.0
100
AcDbLine
 10
659.13875
 20
-284.218726
 30
0.0
 11
659.13875
 21
-335.84666
 31
0.0
  0
LINE
  5
DAB
330
1B77
100
AcDbEntity
  8
V0-VYPLNE
 48
3.0
100
AcDbLine
 10
1497.585552
 20
-225.755368
 30
0.0
 11
1497.585552
 21
-364.199046
 31
0.0
  0
CIRCLE
  5
DAD
330
1B77
100
AcDbEntity
  8
V0-OBRYS
 48
3.0
100
AcDbCircle
 10
1865.665552
 20
59.708112
 30
0.0
 40
315.292479
  0
CIRCLE
  5
DB0
330
1B77
100
AcDbEntity
  8
V0-OBRYS
 48
3.0
100
AcDbCircle
 10
-77.02125
 20
427.788112
 30
0.0
 40
5.75125
  0
CIRCLE
  5
DB1
330
1B77
100
AcDbEntity
  8
V0-OBRYS
 48
3.0
100
AcDbCircle
 10
659.13875
 20
427.788112
 30
0.0
 40
5.75125
  0
CIRCLE
  5
DB2
330
1B77
100
AcDbEntity
  8
V0-OBRYS
 48
3.0
100
AcDbCircle
 10
-78.13811
 20
-308.371888
 30
0.0
 40
5.75125
  0
CIRCLE
  5
DB3
330
1B77
100
AcDbEntity
  8
V0-OBRYS
 48
3.0
100
AcDbCircle
 10
657.783856
 20
-308.371888
 30
0.0
 40
5.75125
  0
CIRCLE
  5
DB4
330
1B77
100
AcDbEntity
  8
V0-OBRYS
 48
3.0
100
AcDbCircle
 10
1496.540743
 20
427.788112
 30
0.0
 40
5.75125
  0
CIRCLE
  5
DB5
330
1B77
100
AcDbEntity
  8
V0-OBRYS
 48
3.0
100
AcDbCircle
 10
2234.521145
 20
427.788112
 30
0.0
 40
5.75125
  0
CIRCLE
  5
DB6
330
1B77
100
AcDbEntity
  8
V0-OBRYS
 48
3.0
100
AcDbCircle
 10
2233.745552
 20
-308.371888
 30
0.0
 40
5.75125
  0
CIRCLE
  5
DB7
330
1B77
100
AcDbEntity
  8
V0-OBRYS
 48
3.0
100
AcDbCircle
 10
1497.585552
 20
-309.057181
 30
0.0
 40
5.75125
  0
CIRCLE
  5
DBB
330
1B77
100
AcDbEntity
  8
V0-OBRYS
 48
3.0
100
AcDbCircle
 10
1865.665552
 20
414.412151
 30
0.0
 40
13.137187
  0
LINE
  5
DC7
330
1B77
100
AcDbEntity
  8
V0-OBRYS
 48
3.0
100
AcDbLine
 10
1708.019313
 20
335.589032
 30
0.0
 11
2023.311792
 21
335.589032
 31
0.0
  0
LINE
  5
DC8
330
1B77
100
AcDbEntity
  8
V0-OBRYS
 48
3.0
100
AcDbLine
 10
1589.784633
 20
-97.93812800000001
 30
0.0
 11
1589.784633
 21
217.354352
 31
0.0
  0
LINE
  5
DC9
330
1B77
100
AcDbEntity
  8
V0-OBRYS
 48
3.0
100
AcDbLine
 10
2023.311792
 20
-216.172807
 30
0.0
 11
1708.019313
 21
-216.172807
 31
0.0
  0
LINE
  5
DCA
330
1B77
100
AcDbEntity
  8
V0-OBRYS
 48
3.0
100
AcDbLine
 10
2141.546472
 20
217.354352
 30
0.0
 11
2141.546472
 21
-97.93812800000001
 31
0.0
  0
CIRCLE
  5
DCC
330
1B77
100
AcDbEntity
  8
V0-OBRYS
 48
3.0
100
AcDbCircle
 10
1865.665552
 20
59.708112
 30
0.0
 40
63.058496
  0
CIRCLE
  5
DCD
330
1B77
100
AcDbEntity
  8
V0-OBRYS
 48
3.0
100
AcDbCircle
 10
1865.665552
 20
59.708112
 30
0.0
 40
78.82312
  0
CIRCLE
  5
DCE
330
1B77
100
AcDbEntity
  8
V0-OBRYS
 48
3.0
100
AcDbCircle
 10
1865.665552
 20
59.708112
 30
0.0
 40
110.352368
  0
LINE
  5
DCF
330
1B77
100
AcDbEntity
  8
V0-OBRYS
 48
3.0
100
AcDbLine
 10
-223.7575
 20
-255.291888
 30
0.0
 11
-223.7575
 21
374.708112
 31
0.0
  0
LINE
  5
DD1
330
1B77
100
AcDbEntity
  8
V0-OBRYS
 48
3.0
100
AcDbLine
 10
-223.7575
 20
-255.291888
 30
0.0
 11
-212.255
 21
-255.291888
 31
0.0
  0
LINE
  5
DD3
330
1B77
100
AcDbEntity
  8
V0-OBRYS
 48
3.0
100
AcDbLine
 10
-223.7575
 20
374.708112
 30
0.0
 11
-212.255
 21
374.708112
 31
0.0
  0
LINE
  5
DD4
330
1B77
100
AcDbEntity
  8
V0-OBRYS
 48
3.0
100
AcDbLine
 10
-212.255
 20
374.708112
 30
0.0
 11
-212.255
 21
-255.291888
 31
0.0
  0
LINE
  5
DD6
330
1B77
100
AcDbEntity
  8
V0-OBRYS
 48
3.0
100
AcDbLine
 10
-200.7525
 20
-255.291888
 30
0.0
 11
-200.7525
 21
374.708112
 31
0.0
  0
ARC
  5
DD9
330
1B77
100
AcDbEntity
  8
V0-OBRYS
 48
3.0
100
AcDbCircle
 10
-206.50375
 20
374.708112
 30
0.0
 40
5.75125
100
AcDbArc
 50
0.0
 51
180.0
  0
ARC
  5
DDA
330
1B77
100
AcDbEntity
  8
V0-OBRYS
 48
3.0
100
AcDbCircle
 10
-206.50375
 20
-255.291888
 30
0.0
 40
5.75125
100
AcDbArc
 50
180.0
 51
0.0
  0
LINE
  5
DDB
330
1B77
100
AcDbEntity
  8
V0-OBRYS
 48
3.0
100
AcDbLine
 10
-200.7525
 20
374.708112
 30
0.0
 11
-169.04125
 21
374.708112
 31
0.0
  0
LINE
  5
DDC
330
1B77
100
AcDbEntity
  8
V0-OBRYS
 48
3.0
100
AcDbLine
 10
-200.7525
 20
-255.291888
 30
0.0
 11
-169.04125
 21
-255.291888
 31
0.0
  0
LINE
  5
DDE
330
1B77
100
AcDbEntity
  8
V0-OBRYS
 48
3.0
100
AcDbLine
 10
782.87
 20
-255.291888
 30
0.0
 11
782.87
 21
374.708112
 31
0.0
  0
LINE
  5
DDF
330
1B77
100
AcDbEntity
  8
V0-OBRYS
 48
3.0
100
AcDbLine
 10
794.3725
 20
374.708112
 30
0.0
 11
794.3725
 21
-255.291888
 31
0.0
  0
LINE
  5
DE0
330
1B77
100
AcDbEntity
  8
V0-OBRYS
 48
3.0
100
AcDbLine
 10
805.875
 20
-255.291888
 30
0.0
 11
805.875
 21
374.708112
 31
0.0
  0
LINE
  5
DE1
330
1B77
100
AcDbEntity
  8
V0-OBRYS
 48
3.0
100
AcDbLine
 10
782.87
 20
-255.291888
 30
0.0
 11
751.1587500000001
 21
-255.291888
 31
0.0
  0
LINE
  5
DE2
330
1B77
100
AcDbEntity
  8
V0-OBRYS
 48
3.0
100
AcDbLine
 10
805.875
 20
-255.291888
 30
0.0
 11
794.3725
 21
-255.291888
 31
0.0
  0
ARC
  5
DE3
330
1B77
100
AcDbEntity
  8
V0-OBRYS
 48
3.0
100
AcDbCircle
 10
788.62125
 20
-255.291888
 30
0.0
 40
5.75125
100
AcDbArc
 50
180.0
 51
360.0
  0
LINE
  5
DE4
330
1B77
100
AcDbEntity
  8
V0-OBRYS
 48
3.0
100
AcDbLine
 10
782.87
 20
374.708112
 30
0.0
 11
751.1587500000001
 21
374.708112
 31
0.0
  0
LINE
  5
DE5
330
1B77
100
AcDbEntity
  8
V0-OBRYS
 48
3.0
100
AcDbLine
 10
805.875
 20
374.708112
 30
0.0
 11
794.3725
 21
374.708112
 31
0.0
  0
ARC
  5
DE6
330
1B77
100
AcDbEntity
  8
V0-OBRYS
 48
3.0
100
AcDbCircle
 10
788.62125
 20
374.708112
 30
0.0
 40
5.75125
100
AcDbArc
 50
360.0
 51
180.0
  0
LINE
  5
DE7
330
1B77
100
AcDbEntity
  8
V0-VYPLNE
  6
DASHED
 48
3.0
100
AcDbLine
 10
-124.226411
 20
372.958385
 30
0.0
 11
-124.226411
 21
59.74894699999999
 31
0.0
  0
LINE
  5
DE8
330
1B77
100
AcDbEntity
  8
V0-VYPLNE
  6
DASHED
 48
3.0
100
AcDbLine
 10
322.263775
 20
372.958385
 30
0.0
 11
322.263775
 21
59.74894699999999
 31
0.0
  0
LINE
  5
DE9
330
1B77
100
AcDbEntity
  8
V0-VYPLNE
  6
DASHED
 48
3.0
100
AcDbLine
 10
-124.226411
 20
372.958385
 30
0.0
 11
322.263797
 21
372.958385
 31
0.0
  0
LINE
  5
DEA
330
1B77
100
AcDbEntity
  8
V0-VYPLNE
  6
DASHED
 48
3.0
100
AcDbLine
 10
320.032458
 20
315.228881
 30
0.0
 11
373.584664
 21
315.228881
 31
0.0
  0
LINE
  5
DEB
330
1B77
100
AcDbEntity
  8
V0-VYPLNE
  6
DASHED
 48
3.0
100
AcDbLine
 10
373.584664
 20
315.228881
 30
0.0
 11
660.666142
 21
-195.812657
 31
0.0
  0
LINE
  5
DEC
330
1B77
100
AcDbEntity
  8
V0-VYPLNE
  6
DASHED
 48
3.0
100
AcDbLine
 10
-124.226411
 20
-253.542161
 30
0.0
 11
-124.226411
 21
59.66727699999998
 31
0.0
  0
LINE
  5
DED
330
1B77
100
AcDbEntity
  8
V0-VYPLNE
  6
DASHED
 48
3.0
100
AcDbLine
 10
-124.226411
 20
-253.542161
 30
0.0
 11
322.263797
 21
-253.542161
 31
0.0
  0
LINE
  5
DEE
330
1B77
100
AcDbEntity
  8
V0-VYPLNE
  6
DASHED
 48
3.0
100
AcDbLine
 10
320.032458
 20
-195.812657
 30
0.0
 11
660.666142
 21
-195.812657
 31
0.0
  0
LINE
  5
DEF
330
1B77
100
AcDbEntity
  8
V0-VYPLNE
  6
DASHED
 48
3.0
100
AcDbLine
 10
322.263775
 20
-253.542161
 30
0.0
 11
322.263775
 21
59.66727699999998
 31
0.0
  0
LINE
  5
DF0
330
1B77
100
AcDbEntity
  8
V0-VYPLNE
  6
DASHED
 48
3.0
100
AcDbLine
 10
333.420493
 20
19.632128
 30
0.0
 11
415.980152
 21
19.632128
 31
0.0
  0
LINE
  5
DF1
330
1B77
100
AcDbEntity
  8
V0-VYPLNE
  6
DASHED
 48
3.0
100
AcDbLine
 10
415.980152
 20
19.632128
 30
0.0
 11
415.980152
 21
-189.044841
 31
0.0
  0
LINE
  5
DF2
330
1B77
100
AcDbEntity
  8
V0-VYPLNE
  6
DASHED
 48
3.0
100
AcDbLine
 10
415.980152
 20
-189.044841
 30
0.0
 11
335.651855
 21
-189.044841
 31
0.0
  0
LINE
  5
DF3
330
1B77
100
AcDbEntity
  8
V0-VYPLNE
  6
DASHED
 48
3.0
100
AcDbLine
 10
335.651855
 20
-189.044841
 30
0.0
 11
335.651855
 21
19.63212799999999
 31
0.0
  0
LINE
  5
DF6
330
1B77
100
AcDbEntity
  8
V0-VYPLNE
  6
DASHED
 48
3.0
100
AcDbLine
 10
-115.301032
 20
148.897457
 30
0.0
 11
308.87574
 21
148.897457
 31
0.0
  0
LINE
  5
DF7
330
1B77
100
AcDbEntity
  8
V0-VYPLNE
  6
DASHED
 48
3.0
100
AcDbLine
 10
-115.301032
 20
43.086445
 30
0.0
 11
308.87574
 21
43.086445
 31
0.0
  0
LINE
  5
DF8
330
1B77
100
AcDbEntity
  8
V0-VYPLNE
  6
DASHED
 48
3.0
100
AcDbLine
 10
-122.207609
 20
-47.070262
 30
0.0
 11
301.969164
 21
-47.070262
 31
0.0
  0
LINE
  5
DF9
330
1B77
100
AcDbEntity
  8
V0-VYPLNE
  6
DASHED
 48
3.0
100
AcDbLine
 10
308.87574
 20
372.958385
 30
0.0
 11
308.87574
 21
-253.4604909999999
 31
0.0
  0
LINE
  5
DFA
330
1B77
100
AcDbEntity
  8
V0-VYPLNE
  6
DASHED
 48
3.0
100
AcDbLine
 10
-115.301032
 20
375.1871
 30
0.0
 11
-115.301032
 21
-253.4604909999999
 31
0.0
  0
LINE
  5
DFB
330
1B77
100
AcDbEntity
  8
V0-VYPLNE
  6
DASHED
 48
3.0
100
AcDbLine
 10
378.047343
 20
304.085316
 30
0.0
 11
728.5898120000001
 21
304.085316
 31
0.0
  0
LINE
  5
DFC
330
1B77
100
AcDbEntity
  8
V0-VYPLNE
  6
DASHED
 48
3.0
100
AcDbLine
 10
653.321178
 20
-184.587411
 30
0.0
 11
730.821151
 21
-184.587411
 31
0.0
  0
LINE
  5
DFF
330
1B77
100
AcDbEntity
  8
V0-OBRYS
  6
CONTINUOUS
 62
    90
 48
3.0
100
AcDbLine
 10
766.806291
 20
-769.577278
 30
0.0
 11
766.806291
 21
-1689.777278
 31
0.0
  0
LINE
  5
E00
330
1B77
100
AcDbEntity
  8
V0-OBRYS
  6
CONTINUOUS
 62
    90
 48
3.0
100
AcDbLine
 10
-153.393709
 20
-769.577278
 30
0.0
 11
-153.393709
 21
-1689.777278
 31
0.0
  0
LINE
  5
E01
330
1B77
100
AcDbEntity
  8
V0-OBRYS
  6
CONTINUOUS
 62
    90
 48
3.0
100
AcDbLine
 10
-153.393709
 20
-1689.777278
 30
0.0
 11
766.8062910000001
 21
-1689.777278
 31
0.0
  0
LINE
  5
E07
330
1B77
100
AcDbEntity
  8
V0-VYPLNE
 48
3.0
100
AcDbLine
 10
-233.220309
 20
-1229.677278
 30
0.0
 11
828.7146439999999
 21
-1229.677278
 31
0.0
  0
LINE
  5
E0D
330
1B77
100
AcDbEntity
  8
V0-OBRYS
  6
CONTINUOUS
 62
    90
 48
3.0
100
AcDbLine
 10
-153.393709
 20
-769.577278
 30
0.0
 11
766.8062910000001
 21
-769.577278
 31
0.0
  0
LINE
  5
E10
330
1B77
100
AcDbEntity
  8
V0-OBRYS
 48
3.0
100
AcDbLine
 10
-189.104959
 20
-1544.177278
 30
5.0
 11
-189.104959
 21
-914.677278
 31
0.0
  0
LINE
  5
E11
330
1B77
100
AcDbEntity
  8
V0-OBRYS
 48
3.0
100
AcDbLine
 10
-196.607459
 20
-914.677278
 30
0.0
 11
-196.607459
 21
-1544.177278
 31
5.0
  0
LINE
  5
E12
330
1B77
100
AcDbEntity
  8
V0-OBRYS
 48
3.0
100
AcDbLine
 10
-208.109959
 20
-1544.177278
 30
5.0
 11
-208.109959
 21
-914.677278
 31
0.0
  0
LINE
  5
E14
330
1B77
100
AcDbEntity
  8
V0-OBRYS
 48
3.0
100
AcDbLine
 10
-189.104959
 20
-1544.177278
 30
5.0
 11
-153.393709
 21
-1544.177278
 31
5.0
  0
LINE
  5
E15
330
1B77
100
AcDbEntity
  8
V0-OBRYS
 48
3.0
100
AcDbLine
 10
-208.109959
 20
-1544.177278
 30
5.0
 11
-196.607459
 21
-1544.177278
 31
5.0
  0
ARC
  5
E16
330
1B77
100
AcDbEntity
  8
V0-OBRYS
 48
3.0
100
AcDbCircle
 10
-192.856209
 20
-1545.829528
 30
5.0
 40
4.099
100
AcDbArc
 50
156.228762
 51
23.771238
  0
LINE
  5
E19
330
1B77
100
AcDbEntity
  8
V0-OBRYS
 48
3.0
100
AcDbLine
 10
-189.104959
 20
-914.677278
 30
0.0
 11
-153.393709
 21
-914.677278
 31
0.0
  0
LINE
  5
E1A
330
1B77
100
AcDbEntity
  8
V0-OBRYS
 48
3.0
100
AcDbLine
 10
-208.109959
 20
-914.677278
 30
0.0
 11
-196.607459
 21
-914.677278
 31
0.0
  0
ARC
  5
E1B
330
1B77
100
AcDbEntity
  8
V0-OBRYS
 48
3.0
100
AcDbCircle
 10
-192.856209
 20
-913.025029
 30
0.0
 40
4.099
100
AcDbArc
 50
336.228762
 51
203.771238
  0
LINE
  5
E20
330
1B77
100
AcDbEntity
  8
V0-OBRYS
 48
3.0
100
AcDbLine
 10
821.5225410000001
 20
-1544.177278
 30
5.0
 11
821.5225410000001
 21
-914.677278
 31
0.0
  0
LINE
  5
E21
330
1B77
100
AcDbEntity
  8
V0-OBRYS
 48
3.0
100
AcDbLine
 10
810.020041
 20
-914.677278
 30
0.0
 11
810.020041
 21
-1544.177278
 31
5.0
  0
LINE
  5
E22
330
1B77
100
AcDbEntity
  8
V0-OBRYS
 48
3.0
100
AcDbLine
 10
798.5175410000001
 20
-1544.177278
 30
5.0
 11
798.5175410000001
 21
-914.677278
 31
0.0
  0
LINE
  5
E2B
330
1B77
100
AcDbEntity
  8
V0-OBRYS
 48
3.0
100
AcDbLine
 10
798.5175410000001
 20
-1544.177278
 30
5.0
 11
766.806291
 21
-1544.177278
 31
5.0
  0
ARC
  5
E2D
330
1B77
100
AcDbEntity
  8
V0-OBRYS
 48
3.0
100
AcDbCircle
 10
804.268791
 20
-1544.177278
 30
5.0
 40
5.75125
100
AcDbArc
 50
180.0
 51
360.0
  0
LINE
  5
E2E
330
1B77
100
AcDbEntity
  8
V0-OBRYS
 48
3.0
100
AcDbLine
 10
821.5225410000001
 20
-1544.177278
 30
5.0
 11
810.020041
 21
-1544.177278
 31
5.0
  0
LINE
  5
E33
330
1B77
100
AcDbEntity
  8
V0-OBRYS
 48
3.0
100
AcDbLine
 10
798.5175410000001
 20
-914.677278
 30
0.0
 11
766.806291
 21
-914.677278
 31
0.0
  0
ARC
  5
E34
330
1B77
100
AcDbEntity
  8
V0-OBRYS
 48
3.0
100
AcDbCircle
 10
804.268791
 20
-914.677278
 30
0.0
 40
5.75125
100
AcDbArc
 50
360.0
 51
180.0
  0
LINE
  5
E35
330
1B77
100
AcDbEntity
  8
V0-OBRYS
 48
3.0
100
AcDbLine
 10
821.5225410000001
 20
-914.677278
 30
0.0
 11
810.020041
 21
-914.677278
 31
0.0
  0
DIMENSION
  5
E5F
330
1B77
100
AcDbEntity
  8
V0-VYPLNE
  6
CONTINUOUS
 62
    41
 48
3.0
100
AcDbDimension
  2
*D4
 10
805.875
 20
-577.1758430000045
 30
0.0
 11
302.798768
 21
-577.175843
 31
0.0
 70
   160
  3
ED70
100
AcDbAlignedDimension
 13
-223.7575
 23
-255.291888
 33
0.0
 14
805.875
 24
-255.291888
 34
0.0
100
AcDbRotatedDimension
1001
ACAD
1000
DSTYLE
1002
{
1070
    41
1040
70.0
1002
}
  0
DIMENSION
  5
E6C
330
1B77
100
AcDbEntity
  8
V0-VYPLNE
  6
CONTINUOUS
 62
    41
 48
3.0
100
AcDbDimension
  2
*D5
 10
-359.6328599999979
 20
-255.291888
 30
0.0
 11
-383.6328599999979
 21
59.70811200000006
 31
0.0
 70
    32
  1
%%c<>
  3
ED70
100
AcDbAlignedDimension
 13
-223.7575
 23
374.708112
 33
0.0
 14
-223.7575
 24
-255.291888
 34
0.0
 50
90.0
100
AcDbRotatedDimension
1001
ACAD
1000
DSTYLE
1002
{
1070
    41
1040
70.0
1002
}
  0
DIMENSION
  5
E79
330
1B77
100
AcDbEntity
  8
V0-VYPLNE
  6
CONTINUOUS
 62
    41
 48
3.0
100
AcDbDimension
  2
*D6
 10
973.7198989999597
 20
-394.401602
 30
0.0
 11
973.7198990000001
 21
76.753056
 31
0.0
 70
   160
  3
ED70
100
AcDbAlignedDimension
 13
658.9579210000001
 23
525.798398
 33
0.0
 14
658.9579210000001
 24
-394.401602
 34
0.0
 50
90.0
100
AcDbRotatedDimension
1001
ACAD
1000
DSTYLE
1002
{
1070
    41
1040
70.0
1002
}
  0
DIMENSION
  5
EA0
330
1B77
100
AcDbEntity
  8
V0-VYPLNE
  6
CONTINUOUS
 62
    41
 48
3.0
100
AcDbDimension
  2
*D7
 10
2325.765552
 20
-632.796595999971
 30
0.0
 11
1883.995643
 21
-632.796596
 31
0.0
 70
   160
  3
ED70
100
AcDbAlignedDimension
 13
1405.565552
 23
-400.391888
 33
0.0
 14
2325.765552
 24
-400.391888
 34
0.0
100
AcDbRotatedDimension
1001
ACAD
1000
DSTYLE
1002
{
1070
    41
1040
70.0
1002
}
  0
LINE
  5
EBD
330
1B77
100
AcDbEntity
  8
V0-VYPLNE
  6
DASHED
 48
3.0
100
AcDbLine
 10
-108.578869
 20
-916.427005
 30
0.0
 11
337.911339
 21
-916.427005
 31
0.0
  0
LINE
  5
EBE
330
1B77
100
AcDbEntity
  8
V0-VYPLNE
  6
DASHED
 48
3.0
100
AcDbLine
 10
-108.578869
 20
-1559.681301
 30
5.0
 11
337.911339
 21
-1559.681301
 31
5.0
  0
LINE
  5
EBF
330
1B77
100
AcDbEntity
  8
V0-VYPLNE
  6
DASHED
 48
3.0
100
AcDbLine
 10
-108.578869
 20
-916.427005
 30
0.0
 11
-108.578869
 21
-1229.636443
 31
0.0
  0
LINE
  5
EC0
330
1B77
100
AcDbEntity
  8
V0-VYPLNE
  6
DASHED
 48
3.0
100
AcDbLine
 10
-108.578869
 20
-1559.681301
 30
5.0
 11
-108.578869
 21
-1229.718113
 31
0.0
  0
LINE
  5
EC1
330
1B77
100
AcDbEntity
  8
V0-VYPLNE
  6
DASHED
 48
3.0
100
AcDbLine
 10
337.911316
 20
-916.427005
 30
0.0
 11
337.911316
 21
-1229.636443
 31
0.0
  0
LINE
  5
EC2
330
1B77
100
AcDbEntity
  8
V0-VYPLNE
  6
DASHED
 48
3.0
100
AcDbLine
 10
324.523282
 20
-916.427005
 30
0.0
 11
324.523282
 21
-1559.599631
 31
5.0
  0
LINE
  5
EC3
330
1B77
100
AcDbEntity
  8
V0-VYPLNE
  6
DASHED
 48
3.0
100
AcDbLine
 10
-99.65349000000001
 20
-914.19829
 30
0.0
 11
-99.65349000000001
 21
-1559.599631
 31
5.0
  0
LINE
  5
EC5
330
1B77
100
AcDbEntity
  8
V0-VYPLNE
  6
DASHED
 48
3.0
100
AcDbLine
 10
335.68
 20
-974.156509
 30
0.0
 11
664.811183
 21
-974.156509
 31
0.0
  0
LINE
  5
EC6
330
1B77
100
AcDbEntity
  8
V0-VYPLNE
  6
DASHED
 48
3.0
100
AcDbLine
 10
431.627694
 20
-1546.225864
 30
5.0
 11
351.299396
 21
-1546.225864
 31
5.0
  0
LINE
  5
EC7
330
1B77
100
AcDbEntity
  8
V0-VYPLNE
  6
DASHED
 48
3.0
100
AcDbLine
 10
335.68
 20
-1484.698047
 30
5.0
 11
664.811183
 21
-1484.698047
 31
5.0
  0
LINE
  5
EC9
330
1B77
100
AcDbEntity
  8
V0-VYPLNE
  6
DASHED
 48
3.0
100
AcDbLine
 10
337.911316
 20
-1559.681301
 30
5.0
 11
337.911316
 21
-1229.718113
 31
0.0
  0
LINE
  5
ECA
330
1B77
100
AcDbEntity
  8
V0-VYPLNE
  6
DASHED
 48
3.0
100
AcDbLine
 10
351.299396
 20
-1546.225864
 30
5.0
 11
351.299396
 21
-1484.698047
 31
5.0
  0
LINE
  5
ECB
330
1B77
100
AcDbEntity
  8
V0-VYPLNE
  6
DASHED
 48
3.0
100
AcDbLine
 10
-106.560067
 20
-1336.455652
 30
0.0
 11
317.616705
 21
-1336.455652
 31
0.0
  0
LINE
  5
ECC
330
1B77
100
AcDbEntity
  8
V0-VYPLNE
  6
DASHED
 48
3.0
100
AcDbLine
 10
-99.65349000000001
 20
-1140.487933
 30
0.0
 11
324.523282
 21
-1140.487933
 31
0.0
  0
LINE
  5
ECD
330
1B77
100
AcDbEntity
  8
V0-VYPLNE
  6
DASHED
 48
3.0
100
AcDbLine
 10
-99.65349000000001
 20
-1246.298946
 30
0.0
 11
324.523282
 21
-1246.298946
 31
0.0
  0
LINE
  5
ECE
330
1B77
100
AcDbEntity
  8
V0-VYPLNE
  6
DASHED
 48
3.0
100
AcDbLine
 10
431.627694
 20
-1484.698047
 30
5.0
 11
431.627694
 21
-1546.225864
 31
5.0
  0
LINE
  5
ED0
330
1B77
100
AcDbEntity
  8
V0-VYPLNE
  6
DASHED
 48
3.0
100
AcDbLine
 10
657.466219
 20
-1473.472801
 30
5.0
 11
746.468692
 21
-1473.472801
 31
5.0
  0
LINE
  5
ED1
330
1B77
100
AcDbEntity
  8
V0-VYPLNE
  6
DASHED
 48
3.0
100
AcDbLine
 10
664.811183
 20
-985.300074
 30
0.0
 11
744.237353
 21
-985.300074
 31
0.0
  0
LINE
  5
ED2
330
1B77
100
AcDbEntity
  8
V0-VYPLNE
  6
DASHED
 48
3.0
100
AcDbLine
 10
664.811183
 20
-974.156509
 30
0.0
 11
664.811183
 21
-1484.698047
 31
5.0
  0
CIRCLE
  5
FBE
330
1B77
100
AcDbEntity
  8
V0-OBRYS
  6
CONTINUOUS
 62
    90
 48
3.0
100
AcDbCircle
 10
1865.665552
 20
59.708112
 30
0.0
 40
394.494631
  0
CIRCLE
  5
FBF
330
1B77
100
AcDbEntity
  8
V0-OBRYS
 48
3.0
100
AcDbCircle
 10
1688.313533
 20
366.890821
 30
0.0
 40
13.137187
  0
CIRCLE
  5
FC0
330
1B77
100
AcDbEntity
  8
V0-OBRYS
 48
3.0
100
AcDbCircle
 10
1558.482844
 20
237.060132
 30
0.0
 40
13.137187
  0
CIRCLE
  5
FC1
330
1B77
100
AcDbEntity
  8
V0-OBRYS
 48
3.0
100
AcDbCircle
 10
1510.961513
 20
59.708112
 30
0.0
 40
13.137187
  0
CIRCLE
  5
FC2
330
1B77
100
AcDbEntity
  8
V0-OBRYS
 48
3.0
100
AcDbCircle
 10
1558.482844
 20
-117.643908
 30
0.0
 40
13.137187
  0
CIRCLE
  5
FC3
330
1B77
100
AcDbEntity
  8
V0-OBRYS
 48
3.0
100
AcDbCircle
 10
1688.313533
 20
-247.474597
 30
0.0
 40
13.137187
  0
CIRCLE
  5
FC4
330
1B77
100
AcDbEntity
  8
V0-OBRYS
 48
3.0
100
AcDbCircle
 10
1865.665552
 20
-294.995927
 30
0.0
 40
13.137187
  0
CIRCLE
  5
FC5
330
1B77
100
AcDbEntity
  8
V0-OBRYS
 48
3.0
100
AcDbCircle
 10
2043.017572
 20
-247.474597
 30
0.0
 40
13.137187
  0
CIRCLE
  5
FC6
330
1B77
100
AcDbEntity
  8
V0-OBRYS
 48
3.0
100
AcDbCircle
 10
2172.848261
 20
-117.643908
 30
0.0
 40
13.137187
  0
CIRCLE
  5
FC7
330
1B77
100
AcDbEntity
  8
V0-OBRYS
 48
3.0
100
AcDbCircle
 10
2220.369592
 20
59.708112
 30
0.0
 40
13.137187
  0
CIRCLE
  5
FC8
330
1B77
100
AcDbEntity
  8
V0-OBRYS
 48
3.0
100
AcDbCircle
 10
2172.848261
 20
237.060132
 30
0.0
 40
13.137187
  0
CIRCLE
  5
FC9
330
1B77
100
AcDbEntity
  8
V0-OBRYS
 48
3.0
100
AcDbCircle
 10
2043.017572
 20
366.890821
 30
0.0
 40
13.137187
  0
LINE
  5
117D
330
1B77
100
AcDbEntity
  8
V0-VYPLNE
 48
3.0
100
AcDbLine
 10
2233.745552
 20
-229.82689
 30
0.0
 11
2233.745552
 21
-361.97033
 31
0.0
  0
POINT
  5
171C
330
1B77
100
AcDbEntity
  8
V0-VYPLNE
  6
CONTINUOUS
 62
    41
 48
3.0
100
AcDbPoint
 10
-223.7575
 20
59.708112
 30
0.0
  0
POINT
  5
171D
330
1B77
100
AcDbEntity
  8
V0-VYPLNE
  6
CONTINUOUS
 62
    41
 48
3.0
100
AcDbPoint
 10
805.875
 20
59.708112
 30
0.0
  0
POINT
  5
171E
330
1B77
100
AcDbEntity
  8
V0-VYPLNE
  6
CONTINUOUS
 62
    41
 48
3.0
100
AcDbPoint
 10
-208.109959
 20
-1229.677278
 30
0.0
  0
POINT
  5
171F
330
1B77
100
AcDbEntity
  8
V0-VYPLNE
  6
CONTINUOUS
 62
    41
 48
3.0
100
AcDbPoint
 10
821.5225410000001
 20
-1229.677278
 30
0.0
  0
POINT
  5
1720
330
1B77
100
AcDbEntity
  8
V0-VYPLNE
  6
CONTINUOUS
 62
    41
 48
3.0
100
AcDbPoint
 10
1865.665552
 20
59.708112
 30
0.0
  0
DIMENSION
  5
1955
330
1B77
100
AcDbEntity
  8
V0-ZBYTEK
  6
CONTINUOUS
 62
    41
 48
3.0
100
AcDbDimension
  2
*D8
 10
751.1587500000001
 20
620.8838039999828
 30
0.0
 11
291.0587500000001
 21
644.8838039999828
 31
0.0
 70
    32
  3
ED70
100
AcDbAlignedDimension
 13
-169.04125
 23
519.8081120000001
 33
0.0
 14
751.1587500000001
 24
519.8081120000001
 34
0.0
100
AcDbRotatedDimension
1001
ACAD
1000
DSTYLE
1002
{
1070
    41
1040
70.0
1002
}
  0
LINE
  5
1A8B
330
1B77
100
AcDbEntity
  8
V0-OBRYS
  6
CONTINUOUS
 62
     3
 48
3.0
100
AcDbLine
 10
-169.04125
 20
-400.391888
 30
0.0
 11
-249.04125
 21
-400.391888
 31
0.0
  0
LINE
  5
1A8C
330
1B77
100
AcDbEntity
  8
V0-OBRYS
  6
CONTINUOUS
 62
     3
 48
3.0
100
AcDbLine
 10
-249.04125
 20
-400.391888
 30
0.0
 11
-249.04125
 21
-480.391888
 31
0.0
  0
LINE
  5
1A8D
330
1B77
100
AcDbEntity
  8
V0-OBRYS
  6
CONTINUOUS
 62
     3
 48
3.0
100
AcDbLine
 10
-249.04125
 20
-480.391888
 30
0.0
 11
830.95875
 21
-480.391888
 31
0.0
  0
LINE
  5
1A8E
330
1B77
100
AcDbEntity
  8
V0-OBRYS
  6
CONTINUOUS
 62
     3
 48
3.0
100
AcDbLine
 10
830.95875
 20
-480.391888
 30
0.0
 11
830.95875
 21
-400.391888
 31
0.0
  0
LINE
  5
1A8F
330
1B77
100
AcDbEntity
  8
V0-OBRYS
  6
CONTINUOUS
 62
     3
 48
3.0
100
AcDbLine
 10
830.95875
 20
-400.391888
 30
0.0
 11
728.15375
 21
-400.391888
 31
0.0
  0
LINE
  5
1A92
330
1B77
100
AcDbEntity
  8
V0-OBRYS
  6
CONTINUOUS
 62
     3
 48
3.0
100
AcDbLine
 10
1405.565552
 20
-400.391888
 30
0.0
 11
1465.565552
 21
-400.391888
 31
0.0
  0
LINE
  5
1A93
330
1B77
100
AcDbEntity
  8
V0-OBRYS
  6
CONTINUOUS
 62
     3
 48
3.0
100
AcDbLine
 10
1465.565552
 20
-400.391888
 30
0.0
 11
1465.565552
 21
-480.391888
 31
0.0
  0
LINE
  5
1A94
330
1B77
100
AcDbEntity
  8
V0-OBRYS
  6
CONTINUOUS
 62
     3
 48
3.0
100
AcDbLine
 10
1465.565552
 20
-480.391888
 30
0.0
 11
1405.565552
 21
-480.391888
 31
0.0
  0
LINE
  5
1A95
330
1B77
100
AcDbEntity
  8
V0-OBRYS
  6
CONTINUOUS
 62
     3
 48
3.0
100
AcDbLine
 10
2265.765552
 20
-400.391888
 30
0.0
 11
2265.765552
 21
-480.391888
 31
0.0
  0
LINE
  5
1A96
330
1B77
100
AcDbEntity
  8
V0-OBRYS
  6
CONTINUOUS
 62
     3
 48
3.0
100
AcDbLine
 10
2265.765552
 20
-480.391888
 30
0.0
 11
2325.765552
 21
-480.391888
 31
0.0
  0
LINE
  5
1A97
330
1B77
100
AcDbEntity
  8
V0-OBRYS
  6
CONTINUOUS
 62
     3
 48
3.0
100
AcDbLine
 10
2325.765552
 20
-400.391888
 30
0.0
 11
2265.765552
 21
-400.391888
 31
0.0
  0
LINE
  5
1A98
330
1B77
100
AcDbEntity
  8
V0-OBRYS
  6
CONTINUOUS
 62
     3
 48
3.0
100
AcDbLine
 10
1465.565552
 20
-480.391888
 30
0.0
 11
2265.765552
 21
-480.391888
 31
0.0
  0
DIMENSION
  5
1AB6
330
1B77
100
AcDbEntity
  8
V0-ZBYTEK
  6
CONTINUOUS
 62
    41
 48
3.0
100
AcDbDimension
  2
*D9
 10
-223.7575
 20
519.8081120000173
 30
0.0
 11
-400.1384523809523
 21
543.8081120000173
 31
0.0
 70
    32
  3
ED70
100
AcDbAlignedDimension
 13
-169.04125
 23
519.8081120000001
 33
0.0
 14
-223.7575
 24
374.708112
 34
0.0
100
AcDbRotatedDimension
1001
ACAD
1000
DSTYLE
1002
{
1070
    41
1040
70.0
1002
}
  0
DIMENSION
  5
1ACE
330
1B77
100
AcDbEntity
  8
V0-ZBYTEK
  6
CONTINUOUS
 62
    41
 48
3.0
100
AcDbDimension
  2
*D10
 10
830.95875
 20
-685.2388049999718
 30
0.0
 11
290.9587499999999
 21
-661.2388049999718
 31
0.0
 70
    32
  3
ED70
100
AcDbAlignedDimension
 13
-249.04125
 23
-480.391888
 33
0.0
 14
830.95875
 24
-480.391888
 34
0.0
100
AcDbRotatedDimension
1001
ACAD
1000
DSTYLE
1002
{
1070
    41
1040
70.0
1002
}
  0
LINE
  5
1B33
330
1B77
100
AcDbEntity
  8
V0-OBRYS
  6
CONTINUOUS
 62
     3
 48
3.0
100
AcDbLine
 10
846.6062910000001
 20
-849.577278
 30
0.0
 11
846.6062910000001
 21
-769.577278
 31
0.0
  0
LINE
  5
1B34
330
1B77
100
AcDbEntity
  8
V0-OBRYS
  6
CONTINUOUS
 62
     3
 48
3.0
100
AcDbLine
 10
-233.393709
 20
-769.577278
 30
0.0
 11
-233.393709
 21
-849.577278
 31
0.0
  0
LINE
  5
1B35
330
1B77
100
AcDbEntity
  8
V0-OBRYS
  6
CONTINUOUS
 62
     3
 48
3.0
100
AcDbLine
 10
-233.393709
 20
-849.577278
 30
0.0
 11
-153.393709
 21
-849.577278
 31
0.0
  0
LINE
  5
1B36
330
1B77
100
AcDbEntity
  8
V0-OBRYS
  6
CONTINUOUS
 62
    90
 48
3.0
100
AcDbLine
 10
-153.393709
 20
-769.577278
 30
0.0
 11
766.8062910000001
 21
-769.577278
 31
0.0
  0
LINE
  5
1B37
330
1B77
100
AcDbEntity
  8
V0-OBRYS
  6
CONTINUOUS
 62
     3
 48
3.0
100
AcDbLine
 10
-153.393709
 20
-769.577278
 30
0.0
 11
-233.393709
 21
-769.577278
 31
0.0
  0
LINE
  5
1B38
330
1B77
100
AcDbEntity
  8
V0-OBRYS
  6
CONTINUOUS
 62
     3
 48
3.0
100
AcDbLine
 10
846.6062910000001
 20
-769.577278
 30
0.0
 11
743.801291
 21
-769.577278
 31
0.0
  0
LINE
  5
1B3A
330
1B77
100
AcDbEntity
  8
V0-OBRYS
  6
CONTINUOUS
 62
     3
 48
3.0
100
AcDbLine
 10
-233.393709
 20
-1689.777278
 30
0.0
 11
846.6062910000001
 21
-1689.777278
 31
0.0
  0
LINE
  5
1B3C
330
1B77
100
AcDbEntity
  8
V0-OBRYS
  6
CONTINUOUS
 62
     3
 48
3.0
100
AcDbLine
 10
-233.393709
 20
-1609.777278
 30
0.0
 11
-233.393709
 21
-1689.777278
 31
0.0
  0
LINE
  5
1B3D
330
1B77
100
AcDbEntity
  8
V0-OBRYS
  6
CONTINUOUS
 62
     3
 48
3.0
100
AcDbLine
 10
-153.393709
 20
-1609.777278
 30
0.0
 11
-233.393709
 21
-1609.777278
 31
0.0
  0
LINE
  5
1B3E
330
1B77
100
AcDbEntity
  8
V0-OBRYS
  6
CONTINUOUS
 62
     3
 48
3.0
100
AcDbLine
 10
846.6062910000001
 20
-1689.777278
 30
0.0
 11
846.6062910000001
 21
-1609.777278
 31
0.0
  0
LINE
  5
1B3F
330
1B77
100
AcDbEntity
  8
V0-OBRYS
  6
CONTINUOUS
 62
     3
 48
3.0
100
AcDbLine
 10
846.6062910000001
 20
-1609.777278
 30
0.0
 11
766.806291
 21
-1609.777278
 31
0.0
  0
LINE
  5
1B41
330
1B77
100
AcDbEntity
  8
V0-OBRYS
  6
CONTINUOUS
 62
     3
 48
3.0
100
AcDbLine
 10
766.806291
 20
-849.577278
 30
0.0
 11
846.6062910000001
 21
-849.577278
 31
0.0
  0
TEXT
  5
1B4C
330
1B77
100
AcDbEntity
  8
V0-ZBYTEK
100
AcDbText
 10
1473.238356711905
 20
-1278.009391962857
 30
0.0
 40
46.585125
  1
zvukove izolovaný
  7
ED70
100
AcDbText
  0
TEXT
  5
1B4E
330
1B77
100
AcDbEntity
  8
V0-ZBYTEK
 62
    51
100
AcDbText
 10
1368.325388416667
 20
-1197.781827972381
 30
0.0
 40
65.21917500000001
  1
Radiální ventilátor
  7
ED70
100
AcDbText
  0
TEXT
  5
1B4F
330
1B77
100
AcDbEntity
  8
V0-NAZVY
100
AcDbText
 10
1346.72565965
 20
-1086.697508600953
 30
0.0
 40
65.0
  1
CVAT/6 10000/630
  7
ED70
100
AcDbText
  0
VIEWPORT
  5
1C01
330
1B73
100
AcDbEntity
 67
     1
  8
0
 60
     1
100
AcDbViewport
 10
261.517699
 20
148.5
 30
0.0
 40
297.0
 41
297.0
 68
     0
 69
     1
1001
VD_INVISIBLE_NOT_FOR_READ
1000
VD_INVISIBLE_NOT_FOR_READ
1001
ACAD
1000
MVIEW
1002
{
1070
    16
1010
0.0
1020
0.0
1030
0.0
1010
0.0
1020
0.0
1030
1.0
1040
6.2831853071796
1040
297.0
1040
261.517699
1040
148.5
1040
0.0
1040
0.0
1040
0.0
1070
     0
1070
   100
1070
     0
1070
     1
1070
     0
1070
     0
1070
     0
1070
     0
1040
0.0
1040
0.0
1040
0.0
1040
1.0
1040
1.0
1040
0.0
1040
0.0
1070
     0
1002
{
1002
}
1002
}
  0
VIEWPORT
  5
1C02
330
1B73
100
AcDbEntity
 67
     1
  8
0
 60
     1
100
AcDbViewport
 10
261.517699
 20
148.5
 30
0.0
 40
297.0
 41
297.0
 68
     0
 69
     2
1001
VD_INVISIBLE_NOT_FOR_READ
1000
VD_INVISIBLE_NOT_FOR_READ
1001
ACAD
1000
MVIEW
1002
{
1070
    16
1010
0.0
1020
0.0
1030
0.0
1010
0.0
1020
0.0
1030
1.0
1040
6.2831853071796
1040
297.0
1040
261.517699
1040
148.5
1040
0.0
1040
0.0
1040
0.0
1070
     0
1070
   100
1070
     0
1070
     1
1070
     0
1070
     0
1070
     0
1070
     0
1040
0.0
1040
0.0
1040
0.0
1040
1.0
1040
1.0
1040
0.0
1040
0.0
1070
     0
1002
{
1002
}
1002
}
  0
ENDSEC
  0
SECTION
  2
OBJECTS
  0
DICTIONARY
  5
1B64
330
0
100
AcDbDictionary
  3
ACAD_GROUP
350
1B65
  3
ACAD_LAYOUT
350
1B72
  3
ACAD_MLINESTYLE
350
1B6F
  3
ACAD_PLOTSETTINGS
350
1B71
  3
ACDBHEADERROUNDTRIPXREC
350
1C03
  3
VECTORDRAW_OBJECTS
350
1B87
  0
DICTIONARY
  5
1C23
330
1B81
100
AcDbDictionary
280
     1
  3
ACAD_XREC_ROUNDTRIP
360
1C24
  0
DICTIONARY
  5
1B65
102
{ACAD_REACTORS
330
1B64
102
}
330
1B64
100
AcDbDictionary
  0
DICTIONARY
  5
1B72
102
{ACAD_REACTORS
330
1B64
102
}
330
1B64
100
AcDbDictionary
  0
DICTIONARY
  5
1B6F
102
{ACAD_REACTORS
330
1B64
102
}
330
1B64
100
AcDbDictionary
  3
STANDARD
350
1B70
  0
DICTIONARY
  5
1B71
102
{ACAD_REACTORS
330
1B64
102
}
330
1B64
100
AcDbDictionary
  0
DICTIONARY
  5
1C03
102
{ACAD_REACTORS
330
1B64
102
}
330
1B64
100
AcDbDictionary
  3
CEPSNTYPE
350
1C0C
  3
DIMSTYLEDATA
350
1C22
  3
FINGERPRINTGUID
350
1C0D
  3
HYPERLINKBASE
350
1C06
  3
INSUNITS
350
1C0B
  3
LAYOUTDICT
350
1C08
  3
LWETCUNION
350
1C0A
  3
PLOTSETDICT
350
1C09
  3
PSVPSCALE
350
1C0F
  3
PUCSBASE
350
1C12
  3
PUCSORGBACK
350
1C18
  3
PUCSORGBOTTOM
350
1C14
  3
PUCSORGFRONT
350
1C17
  3
PUCSORGLEFT
350
1C15
  3
PUCSORGRIGHT
350
1C16
  3
PUCSORGTOP
350
1C13
  3
PUCSORTHOREF
350
1C10
  3
PUCSORTHOVIEW
350
1C11
  3
STYLESHEET
350
1C07
  3
TSTACKALIGN
350
1C04
  3
TSTACKSIZE
350
1C05
  3
UCSBASE
350
1C1B
  3
UCSORGBACK
350
1C21
  3
UCSORGBOTTOM
350
1C1D
  3
UCSORGFRONT
350
1C20
  3
UCSORGLEFT
350
1C1E
  3
UCSORGRIGHT
350
1C1F
  3
UCSORGTOP
350
1C1C
  3
UCSORTHOREF
350
1C19
  3
UCSORTHOVIEW
350
1C1A
  3
VERSIONGUID
350
1C0E
  0
DICTIONARY
  5
1B87
102
{ACAD_REACTORS
330
1B64
102
}
330
1B64
100
AcDbDictionary
  3
SERIALNO
350
1B88
  0
XRECORD
  5
1C24
102
{ACAD_REACTORS
330
1C23
102
}
330
1C23
100
AcDbXrecord
102
UCS
 74
     0
 71
     1
 10
0.0
 20
0.0
 30
0.0
 10
1.0
 20
0.0
 30
0.0
 10
0.0
 20
1.0
 30
0.0
146
0.0
 79
     0
102
VIEW
281
     0
  0
MLINESTYLE
  5
1B70
102
{ACAD_REACTORS
330
1B6F
102
}
330
1B6F
100
AcDbMlineStyle
  2
Standard
 70
     0
  3

 62
   256
 51
90.0
 52
90.0
 71
     2
 49
0.5
 62
   256
  6
BYLAYER
 49
-0.5
 62
   256
  6
BYLAYER
  0
XRECORD
  5
1C0C
102
{ACAD_REACTORS
330
1C03
102
}
330
1C03
100
AcDbXrecord
 90
        0
  0
XRECORD
  5
1C22
102
{ACAD_REACTORS
330
1C03
102
}
330
1C03
100
AcDbXrecord
1000
DSTYLE
1002
{
1070
    41
 40
45.0
1070
   342
340
90
1070
   271
 70
     0
1070
    44
 40
1.25
1070
    42
 40
1.0
1070
   147
 40
4.0
1070
    77
 70
     1
1070
    73
 70
     0
1070
   174
 70
     1
1070
   172
 70
     1
1070
    74
 70
     0
1070
   340
340
15E9
1070
   140
 40
40.0
1070
   288
 70
     1
1002
}
  0
XRECORD
  5
1C0D
102
{ACAD_REACTORS
330
1C03
102
}
330
1C03
100
AcDbXrecord
  1
{FAEB1C30-E019-11D5-929B-00C0DF256EC4}
  0
XRECORD
  5
1C06
102
{ACAD_REACTORS
330
1C03
102
}
330
1C03
100
AcDbXrecord
  1

  0
XRECORD
  5
1C0B
102
{ACAD_REACTORS
330
1C03
102
}
330
1C03
100
AcDbXrecord
 90
        1
  0
XRECORD
  5
1C08
102
{ACAD_REACTORS
330
1C03
102
}
330
1C03
100
AcDbXrecord
340
1B72
  0
XRECORD
  5
1C0A
102
{ACAD_REACTORS
330
1C03
102
}
330
1C03
100
AcDbXrecord
 90
     2560
  0
XRECORD
  5
1C09
102
{ACAD_REACTORS
330
1C03
102
}
330
1C03
100
AcDbXrecord
340
1B71
  0
XRECORD
  5
1C0F
102
{ACAD_REACTORS
330
1C03
102
}
330
1C03
100
AcDbXrecord
 40
0.0
  0
XRECORD
  5
1C12
102
{ACAD_REACTORS
330
1C03
102
}
330
1C03
100
AcDbXrecord
340
0
  0
XRECORD
  5
1C18
102
{ACAD_REACTORS
330
1C03
102
}
330
1C03
100
AcDbXrecord
 10
0.0
 20
0.0
 30
0.0
  0
XRECORD
  5
1C14
102
{ACAD_REACTORS
330
1C03
102
}
330
1C03
100
AcDbXrecord
 10
0.0
 20
0.0
 30
0.0
  0
XRECORD
  5
1C17
102
{ACAD_REACTORS
330
1C03
102
}
330
1C03
100
AcDbXrecord
 10
0.0
 20
0.0
 30
0.0
  0
XRECORD
  5
1C15
102
{ACAD_REACTORS
330
1C03
102
}
330
1C03
100
AcDbXrecord
 10
0.0
 20
0.0
 30
0.0
  0
XRECORD
  5
1C16
102
{ACAD_REACTORS
330
1C03
102
}
330
1C03
100
AcDbXrecord
 10
0.0
 20
0.0
 30
0.0
  0
XRECORD
  5
1C13
102
{ACAD_REACTORS
330
1C03
102
}
330
1C03
100
AcDbXrecord
 10
0.0
 20
0.0
 30
0.0
  0
XRECORD
  5
1C10
102
{ACAD_REACTORS
330
1C03
102
}
330
1C03
100
AcDbXrecord
340
0
  0
XRECORD
  5
1C11
102
{ACAD_REACTORS
330
1C03
102
}
330
1C03
100
AcDbXrecord
 70
     0
  0
XRECORD
  5
1C07
102
{ACAD_REACTORS
330
1C03
102
}
330
1C03
100
AcDbXrecord
  1

  0
XRECORD
  5
1C04
102
{ACAD_REACTORS
330
1C03
102
}
330
1C03
100
AcDbXrecord
 90
        1
  0
XRECORD
  5
1C05
102
{ACAD_REACTORS
330
1C03
102
}
330
1C03
100
AcDbXrecord
 90
       70
  0
XRECORD
  5
1C1B
102
{ACAD_REACTORS
330
1C03
102
}
330
1C03
100
AcDbXrecord
340
0
  0
XRECORD
  5
1C21
102
{ACAD_REACTORS
330
1C03
102
}
330
1C03
100
AcDbXrecord
 10
0.0
 20
0.0
 30
0.0
  0
XRECORD
  5
1C1D
102
{ACAD_REACTORS
330
1C03
102
}
330
1C03
100
AcDbXrecord
 10
0.0
 20
0.0
 30
0.0
  0
XRECORD
  5
1C20
102
{ACAD_REACTORS
330
1C03
102
}
330
1C03
100
AcDbXrecord
 10
0.0
 20
0.0
 30
0.0
  0
XRECORD
  5
1C1E
102
{ACAD_REACTORS
330
1C03
102
}
330
1C03
100
AcDbXrecord
 10
0.0
 20
0.0
 30
0.0
  0
XRECORD
  5
1C1F
102
{ACAD_REACTORS
330
1C03
102
}
330
1C03
100
AcDbXrecord
 10
0.0
 20
0.0
 30
0.0
  0
XRECORD
  5
1C1C
102
{ACAD_REACTORS
330
1C03
102
}
330
1C03
100
AcDbXrecord
 10
0.0
 20
0.0
 30
0.0
  0
XRECORD
  5
1C19
102
{ACAD_REACTORS
330
1C03
102
}
330
1C03
100
AcDbXrecord
340
0
  0
XRECORD
  5
1C1A
102
{ACAD_REACTORS
330
1C03
102
}
330
1C03
100
AcDbXrecord
 70
     0
  0
XRECORD
  5
1C0E
102
{ACAD_REACTORS
330
1C03
102
}
330
1C03
100
AcDbXrecord
  1
{FAEB1C32-E019-11D5-929B-00C0DF256EC4}
  0
XRECORD
  5
1B88
102
{ACAD_REACTORS
330
1B87
102
}
330
1B87
100
AcDbXrecord
1000
rInJVR9YY4Q8hfPWdUq5j5319
1070
     4
1070
     6
  0
ENDSEC
  0
EOF
