  0
SECTION
  2
HEADER
  9
$ACADVER
  1
AC1014
  9
$ACADMAINTVER
 70
     0
  9
$DWGCODEPAGE
  3
ANSI_1250
  9
$INSBASE
 10
0.0
 20
0.0
 30
0.0
  9
$EXTMIN
 10
6.560127
 20
-758.619617
 30
0.0
  9
$EXTMAX
 10
1315.0
 20
283.034961
 30
0.0
  9
$LIMMIN
 10
0.0
 20
0.0
  9
$LIMMAX
 10
420.0
 20
297.0
  9
$ORTHOMODE
 70
     1
  9
$REGENMODE
 70
     1
  9
$FILLMODE
 70
     1
  9
$QTEXTMODE
 70
     0
  9
$MIRRTEXT
 70
     1
  9
$DRAGMODE
 70
     2
  9
$LTSCALE
 40
1.0
  9
$OSMODE
 70
    32
  9
$ATTMODE
 70
     1
  9
$TEXTSIZE
 40
20.0
  9
$TRACEWID
 40
1.0
  9
$TEXTSTYLE
  7
ED30
  9
$CLAYER
  8
V0-VYPLNE
  9
$CELTYPE
  6
CONTINUOUS
  9
$CECOLOR
 62
    41
  9
$CELTSCALE
 40
3.0
  9
$DELOBJ
 70
     1
  9
$DISPSILH
 70
     0
  9
$DIMSCALE
 40
1.0
  9
$DIMASZ
 40
25.0
  9
$DIMEXO
 40
1.0
  9
$DIMDLI
 40
3.75
  9
$DIMRND
 40
0.0
  9
$DIMDLE
 40
0.0
  9
$DIMEXE
 40
1.25
  9
$DIMTP
 40
0.0
  9
$DIMTM
 40
0.0
  9
$DIMTXT
 40
30.0
  9
$DIMCEN
 40
3.0
  9
$DIMTSZ
 40
0.0
  9
$DIMTOL
 70
     0
  9
$DIMLIM
 70
     0
  9
$DIMTIH
 70
     0
  9
$DIMTOH
 70
     0
  9
$DIMSE1
 70
     0
  9
$DIMSE2
 70
     0
  9
$DIMTAD
 70
     1
  9
$DIMZIN
 70
     8
  9
$DIMBLK
  1

  9
$DIMASO
 70
     1
  9
$DIMSHO
 70
     1
  9
$DIMPOST
  1

  9
$DIMAPOST
  1

  9
$DIMALT
 70
     0
  9
$DIMALTD
 70
     4
  9
$DIMALTF
 40
0.0394
  9
$DIMLFAC
 40
1.0
  9
$DIMTOFL
 70
     1
  9
$DIMTVP
 40
0.0
  9
$DIMTIX
 70
     0
  9
$DIMSOXD
 70
     0
  9
$DIMSAH
 70
     1
  9
$DIMBLK1
  1
_OPEN
  9
$DIMBLK2
  1
_OPEN
  9
$DIMSTYLE
  2
ED30
  9
$DIMCLRD
 70
     0
  9
$DIMCLRE
 70
     0
  9
$DIMCLRT
 70
     0
  9
$DIMTFAC
 40
1.0
  9
$DIMGAP
 40
4.0
  9
$DIMJUST
 70
     0
  9
$DIMSD1
 70
     0
  9
$DIMSD2
 70
     0
  9
$DIMTOLJ
 70
     1
  9
$DIMTZIN
 70
     8
  9
$DIMALTZ
 70
     0
  9
$DIMALTTZ
 70
     0
  9
$DIMFIT
 70
     3
  9
$DIMUPT
 70
     0
  9
$DIMUNIT
 70
     2
  9
$DIMDEC
 70
     0
  9
$DIMTDEC
 70
     1
  9
$DIMALTU
 70
     8
  9
$DIMALTTD
 70
     4
  9
$DIMTXSTY
  7
ED30
  9
$DIMAUNIT
 70
     0
  9
$LUNITS
 70
     2
  9
$LUPREC
 70
     4
  9
$SKETCHINC
 40
1.0
  9
$FILLETRAD
 40
0.0
  9
$AUNITS
 70
     0
  9
$AUPREC
 70
     0
  9
$MENU
  1
.
  9
$ELEVATION
 40
0.0
  9
$PELEVATION
 40
0.0
  9
$THICKNESS
 40
0.0
  9
$LIMCHECK
 70
     0
  9
$BLIPMODE
 70
     0
  9
$CHAMFERA
 40
10.0
  9
$CHAMFERB
 40
10.0
  9
$CHAMFERC
 40
20.0
  9
$CHAMFERD
 40
0.0
  9
$SKPOLY
 70
     1
  9
$TDCREATE
 40
2451196.643769328
  9
$TDUPDATE
 40
2452915.643567129
  9
$TDINDWG
 40
0.2122252315
  9
$TDUSRTIMER
 40
0.2122252315
  9
$USRTIMER
 70
     1
  9
$ANGBASE
 50
0.0
  9
$ANGDIR
 70
     0
  9
$PDMODE
 70
     3
  9
$PDSIZE
 40
20.0
  9
$PLINEWID
 40
0.0
  9
$COORDS
 70
     1
  9
$SPLFRAME
 70
     0
  9
$SPLINETYPE
 70
     6
  9
$SPLINESEGS
 70
     8
  9
$ATTDIA
 70
     0
  9
$ATTREQ
 70
     1
  9
$HANDLING
 70
     1
  9
$HANDSEED
  5
1082
  9
$SURFTAB1
 70
     6
  9
$SURFTAB2
 70
     6
  9
$SURFTYPE
 70
     6
  9
$SURFU
 70
     6
  9
$SURFV
 70
     6
  9
$UCSNAME
  2

  9
$UCSORG
 10
80.00000000000001
 20
0.0
 30
0.0
  9
$UCSXDIR
 10
1.0
 20
0.0
 30
0.0
  9
$UCSYDIR
 10
0.0
 20
1.0
 30
0.0
  9
$PUCSNAME
  2

  9
$PUCSORG
 10
0.0
 20
0.0
 30
0.0
  9
$PUCSXDIR
 10
1.0
 20
0.0
 30
0.0
  9
$PUCSYDIR
 10
0.0
 20
1.0
 30
0.0
  9
$USERI1
 70
     0
  9
$USERI2
 70
     0
  9
$USERI3
 70
     0
  9
$USERI4
 70
     0
  9
$USERI5
 70
     0
  9
$USERR1
 40
0.0
  9
$USERR2
 40
0.0
  9
$USERR3
 40
0.0
  9
$USERR4
 40
0.0
  9
$USERR5
 40
0.0
  9
$WORLDVIEW
 70
     1
  9
$SHADEDGE
 70
     3
  9
$SHADEDIF
 70
    70
  9
$TILEMODE
 70
     1
  9
$MAXACTVP
 70
    48
  9
$PINSBASE
 10
0.0
 20
0.0
 30
0.0
  9
$PLIMCHECK
 70
     0
  9
$PEXTMIN
 10
1.000000E+20
 20
1.000000E+20
 30
1.000000E+20
  9
$PEXTMAX
 10
-1.000000E+20
 20
-1.000000E+20
 30
-1.000000E+20
  9
$PLIMMIN
 10
0.0
 20
0.0
  9
$PLIMMAX
 10
420.0
 20
297.0
  9
$UNITMODE
 70
     0
  9
$VISRETAIN
 70
     1
  9
$PLINEGEN
 70
     0
  9
$PSLTSCALE
 70
     0
  9
$TREEDEPTH
 70
  3020
  9
$PICKSTYLE
 70
     1
  9
$CMLSTYLE
  2
STANDARD
  9
$CMLJUST
 70
     0
  9
$CMLSCALE
 40
1.0
  9
$PROXYGRAPHICS
 70
     1
  9
$MEASUREMENT
 70
     1
  0
ENDSEC
  0
SECTION
  2
CLASSES
  0
CLASS
  1
DICTIONARYVAR
  2
AcDbDictionaryVar
  3
"AutoCAD"
 90
        0
280
     0
281
     0
  0
CLASS
  1
LWPOLYLINE
  2
AcDbPolyline
  3
"AutoCAD"
 90
        0
280
     0
281
     1
  0
CLASS
  1
HATCH
  2
AcDbHatch
  3
"ACAD_SEDONA"
 90
        0
280
     0
281
     1
  0
ENDSEC
  0
SECTION
  2
TABLES
  0
TABLE
  2
VPORT
  5
8
100
AcDbSymbolTable
 70
     2
  0
VPORT
  5
1081
100
AcDbSymbolTableRecord
100
AcDbViewportTableRecord
  2
*ACTIVE
 70
     0
 10
0.0
 20
0.0
 11
1.0
 21
1.0
 12
662.767815
 22
-235.989289
 13
0.0
 23
0.0
 14
10.0
 24
10.0
 15
10.0
 25
10.0
 16
0.0
 26
0.0
 36
1.0
 17
0.0
 27
0.0
 37
0.0
 40
1123.53678
 41
1.730469
 42
50.0
 43
0.0
 44
0.0
 50
0.0
 51
0.0
 71
     0
 72
   100
 73
     1
 74
     1
 75
     0
 76
     0
 77
     0
 78
     0
  0
ENDTAB
  0
TABLE
  2
LTYPE
  5
5
100
AcDbSymbolTable
 70
     3
  0
LTYPE
  5
14
100
AcDbSymbolTableRecord
100
AcDbLinetypeTableRecord
  2
BYBLOCK
 70
     0
  3

 72
    65
 73
     0
 40
0.0
  0
LTYPE
  5
15
100
AcDbSymbolTableRecord
100
AcDbLinetypeTableRecord
  2
BYLAYER
 70
     0
  3

 72
    65
 73
     0
 40
0.0
  0
LTYPE
  5
16
100
AcDbSymbolTableRecord
100
AcDbLinetypeTableRecord
  2
CONTINUOUS
 70
     0
  3
Solid line
 72
    65
 73
     0
 40
0.0
  0
LTYPE
  5
7F
100
AcDbSymbolTableRecord
100
AcDbLinetypeTableRecord
  2
DASHDOT
 70
     0
  3
Dash dot __ . __ . __ . __ . __ . __ . __ . __
 72
    65
 73
     4
 40
25.4
 49
12.7
 74
     0
 49
-6.35
 74
     0
 49
0.0
 74
     0
 49
-6.35
 74
     0
  0
LTYPE
  5
80
100
AcDbSymbolTableRecord
100
AcDbLinetypeTableRecord
  2
DASHED
 70
     0
  3
Dashed __ __ __ __ __ __ __ __ __ __ __ __ __ _
 72
    65
 73
     2
 40
19.05
 49
12.7
 74
     0
 49
-6.35
 74
     0
  0
ENDTAB
  0
TABLE
  2
LAYER
  5
2
100
AcDbSymbolTable
 70
     6
  0
LAYER
  5
F
100
AcDbSymbolTableRecord
100
AcDbLayerTableRecord
  2
0
 70
     0
 62
     7
  6
CONTINUOUS
  0
LAYER
  5
9E
100
AcDbSymbolTableRecord
100
AcDbLayerTableRecord
  2
DEFPOINTS
 70
     0
 62
     7
  6
CONTINUOUS
  0
LAYER
  5
377
100
AcDbSymbolTableRecord
100
AcDbLayerTableRecord
  2
V0-OBRYS
 70
     0
 62
    90
  6
CONTINUOUS
  0
LAYER
  5
378
100
AcDbSymbolTableRecord
100
AcDbLayerTableRecord
  2
V0-VYPLNE
 70
     0
 62
    63
  6
DASHDOT
  0
LAYER
  5
37A
100
AcDbSymbolTableRecord
100
AcDbLayerTableRecord
  2
V0-NAZVY
 70
     0
 62
   210
  6
CONTINUOUS
  0
LAYER
  5
559
100
AcDbSymbolTableRecord
100
AcDbLayerTableRecord
  2
V0-ZBYTEK
 70
     0
 62
    51
  6
CONTINUOUS
  0
ENDTAB
  0
TABLE
  2
STYLE
  5
3
100
AcDbSymbolTable
 70
     5
  0
STYLE
  5
10
100
AcDbSymbolTableRecord
100
AcDbTextStyleTableRecord
  2
STANDARD
 70
     0
 40
7.0
 41
1.0
 50
0.0
 71
     0
 42
20.0
  3
ISOCP.shx
  4

  0
STYLE
  5
331
100
AcDbSymbolTableRecord
100
AcDbTextStyleTableRecord
  2
ED30
 70
     0
 40
30.0
 41
1.0
 50
0.0
 71
     0
 42
2.5
  3
ISOCP.shx
  4

  0
STYLE
  5
5D2
100
AcDbSymbolTableRecord
100
AcDbTextStyleTableRecord
  2
ED20
 70
     0
 40
20.0
 41
1.0
 50
0.0
 71
     0
 42
20.0
  3
isocp.shx
  4

  0
STYLE
  5
64F
100
AcDbSymbolTableRecord
100
AcDbTextStyleTableRecord
  2
ED40
 70
     0
 40
40.0
 41
1.0
 50
0.0
 71
     0
 42
20.0
  3
isocp.shx
  4

  0
STYLE
  5
650
100
AcDbSymbolTableRecord
100
AcDbTextStyleTableRecord
  2
ED10
 70
     0
 40
10.0
 41
1.0
 50
0.0
 71
     0
 42
20.0
  3
isocp.shx
  4

  0
ENDTAB
  0
TABLE
  2
VIEW
  5
6
100
AcDbSymbolTable
 70
     0
  0
ENDTAB
  0
TABLE
  2
UCS
  5
7
100
AcDbSymbolTable
 70
     0
  0
ENDTAB
  0
TABLE
  2
APPID
  5
9
100
AcDbSymbolTable
 70
     3
  0
APPID
  5
11
100
AcDbSymbolTableRecord
100
AcDbRegAppTableRecord
  2
ACAD
 70
     0
  0
APPID
  5
FAA
100
AcDbSymbolTableRecord
100
AcDbRegAppTableRecord
  2
CONTENTBLOCKICON
 70
     0
  0
APPID
  5
FAB
100
AcDbSymbolTableRecord
100
AcDbRegAppTableRecord
  2
CONTENTBLOCKDESCRIPTION
 70
     0
  0
ENDTAB
  0
TABLE
  2
DIMSTYLE
  5
A
100
AcDbSymbolTable
 70
     5
  0
DIMSTYLE
105
1D
100
AcDbSymbolTableRecord
100
AcDbDimStyleTableRecord
  2
STANDARD
 70
     0
  3

  4

  5

  6
_OPEN
  7
_OPEN
 40
0.0
 41
15.0
 42
0.625
 43
3.75
 44
1.25
 45
0.0
 46
0.0
 47
0.0
 48
0.0
140
15.0
141
2.5
142
0.0
143
0.0394
144
1.0
145
0.0
146
1.0
147
3.0
 71
     0
 72
     0
 73
     0
 74
     0
 75
     0
 76
     0
 77
     1
 78
     8
170
     0
171
     4
172
     1
173
     1
174
     0
175
     0
176
     0
177
     0
178
     0
270
     2
271
     0
272
     1
273
     8
274
     4
340
331
275
     0
280
     0
281
     0
282
     0
283
     1
284
     8
285
     0
286
     0
287
     3
288
     0
  0
DIMSTYLE
105
397
100
AcDbSymbolTableRecord
100
AcDbDimStyleTableRecord
  2
ED40
 70
     0
  3

  4

  5

  6
_OPEN
  7
_OPEN
 40
0.0
 41
35.0
 42
1.0
 43
3.75
 44
1.25
 45
0.0
 46
0.0
 47
0.0
 48
0.0
140
40.0
141
3.0
142
0.0
143
0.0394
144
1.0
145
0.0
146
1.0
147
4.0
 71
     0
 72
     0
 73
     0
 74
     0
 75
     0
 76
     0
 77
     1
 78
     8
170
     0
171
     4
172
     1
173
     1
174
     0
175
     0
176
     0
177
     0
178
     0
270
     2
271
     0
272
     1
273
     8
274
     4
340
64F
275
     0
280
     0
281
     0
282
     0
283
     1
284
     8
285
     0
286
     0
287
     3
288
     0
  0
DIMSTYLE
105
656
102
{ACAD_REACTORS
330
E52
330
E5F
330
E6C
330
E79
330
E86
330
E93
330
EA0
330
EE3
330
1078
102
}
100
AcDbSymbolTableRecord
100
AcDbDimStyleTableRecord
  2
ED30
 70
     0
  3

  4

  5

  6
_OPEN
  7
_OPEN
 40
0.0
 41
25.0
 42
1.0
 43
3.75
 44
1.25
 45
0.0
 46
0.0
 47
0.0
 48
0.0
140
30.0
141
3.0
142
0.0
143
0.0394
144
1.0
145
0.0
146
1.0
147
4.0
 71
     0
 72
     0
 73
     0
 74
     0
 75
     0
 76
     0
 77
     1
 78
     8
170
     0
171
     4
172
     1
173
     1
174
     0
175
     0
176
     0
177
     0
178
     0
270
     2
271
     0
272
     1
273
     8
274
     4
340
331
275
     0
280
     0
281
     0
282
     0
283
     1
284
     8
285
     0
286
     0
287
     3
288
     0
  0
DIMSTYLE
105
657
100
AcDbSymbolTableRecord
100
AcDbDimStyleTableRecord
  2
ED20
 70
     0
  3

  4

  5

  6
_OPEN
  7
_OPEN
 40
0.0
 41
20.0
 42
1.0
 43
3.75
 44
1.25
 45
0.0
 46
0.0
 47
0.0
 48
0.0
140
20.0
141
3.0
142
0.0
143
0.0394
144
1.0
145
0.0
146
1.0
147
2.0
 71
     0
 72
     0
 73
     0
 74
     0
 75
     0
 76
     0
 77
     1
 78
     8
170
     0
171
     4
172
     1
173
     1
174
     0
175
     0
176
     0
177
     0
178
     0
270
     2
271
     0
272
     1
273
     8
274
     4
340
5D2
275
     0
280
     0
281
     0
282
     0
283
     1
284
     8
285
     0
286
     0
287
     3
288
     0
  0
DIMSTYLE
105
658
100
AcDbSymbolTableRecord
100
AcDbDimStyleTableRecord
  2
ED10
 70
     0
  3

  4

  5

  6
_OPEN
  7
_OPEN
 40
0.0
 41
15.0
 42
1.0
 43
3.75
 44
1.25
 45
0.0
 46
0.0
 47
0.0
 48
0.0
140
10.0
141
3.0
142
0.0
143
0.0394
144
1.0
145
0.0
146
1.0
147
1.5
 71
     0
 72
     0
 73
     0
 74
     0
 75
     0
 76
     0
 77
     1
 78
     8
170
     0
171
     4
172
     1
173
     1
174
     0
175
     0
176
     0
177
     0
178
     0
270
     2
271
     0
272
     1
273
     8
274
     4
340
5D2
275
     0
280
     0
281
     0
282
     0
283
     1
284
     8
285
     0
286
     0
287
     3
288
     0
  0
ENDTAB
  0
TABLE
  2
BLOCK_RECORD
  5
1
100
AcDbSymbolTable
 70
    65
  0
BLOCK_RECORD
  5
1A
100
AcDbSymbolTableRecord
100
AcDbBlockTableRecord
  2
*MODEL_SPACE
  0
BLOCK_RECORD
  5
17
100
AcDbSymbolTableRecord
100
AcDbBlockTableRecord
  2
*PAPER_SPACE
  0
BLOCK_RECORD
  5
90
100
AcDbSymbolTableRecord
100
AcDbBlockTableRecord
  2
_OPEN
  0
BLOCK_RECORD
  5
E46
100
AcDbSymbolTableRecord
100
AcDbBlockTableRecord
  2
*D56
  0
BLOCK_RECORD
  5
E53
100
AcDbSymbolTableRecord
100
AcDbBlockTableRecord
  2
*D57
  0
BLOCK_RECORD
  5
E60
100
AcDbSymbolTableRecord
100
AcDbBlockTableRecord
  2
*D58
  0
BLOCK_RECORD
  5
E6D
100
AcDbSymbolTableRecord
100
AcDbBlockTableRecord
  2
*D59
  0
BLOCK_RECORD
  5
E7A
100
AcDbSymbolTableRecord
100
AcDbBlockTableRecord
  2
*D60
  0
BLOCK_RECORD
  5
E87
100
AcDbSymbolTableRecord
100
AcDbBlockTableRecord
  2
*D61
  0
BLOCK_RECORD
  5
E94
100
AcDbSymbolTableRecord
100
AcDbBlockTableRecord
  2
*D62
  0
BLOCK_RECORD
  5
ED7
100
AcDbSymbolTableRecord
100
AcDbBlockTableRecord
  2
*D63
  0
BLOCK_RECORD
  5
106C
100
AcDbSymbolTableRecord
100
AcDbBlockTableRecord
  2
*D64
  0
ENDTAB
  0
ENDSEC
  0
SECTION
  2
BLOCKS
  0
BLOCK
  5
1B
100
AcDbEntity
  8
0
100
AcDbBlockBegin
  2
*MODEL_SPACE
 70
     0
 10
0.0
 20
0.0
 30
0.0
  3
*MODEL_SPACE
  1

  0
ENDBLK
  5
1C
100
AcDbEntity
  8
0
100
AcDbBlockEnd
  0
BLOCK
  5
18
100
AcDbEntity
 67
     1
  8
0
100
AcDbBlockBegin
  2
*PAPER_SPACE
 70
     0
 10
0.0
 20
0.0
 30
0.0
  3
*PAPER_SPACE
  1

  0
ENDBLK
  5
19
100
AcDbEntity
 67
     1
  8
0
100
AcDbBlockEnd
  0
BLOCK
  5
91
100
AcDbEntity
  8
0
100
AcDbBlockBegin
  2
_OPEN
 70
     0
 10
0.0
 20
0.0
 30
0.0
  3
_OPEN
  1

  0
LINE
  5
92
100
AcDbEntity
  8
0
  6
BYBLOCK
 62
     0
100
AcDbLine
 10
-1.0
 20
0.166667
 30
0.0
 11
0.0
 21
0.0
 31
0.0
  0
LINE
  5
93
100
AcDbEntity
  8
0
  6
BYBLOCK
 62
     0
100
AcDbLine
 10
0.0
 20
0.0
 30
0.0
 11
-1.0
 21
-0.166667
 31
0.0
  0
LINE
  5
94
100
AcDbEntity
  8
0
  6
BYBLOCK
 62
     0
100
AcDbLine
 10
0.0
 20
0.0
 30
0.0
 11
-1.0
 21
0.0
 31
0.0
  0
ENDBLK
  5
95
100
AcDbEntity
  8
0
100
AcDbBlockEnd
  0
BLOCK
  5
E47
100
AcDbEntity
  8
0
 48
3.0
100
AcDbBlockBegin
  2
*D56
 70
     1
 10
0.0
 20
0.0
 30
0.0
  3
*D56
  1

  0
LINE
  5
E48
100
AcDbEntity
  8
0
  6
BYBLOCK
 62
     0
 48
3.0
100
AcDbLine
 10
155.0
 20
-201.0
 30
0.0
 11
155.0
 21
-259.271738
 31
0.0
  0
LINE
  5
E49
100
AcDbEntity
  8
0
  6
BYBLOCK
 62
     0
 48
3.0
100
AcDbLine
 10
555.0
 20
-201.0
 30
0.0
 11
555.0
 21
-259.271738
 31
0.0
  0
LINE
  5
E4A
100
AcDbEntity
  8
0
  6
BYBLOCK
 62
     0
 48
3.0
100
AcDbLine
 10
180.0
 20
-258.021738
 30
0.0
 11
530.0
 21
-258.021738
 31
0.0
  0
INSERT
  5
E4B
100
AcDbEntity
  8
0
  6
BYBLOCK
 62
     0
 48
3.0
100
AcDbBlockReference
  2
_OPEN
 10
155.0
 20
-258.021738
 30
0.0
 41
25.0
 42
25.0
 43
25.0
 50
180.0
  0
INSERT
  5
E4C
100
AcDbEntity
  8
0
  6
BYBLOCK
 62
     0
 48
3.0
100
AcDbBlockReference
  2
_OPEN
 10
555.0
 20
-258.021738
 30
0.0
 41
25.0
 42
25.0
 43
25.0
  0
MTEXT
  5
E4D
100
AcDbEntity
  8
0
  6
BYBLOCK
 62
     0
 48
3.0
100
AcDbMText
 10
355.0
 20
-239.021738
 30
0.0
 40
30.0
 41
0.0
 71
     5
 72
     1
  1
\A1;400
  7
ED30
  0
POINT
  5
E4E
100
AcDbEntity
  8
DEFPOINTS
  6
BYBLOCK
 62
     0
 48
3.0
100
AcDbPoint
 10
155.0
 20
-200.0
 30
0.0
  0
POINT
  5
E4F
100
AcDbEntity
  8
DEFPOINTS
  6
BYBLOCK
 62
     0
 48
3.0
100
AcDbPoint
 10
555.0
 20
-200.0
 30
0.0
  0
POINT
  5
E50
100
AcDbEntity
  8
DEFPOINTS
  6
BYBLOCK
 62
     0
 48
3.0
100
AcDbPoint
 10
555.0
 20
-258.021738
 30
0.0
  0
ENDBLK
  5
E51
100
AcDbEntity
  8
0
 48
3.0
100
AcDbBlockEnd
  0
BLOCK
  5
F10
100
AcDbEntity
  8
0
 48
3.0
100
AcDbBlockBegin
  2
*D57
 70
     1
 10
0.0
 20
0.0
 30
0.0
  3
*D57
  1

  0
LINE
  5
F11
100
AcDbEntity
  8
0
  6
BYBLOCK
 62
     0
 48
3.0
100
AcDbLine
 10
90.0
 20
-101.0
 30
0.0
 11
90.0
 21
-313.793013
 31
0.0
  0
LINE
  5
F12
100
AcDbEntity
  8
0
  6
BYBLOCK
 62
     0
 48
3.0
100
AcDbLine
 10
620.0
 20
-101.0
 30
0.0
 11
620.0
 21
-313.793013
 31
0.0
  0
LINE
  5
F13
100
AcDbEntity
  8
0
  6
BYBLOCK
 62
     0
 48
3.0
100
AcDbLine
 10
115.0
 20
-312.543013
 30
0.0
 11
595.0
 21
-312.543013
 31
0.0
  0
INSERT
  5
F14
100
AcDbEntity
  8
0
  6
BYBLOCK
 62
     0
 48
3.0
100
AcDbBlockReference
  2
_OPEN
 10
90.0
 20
-312.543013
 30
0.0
 41
25.0
 42
25.0
 43
25.0
 50
180.0
  0
INSERT
  5
F15
100
AcDbEntity
  8
0
  6
BYBLOCK
 62
     0
 48
3.0
100
AcDbBlockReference
  2
_OPEN
 10
620.0
 20
-312.543013
 30
0.0
 41
25.0
 42
25.0
 43
25.0
  0
MTEXT
  5
F16
100
AcDbEntity
  8
0
  6
BYBLOCK
 62
     0
 48
3.0
100
AcDbMText
 10
355.0
 20
-293.543013
 30
0.0
 40
30.0
 41
0.0
 71
     5
 72
     1
  1
\A1;530
  7
ED30
  0
POINT
  5
F17
100
AcDbEntity
  8
DEFPOINTS
  6
BYBLOCK
 62
     0
 48
3.0
100
AcDbPoint
 10
90.0
 20
-100.0
 30
0.0
  0
POINT
  5
F18
100
AcDbEntity
  8
DEFPOINTS
  6
BYBLOCK
 62
     0
 48
3.0
100
AcDbPoint
 10
620.0
 20
-100.0
 30
0.0
  0
POINT
  5
F19
100
AcDbEntity
  8
DEFPOINTS
  6
BYBLOCK
 62
     0
 48
3.0
100
AcDbPoint
 10
620.0
 20
-312.543013
 30
0.0
  0
ENDBLK
  5
F1A
100
AcDbEntity
  8
0
 48
3.0
100
AcDbBlockEnd
  0
BLOCK
  5
E61
100
AcDbEntity
  8
0
 48
3.0
100
AcDbBlockBegin
  2
*D58
 70
     1
 10
0.0
 20
0.0
 30
0.0
  3
*D58
  1

  0
LINE
  5
E62
100
AcDbEntity
  8
0
  6
BYBLOCK
 62
     0
 48
3.0
100
AcDbLine
 10
79.0
 20
100.0
 30
0.0
 11
29.318986
 21
100.0
 31
0.0
  0
LINE
  5
E63
100
AcDbEntity
  8
0
  6
BYBLOCK
 62
     0
 48
3.0
100
AcDbLine
 10
79.0
 20
-100.0
 30
0.0
 11
29.318986
 21
-100.0
 31
0.0
  0
LINE
  5
E64
100
AcDbEntity
  8
0
  6
BYBLOCK
 62
     0
 48
3.0
100
AcDbLine
 10
30.568986
 20
75.0
 30
0.0
 11
30.568986
 21
-75.0
 31
0.0
  0
INSERT
  5
E65
100
AcDbEntity
  8
0
  6
BYBLOCK
 62
     0
 48
3.0
100
AcDbBlockReference
  2
_OPEN
 10
30.568986
 20
100.0
 30
0.0
 41
25.0
 42
25.0
 43
25.0
 50
90.0
  0
INSERT
  5
E66
100
AcDbEntity
  8
0
  6
BYBLOCK
 62
     0
 48
3.0
100
AcDbBlockReference
  2
_OPEN
 10
30.568986
 20
-100.0
 30
0.0
 41
25.0
 42
25.0
 43
25.0
 50
270.0
  0
MTEXT
  5
E67
100
AcDbEntity
  8
0
  6
BYBLOCK
 62
     0
 48
3.0
100
AcDbMText
 10
11.566033
 20
0.0
 30
0.0
 40
30.0
 41
0.0
 71
     5
 72
     1
  1
\A1;200
  7
ED30
 11
0.0
 21
1.0
 31
0.0
  0
POINT
  5
E68
100
AcDbEntity
  8
DEFPOINTS
  6
BYBLOCK
 62
     0
 48
3.0
100
AcDbPoint
 10
80.0
 20
100.0
 30
0.0
  0
POINT
  5
E69
100
AcDbEntity
  8
DEFPOINTS
  6
BYBLOCK
 62
     0
 48
3.0
100
AcDbPoint
 10
80.0
 20
-100.0
 30
0.0
  0
POINT
  5
E6A
100
AcDbEntity
  8
DEFPOINTS
  6
BYBLOCK
 62
     0
 48
3.0
100
AcDbPoint
 10
30.568986
 20
-100.0
 30
0.0
  0
ENDBLK
  5
E6B
100
AcDbEntity
  8
0
 48
3.0
100
AcDbBlockEnd
  0
BLOCK
  5
F05
100
AcDbEntity
  8
0
 48
3.0
100
AcDbBlockBegin
  2
*D59
 70
     1
 10
0.0
 20
0.0
 30
0.0
  3
*D59
  1

  0
LINE
  5
F06
100
AcDbEntity
  8
0
  6
BYBLOCK
 62
     0
 48
3.0
100
AcDbLine
 10
556.0
 20
200.0
 30
0.0
 11
747.807499
 21
200.0
 31
0.0
  0
LINE
  5
F07
100
AcDbEntity
  8
0
  6
BYBLOCK
 62
     0
 48
3.0
100
AcDbLine
 10
556.0
 20
-200.0
 30
0.0
 11
747.807499
 21
-200.0
 31
0.0
  0
LINE
  5
F08
100
AcDbEntity
  8
0
  6
BYBLOCK
 62
     0
 48
3.0
100
AcDbLine
 10
746.557499
 20
175.0
 30
0.0
 11
746.557499
 21
-175.0
 31
0.0
  0
INSERT
  5
F09
100
AcDbEntity
  8
0
  6
BYBLOCK
 62
     0
 48
3.0
100
AcDbBlockReference
  2
_OPEN
 10
746.557499
 20
200.0
 30
0.0
 41
25.0
 42
25.0
 43
25.0
 50
90.0
  0
INSERT
  5
F0A
100
AcDbEntity
  8
0
  6
BYBLOCK
 62
     0
 48
3.0
100
AcDbBlockReference
  2
_OPEN
 10
746.557499
 20
-200.0
 30
0.0
 41
25.0
 42
25.0
 43
25.0
 50
270.0
  0
MTEXT
  5
F0B
100
AcDbEntity
  8
0
  6
BYBLOCK
 62
     0
 48
3.0
100
AcDbMText
 10
727.557499
 20
0.0
 30
0.0
 40
30.0
 41
0.0
 71
     5
 72
     1
  1
\A1;400
  7
ED30
 11
0.0
 21
1.0
 31
0.0
  0
POINT
  5
F0C
100
AcDbEntity
  8
DEFPOINTS
  6
BYBLOCK
 62
     0
 48
3.0
100
AcDbPoint
 10
555.0
 20
200.0
 30
0.0
  0
POINT
  5
F0D
100
AcDbEntity
  8
DEFPOINTS
  6
BYBLOCK
 62
     0
 48
3.0
100
AcDbPoint
 10
555.0
 20
-200.0
 30
0.0
  0
POINT
  5
F0E
100
AcDbEntity
  8
DEFPOINTS
  6
BYBLOCK
 62
     0
 48
3.0
100
AcDbPoint
 10
746.557499
 20
-200.0
 30
0.0
  0
ENDBLK
  5
F0F
100
AcDbEntity
  8
0
 48
3.0
100
AcDbBlockEnd
  0
BLOCK
  5
EFA
100
AcDbEntity
  8
0
 48
3.0
100
AcDbBlockBegin
  2
*D60
 70
     1
 10
0.0
 20
0.0
 30
0.0
  3
*D60
  1

  0
LINE
  5
EFB
100
AcDbEntity
  8
0
  6
BYBLOCK
 62
     0
 48
3.0
100
AcDbLine
 10
496.0
 20
135.0
 30
0.0
 11
693.221893
 21
135.0
 31
0.0
  0
LINE
  5
EFC
100
AcDbEntity
  8
0
  6
BYBLOCK
 62
     0
 48
3.0
100
AcDbLine
 10
494.822087
 20
-135.0
 30
0.0
 11
693.221893
 21
-135.0
 31
0.0
  0
LINE
  5
EFD
100
AcDbEntity
  8
0
  6
BYBLOCK
 62
     0
 48
3.0
100
AcDbLine
 10
691.971893
 20
110.0
 30
0.0
 11
691.971893
 21
-110.0
 31
0.0
  0
INSERT
  5
EFE
100
AcDbEntity
  8
0
  6
BYBLOCK
 62
     0
 48
3.0
100
AcDbBlockReference
  2
_OPEN
 10
691.971893
 20
135.0
 30
0.0
 41
25.0
 42
25.0
 43
25.0
 50
90.0
  0
INSERT
  5
EFF
100
AcDbEntity
  8
0
  6
BYBLOCK
 62
     0
 48
3.0
100
AcDbBlockReference
  2
_OPEN
 10
691.971893
 20
-135.0
 30
0.0
 41
25.0
 42
25.0
 43
25.0
 50
270.0
  0
MTEXT
  5
F00
100
AcDbEntity
  8
0
  6
BYBLOCK
 62
     0
 48
3.0
100
AcDbMText
 10
672.96894
 20
0.0
 30
0.0
 40
30.0
 41
0.0
 71
     5
 72
     1
  1
\A1;270
  7
ED30
 11
0.0
 21
1.0
 31
0.0
  0
POINT
  5
F01
100
AcDbEntity
  8
DEFPOINTS
  6
BYBLOCK
 62
     0
 48
3.0
100
AcDbPoint
 10
495.0
 20
135.0
 30
0.0
  0
POINT
  5
F02
100
AcDbEntity
  8
DEFPOINTS
  6
BYBLOCK
 62
     0
 48
3.0
100
AcDbPoint
 10
493.822087
 20
-135.0
 30
0.0
  0
POINT
  5
F03
100
AcDbEntity
  8
DEFPOINTS
  6
BYBLOCK
 62
     0
 48
3.0
100
AcDbPoint
 10
691.971893
 20
-135.0
 30
0.0
  0
ENDBLK
  5
F04
100
AcDbEntity
  8
0
 48
3.0
100
AcDbBlockEnd
  0
BLOCK
  5
E88
100
AcDbEntity
  8
0
 48
3.0
100
AcDbBlockBegin
  2
*D61
 70
     1
 10
0.0
 20
0.0
 30
0.0
  3
*D61
  1

  0
LINE
  5
E89
100
AcDbEntity
  8
0
  6
BYBLOCK
 62
     0
 48
3.0
100
AcDbLine
 10
220.0
 20
126.978829
 30
0.0
 11
220.0
 21
250.276103
 31
0.0
  0
LINE
  5
E8A
100
AcDbEntity
  8
0
  6
BYBLOCK
 62
     0
 48
3.0
100
AcDbLine
 10
490.0
 20
131.0
 30
0.0
 11
490.0
 21
250.276103
 31
0.0
  0
LINE
  5
E8B
100
AcDbEntity
  8
0
  6
BYBLOCK
 62
     0
 48
3.0
100
AcDbLine
 10
245.0
 20
249.026103
 30
0.0
 11
465.0
 21
249.026103
 31
0.0
  0
INSERT
  5
E8C
100
AcDbEntity
  8
0
  6
BYBLOCK
 62
     0
 48
3.0
100
AcDbBlockReference
  2
_OPEN
 10
220.0
 20
249.026103
 30
0.0
 41
25.0
 42
25.0
 43
25.0
 50
180.0
  0
INSERT
  5
E8D
100
AcDbEntity
  8
0
  6
BYBLOCK
 62
     0
 48
3.0
100
AcDbBlockReference
  2
_OPEN
 10
490.0
 20
249.026103
 30
0.0
 41
25.0
 42
25.0
 43
25.0
  0
MTEXT
  5
E8E
100
AcDbEntity
  8
0
  6
BYBLOCK
 62
     0
 48
3.0
100
AcDbMText
 10
355.0
 20
268.029056
 30
0.0
 40
30.0
 41
0.0
 71
     5
 72
     1
  1
\A1;270
  7
ED30
  0
POINT
  5
E8F
100
AcDbEntity
  8
DEFPOINTS
  6
BYBLOCK
 62
     0
 48
3.0
100
AcDbPoint
 10
220.0
 20
125.978829
 30
0.0
  0
POINT
  5
E90
100
AcDbEntity
  8
DEFPOINTS
  6
BYBLOCK
 62
     0
 48
3.0
100
AcDbPoint
 10
490.0
 20
130.0
 30
0.0
  0
POINT
  5
E91
100
AcDbEntity
  8
DEFPOINTS
  6
BYBLOCK
 62
     0
 48
3.0
100
AcDbPoint
 10
490.0
 20
249.026103
 30
0.0
  0
ENDBLK
  5
E92
100
AcDbEntity
  8
0
 48
3.0
100
AcDbBlockEnd
  0
BLOCK
  5
E95
100
AcDbEntity
  8
0
 48
3.0
100
AcDbBlockBegin
  2
*D62
 70
     1
 10
0.0
 20
0.0
 30
0.0
  3
*D62
  1

  0
LINE
  5
E96
100
AcDbEntity
  8
0
  6
BYBLOCK
 62
     0
 48
3.0
100
AcDbLine
 10
900.0
 20
-201.0
 30
0.0
 11
900.0
 21
-313.793013
 31
0.0
  0
LINE
  5
E97
100
AcDbEntity
  8
0
  6
BYBLOCK
 62
     0
 48
3.0
100
AcDbLine
 10
1300.0
 20
-201.0
 30
0.0
 11
1300.0
 21
-313.793013
 31
0.0
  0
LINE
  5
E98
100
AcDbEntity
  8
0
  6
BYBLOCK
 62
     0
 48
3.0
100
AcDbLine
 10
925.0
 20
-312.543013
 30
0.0
 11
1275.0
 21
-312.543013
 31
0.0
  0
INSERT
  5
E99
100
AcDbEntity
  8
0
  6
BYBLOCK
 62
     0
 48
3.0
100
AcDbBlockReference
  2
_OPEN
 10
900.0
 20
-312.543013
 30
0.0
 41
25.0
 42
25.0
 43
25.0
 50
180.0
  0
INSERT
  5
E9A
100
AcDbEntity
  8
0
  6
BYBLOCK
 62
     0
 48
3.0
100
AcDbBlockReference
  2
_OPEN
 10
1300.0
 20
-312.543013
 30
0.0
 41
25.0
 42
25.0
 43
25.0
  0
MTEXT
  5
E9B
100
AcDbEntity
  8
0
  6
BYBLOCK
 62
     0
 48
3.0
100
AcDbMText
 10
1100.0
 20
-293.543013
 30
0.0
 40
30.0
 41
0.0
 71
     5
 72
     1
  1
\A1;400
  7
ED30
  0
POINT
  5
E9C
100
AcDbEntity
  8
DEFPOINTS
  6
BYBLOCK
 62
     0
 48
3.0
100
AcDbPoint
 10
900.0
 20
-200.0
 30
0.0
  0
POINT
  5
E9D
100
AcDbEntity
  8
DEFPOINTS
  6
BYBLOCK
 62
     0
 48
3.0
100
AcDbPoint
 10
1300.0
 20
-200.0
 30
0.0
  0
POINT
  5
E9E
100
AcDbEntity
  8
DEFPOINTS
  6
BYBLOCK
 62
     0
 48
3.0
100
AcDbPoint
 10
1300.0
 20
-312.543013
 30
0.0
  0
ENDBLK
  5
E9F
100
AcDbEntity
  8
0
 48
3.0
100
AcDbBlockEnd
  0
BLOCK
  5
EE4
100
AcDbEntity
  8
0
 48
3.0
100
AcDbBlockBegin
  2
*D63
 70
     1
 10
0.0
 20
0.0
 30
0.0
  3
*D63
  1

  0
LINE
  5
EE5
100
AcDbEntity
  8
0
  6
BYBLOCK
 62
     0
 48
3.0
100
AcDbLine
 10
90.0
 20
-101.0
 30
0.0
 11
90.0
 21
-259.271738
 31
0.0
  0
LINE
  5
EE6
100
AcDbEntity
  8
0
  6
BYBLOCK
 62
     0
 48
3.0
100
AcDbLine
 10
155.0
 20
-201.0
 30
0.0
 11
155.0
 21
-259.271738
 31
0.0
  0
LINE
  5
EE7
100
AcDbEntity
  8
0
  6
BYBLOCK
 62
     0
 48
3.0
100
AcDbLine
 10
115.0
 20
-258.021738
 30
0.0
 11
130.0
 21
-258.021738
 31
0.0
  0
INSERT
  5
EE8
100
AcDbEntity
  8
0
  6
BYBLOCK
 62
     0
 48
3.0
100
AcDbBlockReference
  2
_OPEN
 10
90.0
 20
-258.021738
 30
0.0
 41
25.0
 42
25.0
 43
25.0
 50
180.0
  0
INSERT
  5
EE9
100
AcDbEntity
  8
0
  6
BYBLOCK
 62
     0
 48
3.0
100
AcDbBlockReference
  2
_OPEN
 10
155.0
 20
-258.021738
 30
0.0
 41
25.0
 42
25.0
 43
25.0
  0
MTEXT
  5
EEA
100
AcDbEntity
  8
0
  6
BYBLOCK
 62
     0
 48
3.0
100
AcDbMText
 10
122.5
 20
-239.021738
 30
0.0
 40
30.0
 41
0.0
 71
     5
 72
     1
  1
\A1;65
  7
ED30
  0
POINT
  5
EEB
100
AcDbEntity
  8
DEFPOINTS
  6
BYBLOCK
 62
     0
 48
3.0
100
AcDbPoint
 10
90.0
 20
-100.0
 30
0.0
  0
POINT
  5
EEC
100
AcDbEntity
  8
DEFPOINTS
  6
BYBLOCK
 62
     0
 48
3.0
100
AcDbPoint
 10
155.0
 20
-200.0
 30
0.0
  0
POINT
  5
EED
100
AcDbEntity
  8
DEFPOINTS
  6
BYBLOCK
 62
     0
 48
3.0
100
AcDbPoint
 10
155.0
 20
-258.021738
 30
0.0
  0
ENDBLK
  5
EEE
100
AcDbEntity
  8
0
 48
3.0
100
AcDbBlockEnd
  0
BLOCK
  5
106D
100
AcDbEntity
  8
0
 48
3.0
100
AcDbBlockBegin
  2
*D64
 70
     1
 10
0.0
 20
0.0
 30
0.0
  3
*D64
  1

  0
LINE
  5
106E
100
AcDbEntity
  8
0
  6
BYBLOCK
 62
     0
 48
3.0
100
AcDbLine
 10
930.0
 20
-141.595777
 30
0.0
 11
930.0
 21
-260.976191
 31
0.0
  0
LINE
  5
106F
100
AcDbEntity
  8
0
  6
BYBLOCK
 62
     0
 48
3.0
100
AcDbLine
 10
1200.0
 20
-141.0
 30
0.0
 11
1200.0
 21
-260.976191
 31
0.0
  0
LINE
  5
1070
100
AcDbEntity
  8
0
  6
BYBLOCK
 62
     0
 48
3.0
100
AcDbLine
 10
955.0
 20
-259.726191
 30
0.0
 11
1175.0
 21
-259.726191
 31
0.0
  0
INSERT
  5
1071
100
AcDbEntity
  8
0
  6
BYBLOCK
 62
     0
 48
3.0
100
AcDbBlockReference
  2
_OPEN
 10
930.0
 20
-259.726191
 30
0.0
 41
25.0
 42
25.0
 43
25.0
 50
180.0
  0
INSERT
  5
1072
100
AcDbEntity
  8
0
  6
BYBLOCK
 62
     0
 48
3.0
100
AcDbBlockReference
  2
_OPEN
 10
1200.0
 20
-259.726191
 30
0.0
 41
25.0
 42
25.0
 43
25.0
  0
MTEXT
  5
1073
100
AcDbEntity
  8
0
  6
BYBLOCK
 62
     0
 48
3.0
100
AcDbMText
 10
1065.0
 20
-240.723238
 30
0.0
 40
30.0
 41
0.0
 71
     5
 72
     1
  1
\A1;270
  7
ED30
  0
POINT
  5
1074
100
AcDbEntity
  8
DEFPOINTS
  6
BYBLOCK
 62
     0
 48
3.0
100
AcDbPoint
 10
930.0
 20
-140.595777
 30
0.0
  0
POINT
  5
1075
100
AcDbEntity
  8
DEFPOINTS
  6
BYBLOCK
 62
     0
 48
3.0
100
AcDbPoint
 10
1200.0
 20
-140.0
 30
0.0
  0
POINT
  5
1076
100
AcDbEntity
  8
DEFPOINTS
  6
BYBLOCK
 62
     0
 48
3.0
100
AcDbPoint
 10
1200.0
 20
-259.726191
 30
0.0
  0
ENDBLK
  5
1077
100
AcDbEntity
  8
0
 48
3.0
100
AcDbBlockEnd
  0
ENDSEC
  0
SECTION
  2
ENTITIES
  0
LINE
  5
D86
100
AcDbEntity
  8
V0-VYPLNE
 48
3.0
100
AcDbLine
 10
68.169658
 20
0.0
 30
0.0
 11
626.252643
 21
0.0
 31
0.0
  0
LINE
  5
D87
100
AcDbEntity
  8
V0-VYPLNE
 48
3.0
100
AcDbLine
 10
815.0
 20
0.0
 30
0.0
 11
1315.0
 21
0.0
 31
0.0
  0
LINE
  5
D88
100
AcDbEntity
  8
V0-VYPLNE
 48
3.0
100
AcDbLine
 10
1065.0
 20
250.0
 30
0.0
 11
1065.0
 21
-157.157384
 31
0.0
  0
LINE
  5
D89
100
AcDbEntity
  8
V0-VYPLNE
 48
3.0
100
AcDbLine
 10
192.021083
 20
135.0
 30
0.0
 11
248.277483
 21
135.0
 31
0.0
  0
LINE
  5
D8A
100
AcDbEntity
  8
V0-VYPLNE
 48
3.0
100
AcDbLine
 10
195.900829
 20
-135.0
 30
0.0
 11
252.157229
 21
-135.0
 31
0.0
  0
LINE
  5
D8B
100
AcDbEntity
  8
V0-VYPLNE
 48
3.0
100
AcDbLine
 10
220.0
 20
162.793039
 30
0.0
 11
220.0
 21
98.852579
 31
0.0
  0
LINE
  5
D8D
100
AcDbEntity
  8
V0-VYPLNE
 48
3.0
100
AcDbLine
 10
490.0
 20
162.793039
 30
0.0
 11
490.0
 21
94.977395
 31
0.0
  0
LINE
  5
D8E
100
AcDbEntity
  8
V0-VYPLNE
 48
3.0
100
AcDbLine
 10
930.0
 20
162.793039
 30
0.0
 11
930.0
 21
94.977395
 31
0.0
  0
LINE
  5
D8F
100
AcDbEntity
  8
V0-VYPLNE
 48
3.0
100
AcDbLine
 10
1200.0
 20
166.668214
 30
0.0
 11
1200.0
 21
96.914987
 31
0.0
  0
LINE
  5
D90
100
AcDbEntity
  8
V0-OBRYS
  6
CONTINUOUS
 62
    90
 48
3.0
100
AcDbLine
 10
155.0
 20
200.0
 30
0.0
 11
155.0
 21
-200.0
 31
0.0
  0
LINE
  5
D92
100
AcDbEntity
  8
V0-OBRYS
  6
CONTINUOUS
 62
    90
 48
3.0
100
AcDbLine
 10
155.0
 20
200.0
 30
0.0
 11
555.0
 21
200.0
 31
0.0
  0
LINE
  5
D93
100
AcDbEntity
  8
V0-OBRYS
  6
CONTINUOUS
 62
    90
 48
3.0
100
AcDbLine
 10
155.0
 20
-200.0
 30
0.0
 11
555.0
 21
-200.0
 31
0.0
  0
LINE
  5
D94
100
AcDbEntity
  8
V0-OBRYS
  6
CONTINUOUS
 62
    90
 48
3.0
100
AcDbLine
 10
555.0
 20
200.0
 30
0.0
 11
555.0
 21
-200.0
 31
0.0
  0
LINE
  5
D95
100
AcDbEntity
  8
V0-OBRYS
  6
CONTINUOUS
 62
    90
 48
3.0
100
AcDbLine
 10
865.0
 20
200.0
 30
0.0
 11
865.0
 21
-200.0
 31
0.0
  0
LINE
  5
D96
100
AcDbEntity
  8
V0-OBRYS
  6
CONTINUOUS
 62
    90
 48
3.0
100
AcDbLine
 10
1265.0
 20
200.0
 30
0.0
 11
1265.0
 21
-200.0
 31
0.0
  0
LINE
  5
D97
100
AcDbEntity
  8
V0-OBRYS
  6
CONTINUOUS
 62
    90
 48
3.0
100
AcDbLine
 10
865.0
 20
200.0
 30
0.0
 11
1265.0
 21
200.0
 31
0.0
  0
LINE
  5
D98
100
AcDbEntity
  8
V0-VYPLNE
 48
3.0
100
AcDbLine
 10
896.113775
 20
135.0
 30
0.0
 11
962.06956
 21
135.0
 31
0.0
  0
LINE
  5
D99
100
AcDbEntity
  8
V0-VYPLNE
 48
3.0
100
AcDbLine
 10
898.053648
 20
-135.0
 30
0.0
 11
971.768926
 21
-135.0
 31
0.0
  0
LINE
  5
D9A
100
AcDbEntity
  8
V0-OBRYS
  6
CONTINUOUS
 62
    90
 48
3.0
100
AcDbLine
 10
865.0
 20
-200.0
 30
0.0
 11
1265.0
 21
-200.0
 31
0.0
  0
LINE
  5
D9B
100
AcDbEntity
  8
V0-OBRYS
  6
CONTINUOUS
 62
    90
 48
3.0
100
AcDbLine
 10
175.0
 20
180.0
 30
0.0
 11
535.0
 21
180.0
 31
0.0
  0
LINE
  5
D9C
100
AcDbEntity
  8
V0-OBRYS
  6
CONTINUOUS
 62
    90
 48
3.0
100
AcDbLine
 10
175.0
 20
-180.0
 30
0.0
 11
535.0
 21
-180.0
 31
0.0
  0
LINE
  5
D9E
100
AcDbEntity
  8
V0-OBRYS
  6
CONTINUOUS
 62
    90
 48
3.0
100
AcDbLine
 10
175.0
 20
200.0
 30
0.0
 11
175.0
 21
-200.0
 31
0.0
  0
LINE
  5
D9F
100
AcDbEntity
  8
V0-OBRYS
  6
CONTINUOUS
 62
    90
 48
3.0
100
AcDbLine
 10
535.0
 20
200.0
 30
0.0
 11
535.0
 21
-200.0
 31
0.0
  0
LINE
  5
DA0
100
AcDbEntity
  8
V0-OBRYS
  6
CONTINUOUS
 62
    90
 48
3.0
100
AcDbLine
 10
885.0
 20
180.0
 30
0.0
 11
885.0
 21
-180.0
 31
0.0
  0
LINE
  5
DA1
100
AcDbEntity
  8
V0-OBRYS
  6
CONTINUOUS
 62
    90
 48
3.0
100
AcDbLine
 10
885.0
 20
180.0
 30
0.0
 11
1245.0
 21
180.0
 31
0.0
  0
LINE
  5
DA2
100
AcDbEntity
  8
V0-OBRYS
  6
CONTINUOUS
 62
    90
 48
3.0
100
AcDbLine
 10
1245.0
 20
180.0
 30
0.0
 11
1245.0
 21
-180.0
 31
0.0
  0
LINE
  5
DA3
100
AcDbEntity
  8
V0-OBRYS
  6
CONTINUOUS
 62
    90
 48
3.0
100
AcDbLine
 10
885.0
 20
-180.0
 30
0.0
 11
1245.0
 21
-180.0
 31
0.0
  0
LINE
  5
DA4
100
AcDbEntity
  8
V0-VYPLNE
 48
3.0
100
AcDbLine
 10
457.784077
 20
-135.0
 30
0.0
 11
519.860097
 21
-135.0
 31
0.0
  0
LINE
  5
DA5
100
AcDbEntity
  8
V0-VYPLNE
 48
3.0
100
AcDbLine
 10
465.54357
 20
135.0
 30
0.0
 11
515.980351
 21
135.0
 31
0.0
  0
LINE
  5
DA6
100
AcDbEntity
  8
V0-VYPLNE
 48
3.0
100
AcDbLine
 10
1173.516028
 20
135.0
 30
0.0
 11
1227.832535
 21
135.0
 31
0.0
  0
LINE
  5
DA7
100
AcDbEntity
  8
V0-VYPLNE
 48
3.0
100
AcDbLine
 10
1167.696389
 20
-135.0
 30
0.0
 11
1229.772428
 21
-135.0
 31
0.0
  0
LINE
  5
DA8
100
AcDbEntity
  8
V0-VYPLNE
 48
3.0
100
AcDbLine
 10
1200.0
 20
-96.843985
 30
0.0
 11
1200.0
 21
-166.597211
 31
0.0
  0
LINE
  5
DA9
100
AcDbEntity
  8
V0-VYPLNE
 48
3.0
100
AcDbLine
 10
220.0
 20
-94.906393
 30
0.0
 11
220.0
 21
-161.120394
 31
0.0
  0
LINE
  5
DAA
100
AcDbEntity
  8
V0-VYPLNE
 48
3.0
100
AcDbLine
 10
490.0
 20
-91.031209
 30
0.0
 11
490.0
 21
-158.885913
 31
0.0
  0
LINE
  5
DAB
100
AcDbEntity
  8
V0-VYPLNE
 48
3.0
100
AcDbLine
 10
930.0
 20
-102.656751
 30
0.0
 11
930.0
 21
-168.534803
 31
0.0
  0
CIRCLE
  5
DAC
100
AcDbEntity
  8
V0-OBRYS
 48
3.0
100
AcDbCircle
 10
1065.0
 20
0.0
 30
0.0
 40
100.0
  0
CIRCLE
  5
DAD
100
AcDbEntity
  8
V0-OBRYS
 48
3.0
100
AcDbCircle
 10
1065.0
 20
0.0
 30
0.0
 40
120.0
  0
CIRCLE
  5
DB0
100
AcDbEntity
  8
V0-OBRYS
 48
3.0
100
AcDbCircle
 10
220.0
 20
135.0
 30
0.0
 40
5.0
  0
CIRCLE
  5
DB1
100
AcDbEntity
  8
V0-OBRYS
 48
3.0
100
AcDbCircle
 10
490.0
 20
135.0
 30
0.0
 40
5.0
  0
CIRCLE
  5
DB2
100
AcDbEntity
  8
V0-OBRYS
 48
3.0
100
AcDbCircle
 10
224.029029
 20
-135.0
 30
0.0
 40
5.0
  0
CIRCLE
  5
DB3
100
AcDbEntity
  8
V0-OBRYS
 48
3.0
100
AcDbCircle
 10
488.822087
 20
-135.0
 30
0.0
 40
5.0
  0
CIRCLE
  5
DB4
100
AcDbEntity
  8
V0-OBRYS
 48
3.0
100
AcDbCircle
 10
929.091667
 20
135.0
 30
0.0
 40
5.0
  0
CIRCLE
  5
DB5
100
AcDbEntity
  8
V0-OBRYS
 48
3.0
100
AcDbCircle
 10
1200.674282
 20
135.0
 30
0.0
 40
5.0
  0
CIRCLE
  5
DB6
100
AcDbEntity
  8
V0-OBRYS
 48
3.0
100
AcDbCircle
 10
1200.0
 20
-135.0
 30
0.0
 40
5.0
  0
CIRCLE
  5
DB7
100
AcDbEntity
  8
V0-OBRYS
 48
3.0
100
AcDbCircle
 10
930.0
 20
-135.595777
 30
0.0
 40
5.0
  0
CIRCLE
  5
DBB
100
AcDbEntity
  8
V0-OBRYS
 48
3.0
100
AcDbCircle
 10
1065.0
 20
110.0
 30
0.0
 40
5.0
  0
CIRCLE
  5
DBC
100
AcDbEntity
  8
V0-OBRYS
 48
3.0
100
AcDbCircle
 10
1010.0
 20
95.262794
 30
0.0
 40
5.0
  0
CIRCLE
  5
DBD
100
AcDbEntity
  8
V0-OBRYS
 48
3.0
100
AcDbCircle
 10
969.737206
 20
55.0
 30
0.0
 40
5.0
  0
CIRCLE
  5
DBE
100
AcDbEntity
  8
V0-OBRYS
 48
3.0
100
AcDbCircle
 10
955.0
 20
0.0
 30
0.0
 40
5.0
  0
CIRCLE
  5
DBF
100
AcDbEntity
  8
V0-OBRYS
 48
3.0
100
AcDbCircle
 10
969.737206
 20
-55.0
 30
0.0
 40
5.0
  0
CIRCLE
  5
DC0
100
AcDbEntity
  8
V0-OBRYS
 48
3.0
100
AcDbCircle
 10
1010.0
 20
-95.262794
 30
0.0
 40
5.0
  0
CIRCLE
  5
DC1
100
AcDbEntity
  8
V0-OBRYS
 48
3.0
100
AcDbCircle
 10
1065.0
 20
-110.0
 30
0.0
 40
5.0
  0
CIRCLE
  5
DC2
100
AcDbEntity
  8
V0-OBRYS
 48
3.0
100
AcDbCircle
 10
1120.0
 20
-95.262794
 30
0.0
 40
5.0
  0
CIRCLE
  5
DC3
100
AcDbEntity
  8
V0-OBRYS
 48
3.0
100
AcDbCircle
 10
1160.262794
 20
-55.0
 30
0.0
 40
5.0
  0
CIRCLE
  5
DC4
100
AcDbEntity
  8
V0-OBRYS
 48
3.0
100
AcDbCircle
 10
1175.0
 20
0.0
 30
0.0
 40
5.0
  0
CIRCLE
  5
DC5
100
AcDbEntity
  8
V0-OBRYS
 48
3.0
100
AcDbCircle
 10
1160.262794
 20
55.0
 30
0.0
 40
5.0
  0
CIRCLE
  5
DC6
100
AcDbEntity
  8
V0-OBRYS
 48
3.0
100
AcDbCircle
 10
1120.0
 20
95.262794
 30
0.0
 40
5.0
  0
LINE
  5
DC7
100
AcDbEntity
  8
V0-OBRYS
 48
3.0
100
AcDbLine
 10
1005.0
 20
80.0
 30
0.0
 11
1125.0
 21
80.0
 31
0.0
  0
LINE
  5
DC8
100
AcDbEntity
  8
V0-OBRYS
 48
3.0
100
AcDbLine
 10
985.0
 20
-60.0
 30
0.0
 11
985.0
 21
60.0
 31
0.0
  0
LINE
  5
DC9
100
AcDbEntity
  8
V0-OBRYS
 48
3.0
100
AcDbLine
 10
1125.0
 20
-80.0
 30
0.0
 11
1005.0
 21
-80.0
 31
0.0
  0
LINE
  5
DCA
100
AcDbEntity
  8
V0-OBRYS
 48
3.0
100
AcDbLine
 10
1145.0
 20
60.0
 30
0.0
 11
1145.0
 21
-60.0
 31
0.0
  0
CIRCLE
  5
DCC
100
AcDbEntity
  8
V0-OBRYS
 48
3.0
100
AcDbCircle
 10
1065.0
 20
0.0
 30
0.0
 40
20.0
  0
CIRCLE
  5
DCD
100
AcDbEntity
  8
V0-OBRYS
 48
3.0
100
AcDbCircle
 10
1065.0
 20
0.0
 30
0.0
 40
25.0
  0
CIRCLE
  5
DCE
100
AcDbEntity
  8
V0-OBRYS
 48
3.0
100
AcDbCircle
 10
1065.0
 20
0.0
 30
0.0
 40
35.0
  0
LINE
  5
DCF
100
AcDbEntity
  8
V0-OBRYS
 48
3.0
100
AcDbLine
 10
90.0
 20
-100.0
 30
0.0
 11
90.0
 21
100.0
 31
0.0
  0
LINE
  5
DD1
100
AcDbEntity
  8
V0-OBRYS
 48
3.0
100
AcDbLine
 10
90.0
 20
-100.0
 30
0.0
 11
100.0
 21
-100.0
 31
0.0
  0
LINE
  5
DD3
100
AcDbEntity
  8
V0-OBRYS
 48
3.0
100
AcDbLine
 10
90.0
 20
100.0
 30
0.0
 11
100.0
 21
100.0
 31
0.0
  0
LINE
  5
DD4
100
AcDbEntity
  8
V0-OBRYS
 48
3.0
100
AcDbLine
 10
100.0
 20
100.0
 30
0.0
 11
100.0
 21
-100.0
 31
0.0
  0
LINE
  5
DD6
100
AcDbEntity
  8
V0-OBRYS
 48
3.0
100
AcDbLine
 10
110.0
 20
-100.0
 30
0.0
 11
110.0
 21
100.0
 31
0.0
  0
ARC
  5
DD9
100
AcDbEntity
  8
V0-OBRYS
 48
3.0
100
AcDbCircle
 10
105.0
 20
100.0
 30
0.0
 40
5.0
100
AcDbArc
 50
0.0
 51
180.0
  0
ARC
  5
DDA
100
AcDbEntity
  8
V0-OBRYS
 48
3.0
100
AcDbCircle
 10
105.0
 20
-100.0
 30
0.0
 40
5.0
100
AcDbArc
 50
180.0
 51
0.0
  0
LINE
  5
DDB
100
AcDbEntity
  8
V0-OBRYS
 48
3.0
100
AcDbLine
 10
110.0
 20
100.0
 30
0.0
 11
155.0
 21
100.0
 31
0.0
  0
LINE
  5
DDC
100
AcDbEntity
  8
V0-OBRYS
 48
3.0
100
AcDbLine
 10
110.0
 20
-100.0
 30
0.0
 11
155.0
 21
-100.0
 31
0.0
  0
LINE
  5
DDE
100
AcDbEntity
  8
V0-OBRYS
 48
3.0
100
AcDbLine
 10
600.0
 20
-100.0
 30
0.0
 11
600.0
 21
100.0
 31
0.0
  0
LINE
  5
DDF
100
AcDbEntity
  8
V0-OBRYS
 48
3.0
100
AcDbLine
 10
610.0
 20
100.0
 30
0.0
 11
610.0
 21
-100.0
 31
0.0
  0
LINE
  5
DE0
100
AcDbEntity
  8
V0-OBRYS
 48
3.0
100
AcDbLine
 10
620.0
 20
-100.0
 30
0.0
 11
620.0
 21
100.0
 31
0.0
  0
LINE
  5
DE1
100
AcDbEntity
  8
V0-OBRYS
 48
3.0
100
AcDbLine
 10
600.0
 20
-100.0
 30
0.0
 11
555.0
 21
-100.0
 31
0.0
  0
LINE
  5
DE2
100
AcDbEntity
  8
V0-OBRYS
 48
3.0
100
AcDbLine
 10
620.0
 20
-100.0
 30
0.0
 11
610.0
 21
-100.0
 31
0.0
  0
ARC
  5
DE3
100
AcDbEntity
  8
V0-OBRYS
 48
3.0
100
AcDbCircle
 10
605.0
 20
-100.0
 30
0.0
 40
5.0
100
AcDbArc
 50
180.0
 51
360.0
  0
LINE
  5
DE4
100
AcDbEntity
  8
V0-OBRYS
 48
3.0
100
AcDbLine
 10
600.0
 20
100.0
 30
0.0
 11
555.0
 21
100.0
 31
0.0
  0
LINE
  5
DE5
100
AcDbEntity
  8
V0-OBRYS
 48
3.0
100
AcDbLine
 10
620.0
 20
100.0
 30
0.0
 11
610.0
 21
100.0
 31
0.0
  0
ARC
  5
DE6
100
AcDbEntity
  8
V0-OBRYS
 48
3.0
100
AcDbCircle
 10
605.0
 20
100.0
 30
0.0
 40
5.0
100
AcDbArc
 50
360.0
 51
180.0
  0
LINE
  5
DE7
100
AcDbEntity
  8
V0-VYPLNE
  6
DASHED
 48
3.0
100
AcDbLine
 10
193.960956
 20
125.978829
 30
0.0
 11
193.960956
 21
0.035501
 31
0.0
  0
LINE
  5
DE8
100
AcDbEntity
  8
V0-VYPLNE
  6
DASHED
 48
3.0
100
AcDbLine
 10
382.128907
 20
125.978829
 30
0.0
 11
382.128907
 21
0.035501
 31
0.0
  0
LINE
  5
DE9
100
AcDbEntity
  8
V0-VYPLNE
  6
DASHED
 48
3.0
100
AcDbLine
 10
193.960956
 20
125.978829
 30
0.0
 11
382.128926
 21
125.978829
 31
0.0
  0
LINE
  5
DEA
100
AcDbEntity
  8
V0-VYPLNE
  6
DASHED
 48
3.0
100
AcDbLine
 10
380.189053
 20
100.790171
 30
0.0
 11
426.746068
 21
100.790171
 31
0.0
  0
LINE
  5
DEB
100
AcDbEntity
  8
V0-VYPLNE
  6
DASHED
 48
3.0
100
AcDbLine
 10
426.746068
 20
100.790171
 30
0.0
 11
491.327878
 21
-100.790171
 31
0.0
  0
LINE
  5
DEC
100
AcDbEntity
  8
V0-VYPLNE
  6
DASHED
 48
3.0
100
AcDbLine
 10
193.960956
 20
-125.978829
 30
0.0
 11
193.960956
 21
-0.035501
 31
0.0
  0
LINE
  5
DED
100
AcDbEntity
  8
V0-VYPLNE
  6
DASHED
 48
3.0
100
AcDbLine
 10
193.960956
 20
-125.978829
 30
0.0
 11
382.128926
 21
-125.978829
 31
0.0
  0
LINE
  5
DEE
100
AcDbEntity
  8
V0-VYPLNE
  6
DASHED
 48
3.0
100
AcDbLine
 10
380.189053
 20
-100.790171
 30
0.0
 11
491.327878
 21
-100.790171
 31
0.0
  0
LINE
  5
DEF
100
AcDbEntity
  8
V0-VYPLNE
  6
DASHED
 48
3.0
100
AcDbLine
 10
382.128907
 20
-125.978829
 30
0.0
 11
382.128907
 21
-0.035501
 31
0.0
  0
LINE
  5
DF0
100
AcDbEntity
  8
V0-VYPLNE
  6
DASHED
 48
3.0
100
AcDbLine
 10
391.828292
 20
-34.841107
 30
0.0
 11
463.603697
 21
-34.841107
 31
0.0
  0
LINE
  5
DF1
100
AcDbEntity
  8
V0-VYPLNE
  6
DASHED
 48
3.0
100
AcDbLine
 10
463.603697
 20
-34.841107
 30
0.0
 11
463.603697
 21
-94.906393
 31
0.0
  0
LINE
  5
DF2
100
AcDbEntity
  8
V0-VYPLNE
  6
DASHED
 48
3.0
100
AcDbLine
 10
463.603697
 20
-94.906393
 30
0.0
 11
393.768185
 21
-94.906393
 31
0.0
  0
LINE
  5
DF3
100
AcDbEntity
  8
V0-VYPLNE
  6
DASHED
 48
3.0
100
AcDbLine
 10
393.768185
 20
-94.906393
 30
0.0
 11
393.768185
 21
-34.841107
 31
0.0
  0
LINE
  5
DF6
100
AcDbEntity
  8
V0-VYPLNE
  6
DASHED
 48
3.0
100
AcDbLine
 10
201.720468
 20
77.539096
 30
0.0
 11
370.489668
 21
77.539096
 31
0.0
  0
LINE
  5
DF7
100
AcDbEntity
  8
V0-VYPLNE
  6
DASHED
 48
3.0
100
AcDbLine
 10
201.720468
 20
15.536218
 30
0.0
 11
370.489668
 21
15.536218
 31
0.0
  0
LINE
  5
DF8
100
AcDbEntity
  8
V0-VYPLNE
  6
DASHED
 48
3.0
100
AcDbLine
 10
201.720468
 20
-65.842551
 30
0.0
 11
370.489668
 21
-65.842551
 31
0.0
  0
LINE
  5
DF9
100
AcDbEntity
  8
V0-VYPLNE
  6
DASHED
 48
3.0
100
AcDbLine
 10
370.489668
 20
125.978829
 30
0.0
 11
370.489668
 21
-125.907827
 31
0.0
  0
LINE
  5
DFA
100
AcDbEntity
  8
V0-VYPLNE
  6
DASHED
 48
3.0
100
AcDbLine
 10
201.720468
 20
127.916421
 30
0.0
 11
201.720468
 21
-125.907827
 31
0.0
  0
LINE
  5
DFB
100
AcDbEntity
  8
V0-VYPLNE
  6
DASHED
 48
3.0
100
AcDbLine
 10
430.625814
 20
91.102221
 30
0.0
 11
535.379102
 21
91.102221
 31
0.0
  0
LINE
  5
DFC
100
AcDbEntity
  8
V0-VYPLNE
  6
DASHED
 48
3.0
100
AcDbLine
 10
484.942341
 20
-91.031209
 30
0.0
 11
537.318975
 21
-91.031209
 31
0.0
  0
LINE
  5
DFF
100
AcDbEntity
  8
V0-OBRYS
  6
CONTINUOUS
 62
    90
 48
3.0
100
AcDbLine
 10
555.0
 20
-358.619617
 30
0.0
 11
555.0
 21
-758.619617
 31
0.0
  0
LINE
  5
E00
100
AcDbEntity
  8
V0-OBRYS
  6
CONTINUOUS
 62
    90
 48
3.0
100
AcDbLine
 10
155.0
 20
-358.619617
 30
0.0
 11
155.0
 21
-758.619617
 31
0.0
  0
LINE
  5
E01
100
AcDbEntity
  8
V0-OBRYS
  6
CONTINUOUS
 62
    90
 48
3.0
100
AcDbLine
 10
155.0
 20
-758.619617
 30
0.0
 11
555.0
 21
-758.619617
 31
0.0
  0
LINE
  5
E07
100
AcDbEntity
  8
V0-VYPLNE
 48
3.0
100
AcDbLine
 10
68.169658
 20
-558.619617
 30
0.0
 11
626.252643
 21
-558.619617
 31
0.0
  0
LINE
  5
E0D
100
AcDbEntity
  8
V0-OBRYS
  6
CONTINUOUS
 62
    90
 48
3.0
100
AcDbLine
 10
155.0
 20
-358.619617
 30
0.0
 11
555.0
 21
-358.619617
 31
0.0
  0
LINE
  5
E10
100
AcDbEntity
  8
V0-OBRYS
 48
3.0
100
AcDbLine
 10
110.0
 20
-658.619617
 30
0.0
 11
110.0
 21
-458.619617
 31
0.0
  0
LINE
  5
E11
100
AcDbEntity
  8
V0-OBRYS
 48
3.0
100
AcDbLine
 10
100.0
 20
-458.619617
 30
0.0
 11
100.0
 21
-658.619617
 31
0.0
  0
LINE
  5
E12
100
AcDbEntity
  8
V0-OBRYS
 48
3.0
100
AcDbLine
 10
90.0
 20
-658.619617
 30
0.0
 11
90.0
 21
-458.619617
 31
0.0
  0
LINE
  5
E14
100
AcDbEntity
  8
V0-OBRYS
 48
3.0
100
AcDbLine
 10
110.0
 20
-658.619617
 30
0.0
 11
155.0
 21
-658.619617
 31
0.0
  0
LINE
  5
E15
100
AcDbEntity
  8
V0-OBRYS
 48
3.0
100
AcDbLine
 10
90.0
 20
-658.619617
 30
0.0
 11
100.0
 21
-658.619617
 31
0.0
  0
ARC
  5
E16
100
AcDbEntity
  8
V0-OBRYS
 48
3.0
100
AcDbCircle
 10
105.0
 20
-658.619617
 30
0.0
 40
5.0
100
AcDbArc
 50
180.0
 51
0.0
  0
LINE
  5
E19
100
AcDbEntity
  8
V0-OBRYS
 48
3.0
100
AcDbLine
 10
110.0
 20
-458.619617
 30
0.0
 11
155.0
 21
-458.619617
 31
0.0
  0
LINE
  5
E1A
100
AcDbEntity
  8
V0-OBRYS
 48
3.0
100
AcDbLine
 10
90.0
 20
-458.619617
 30
0.0
 11
100.0
 21
-458.619617
 31
0.0
  0
ARC
  5
E1B
100
AcDbEntity
  8
V0-OBRYS
 48
3.0
100
AcDbCircle
 10
105.0
 20
-458.619617
 30
0.0
 40
5.0
100
AcDbArc
 50
0.0
 51
180.0
  0
LINE
  5
E20
100
AcDbEntity
  8
V0-OBRYS
 48
3.0
100
AcDbLine
 10
620.0
 20
-658.619617
 30
0.0
 11
620.0
 21
-458.619617
 31
0.0
  0
LINE
  5
E21
100
AcDbEntity
  8
V0-OBRYS
 48
3.0
100
AcDbLine
 10
610.0
 20
-458.619617
 30
0.0
 11
610.0
 21
-658.619617
 31
0.0
  0
LINE
  5
E22
100
AcDbEntity
  8
V0-OBRYS
 48
3.0
100
AcDbLine
 10
600.0
 20
-658.619617
 30
0.0
 11
600.0
 21
-458.619617
 31
0.0
  0
LINE
  5
E2B
100
AcDbEntity
  8
V0-OBRYS
 48
3.0
100
AcDbLine
 10
600.0
 20
-658.619617
 30
0.0
 11
555.0
 21
-658.619617
 31
0.0
  0
ARC
  5
E2D
100
AcDbEntity
  8
V0-OBRYS
 48
3.0
100
AcDbCircle
 10
605.0
 20
-658.619617
 30
0.0
 40
5.0
100
AcDbArc
 50
180.0
 51
360.0
  0
LINE
  5
E2E
100
AcDbEntity
  8
V0-OBRYS
 48
3.0
100
AcDbLine
 10
620.0
 20
-658.619617
 30
0.0
 11
610.0
 21
-658.619617
 31
0.0
  0
LINE
  5
E33
100
AcDbEntity
  8
V0-OBRYS
 48
3.0
100
AcDbLine
 10
600.0
 20
-458.619617
 30
0.0
 11
555.0
 21
-458.619617
 31
0.0
  0
ARC
  5
E34
100
AcDbEntity
  8
V0-OBRYS
 48
3.0
100
AcDbCircle
 10
605.0
 20
-458.619617
 30
0.0
 40
5.0
100
AcDbArc
 50
360.0
 51
180.0
  0
LINE
  5
E35
100
AcDbEntity
  8
V0-OBRYS
 48
3.0
100
AcDbLine
 10
620.0
 20
-458.619617
 30
0.0
 11
610.0
 21
-458.619617
 31
0.0
  0
DIMENSION
  5
E52
100
AcDbEntity
  8
V0-VYPLNE
  6
CONTINUOUS
 62
    41
 48
3.0
100
AcDbDimension
  2
*D56
 10
555.0
 20
-258.021738
 30
0.0
 11
355.0
 21
-239.021738
 31
0.0
 70
    32
  3
ED30
100
AcDbAlignedDimension
 13
155.0
 23
-200.0
 33
0.0
 14
555.0
 24
-200.0
 34
0.0
100
AcDbRotatedDimension
1001
ACAD
1000
DSTYLE
1002
{
1070
    40
1040
1.0
1002
}
  0
DIMENSION
  5
E5F
100
AcDbEntity
  8
V0-VYPLNE
  6
CONTINUOUS
 62
    41
 48
3.0
100
AcDbDimension
  2
*D57
 10
620.0
 20
-312.543013
 30
0.0
 11
355.0
 21
-293.543013
 31
0.0
 70
    32
  3
ED30
100
AcDbAlignedDimension
 13
90.0
 23
-100.0
 33
0.0
 14
620.0
 24
-100.0
 34
0.0
100
AcDbRotatedDimension
1001
ACAD
1000
DSTYLE
1002
{
1070
    40
1040
1.0
1002
}
  0
DIMENSION
  5
E6C
100
AcDbEntity
  8
V0-VYPLNE
  6
CONTINUOUS
 62
    41
 48
3.0
100
AcDbDimension
  2
*D58
 10
40.568986
 20
-100.0
 30
0.0
 11
11.566033
 21
0.0
 31
0.0
 12
10.0
 22
0.0
 32
0.0
 70
    32
  3
ED30
100
AcDbAlignedDimension
 13
90.0
 23
100.0
 33
0.0
 14
90.0
 24
-100.0
 34
0.0
 50
90.0
100
AcDbRotatedDimension
1001
ACAD
1000
DSTYLE
1002
{
1070
    40
1040
1.0
1002
}
  0
DIMENSION
  5
E79
100
AcDbEntity
  8
V0-VYPLNE
  6
CONTINUOUS
 62
    41
 48
3.0
100
AcDbDimension
  2
*D59
 10
746.557499
 20
-200.0
 30
0.0
 11
727.557499
 21
0.0
 31
0.0
 70
    32
  3
ED30
100
AcDbAlignedDimension
 13
555.0
 23
200.0
 33
0.0
 14
555.0
 24
-200.0
 34
0.0
 50
90.0
100
AcDbRotatedDimension
1001
ACAD
1000
DSTYLE
1002
{
1070
    40
1040
1.0
1002
}
  0
DIMENSION
  5
E86
100
AcDbEntity
  8
V0-VYPLNE
  6
CONTINUOUS
 62
    41
 48
3.0
100
AcDbDimension
  2
*D60
 10
691.971893
 20
-135.0
 30
0.0
 11
672.96894
 21
0.0
 31
0.0
 70
    32
  3
ED30
100
AcDbAlignedDimension
 13
495.0
 23
135.0
 33
0.0
 14
493.822087
 24
-135.0
 34
0.0
 50
90.0
100
AcDbRotatedDimension
1001
ACAD
1000
DSTYLE
1002
{
1070
    40
1040
1.0
1002
}
  0
DIMENSION
  5
E93
100
AcDbEntity
  8
V0-VYPLNE
  6
CONTINUOUS
 62
    41
 48
3.0
100
AcDbDimension
  2
*D61
 10
490.0
 20
249.026103
 30
0.0
 11
355.0
 21
268.029056
 31
0.0
 70
    32
  3
ED30
100
AcDbAlignedDimension
 13
220.0
 23
125.978829
 33
0.0
 14
490.0
 24
130.0
 34
0.0
100
AcDbRotatedDimension
1001
ACAD
1000
DSTYLE
1002
{
1070
    40
1040
1.0
1002
}
  0
DIMENSION
  5
EA0
100
AcDbEntity
  8
V0-VYPLNE
  6
CONTINUOUS
 62
    41
 48
3.0
100
AcDbDimension
  2
*D62
 10
1265.0
 20
-312.543013
 30
0.0
 11
1065.0
 21
-293.543013
 31
0.0
 12
-35.0
 22
0.0
 32
0.0
 70
    32
  3
ED30
100
AcDbAlignedDimension
 13
865.0
 23
-200.0
 33
0.0
 14
1265.0
 24
-200.0
 34
0.0
100
AcDbRotatedDimension
1001
ACAD
1000
DSTYLE
1002
{
1070
    40
1040
1.0
1002
}
  0
MTEXT
  5
EB5
100
AcDbEntity
  8
V0-ZBYTEK
100
AcDbMText
 10
1074.001428
 20
-624.263601
 30
0.0
 40
22.5
 41
353.4649
 71
     5
 72
     5
  1
ZYVUKOVE  IZOLOVANY
  7
ED10
  0
MTEXT
  5
EB6
100
AcDbEntity
  8
V0-ZBYTEK
 62
    51
100
AcDbMText
 10
1077.587732
 20
-556.078745
 30
0.0
 40
31.5
 41
892.3329
 71
     5
 72
     5
  1
RADIALNI VENTILATOR
  7
ED10
  0
MTEXT
  5
EB7
100
AcDbEntity
  8
V0-NAZVY
100
AcDbMText
 10
1063.151373
 20
-473.626335
 30
0.0
 40
56.25
 41
462.6911
 71
     5
 72
     5
  1
CVAB-700-200
  7
ED10
  0
MTEXT
  5
EB8
100
AcDbEntity
  8
V0-NAZVY
100
AcDbMText
 10
351.918284
 20
-387.70846
 30
0.0
 40
33.75
 41
277.61466
 71
     5
 72
     5
  1
CVAB-700-200
  7
ED10
  0
MTEXT
  5
EB9
100
AcDbEntity
  8
V0-NAZVY
100
AcDbMText
 10
357.376846
 20
43.457631
 30
0.0
 40
33.75
 41
277.61466
 71
     5
 72
     5
  1
CVAB-700-200
  7
ED10
  0
MTEXT
  5
EBB
100
AcDbEntity
  8
V0-NAZVY
100
AcDbMText
 10
1058.801837
 20
231.556023
 30
0.0
 40
33.75
 41
277.61466
 71
     5
 72
     5
  1
CVAB-700-200
  7
ED10
  0
LINE
  5
EBD
100
AcDbEntity
  8
V0-VYPLNE
  6
DASHED
 48
3.0
100
AcDbLine
 10
193.960956
 20
-432.640788
 30
0.0
 11
382.128926
 21
-432.640788
 31
0.0
  0
LINE
  5
EBE
100
AcDbEntity
  8
V0-VYPLNE
  6
DASHED
 48
3.0
100
AcDbLine
 10
193.960956
 20
-684.598446
 30
0.0
 11
382.128926
 21
-684.598446
 31
0.0
  0
LINE
  5
EBF
100
AcDbEntity
  8
V0-VYPLNE
  6
DASHED
 48
3.0
100
AcDbLine
 10
193.960956
 20
-432.640788
 30
0.0
 11
193.960956
 21
-558.584116
 31
0.0
  0
LINE
  5
EC0
100
AcDbEntity
  8
V0-VYPLNE
  6
DASHED
 48
3.0
100
AcDbLine
 10
193.960956
 20
-684.598446
 30
0.0
 11
193.960956
 21
-558.655119
 31
0.0
  0
LINE
  5
EC1
100
AcDbEntity
  8
V0-VYPLNE
  6
DASHED
 48
3.0
100
AcDbLine
 10
382.128907
 20
-432.640788
 30
0.0
 11
382.128907
 21
-558.584116
 31
0.0
  0
LINE
  5
EC2
100
AcDbEntity
  8
V0-VYPLNE
  6
DASHED
 48
3.0
100
AcDbLine
 10
370.489668
 20
-432.640788
 30
0.0
 11
370.489668
 21
-684.527444
 31
0.0
  0
LINE
  5
EC3
100
AcDbEntity
  8
V0-VYPLNE
  6
DASHED
 48
3.0
100
AcDbLine
 10
201.720468
 20
-430.703196
 30
0.0
 11
201.720468
 21
-684.527444
 31
0.0
  0
LINE
  5
EC5
100
AcDbEntity
  8
V0-VYPLNE
  6
DASHED
 48
3.0
100
AcDbLine
 10
380.189053
 20
-457.829446
 30
0.0
 11
491.327878
 21
-457.829446
 31
0.0
  0
LINE
  5
EC6
100
AcDbEntity
  8
V0-VYPLNE
  6
DASHED
 48
3.0
100
AcDbLine
 10
463.603697
 20
-682.900609
 30
0.0
 11
393.768185
 21
-682.900609
 31
0.0
  0
LINE
  5
EC7
100
AcDbEntity
  8
V0-VYPLNE
  6
DASHED
 48
3.0
100
AcDbLine
 10
380.189053
 20
-659.409789
 30
0.0
 11
491.327878
 21
-659.409789
 31
0.0
  0
LINE
  5
EC9
100
AcDbEntity
  8
V0-VYPLNE
  6
DASHED
 48
3.0
100
AcDbLine
 10
382.128907
 20
-684.598446
 30
0.0
 11
382.128907
 21
-558.655119
 31
0.0
  0
LINE
  5
ECA
100
AcDbEntity
  8
V0-VYPLNE
  6
DASHED
 48
3.0
100
AcDbLine
 10
393.768185
 20
-682.900609
 30
0.0
 11
393.768185
 21
-659.409789
 31
0.0
  0
LINE
  5
ECB
100
AcDbEntity
  8
V0-VYPLNE
  6
DASHED
 48
3.0
100
AcDbLine
 10
201.720468
 20
-624.462168
 30
0.0
 11
370.489668
 21
-624.462168
 31
0.0
  0
LINE
  5
ECC
100
AcDbEntity
  8
V0-VYPLNE
  6
DASHED
 48
3.0
100
AcDbLine
 10
201.720468
 20
-481.080522
 30
0.0
 11
370.489668
 21
-481.080522
 31
0.0
  0
LINE
  5
ECD
100
AcDbEntity
  8
V0-VYPLNE
  6
DASHED
 48
3.0
100
AcDbLine
 10
201.720468
 20
-543.083399
 30
0.0
 11
370.489668
 21
-543.083399
 31
0.0
  0
LINE
  5
ECE
100
AcDbEntity
  8
V0-VYPLNE
  6
DASHED
 48
3.0
100
AcDbLine
 10
463.603697
 20
-659.409789
 30
0.0
 11
463.603697
 21
-682.900609
 31
0.0
  0
LINE
  5
ED0
100
AcDbEntity
  8
V0-VYPLNE
  6
DASHED
 48
3.0
100
AcDbLine
 10
484.942341
 20
-649.650826
 30
0.0
 11
537.318975
 21
-649.650826
 31
0.0
  0
LINE
  5
ED1
100
AcDbEntity
  8
V0-VYPLNE
  6
DASHED
 48
3.0
100
AcDbLine
 10
491.327878
 20
-467.517397
 30
0.0
 11
535.379102
 21
-467.517397
 31
0.0
  0
LINE
  5
ED2
100
AcDbEntity
  8
V0-VYPLNE
  6
DASHED
 48
3.0
100
AcDbLine
 10
491.327878
 20
-457.829446
 30
0.0
 11
491.327878
 21
-659.409789
 31
0.0
  0
DIMENSION
  5
EE3
100
AcDbEntity
  8
V0-VYPLNE
  6
CONTINUOUS
 62
    41
 48
3.0
100
AcDbDimension
  2
*D63
 10
155.0
 20
-258.021738
 30
0.0
 11
122.5
 21
-239.021738
 31
0.0
 70
    32
  3
ED30
100
AcDbAlignedDimension
 13
90.0
 23
-100.0
 33
0.0
 14
155.0
 24
-200.0
 34
0.0
100
AcDbRotatedDimension
1001
ACAD
1000
DSTYLE
1002
{
1070
    40
1040
1.0
1002
}
  0
POINT
  5
F23
100
AcDbEntity
  8
V0-VYPLNE
  6
CONTINUOUS
 62
    41
 48
3.0
100
AcDbPoint
 10
90.0
 20
0.0
 30
0.0
  0
POINT
  5
F24
100
AcDbEntity
  8
V0-VYPLNE
  6
CONTINUOUS
 62
    41
 48
3.0
100
AcDbPoint
 10
620.0
 20
0.0
 30
0.0
  0
POINT
  5
F25
100
AcDbEntity
  8
V0-VYPLNE
  6
CONTINUOUS
 62
    41
 48
3.0
100
AcDbPoint
 10
1065.0
 20
0.0
 30
0.0
  0
POINT
  5
F26
100
AcDbEntity
  8
V0-VYPLNE
  6
CONTINUOUS
 62
    41
 48
3.0
100
AcDbPoint
 10
620.0
 20
-558.619617
 30
0.0
  0
POINT
  5
F27
100
AcDbEntity
  8
V0-VYPLNE
  6
CONTINUOUS
 62
    41
 48
3.0
100
AcDbPoint
 10
90.0
 20
-558.619617
 30
0.0
  0
DIMENSION
  5
1078
100
AcDbEntity
  8
V0-VYPLNE
  6
CONTINUOUS
 62
    41
 48
3.0
100
AcDbDimension
  2
*D64
 10
1200.0
 20
-259.726191
 30
0.0
 11
1065.0
 21
-240.723238
 31
0.0
 70
    32
  3
ED30
100
AcDbAlignedDimension
 13
930.0
 23
-140.595777
 33
0.0
 14
1200.0
 24
-140.0
 34
0.0
100
AcDbRotatedDimension
1001
ACAD
1000
DSTYLE
1002
{
1070
    40
1040
1.0
1002
}
  0
VIEWPORT
  5
22
100
AcDbEntity
 67
     1
  8
0
100
AcDbViewport
 10
261.517699
 20
148.5
 30
0.0
 40
523.035398
 41
297.0
 68
    -1
 69
     1
1001
ACAD
1000
MVIEW
1002
{
1070
    16
1010
0.0
1020
0.0
1030
0.0
1010
0.0
1020
0.0
1030
1.0
1040
0.0
1040
297.0
1040
261.517699
1040
148.5
1040
50.0
1040
0.0
1040
0.0
1070
     0
1070
   100
1070
     1
1070
     1
1070
     0
1070
     0
1070
     0
1070
     0
1040
0.0
1040
0.0
1040
0.0
1040
1.0
1040
1.0
1040
10.0
1040
10.0
1070
     0
1002
{
1002
}
1002
}
  0
ENDSEC
  0
SECTION
  2
OBJECTS
  0
DICTIONARY
  5
C
100
AcDbDictionary
  3
ACAD_GROUP
350
D
  3
ACAD_MLINESTYLE
350
E
  3
ACDBVARIABLEDICTIONARY
350
5D
  0
DICTIONARY
  5
D
102
{ACAD_REACTORS
330
C
102
}
100
AcDbDictionary
  0
DICTIONARY
  5
E
102
{ACAD_REACTORS
330
C
102
}
100
AcDbDictionary
  3
STANDARD
350
13
  0
DICTIONARY
  5
5D
102
{ACAD_REACTORS
330
C
102
}
100
AcDbDictionary
  3
DIMADEC
350
5E
  3
SORTENTS
350
3D8
  0
MLINESTYLE
  5
13
102
{ACAD_REACTORS
330
E
102
}
100
AcDbMlineStyle
  2
STANDARD
 70
     0
  3

 62
     0
 51
90.0
 52
90.0
 71
     2
 49
0.5
 62
   256
  6
BYLAYER
 49
-0.5
 62
   256
  6
BYLAYER
  0
DICTIONARYVAR
  5
5E
102
{ACAD_REACTORS
330
5D
102
}
100
DictionaryVariables
280
     0
  1
0
  0
DICTIONARYVAR
  5
3D8
102
{ACAD_REACTORS
330
5D
102
}
100
DictionaryVariables
280
     0
  1
96
  0
ENDSEC
  0
EOF
