  0
SECTION
  2
HEADER
  9
$ACADVER
  1
AC1014
  9
$ACADMAINTVER
 70
     0
  9
$DWGCODEPAGE
  3
ANSI_1250
  9
$INSBASE
 10
0.0
 20
0.0
 30
0.0
  9
$EXTMIN
 10
-126.431014
 20
-1209.509955
 30
0.0
  9
$EXTMAX
 10
1686.048327
 20
416.061185
 30
0.0
  9
$LIMMIN
 10
0.0
 20
0.0
  9
$LIMMAX
 10
420.0
 20
297.0
  9
$ORTHOMODE
 70
     1
  9
$REGENMODE
 70
     1
  9
$FILLMODE
 70
     1
  9
$QTEXTMODE
 70
     0
  9
$MIRRTEXT
 70
     1
  9
$DRAGMODE
 70
     2
  9
$LTSCALE
 40
1.0
  9
$OSMODE
 70
    32
  9
$ATTMODE
 70
     1
  9
$TEXTSIZE
 40
20.0
  9
$TRACEWID
 40
1.0
  9
$TEXTSTYLE
  7
ED40
  9
$CLAYER
  8
V0-VYPLNE
  9
$CELTYPE
  6
CONTINUOUS
  9
$CECOLOR
 62
    41
  9
$CELTSCALE
 40
3.0
  9
$DELOBJ
 70
     1
  9
$DISPSILH
 70
     0
  9
$DIMSCALE
 40
1.0
  9
$DIMASZ
 40
35.0
  9
$DIMEXO
 40
1.0
  9
$DIMDLI
 40
3.75
  9
$DIMRND
 40
0.0
  9
$DIMDLE
 40
0.0
  9
$DIMEXE
 40
1.25
  9
$DIMTP
 40
0.0
  9
$DIMTM
 40
0.0
  9
$DIMTXT
 40
40.0
  9
$DIMCEN
 40
3.0
  9
$DIMTSZ
 40
0.0
  9
$DIMTOL
 70
     0
  9
$DIMLIM
 70
     0
  9
$DIMTIH
 70
     0
  9
$DIMTOH
 70
     0
  9
$DIMSE1
 70
     0
  9
$DIMSE2
 70
     0
  9
$DIMTAD
 70
     1
  9
$DIMZIN
 70
     8
  9
$DIMBLK
  1

  9
$DIMASO
 70
     1
  9
$DIMSHO
 70
     1
  9
$DIMPOST
  1

  9
$DIMAPOST
  1

  9
$DIMALT
 70
     0
  9
$DIMALTD
 70
     4
  9
$DIMALTF
 40
0.0394
  9
$DIMLFAC
 40
1.0
  9
$DIMTOFL
 70
     1
  9
$DIMTVP
 40
0.0
  9
$DIMTIX
 70
     0
  9
$DIMSOXD
 70
     0
  9
$DIMSAH
 70
     1
  9
$DIMBLK1
  1
_OPEN
  9
$DIMBLK2
  1
_OPEN
  9
$DIMSTYLE
  2
ED40
  9
$DIMCLRD
 70
     0
  9
$DIMCLRE
 70
     0
  9
$DIMCLRT
 70
     0
  9
$DIMTFAC
 40
1.0
  9
$DIMGAP
 40
4.0
  9
$DIMJUST
 70
     0
  9
$DIMSD1
 70
     0
  9
$DIMSD2
 70
     0
  9
$DIMTOLJ
 70
     1
  9
$DIMTZIN
 70
     8
  9
$DIMALTZ
 70
     0
  9
$DIMALTTZ
 70
     0
  9
$DIMFIT
 70
     3
  9
$DIMUPT
 70
     0
  9
$DIMUNIT
 70
     2
  9
$DIMDEC
 70
     0
  9
$DIMTDEC
 70
     1
  9
$DIMALTU
 70
     8
  9
$DIMALTTD
 70
     4
  9
$DIMTXSTY
  7
ED40
  9
$DIMAUNIT
 70
     0
  9
$LUNITS
 70
     2
  9
$LUPREC
 70
     4
  9
$SKETCHINC
 40
1.0
  9
$FILLETRAD
 40
0.0
  9
$AUNITS
 70
     0
  9
$AUPREC
 70
     0
  9
$MENU
  1
.
  9
$ELEVATION
 40
0.0
  9
$PELEVATION
 40
0.0
  9
$THICKNESS
 40
0.0
  9
$LIMCHECK
 70
     0
  9
$BLIPMODE
 70
     0
  9
$CHAMFERA
 40
10.0
  9
$CHAMFERB
 40
10.0
  9
$CHAMFERC
 40
20.0
  9
$CHAMFERD
 40
0.0
  9
$SKPOLY
 70
     1
  9
$TDCREATE
 40
2451196.643769328
  9
$TDUPDATE
 40
2452915.642584954
  9
$TDINDWG
 40
0.2490366898
  9
$TDUSRTIMER
 40
0.2490366898
  9
$USRTIMER
 70
     1
  9
$ANGBASE
 50
0.0
  9
$ANGDIR
 70
     0
  9
$PDMODE
 70
     3
  9
$PDSIZE
 40
20.0
  9
$PLINEWID
 40
0.0
  9
$COORDS
 70
     1
  9
$SPLFRAME
 70
     0
  9
$SPLINETYPE
 70
     6
  9
$SPLINESEGS
 70
     8
  9
$ATTDIA
 70
     0
  9
$ATTREQ
 70
     1
  9
$HANDLING
 70
     1
  9
$HANDSEED
  5
15CA
  9
$SURFTAB1
 70
     6
  9
$SURFTAB2
 70
     6
  9
$SURFTYPE
 70
     6
  9
$SURFU
 70
     6
  9
$SURFV
 70
     6
  9
$UCSNAME
  2

  9
$UCSORG
 10
80.00000000000001
 20
0.0
 30
0.0
  9
$UCSXDIR
 10
1.0
 20
0.0
 30
0.0
  9
$UCSYDIR
 10
0.0
 20
1.0
 30
0.0
  9
$PUCSNAME
  2

  9
$PUCSORG
 10
0.0
 20
0.0
 30
0.0
  9
$PUCSXDIR
 10
1.0
 20
0.0
 30
0.0
  9
$PUCSYDIR
 10
0.0
 20
1.0
 30
0.0
  9
$USERI1
 70
     0
  9
$USERI2
 70
     0
  9
$USERI3
 70
     0
  9
$USERI4
 70
     0
  9
$USERI5
 70
     0
  9
$USERR1
 40
0.0
  9
$USERR2
 40
0.0
  9
$USERR3
 40
0.0
  9
$USERR4
 40
0.0
  9
$USERR5
 40
0.0
  9
$WORLDVIEW
 70
     1
  9
$SHADEDGE
 70
     3
  9
$SHADEDIF
 70
    70
  9
$TILEMODE
 70
     1
  9
$MAXACTVP
 70
    48
  9
$PINSBASE
 10
0.0
 20
0.0
 30
0.0
  9
$PLIMCHECK
 70
     0
  9
$PEXTMIN
 10
1.000000E+20
 20
1.000000E+20
 30
1.000000E+20
  9
$PEXTMAX
 10
-1.000000E+20
 20
-1.000000E+20
 30
-1.000000E+20
  9
$PLIMMIN
 10
0.0
 20
0.0
  9
$PLIMMAX
 10
420.0
 20
297.0
  9
$UNITMODE
 70
     0
  9
$VISRETAIN
 70
     1
  9
$PLINEGEN
 70
     0
  9
$PSLTSCALE
 70
     0
  9
$TREEDEPTH
 70
  3020
  9
$PICKSTYLE
 70
     1
  9
$CMLSTYLE
  2
STANDARD
  9
$CMLJUST
 70
     0
  9
$CMLSCALE
 40
1.0
  9
$PROXYGRAPHICS
 70
     1
  9
$MEASUREMENT
 70
     1
  0
ENDSEC
  0
SECTION
  2
CLASSES
  0
CLASS
  1
DICTIONARYVAR
  2
AcDbDictionaryVar
  3
"AutoCAD"
 90
        0
280
     0
281
     0
  0
CLASS
  1
LWPOLYLINE
  2
AcDbPolyline
  3
"AutoCAD"
 90
        0
280
     0
281
     1
  0
CLASS
  1
HATCH
  2
AcDbHatch
  3
"ACAD_SEDONA"
 90
        0
280
     0
281
     1
  0
ENDSEC
  0
SECTION
  2
TABLES
  0
TABLE
  2
VPORT
  5
8
100
AcDbSymbolTable
 70
     2
  0
VPORT
  5
15C9
100
AcDbSymbolTableRecord
100
AcDbViewportTableRecord
  2
*ACTIVE
 70
     0
 10
0.0
 20
0.0
 11
1.0
 21
1.0
 12
733.434076
 22
-441.088062
 13
0.0
 23
0.0
 14
10.0
 24
10.0
 15
10.0
 25
10.0
 16
0.0
 26
0.0
 36
1.0
 17
0.0
 27
0.0
 37
0.0
 40
1805.239983
 41
1.730469
 42
50.0
 43
0.0
 44
0.0
 50
0.0
 51
0.0
 71
     0
 72
   100
 73
     1
 74
     1
 75
     0
 76
     0
 77
     0
 78
     0
  0
ENDTAB
  0
TABLE
  2
LTYPE
  5
5
100
AcDbSymbolTable
 70
     3
  0
LTYPE
  5
14
100
AcDbSymbolTableRecord
100
AcDbLinetypeTableRecord
  2
BYBLOCK
 70
     0
  3

 72
    65
 73
     0
 40
0.0
  0
LTYPE
  5
15
100
AcDbSymbolTableRecord
100
AcDbLinetypeTableRecord
  2
BYLAYER
 70
     0
  3

 72
    65
 73
     0
 40
0.0
  0
LTYPE
  5
16
100
AcDbSymbolTableRecord
100
AcDbLinetypeTableRecord
  2
CONTINUOUS
 70
     0
  3
Solid line
 72
    65
 73
     0
 40
0.0
  0
LTYPE
  5
7F
100
AcDbSymbolTableRecord
100
AcDbLinetypeTableRecord
  2
DASHDOT
 70
     0
  3
Dash dot __ . __ . __ . __ . __ . __ . __ . __
 72
    65
 73
     4
 40
25.4
 49
12.7
 74
     0
 49
-6.35
 74
     0
 49
0.0
 74
     0
 49
-6.35
 74
     0
  0
LTYPE
  5
80
100
AcDbSymbolTableRecord
100
AcDbLinetypeTableRecord
  2
DASHED
 70
     0
  3
Dashed __ __ __ __ __ __ __ __ __ __ __ __ __ _
 72
    65
 73
     2
 40
19.05
 49
12.7
 74
     0
 49
-6.35
 74
     0
  0
ENDTAB
  0
TABLE
  2
LAYER
  5
2
100
AcDbSymbolTable
 70
     6
  0
LAYER
  5
F
100
AcDbSymbolTableRecord
100
AcDbLayerTableRecord
  2
0
 70
     0
 62
     7
  6
CONTINUOUS
  0
LAYER
  5
9E
100
AcDbSymbolTableRecord
100
AcDbLayerTableRecord
  2
DEFPOINTS
 70
     0
 62
     7
  6
CONTINUOUS
  0
LAYER
  5
377
100
AcDbSymbolTableRecord
100
AcDbLayerTableRecord
  2
V0-OBRYS
 70
     0
 62
    90
  6
CONTINUOUS
  0
LAYER
  5
378
100
AcDbSymbolTableRecord
100
AcDbLayerTableRecord
  2
V0-VYPLNE
 70
     0
 62
    63
  6
DASHDOT
  0
LAYER
  5
37A
100
AcDbSymbolTableRecord
100
AcDbLayerTableRecord
  2
V0-NAZVY
 70
     0
 62
   210
  6
CONTINUOUS
  0
LAYER
  5
559
100
AcDbSymbolTableRecord
100
AcDbLayerTableRecord
  2
V0-ZBYTEK
 70
     0
 62
    51
  6
CONTINUOUS
  0
ENDTAB
  0
TABLE
  2
STYLE
  5
3
100
AcDbSymbolTable
 70
     5
  0
STYLE
  5
10
100
AcDbSymbolTableRecord
100
AcDbTextStyleTableRecord
  2
STANDARD
 70
     0
 40
7.0
 41
1.0
 50
0.0
 71
     0
 42
20.0
  3
ISOCP.shx
  4

  0
STYLE
  5
331
100
AcDbSymbolTableRecord
100
AcDbTextStyleTableRecord
  2
ED30
 70
     0
 40
30.0
 41
1.0
 50
0.0
 71
     0
 42
2.5
  3
ISOCP.shx
  4

  0
STYLE
  5
5D2
100
AcDbSymbolTableRecord
100
AcDbTextStyleTableRecord
  2
ED20
 70
     0
 40
20.0
 41
1.0
 50
0.0
 71
     0
 42
20.0
  3
isocp.shx
  4

  0
STYLE
  5
64F
100
AcDbSymbolTableRecord
100
AcDbTextStyleTableRecord
  2
ED40
 70
     0
 40
40.0
 41
1.0
 50
0.0
 71
     0
 42
20.0
  3
isocp.shx
  4

  0
STYLE
  5
650
100
AcDbSymbolTableRecord
100
AcDbTextStyleTableRecord
  2
ED10
 70
     0
 40
10.0
 41
1.0
 50
0.0
 71
     0
 42
20.0
  3
isocp.shx
  4

  0
ENDTAB
  0
TABLE
  2
VIEW
  5
6
100
AcDbSymbolTable
 70
     0
  0
ENDTAB
  0
TABLE
  2
UCS
  5
7
100
AcDbSymbolTable
 70
     0
  0
ENDTAB
  0
TABLE
  2
APPID
  5
9
100
AcDbSymbolTable
 70
     3
  0
APPID
  5
11
100
AcDbSymbolTableRecord
100
AcDbRegAppTableRecord
  2
ACAD
 70
     0
  0
APPID
  5
1502
100
AcDbSymbolTableRecord
100
AcDbRegAppTableRecord
  2
CONTENTBLOCKICON
 70
     0
  0
APPID
  5
1503
100
AcDbSymbolTableRecord
100
AcDbRegAppTableRecord
  2
CONTENTBLOCKDESCRIPTION
 70
     0
  0
ENDTAB
  0
TABLE
  2
DIMSTYLE
  5
A
100
AcDbSymbolTable
 70
     5
  0
DIMSTYLE
105
1D
100
AcDbSymbolTableRecord
100
AcDbDimStyleTableRecord
  2
STANDARD
 70
     0
  3

  4

  5

  6
_OPEN
  7
_OPEN
 40
0.0
 41
15.0
 42
0.625
 43
3.75
 44
1.25
 45
0.0
 46
0.0
 47
0.0
 48
0.0
140
15.0
141
2.5
142
0.0
143
0.0394
144
1.0
145
0.0
146
1.0
147
3.0
 71
     0
 72
     0
 73
     0
 74
     0
 75
     0
 76
     0
 77
     1
 78
     8
170
     0
171
     4
172
     1
173
     1
174
     0
175
     0
176
     0
177
     0
178
     0
270
     2
271
     0
272
     1
273
     8
274
     4
340
331
275
     0
280
     0
281
     0
282
     0
283
     1
284
     8
285
     0
286
     0
287
     3
288
     0
  0
DIMSTYLE
105
397
100
AcDbSymbolTableRecord
100
AcDbDimStyleTableRecord
  2
ED40
 70
     0
  3

  4

  5

  6
_OPEN
  7
_OPEN
 40
0.0
 41
35.0
 42
1.0
 43
3.75
 44
1.25
 45
0.0
 46
0.0
 47
0.0
 48
0.0
140
40.0
141
3.0
142
0.0
143
0.0394
144
1.0
145
0.0
146
1.0
147
4.0
 71
     0
 72
     0
 73
     0
 74
     0
 75
     0
 76
     0
 77
     1
 78
     8
170
     0
171
     4
172
     1
173
     1
174
     0
175
     0
176
     0
177
     0
178
     0
270
     2
271
     0
272
     1
273
     8
274
     4
340
64F
275
     0
280
     0
281
     0
282
     0
283
     1
284
     8
285
     0
286
     0
287
     3
288
     0
  0
DIMSTYLE
105
656
102
{ACAD_REACTORS
330
E52
330
E5F
330
E6C
330
E79
330
E86
330
E93
330
EA0
330
FBD
330
FE4
102
}
100
AcDbSymbolTableRecord
100
AcDbDimStyleTableRecord
  2
ED30
 70
     0
  3

  4

  5

  6
_OPEN
  7
_OPEN
 40
1.0
 41
25.0
 42
1.0
 43
3.75
 44
1.25
 45
0.0
 46
0.0
 47
0.0
 48
0.0
140
30.0
141
3.0
142
0.0
143
0.0394
144
1.0
145
0.0
146
1.0
147
4.0
 71
     0
 72
     0
 73
     0
 74
     0
 75
     0
 76
     0
 77
     1
 78
     8
170
     0
171
     4
172
     1
173
     1
174
     0
175
     0
176
     0
177
     0
178
     0
270
     2
271
     0
272
     1
273
     8
274
     4
340
331
275
     0
280
     0
281
     0
282
     0
283
     1
284
     8
285
     0
286
     0
287
     3
288
     0
  0
DIMSTYLE
105
657
100
AcDbSymbolTableRecord
100
AcDbDimStyleTableRecord
  2
ED20
 70
     0
  3

  4

  5

  6
_OPEN
  7
_OPEN
 40
0.0
 41
20.0
 42
1.0
 43
3.75
 44
1.25
 45
0.0
 46
0.0
 47
0.0
 48
0.0
140
20.0
141
3.0
142
0.0
143
0.0394
144
1.0
145
0.0
146
1.0
147
2.0
 71
     0
 72
     0
 73
     0
 74
     0
 75
     0
 76
     0
 77
     1
 78
     8
170
     0
171
     4
172
     1
173
     1
174
     0
175
     0
176
     0
177
     0
178
     0
270
     2
271
     0
272
     1
273
     8
274
     4
340
5D2
275
     0
280
     0
281
     0
282
     0
283
     1
284
     8
285
     0
286
     0
287
     3
288
     0
  0
DIMSTYLE
105
658
100
AcDbSymbolTableRecord
100
AcDbDimStyleTableRecord
  2
ED10
 70
     0
  3

  4

  5

  6
_OPEN
  7
_OPEN
 40
0.0
 41
15.0
 42
1.0
 43
3.75
 44
1.25
 45
0.0
 46
0.0
 47
0.0
 48
0.0
140
10.0
141
3.0
142
0.0
143
0.0394
144
1.0
145
0.0
146
1.0
147
1.5
 71
     0
 72
     0
 73
     0
 74
     0
 75
     0
 76
     0
 77
     1
 78
     8
170
     0
171
     4
172
     1
173
     1
174
     0
175
     0
176
     0
177
     0
178
     0
270
     2
271
     0
272
     1
273
     8
274
     4
340
5D2
275
     0
280
     0
281
     0
282
     0
283
     1
284
     8
285
     0
286
     0
287
     3
288
     0
  0
ENDTAB
  0
TABLE
  2
BLOCK_RECORD
  5
1
100
AcDbSymbolTable
 70
    66
  0
BLOCK_RECORD
  5
1A
100
AcDbSymbolTableRecord
100
AcDbBlockTableRecord
  2
*MODEL_SPACE
  0
BLOCK_RECORD
  5
17
100
AcDbSymbolTableRecord
100
AcDbBlockTableRecord
  2
*PAPER_SPACE
  0
BLOCK_RECORD
  5
90
100
AcDbSymbolTableRecord
100
AcDbBlockTableRecord
  2
_OPEN
  0
BLOCK_RECORD
  5
E46
100
AcDbSymbolTableRecord
100
AcDbBlockTableRecord
  2
*D57
  0
BLOCK_RECORD
  5
E53
100
AcDbSymbolTableRecord
100
AcDbBlockTableRecord
  2
*D58
  0
BLOCK_RECORD
  5
E60
100
AcDbSymbolTableRecord
100
AcDbBlockTableRecord
  2
*D59
  0
BLOCK_RECORD
  5
E6D
100
AcDbSymbolTableRecord
100
AcDbBlockTableRecord
  2
*D60
  0
BLOCK_RECORD
  5
E7A
100
AcDbSymbolTableRecord
100
AcDbBlockTableRecord
  2
*D61
  0
BLOCK_RECORD
  5
E87
100
AcDbSymbolTableRecord
100
AcDbBlockTableRecord
  2
*D62
  0
BLOCK_RECORD
  5
E94
100
AcDbSymbolTableRecord
100
AcDbBlockTableRecord
  2
*D63
  0
BLOCK_RECORD
  5
FB1
100
AcDbSymbolTableRecord
100
AcDbBlockTableRecord
  2
*D64
  0
BLOCK_RECORD
  5
FD8
100
AcDbSymbolTableRecord
100
AcDbBlockTableRecord
  2
*D65
  0
ENDTAB
  0
ENDSEC
  0
SECTION
  2
BLOCKS
  0
BLOCK
  5
1B
100
AcDbEntity
  8
0
100
AcDbBlockBegin
  2
*MODEL_SPACE
 70
     0
 10
0.0
 20
0.0
 30
0.0
  3
*MODEL_SPACE
  1

  0
ENDBLK
  5
1C
100
AcDbEntity
  8
0
100
AcDbBlockEnd
  0
BLOCK
  5
18
100
AcDbEntity
 67
     1
  8
0
100
AcDbBlockBegin
  2
*PAPER_SPACE
 70
     0
 10
0.0
 20
0.0
 30
0.0
  3
*PAPER_SPACE
  1

  0
ENDBLK
  5
19
100
AcDbEntity
 67
     1
  8
0
100
AcDbBlockEnd
  0
BLOCK
  5
91
100
AcDbEntity
  8
0
100
AcDbBlockBegin
  2
_OPEN
 70
     0
 10
0.0
 20
0.0
 30
0.0
  3
_OPEN
  1

  0
LINE
  5
92
100
AcDbEntity
  8
0
  6
BYBLOCK
 62
     0
100
AcDbLine
 10
-1.0
 20
0.166667
 30
0.0
 11
0.0
 21
0.0
 31
0.0
  0
LINE
  5
93
100
AcDbEntity
  8
0
  6
BYBLOCK
 62
     0
100
AcDbLine
 10
0.0
 20
0.0
 30
0.0
 11
-1.0
 21
-0.166667
 31
0.0
  0
LINE
  5
94
100
AcDbEntity
  8
0
  6
BYBLOCK
 62
     0
100
AcDbLine
 10
0.0
 20
0.0
 30
0.0
 11
-1.0
 21
0.0
 31
0.0
  0
ENDBLK
  5
95
100
AcDbEntity
  8
0
100
AcDbBlockEnd
  0
BLOCK
  5
1449
100
AcDbEntity
  8
0
 48
3.0
100
AcDbBlockBegin
  2
*D57
 70
     1
 10
0.0
 20
0.0
 30
0.0
  3
*D57
  1

  0
LINE
  5
144A
100
AcDbEntity
  8
0
  6
BYBLOCK
 62
     0
 48
3.0
100
AcDbLine
 10
30.0
 20
-326.0
 30
0.0
 11
30.0
 21
-384.271738
 31
0.0
  0
LINE
  5
144B
100
AcDbEntity
  8
0
  6
BYBLOCK
 62
     0
 48
3.0
100
AcDbLine
 10
680.0
 20
-326.0
 30
0.0
 11
680.0
 21
-384.271738
 31
0.0
  0
LINE
  5
144C
100
AcDbEntity
  8
0
  6
BYBLOCK
 62
     0
 48
3.0
100
AcDbLine
 10
65.0
 20
-383.021738
 30
0.0
 11
645.0
 21
-383.021738
 31
0.0
  0
INSERT
  5
144D
100
AcDbEntity
  8
0
  6
BYBLOCK
 62
     0
 48
3.0
100
AcDbBlockReference
  2
_OPEN
 10
30.0
 20
-383.021738
 30
0.0
 41
35.0
 42
35.0
 43
35.0
 50
180.0
  0
INSERT
  5
144E
100
AcDbEntity
  8
0
  6
BYBLOCK
 62
     0
 48
3.0
100
AcDbBlockReference
  2
_OPEN
 10
680.0
 20
-383.021738
 30
0.0
 41
35.0
 42
35.0
 43
35.0
  0
MTEXT
  5
144F
100
AcDbEntity
  8
0
  6
BYBLOCK
 62
     0
 48
3.0
100
AcDbMText
 10
355.0
 20
-359.021738
 30
0.0
 40
40.0
 41
0.0
 71
     5
 72
     1
  1
\A1;650
  7
ED40
  0
POINT
  5
1450
100
AcDbEntity
  8
DEFPOINTS
  6
BYBLOCK
 62
     0
 48
3.0
100
AcDbPoint
 10
30.0
 20
-325.0
 30
0.0
  0
POINT
  5
1451
100
AcDbEntity
  8
DEFPOINTS
  6
BYBLOCK
 62
     0
 48
3.0
100
AcDbPoint
 10
680.0
 20
-325.0
 30
0.0
  0
POINT
  5
1452
100
AcDbEntity
  8
DEFPOINTS
  6
BYBLOCK
 62
     0
 48
3.0
100
AcDbPoint
 10
680.0
 20
-383.021738
 30
0.0
  0
ENDBLK
  5
1453
100
AcDbEntity
  8
0
 48
3.0
100
AcDbBlockEnd
  0
BLOCK
  5
143E
100
AcDbEntity
  8
0
 48
3.0
100
AcDbBlockBegin
  2
*D58
 70
     1
 10
0.0
 20
0.0
 30
0.0
  3
*D58
  1

  0
LINE
  5
143F
100
AcDbEntity
  8
0
  6
BYBLOCK
 62
     0
 48
3.0
100
AcDbLine
 10
-35.0
 20
-178.5
 30
0.0
 11
-35.0
 21
-438.793013
 31
0.0
  0
LINE
  5
1440
100
AcDbEntity
  8
0
  6
BYBLOCK
 62
     0
 48
3.0
100
AcDbLine
 10
745.0
 20
-178.5
 30
0.0
 11
745.0
 21
-438.793013
 31
0.0
  0
LINE
  5
1441
100
AcDbEntity
  8
0
  6
BYBLOCK
 62
     0
 48
3.0
100
AcDbLine
 10
0.0
 20
-437.543013
 30
0.0
 11
710.0
 21
-437.543013
 31
0.0
  0
INSERT
  5
1442
100
AcDbEntity
  8
0
  6
BYBLOCK
 62
     0
 48
3.0
100
AcDbBlockReference
  2
_OPEN
 10
-35.0
 20
-437.543013
 30
0.0
 41
35.0
 42
35.0
 43
35.0
 50
180.0
  0
INSERT
  5
1443
100
AcDbEntity
  8
0
  6
BYBLOCK
 62
     0
 48
3.0
100
AcDbBlockReference
  2
_OPEN
 10
745.0
 20
-437.543013
 30
0.0
 41
35.0
 42
35.0
 43
35.0
  0
MTEXT
  5
1444
100
AcDbEntity
  8
0
  6
BYBLOCK
 62
     0
 48
3.0
100
AcDbMText
 10
355.0
 20
-413.543013
 30
0.0
 40
40.0
 41
0.0
 71
     5
 72
     1
  1
\A1;780
  7
ED40
  0
POINT
  5
1445
100
AcDbEntity
  8
DEFPOINTS
  6
BYBLOCK
 62
     0
 48
3.0
100
AcDbPoint
 10
-35.0
 20
-177.5
 30
0.0
  0
POINT
  5
1446
100
AcDbEntity
  8
DEFPOINTS
  6
BYBLOCK
 62
     0
 48
3.0
100
AcDbPoint
 10
745.0
 20
-177.5
 30
0.0
  0
POINT
  5
1447
100
AcDbEntity
  8
DEFPOINTS
  6
BYBLOCK
 62
     0
 48
3.0
100
AcDbPoint
 10
745.0
 20
-437.543013
 30
0.0
  0
ENDBLK
  5
1448
100
AcDbEntity
  8
0
 48
3.0
100
AcDbBlockEnd
  0
BLOCK
  5
1412
100
AcDbEntity
  8
0
 48
3.0
100
AcDbBlockBegin
  2
*D59
 70
     1
 10
0.0
 20
0.0
 30
0.0
  3
*D59
  1

  0
LINE
  5
1413
100
AcDbEntity
  8
0
  6
BYBLOCK
 62
     0
 48
3.0
100
AcDbLine
 10
-36.0
 20
177.5
 30
0.0
 11
-85.681014
 21
177.5
 31
0.0
  0
LINE
  5
1414
100
AcDbEntity
  8
0
  6
BYBLOCK
 62
     0
 48
3.0
100
AcDbLine
 10
-36.0
 20
-177.5
 30
0.0
 11
-85.681014
 21
-177.5
 31
0.0
  0
LINE
  5
1415
100
AcDbEntity
  8
0
  6
BYBLOCK
 62
     0
 48
3.0
100
AcDbLine
 10
-84.431014
 20
142.5
 30
0.0
 11
-84.431014
 21
-142.5
 31
0.0
  0
INSERT
  5
1416
100
AcDbEntity
  8
0
  6
BYBLOCK
 62
     0
 48
3.0
100
AcDbBlockReference
  2
_OPEN
 10
-84.431014
 20
177.5
 30
0.0
 41
35.0
 42
35.0
 43
35.0
 50
90.0
  0
INSERT
  5
1417
100
AcDbEntity
  8
0
  6
BYBLOCK
 62
     0
 48
3.0
100
AcDbBlockReference
  2
_OPEN
 10
-84.431014
 20
-177.5
 30
0.0
 41
35.0
 42
35.0
 43
35.0
 50
270.0
  0
MTEXT
  5
1418
100
AcDbEntity
  8
0
  6
BYBLOCK
 62
     0
 48
3.0
100
AcDbMText
 10
-108.431014
 20
0.0
 30
0.0
 40
40.0
 41
0.0
 71
     5
 72
     1
  1
\A1;355
  7
ED40
 11
0.0
 21
1.0
 31
0.0
  0
POINT
  5
1419
100
AcDbEntity
  8
DEFPOINTS
  6
BYBLOCK
 62
     0
 48
3.0
100
AcDbPoint
 10
-35.0
 20
177.5
 30
0.0
  0
POINT
  5
141A
100
AcDbEntity
  8
DEFPOINTS
  6
BYBLOCK
 62
     0
 48
3.0
100
AcDbPoint
 10
-35.0
 20
-177.5
 30
0.0
  0
POINT
  5
141B
100
AcDbEntity
  8
DEFPOINTS
  6
BYBLOCK
 62
     0
 48
3.0
100
AcDbPoint
 10
-84.431014
 20
-177.5
 30
0.0
  0
ENDBLK
  5
141C
100
AcDbEntity
  8
0
 48
3.0
100
AcDbBlockEnd
  0
BLOCK
  5
1433
100
AcDbEntity
  8
0
 48
3.0
100
AcDbBlockBegin
  2
*D60
 70
     1
 10
0.0
 20
0.0
 30
0.0
  3
*D60
  1

  0
LINE
  5
1434
100
AcDbEntity
  8
0
  6
BYBLOCK
 62
     0
 48
3.0
100
AcDbLine
 10
681.0
 20
325.0
 30
0.0
 11
872.807499
 21
325.0
 31
0.0
  0
LINE
  5
1435
100
AcDbEntity
  8
0
  6
BYBLOCK
 62
     0
 48
3.0
100
AcDbLine
 10
681.0
 20
-325.0
 30
0.0
 11
872.807499
 21
-325.0
 31
0.0
  0
LINE
  5
1436
100
AcDbEntity
  8
0
  6
BYBLOCK
 62
     0
 48
3.0
100
AcDbLine
 10
871.557499
 20
290.0
 30
0.0
 11
871.557499
 21
-290.0
 31
0.0
  0
INSERT
  5
1437
100
AcDbEntity
  8
0
  6
BYBLOCK
 62
     0
 48
3.0
100
AcDbBlockReference
  2
_OPEN
 10
871.557499
 20
325.0
 30
0.0
 41
35.0
 42
35.0
 43
35.0
 50
90.0
  0
INSERT
  5
1438
100
AcDbEntity
  8
0
  6
BYBLOCK
 62
     0
 48
3.0
100
AcDbBlockReference
  2
_OPEN
 10
871.557499
 20
-325.0
 30
0.0
 41
35.0
 42
35.0
 43
35.0
 50
270.0
  0
MTEXT
  5
1439
100
AcDbEntity
  8
0
  6
BYBLOCK
 62
     0
 48
3.0
100
AcDbMText
 10
847.557499
 20
0.0
 30
0.0
 40
40.0
 41
0.0
 71
     5
 72
     1
  1
\A1;650
  7
ED40
 11
0.0
 21
1.0
 31
0.0
  0
POINT
  5
143A
100
AcDbEntity
  8
DEFPOINTS
  6
BYBLOCK
 62
     0
 48
3.0
100
AcDbPoint
 10
680.0
 20
325.0
 30
0.0
  0
POINT
  5
143B
100
AcDbEntity
  8
DEFPOINTS
  6
BYBLOCK
 62
     0
 48
3.0
100
AcDbPoint
 10
680.0
 20
-325.0
 30
0.0
  0
POINT
  5
143C
100
AcDbEntity
  8
DEFPOINTS
  6
BYBLOCK
 62
     0
 48
3.0
100
AcDbPoint
 10
871.557499
 20
-325.0
 30
0.0
  0
ENDBLK
  5
143D
100
AcDbEntity
  8
0
 48
3.0
100
AcDbBlockEnd
  0
BLOCK
  5
1428
100
AcDbEntity
  8
0
 48
3.0
100
AcDbBlockBegin
  2
*D61
 70
     1
 10
0.0
 20
0.0
 30
0.0
  3
*D61
  1

  0
LINE
  5
1429
100
AcDbEntity
  8
0
  6
BYBLOCK
 62
     0
 48
3.0
100
AcDbLine
 10
606.0
 20
245.0
 30
0.0
 11
818.221893
 21
245.0
 31
0.0
  0
LINE
  5
142A
100
AcDbEntity
  8
0
  6
BYBLOCK
 62
     0
 48
3.0
100
AcDbLine
 10
604.822087
 20
-245.0
 30
0.0
 11
818.221893
 21
-245.0
 31
0.0
  0
LINE
  5
142B
100
AcDbEntity
  8
0
  6
BYBLOCK
 62
     0
 48
3.0
100
AcDbLine
 10
816.971893
 20
210.0
 30
0.0
 11
816.971893
 21
-210.0
 31
0.0
  0
INSERT
  5
142C
100
AcDbEntity
  8
0
  6
BYBLOCK
 62
     0
 48
3.0
100
AcDbBlockReference
  2
_OPEN
 10
816.971893
 20
245.0
 30
0.0
 41
35.0
 42
35.0
 43
35.0
 50
90.0
  0
INSERT
  5
142D
100
AcDbEntity
  8
0
  6
BYBLOCK
 62
     0
 48
3.0
100
AcDbBlockReference
  2
_OPEN
 10
816.971893
 20
-245.0
 30
0.0
 41
35.0
 42
35.0
 43
35.0
 50
270.0
  0
MTEXT
  5
142E
100
AcDbEntity
  8
0
  6
BYBLOCK
 62
     0
 48
3.0
100
AcDbMText
 10
792.971893
 20
0.0
 30
0.0
 40
40.0
 41
0.0
 71
     5
 72
     1
  1
\A1;490
  7
ED40
 11
0.0
 21
1.0
 31
0.0
  0
POINT
  5
142F
100
AcDbEntity
  8
DEFPOINTS
  6
BYBLOCK
 62
     0
 48
3.0
100
AcDbPoint
 10
605.0
 20
245.0
 30
0.0
  0
POINT
  5
1430
100
AcDbEntity
  8
DEFPOINTS
  6
BYBLOCK
 62
     0
 48
3.0
100
AcDbPoint
 10
603.822087
 20
-245.0
 30
0.0
  0
POINT
  5
1431
100
AcDbEntity
  8
DEFPOINTS
  6
BYBLOCK
 62
     0
 48
3.0
100
AcDbPoint
 10
816.971893
 20
-245.0
 30
0.0
  0
ENDBLK
  5
1432
100
AcDbEntity
  8
0
 48
3.0
100
AcDbBlockEnd
  0
BLOCK
  5
141D
100
AcDbEntity
  8
0
 48
3.0
100
AcDbBlockBegin
  2
*D62
 70
     1
 10
0.0
 20
0.0
 30
0.0
  3
*D62
  1

  0
LINE
  5
141E
100
AcDbEntity
  8
0
  6
BYBLOCK
 62
     0
 48
3.0
100
AcDbLine
 10
110.0
 20
176.978829
 30
0.0
 11
110.0
 21
375.276103
 31
0.0
  0
LINE
  5
141F
100
AcDbEntity
  8
0
  6
BYBLOCK
 62
     0
 48
3.0
100
AcDbLine
 10
600.0
 20
181.0
 30
0.0
 11
600.0
 21
375.276103
 31
0.0
  0
LINE
  5
1420
100
AcDbEntity
  8
0
  6
BYBLOCK
 62
     0
 48
3.0
100
AcDbLine
 10
145.0
 20
374.026103
 30
0.0
 11
565.0
 21
374.026103
 31
0.0
  0
INSERT
  5
1421
100
AcDbEntity
  8
0
  6
BYBLOCK
 62
     0
 48
3.0
100
AcDbBlockReference
  2
_OPEN
 10
110.0
 20
374.026103
 30
0.0
 41
35.0
 42
35.0
 43
35.0
 50
180.0
  0
INSERT
  5
1422
100
AcDbEntity
  8
0
  6
BYBLOCK
 62
     0
 48
3.0
100
AcDbBlockReference
  2
_OPEN
 10
600.0
 20
374.026103
 30
0.0
 41
35.0
 42
35.0
 43
35.0
  0
MTEXT
  5
1423
100
AcDbEntity
  8
0
  6
BYBLOCK
 62
     0
 48
3.0
100
AcDbMText
 10
355.0
 20
398.026103
 30
0.0
 40
40.0
 41
0.0
 71
     5
 72
     1
  1
\A1;490
  7
ED40
  0
POINT
  5
1424
100
AcDbEntity
  8
DEFPOINTS
  6
BYBLOCK
 62
     0
 48
3.0
100
AcDbPoint
 10
110.0
 20
175.978829
 30
0.0
  0
POINT
  5
1425
100
AcDbEntity
  8
DEFPOINTS
  6
BYBLOCK
 62
     0
 48
3.0
100
AcDbPoint
 10
600.0
 20
180.0
 30
0.0
  0
POINT
  5
1426
100
AcDbEntity
  8
DEFPOINTS
  6
BYBLOCK
 62
     0
 48
3.0
100
AcDbPoint
 10
600.0
 20
374.026103
 30
0.0
  0
ENDBLK
  5
1427
100
AcDbEntity
  8
0
 48
3.0
100
AcDbBlockEnd
  0
BLOCK
  5
1461
100
AcDbEntity
  8
0
 48
3.0
100
AcDbBlockBegin
  2
*D63
 70
     1
 10
0.0
 20
0.0
 30
0.0
  3
*D63
  1

  0
LINE
  5
1462
100
AcDbEntity
  8
0
  6
BYBLOCK
 62
     0
 48
3.0
100
AcDbLine
 10
985.088327
 20
-326.0
 30
0.0
 11
985.088327
 21
-438.793013
 31
0.0
  0
LINE
  5
1463
100
AcDbEntity
  8
0
  6
BYBLOCK
 62
     0
 48
3.0
100
AcDbLine
 10
1635.088327
 20
-326.0
 30
0.0
 11
1635.088327
 21
-438.793013
 31
0.0
  0
LINE
  5
1464
100
AcDbEntity
  8
0
  6
BYBLOCK
 62
     0
 48
3.0
100
AcDbLine
 10
1020.088327
 20
-437.543013
 30
0.0
 11
1600.088327
 21
-437.543013
 31
0.0
  0
INSERT
  5
1465
100
AcDbEntity
  8
0
  6
BYBLOCK
 62
     0
 48
3.0
100
AcDbBlockReference
  2
_OPEN
 10
985.088327
 20
-437.543013
 30
0.0
 41
35.0
 42
35.0
 43
35.0
 50
180.0
  0
INSERT
  5
1466
100
AcDbEntity
  8
0
  6
BYBLOCK
 62
     0
 48
3.0
100
AcDbBlockReference
  2
_OPEN
 10
1635.088327
 20
-437.543013
 30
0.0
 41
35.0
 42
35.0
 43
35.0
  0
MTEXT
  5
1467
100
AcDbEntity
  8
0
  6
BYBLOCK
 62
     0
 48
3.0
100
AcDbMText
 10
1310.088327
 20
-413.543013
 30
0.0
 40
40.0
 41
0.0
 71
     5
 72
     1
  1
\A1;650
  7
ED40
  0
POINT
  5
1468
100
AcDbEntity
  8
DEFPOINTS
  6
BYBLOCK
 62
     0
 48
3.0
100
AcDbPoint
 10
985.088327
 20
-325.0
 30
0.0
  0
POINT
  5
1469
100
AcDbEntity
  8
DEFPOINTS
  6
BYBLOCK
 62
     0
 48
3.0
100
AcDbPoint
 10
1635.088327
 20
-325.0
 30
0.0
  0
POINT
  5
146A
100
AcDbEntity
  8
DEFPOINTS
  6
BYBLOCK
 62
     0
 48
3.0
100
AcDbPoint
 10
1635.088327
 20
-437.543013
 30
0.0
  0
ENDBLK
  5
146B
100
AcDbEntity
  8
0
 48
3.0
100
AcDbBlockEnd
  0
BLOCK
  5
146C
100
AcDbEntity
  8
0
 48
3.0
100
AcDbBlockBegin
  2
*D64
 70
     1
 10
0.0
 20
0.0
 30
0.0
  3
*D64
  1

  0
LINE
  5
146D
100
AcDbEntity
  8
0
  6
BYBLOCK
 62
     0
 48
3.0
100
AcDbLine
 10
1065.088327
 20
-246.595777
 30
0.0
 11
1065.088327
 21
-385.718344
 31
0.0
  0
LINE
  5
146E
100
AcDbEntity
  8
0
  6
BYBLOCK
 62
     0
 48
3.0
100
AcDbLine
 10
1555.088327
 20
-242.720598
 30
0.0
 11
1555.088327
 21
-385.718344
 31
0.0
  0
LINE
  5
146F
100
AcDbEntity
  8
0
  6
BYBLOCK
 62
     0
 48
3.0
100
AcDbLine
 10
1100.088327
 20
-384.468344
 30
0.0
 11
1520.088327
 21
-384.468344
 31
0.0
  0
INSERT
  5
1470
100
AcDbEntity
  8
0
  6
BYBLOCK
 62
     0
 48
3.0
100
AcDbBlockReference
  2
_OPEN
 10
1065.088327
 20
-384.468344
 30
0.0
 41
35.0
 42
35.0
 43
35.0
 50
180.0
  0
INSERT
  5
1471
100
AcDbEntity
  8
0
  6
BYBLOCK
 62
     0
 48
3.0
100
AcDbBlockReference
  2
_OPEN
 10
1555.088327
 20
-384.468344
 30
0.0
 41
35.0
 42
35.0
 43
35.0
  0
MTEXT
  5
1472
100
AcDbEntity
  8
0
  6
BYBLOCK
 62
     0
 48
3.0
100
AcDbMText
 10
1310.088327
 20
-360.468344
 30
0.0
 40
40.0
 41
0.0
 71
     5
 72
     1
  1
\A1;490
  7
ED40
  0
POINT
  5
1473
100
AcDbEntity
  8
DEFPOINTS
  6
BYBLOCK
 62
     0
 48
3.0
100
AcDbPoint
 10
1065.088327
 20
-245.595777
 30
0.0
  0
POINT
  5
1474
100
AcDbEntity
  8
DEFPOINTS
  6
BYBLOCK
 62
     0
 48
3.0
100
AcDbPoint
 10
1555.088327
 20
-241.720598
 30
0.0
  0
POINT
  5
1475
100
AcDbEntity
  8
DEFPOINTS
  6
BYBLOCK
 62
     0
 48
3.0
100
AcDbPoint
 10
1555.088327
 20
-384.468344
 30
0.0
  0
ENDBLK
  5
1476
100
AcDbEntity
  8
0
 48
3.0
100
AcDbBlockEnd
  0
BLOCK
  5
1454
100
AcDbEntity
  8
0
 48
3.0
100
AcDbBlockBegin
  2
*D65
 70
     1
 10
0.0
 20
0.0
 30
0.0
  3
*D65
  1

  0
LINE
  5
1455
100
AcDbEntity
  8
0
  6
BYBLOCK
 62
     0
 48
3.0
100
AcDbLine
 10
-35.0
 20
-178.5
 30
0.0
 11
-35.0
 21
-384.271738
 31
0.0
  0
LINE
  5
1456
100
AcDbEntity
  8
0
  6
BYBLOCK
 62
     0
 48
3.0
100
AcDbLine
 10
30.0
 20
-326.0
 30
0.0
 11
30.0
 21
-384.271738
 31
0.0
  0
LINE
  5
1457
100
AcDbEntity
  8
0
  6
BYBLOCK
 62
     0
 48
3.0
100
AcDbLine
 10
-70.0
 20
-383.021738
 30
0.0
 11
-105.0
 21
-383.021738
 31
0.0
  0
LINE
  5
1458
100
AcDbEntity
  8
0
  6
BYBLOCK
 62
     0
 48
3.0
100
AcDbLine
 10
65.0
 20
-383.021738
 30
0.0
 11
100.0
 21
-383.021738
 31
0.0
  0
LINE
  5
1459
100
AcDbEntity
  8
0
  6
BYBLOCK
 62
     0
 48
3.0
100
AcDbLine
 10
-35.0
 20
-383.021738
 30
0.0
 11
30.0
 21
-383.021738
 31
0.0
  0
INSERT
  5
145A
100
AcDbEntity
  8
0
  6
BYBLOCK
 62
     0
 48
3.0
100
AcDbBlockReference
  2
_OPEN
 10
-35.0
 20
-383.021738
 30
0.0
 41
35.0
 42
35.0
 43
35.0
  0
INSERT
  5
145B
100
AcDbEntity
  8
0
  6
BYBLOCK
 62
     0
 48
3.0
100
AcDbBlockReference
  2
_OPEN
 10
30.0
 20
-383.021738
 30
0.0
 41
35.0
 42
35.0
 43
35.0
 50
180.0
  0
MTEXT
  5
145C
100
AcDbEntity
  8
0
  6
BYBLOCK
 62
     0
 48
3.0
100
AcDbMText
 10
-2.5
 20
-359.021738
 30
0.0
 40
40.0
 41
0.0
 71
     5
 72
     1
  1
\A1;65
  7
ED40
  0
POINT
  5
145D
100
AcDbEntity
  8
DEFPOINTS
  6
BYBLOCK
 62
     0
 48
3.0
100
AcDbPoint
 10
-35.0
 20
-177.5
 30
0.0
  0
POINT
  5
145E
100
AcDbEntity
  8
DEFPOINTS
  6
BYBLOCK
 62
     0
 48
3.0
100
AcDbPoint
 10
30.0
 20
-325.0
 30
0.0
  0
POINT
  5
145F
100
AcDbEntity
  8
DEFPOINTS
  6
BYBLOCK
 62
     0
 48
3.0
100
AcDbPoint
 10
30.0
 20
-383.021738
 30
0.0
  0
ENDBLK
  5
1460
100
AcDbEntity
  8
0
 48
3.0
100
AcDbBlockEnd
  0
ENDSEC
  0
SECTION
  2
ENTITIES
  0
LINE
  5
D86
100
AcDbEntity
  8
V0-VYPLNE
 48
3.0
100
AcDbLine
 10
-56.830342
 20
0.0
 30
0.0
 11
751.252643
 21
0.0
 31
0.0
  0
LINE
  5
D87
100
AcDbEntity
  8
V0-VYPLNE
 48
3.0
100
AcDbLine
 10
944.668287
 20
0.0
 30
0.0
 11
1686.048327
 21
0.0
 31
0.0
  0
LINE
  5
D88
100
AcDbEntity
  8
V0-VYPLNE
 48
3.0
100
AcDbLine
 10
1310.088327
 20
354.982304
 30
0.0
 11
1310.088327
 21
-357.930024
 31
0.0
  0
LINE
  5
D89
100
AcDbEntity
  8
V0-VYPLNE
 48
3.0
100
AcDbLine
 10
67.021083
 20
245.0
 30
0.0
 11
172.264462
 21
245.0
 31
0.0
  0
LINE
  5
D8A
100
AcDbEntity
  8
V0-VYPLNE
 48
3.0
100
AcDbLine
 10
70.900829
 20
-245.0
 30
0.0
 11
179.349677
 21
-245.0
 31
0.0
  0
LINE
  5
D8B
100
AcDbEntity
  8
V0-VYPLNE
 48
3.0
100
AcDbLine
 10
110.0
 20
287.793039
 30
0.0
 11
110.0
 21
123.852579
 31
0.0
  0
LINE
  5
D8D
100
AcDbEntity
  8
V0-VYPLNE
 48
3.0
100
AcDbLine
 10
600.0
 20
287.793039
 30
0.0
 11
600.0
 21
119.977395
 31
0.0
  0
LINE
  5
D8E
100
AcDbEntity
  8
V0-VYPLNE
 48
3.0
100
AcDbLine
 10
1065.088327
 20
287.793039
 30
0.0
 11
1065.088327
 21
194.285618
 31
0.0
  0
LINE
  5
D90
100
AcDbEntity
  8
V0-OBRYS
  6
CONTINUOUS
 62
    90
 48
3.0
100
AcDbLine
 10
30.0
 20
325.0
 30
0.0
 11
30.0
 21
-325.0
 31
0.0
  0
LINE
  5
D92
100
AcDbEntity
  8
V0-OBRYS
  6
CONTINUOUS
 62
    90
 48
3.0
100
AcDbLine
 10
30.0
 20
325.0
 30
0.0
 11
680.0
 21
325.0
 31
0.0
  0
LINE
  5
D93
100
AcDbEntity
  8
V0-OBRYS
  6
CONTINUOUS
 62
    90
 48
3.0
100
AcDbLine
 10
30.0
 20
-325.0
 30
0.0
 11
680.0
 21
-325.0
 31
0.0
  0
LINE
  5
D94
100
AcDbEntity
  8
V0-OBRYS
  6
CONTINUOUS
 62
    90
 48
3.0
100
AcDbLine
 10
680.0
 20
325.0
 30
0.0
 11
680.0
 21
-325.0
 31
0.0
  0
LINE
  5
D95
100
AcDbEntity
  8
V0-OBRYS
  6
CONTINUOUS
 62
    90
 48
3.0
100
AcDbLine
 10
985.088327
 20
325.0
 30
0.0
 11
985.088327
 21
-325.0
 31
0.0
  0
LINE
  5
D96
100
AcDbEntity
  8
V0-OBRYS
  6
CONTINUOUS
 62
    90
 48
3.0
100
AcDbLine
 10
1635.088327
 20
325.0
 30
0.0
 11
1635.088327
 21
-325.0
 31
0.0
  0
LINE
  5
D97
100
AcDbEntity
  8
V0-OBRYS
  6
CONTINUOUS
 62
    90
 48
3.0
100
AcDbLine
 10
985.088327
 20
325.0
 30
0.0
 11
1635.088327
 21
325.0
 31
0.0
  0
LINE
  5
D98
100
AcDbEntity
  8
V0-VYPLNE
 48
3.0
100
AcDbLine
 10
1041.202102
 20
245.0
 30
0.0
 11
1103.96973
 21
245.0
 31
0.0
  0
LINE
  5
D99
100
AcDbEntity
  8
V0-VYPLNE
 48
3.0
100
AcDbLine
 10
1043.141975
 20
-245.0
 30
0.0
 11
1146.481
 21
-245.0
 31
0.0
  0
LINE
  5
D9A
100
AcDbEntity
  8
V0-OBRYS
  6
CONTINUOUS
 62
    90
 48
3.0
100
AcDbLine
 10
985.088327
 20
-325.0
 30
0.0
 11
1635.088327
 21
-325.0
 31
0.0
  0
LINE
  5
D9B
100
AcDbEntity
  8
V0-OBRYS
  6
CONTINUOUS
 62
    90
 48
3.0
100
AcDbLine
 10
50.0
 20
305.0
 30
0.0
 11
660.0
 21
305.0
 31
0.0
  0
LINE
  5
D9C
100
AcDbEntity
  8
V0-OBRYS
  6
CONTINUOUS
 62
    90
 48
3.0
100
AcDbLine
 10
50.0
 20
-305.0
 30
0.0
 11
660.0
 21
-305.0
 31
0.0
  0
LINE
  5
D9E
100
AcDbEntity
  8
V0-OBRYS
  6
CONTINUOUS
 62
    90
 48
3.0
100
AcDbLine
 10
50.0
 20
325.0
 30
0.0
 11
50.0
 21
-325.0
 31
0.0
  0
LINE
  5
D9F
100
AcDbEntity
  8
V0-OBRYS
  6
CONTINUOUS
 62
    90
 48
3.0
100
AcDbLine
 10
660.0
 20
325.0
 30
0.0
 11
660.0
 21
-325.0
 31
0.0
  0
LINE
  5
DA0
100
AcDbEntity
  8
V0-OBRYS
  6
CONTINUOUS
 62
    90
 48
3.0
100
AcDbLine
 10
1005.088327
 20
305.0
 30
0.0
 11
1005.088327
 21
-305.0
 31
0.0
  0
LINE
  5
DA1
100
AcDbEntity
  8
V0-OBRYS
  6
CONTINUOUS
 62
    90
 48
3.0
100
AcDbLine
 10
1005.088327
 20
305.0
 30
0.0
 11
1615.088327
 21
305.0
 31
0.0
  0
LINE
  5
DA2
100
AcDbEntity
  8
V0-OBRYS
  6
CONTINUOUS
 62
    90
 48
3.0
100
AcDbLine
 10
1615.088327
 20
305.0
 30
0.0
 11
1615.088327
 21
-305.0
 31
0.0
  0
LINE
  5
DA3
100
AcDbEntity
  8
V0-OBRYS
  6
CONTINUOUS
 62
    90
 48
3.0
100
AcDbLine
 10
1005.088327
 20
-305.0
 30
0.0
 11
1615.088327
 21
-305.0
 31
0.0
  0
LINE
  5
DA4
100
AcDbEntity
  8
V0-VYPLNE
 48
3.0
100
AcDbLine
 10
509.814991
 20
-244.33363
 30
0.0
 11
686.891011
 21
-244.33363
 31
0.0
  0
LINE
  5
DA5
100
AcDbEntity
  8
V0-VYPLNE
 48
3.0
100
AcDbLine
 10
567.574484
 20
245.66637
 30
0.0
 11
683.011264
 21
245.66637
 31
0.0
  0
LINE
  5
DA6
100
AcDbEntity
  8
V0-VYPLNE
 48
3.0
100
AcDbLine
 10
1528.604355
 20
245.0
 30
0.0
 11
1572.920863
 21
245.0
 31
0.0
  0
LINE
  5
DA7
100
AcDbEntity
  8
V0-VYPLNE
 48
3.0
100
AcDbLine
 10
1522.784716
 20
-245.0
 30
0.0
 11
1599.860755
 21
-245.0
 31
0.0
  0
LINE
  5
DA8
100
AcDbEntity
  8
V0-VYPLNE
 48
3.0
100
AcDbLine
 10
1555.088327
 20
305.0
 30
0.0
 11
1555.088327
 21
194.285618
 31
0.0
  0
LINE
  5
DA9
100
AcDbEntity
  8
V0-VYPLNE
 48
3.0
100
AcDbLine
 10
110.0
 20
-198.619556
 30
0.0
 11
110.0
 21
-286.120394
 31
0.0
  0
LINE
  5
DAA
100
AcDbEntity
  8
V0-VYPLNE
 48
3.0
100
AcDbLine
 10
600.0
 20
-188.000494
 30
0.0
 11
600.0
 21
-268.885913
 31
0.0
  0
LINE
  5
DAB
100
AcDbEntity
  8
V0-VYPLNE
 48
3.0
100
AcDbLine
 10
1065.088327
 20
-188.000494
 30
0.0
 11
1065.088327
 21
-293.534803
 31
0.0
  0
CIRCLE
  5
DAD
100
AcDbEntity
  8
V0-OBRYS
 48
3.0
100
AcDbCircle
 10
1310.088327
 20
0.0
 30
0.0
 40
177.216
  0
CIRCLE
  5
DB0
100
AcDbEntity
  8
V0-OBRYS
 48
3.0
100
AcDbCircle
 10
110.0
 20
245.0
 30
0.0
 40
5.0
  0
CIRCLE
  5
DB1
100
AcDbEntity
  8
V0-OBRYS
 48
3.0
100
AcDbCircle
 10
600.0
 20
245.0
 30
0.0
 40
5.0
  0
CIRCLE
  5
DB2
100
AcDbEntity
  8
V0-OBRYS
 48
3.0
100
AcDbCircle
 10
109.029029
 20
-245.0
 30
0.0
 40
5.0
  0
CIRCLE
  5
DB3
100
AcDbEntity
  8
V0-OBRYS
 48
3.0
100
AcDbCircle
 10
598.822087
 20
-245.0
 30
0.0
 40
5.0
  0
CIRCLE
  5
DB4
100
AcDbEntity
  8
V0-OBRYS
 48
3.0
100
AcDbCircle
 10
1064.179995
 20
245.0
 30
0.0
 40
5.0
  0
CIRCLE
  5
DB5
100
AcDbEntity
  8
V0-OBRYS
 48
3.0
100
AcDbCircle
 10
1555.762609
 20
245.0
 30
0.0
 40
5.0
  0
CIRCLE
  5
DB6
100
AcDbEntity
  8
V0-OBRYS
 48
3.0
100
AcDbCircle
 10
1555.088327
 20
-245.0
 30
0.0
 40
5.0
  0
CIRCLE
  5
DB7
100
AcDbEntity
  8
V0-OBRYS
 48
3.0
100
AcDbCircle
 10
1065.088327
 20
-245.595777
 30
0.0
 40
5.0
  0
CIRCLE
  5
DBB
100
AcDbEntity
  8
V0-OBRYS
 48
3.0
100
AcDbCircle
 10
1310.088327
 20
199.368
 30
0.0
 40
7.384
  0
LINE
  5
DC7
100
AcDbEntity
  8
V0-OBRYS
 48
3.0
100
AcDbLine
 10
1221.480327
 20
155.064
 30
0.0
 11
1398.696327
 21
155.064
 31
0.0
  0
LINE
  5
DC8
100
AcDbEntity
  8
V0-OBRYS
 48
3.0
100
AcDbLine
 10
1155.024327
 20
-88.608
 30
0.0
 11
1155.024327
 21
88.608
 31
0.0
  0
LINE
  5
DC9
100
AcDbEntity
  8
V0-OBRYS
 48
3.0
100
AcDbLine
 10
1398.696327
 20
-155.064
 30
0.0
 11
1221.480327
 21
-155.064
 31
0.0
  0
LINE
  5
DCA
100
AcDbEntity
  8
V0-OBRYS
 48
3.0
100
AcDbLine
 10
1465.152327
 20
88.608
 30
0.0
 11
1465.152327
 21
-88.608
 31
0.0
  0
CIRCLE
  5
DCC
100
AcDbEntity
  8
V0-OBRYS
 48
3.0
100
AcDbCircle
 10
1310.088327
 20
0.0
 30
0.0
 40
35.4432
  0
CIRCLE
  5
DCD
100
AcDbEntity
  8
V0-OBRYS
 48
3.0
100
AcDbCircle
 10
1310.088327
 20
0.0
 30
0.0
 40
44.304
  0
CIRCLE
  5
DCE
100
AcDbEntity
  8
V0-OBRYS
 48
3.0
100
AcDbCircle
 10
1310.088327
 20
0.0
 30
0.0
 40
62.0256
  0
LINE
  5
DCF
100
AcDbEntity
  8
V0-OBRYS
 48
3.0
100
AcDbLine
 10
-35.0
 20
-177.5
 30
0.0
 11
-35.0
 21
177.5
 31
0.0
  0
LINE
  5
DD1
100
AcDbEntity
  8
V0-OBRYS
 48
3.0
100
AcDbLine
 10
-35.0
 20
-177.5
 30
0.0
 11
-25.0
 21
-177.5
 31
0.0
  0
LINE
  5
DD3
100
AcDbEntity
  8
V0-OBRYS
 48
3.0
100
AcDbLine
 10
-35.0
 20
177.5
 30
0.0
 11
-25.0
 21
177.5
 31
0.0
  0
LINE
  5
DD4
100
AcDbEntity
  8
V0-OBRYS
 48
3.0
100
AcDbLine
 10
-25.0
 20
177.5
 30
0.0
 11
-25.0
 21
-177.5
 31
0.0
  0
LINE
  5
DD6
100
AcDbEntity
  8
V0-OBRYS
 48
3.0
100
AcDbLine
 10
-15.0
 20
-177.5
 30
0.0
 11
-15.0
 21
177.5
 31
0.0
  0
ARC
  5
DD9
100
AcDbEntity
  8
V0-OBRYS
 48
3.0
100
AcDbCircle
 10
-20.0
 20
177.5
 30
0.0
 40
5.0
100
AcDbArc
 50
0.0
 51
180.0
  0
ARC
  5
DDA
100
AcDbEntity
  8
V0-OBRYS
 48
3.0
100
AcDbCircle
 10
-20.0
 20
-177.5
 30
0.0
 40
5.0
100
AcDbArc
 50
180.0
 51
0.0
  0
LINE
  5
DDB
100
AcDbEntity
  8
V0-OBRYS
 48
3.0
100
AcDbLine
 10
-15.0
 20
177.5
 30
0.0
 11
30.0
 21
177.5
 31
0.0
  0
LINE
  5
DDC
100
AcDbEntity
  8
V0-OBRYS
 48
3.0
100
AcDbLine
 10
-15.0
 20
-177.5
 30
0.0
 11
30.0
 21
-177.5
 31
0.0
  0
LINE
  5
DDE
100
AcDbEntity
  8
V0-OBRYS
 48
3.0
100
AcDbLine
 10
725.0
 20
-177.5
 30
0.0
 11
725.0
 21
177.5
 31
0.0
  0
LINE
  5
DDF
100
AcDbEntity
  8
V0-OBRYS
 48
3.0
100
AcDbLine
 10
735.0
 20
177.5
 30
0.0
 11
735.0
 21
-177.5
 31
0.0
  0
LINE
  5
DE0
100
AcDbEntity
  8
V0-OBRYS
 48
3.0
100
AcDbLine
 10
745.0
 20
-177.5
 30
0.0
 11
745.0
 21
177.5
 31
0.0
  0
LINE
  5
DE1
100
AcDbEntity
  8
V0-OBRYS
 48
3.0
100
AcDbLine
 10
725.0
 20
-177.5
 30
0.0
 11
680.0
 21
-177.5
 31
0.0
  0
LINE
  5
DE2
100
AcDbEntity
  8
V0-OBRYS
 48
3.0
100
AcDbLine
 10
745.0
 20
-177.5
 30
0.0
 11
735.0
 21
-177.5
 31
0.0
  0
ARC
  5
DE3
100
AcDbEntity
  8
V0-OBRYS
 48
3.0
100
AcDbCircle
 10
730.0
 20
-177.5
 30
0.0
 40
5.0
100
AcDbArc
 50
180.0
 51
360.0
  0
LINE
  5
DE4
100
AcDbEntity
  8
V0-OBRYS
 48
3.0
100
AcDbLine
 10
725.0
 20
177.5
 30
0.0
 11
680.0
 21
177.5
 31
0.0
  0
LINE
  5
DE5
100
AcDbEntity
  8
V0-OBRYS
 48
3.0
100
AcDbLine
 10
745.0
 20
177.5
 30
0.0
 11
735.0
 21
177.5
 31
0.0
  0
ARC
  5
DE6
100
AcDbEntity
  8
V0-OBRYS
 48
3.0
100
AcDbCircle
 10
730.0
 20
177.5
 30
0.0
 40
5.0
100
AcDbArc
 50
360.0
 51
180.0
  0
LINE
  5
DE7
100
AcDbEntity
  8
V0-VYPLNE
  6
DASHED
 48
3.0
100
AcDbLine
 10
68.960956
 20
175.978829
 30
0.0
 11
68.960956
 21
0.035501
 31
0.0
  0
LINE
  5
DE8
100
AcDbEntity
  8
V0-VYPLNE
  6
DASHED
 48
3.0
100
AcDbLine
 10
382.128907
 20
175.978829
 30
0.0
 11
382.128907
 21
0.035501
 31
0.0
  0
LINE
  5
DE9
100
AcDbEntity
  8
V0-VYPLNE
  6
DASHED
 48
3.0
100
AcDbLine
 10
68.960956
 20
175.978829
 30
0.0
 11
382.128926
 21
175.978829
 31
0.0
  0
LINE
  5
DEA
100
AcDbEntity
  8
V0-VYPLNE
  6
DASHED
 48
3.0
100
AcDbLine
 10
380.189053
 20
125.790171
 30
0.0
 11
426.746068
 21
125.790171
 31
0.0
  0
LINE
  5
DEB
100
AcDbEntity
  8
V0-VYPLNE
  6
DASHED
 48
3.0
100
AcDbLine
 10
426.746068
 20
125.790171
 30
0.0
 11
601.327878
 21
-125.790171
 31
0.0
  0
LINE
  5
DEC
100
AcDbEntity
  8
V0-VYPLNE
  6
DASHED
 48
3.0
100
AcDbLine
 10
68.960956
 20
-175.978829
 30
0.0
 11
68.960956
 21
-0.035501
 31
0.0
  0
LINE
  5
DED
100
AcDbEntity
  8
V0-VYPLNE
  6
DASHED
 48
3.0
100
AcDbLine
 10
68.960956
 20
-175.978829
 30
0.0
 11
108.497561
 21
-175.978829
 31
0.0
  0
LINE
  5
DEE
100
AcDbEntity
  8
V0-VYPLNE
  6
DASHED
 48
3.0
100
AcDbLine
 10
380.189053
 20
-125.790171
 30
0.0
 11
601.327878
 21
-125.790171
 31
0.0
  0
LINE
  5
DEF
100
AcDbEntity
  8
V0-VYPLNE
  6
DASHED
 48
3.0
100
AcDbLine
 10
382.128907
 20
-175.978829
 30
0.0
 11
382.128907
 21
-0.035501
 31
0.0
  0
LINE
  5
DF0
100
AcDbEntity
  8
V0-VYPLNE
  6
DASHED
 48
3.0
100
AcDbLine
 10
391.828292
 20
-34.841107
 30
0.0
 11
463.603697
 21
-34.841107
 31
0.0
  0
LINE
  5
DF1
100
AcDbEntity
  8
V0-VYPLNE
  6
DASHED
 48
3.0
100
AcDbLine
 10
463.603697
 20
-34.841107
 30
0.0
 11
463.603697
 21
-119.906393
 31
0.0
  0
LINE
  5
DF2
100
AcDbEntity
  8
V0-VYPLNE
  6
DASHED
 48
3.0
100
AcDbLine
 10
463.603697
 20
-119.906393
 30
0.0
 11
393.768185
 21
-119.906393
 31
0.0
  0
LINE
  5
DF3
100
AcDbEntity
  8
V0-VYPLNE
  6
DASHED
 48
3.0
100
AcDbLine
 10
393.768185
 20
-119.906393
 30
0.0
 11
393.768185
 21
-34.841107
 31
0.0
  0
LINE
  5
DF6
100
AcDbEntity
  8
V0-VYPLNE
  6
DASHED
 48
3.0
100
AcDbLine
 10
76.720468
 20
77.539096
 30
0.0
 11
370.489668
 21
77.539096
 31
0.0
  0
LINE
  5
DF7
100
AcDbEntity
  8
V0-VYPLNE
  6
DASHED
 48
3.0
100
AcDbLine
 10
76.720468
 20
-14.450482
 30
0.0
 11
370.489668
 21
-14.450482
 31
0.0
  0
LINE
  5
DF8
100
AcDbEntity
  8
V0-VYPLNE
  6
DASHED
 48
3.0
100
AcDbLine
 10
70.716054
 20
-92.83058
 30
0.0
 11
364.485254
 21
-92.83058
 31
0.0
  0
LINE
  5
DF9
100
AcDbEntity
  8
V0-VYPLNE
  6
DASHED
 48
3.0
100
AcDbLine
 10
370.489668
 20
175.978829
 30
0.0
 11
370.489668
 21
-175.907827
 31
0.0
  0
LINE
  5
DFA
100
AcDbEntity
  8
V0-VYPLNE
  6
DASHED
 48
3.0
100
AcDbLine
 10
76.720468
 20
177.916421
 30
0.0
 11
76.720468
 21
-175.907827
 31
0.0
  0
LINE
  5
DFB
100
AcDbEntity
  8
V0-VYPLNE
  6
DASHED
 48
3.0
100
AcDbLine
 10
430.625814
 20
116.102221
 30
0.0
 11
660.379102
 21
116.102221
 31
0.0
  0
LINE
  5
DFC
100
AcDbEntity
  8
V0-VYPLNE
  6
DASHED
 48
3.0
100
AcDbLine
 10
594.942341
 20
-116.031209
 30
0.0
 11
662.318975
 21
-116.031209
 31
0.0
  0
LINE
  5
DFF
100
AcDbEntity
  8
V0-OBRYS
  6
CONTINUOUS
 62
    90
 48
3.0
100
AcDbLine
 10
680.0
 20
-559.509955
 30
0.0
 11
680.0
 21
-1209.509955
 31
0.0
  0
LINE
  5
E00
100
AcDbEntity
  8
V0-OBRYS
  6
CONTINUOUS
 62
    90
 48
3.0
100
AcDbLine
 10
30.0
 20
-559.509955
 30
0.0
 11
30.0
 21
-1209.509955
 31
0.0
  0
LINE
  5
E01
100
AcDbEntity
  8
V0-OBRYS
  6
CONTINUOUS
 62
    90
 48
3.0
100
AcDbLine
 10
30.0
 20
-1209.509955
 30
0.0
 11
680.0
 21
-1209.509955
 31
0.0
  0
LINE
  5
E07
100
AcDbEntity
  8
V0-VYPLNE
 48
3.0
100
AcDbLine
 10
-56.830342
 20
-884.509955
 30
0.0
 11
751.252643
 21
-884.509955
 31
0.0
  0
LINE
  5
E0D
100
AcDbEntity
  8
V0-OBRYS
  6
CONTINUOUS
 62
    90
 48
3.0
100
AcDbLine
 10
30.0
 20
-559.509955
 30
0.0
 11
680.0
 21
-559.509955
 31
0.0
  0
LINE
  5
E10
100
AcDbEntity
  8
V0-OBRYS
 48
3.0
100
AcDbLine
 10
-15.0
 20
-1062.009955
 30
0.0
 11
-15.0
 21
-707.009955
 31
0.0
  0
LINE
  5
E11
100
AcDbEntity
  8
V0-OBRYS
 48
3.0
100
AcDbLine
 10
-25.0
 20
-707.009955
 30
0.0
 11
-25.0
 21
-1062.009955
 31
0.0
  0
LINE
  5
E12
100
AcDbEntity
  8
V0-OBRYS
 48
3.0
100
AcDbLine
 10
-35.0
 20
-1062.009955
 30
0.0
 11
-35.0
 21
-707.009955
 31
0.0
  0
LINE
  5
E14
100
AcDbEntity
  8
V0-OBRYS
 48
3.0
100
AcDbLine
 10
-15.0
 20
-1062.009955
 30
0.0
 11
30.0
 21
-1062.009955
 31
0.0
  0
LINE
  5
E15
100
AcDbEntity
  8
V0-OBRYS
 48
3.0
100
AcDbLine
 10
-35.0
 20
-1062.009955
 30
0.0
 11
-25.0
 21
-1062.009955
 31
0.0
  0
ARC
  5
E16
100
AcDbEntity
  8
V0-OBRYS
 48
3.0
100
AcDbCircle
 10
-20.0
 20
-1062.009955
 30
0.0
 40
5.0
100
AcDbArc
 50
180.0
 51
0.0
  0
LINE
  5
E19
100
AcDbEntity
  8
V0-OBRYS
 48
3.0
100
AcDbLine
 10
-15.0
 20
-707.009955
 30
0.0
 11
30.0
 21
-707.009955
 31
0.0
  0
LINE
  5
E1A
100
AcDbEntity
  8
V0-OBRYS
 48
3.0
100
AcDbLine
 10
-35.0
 20
-707.009955
 30
0.0
 11
-25.0
 21
-707.009955
 31
0.0
  0
ARC
  5
E1B
100
AcDbEntity
  8
V0-OBRYS
 48
3.0
100
AcDbCircle
 10
-20.0
 20
-707.009955
 30
0.0
 40
5.0
100
AcDbArc
 50
0.0
 51
180.0
  0
LINE
  5
E20
100
AcDbEntity
  8
V0-OBRYS
 48
3.0
100
AcDbLine
 10
745.0
 20
-1062.009955
 30
0.0
 11
745.0
 21
-707.009955
 31
0.0
  0
LINE
  5
E21
100
AcDbEntity
  8
V0-OBRYS
 48
3.0
100
AcDbLine
 10
735.0
 20
-707.009955
 30
0.0
 11
735.0
 21
-1062.009955
 31
0.0
  0
LINE
  5
E22
100
AcDbEntity
  8
V0-OBRYS
 48
3.0
100
AcDbLine
 10
725.0
 20
-1062.009955
 30
0.0
 11
725.0
 21
-707.009955
 31
0.0
  0
LINE
  5
E2B
100
AcDbEntity
  8
V0-OBRYS
 48
3.0
100
AcDbLine
 10
725.0
 20
-1062.009955
 30
0.0
 11
680.0
 21
-1062.009955
 31
0.0
  0
ARC
  5
E2D
100
AcDbEntity
  8
V0-OBRYS
 48
3.0
100
AcDbCircle
 10
730.0
 20
-1062.009955
 30
0.0
 40
5.0
100
AcDbArc
 50
180.0
 51
360.0
  0
LINE
  5
E2E
100
AcDbEntity
  8
V0-OBRYS
 48
3.0
100
AcDbLine
 10
745.0
 20
-1062.009955
 30
0.0
 11
735.0
 21
-1062.009955
 31
0.0
  0
LINE
  5
E33
100
AcDbEntity
  8
V0-OBRYS
 48
3.0
100
AcDbLine
 10
725.0
 20
-707.009955
 30
0.0
 11
680.0
 21
-707.009955
 31
0.0
  0
ARC
  5
E34
100
AcDbEntity
  8
V0-OBRYS
 48
3.0
100
AcDbCircle
 10
730.0
 20
-707.009955
 30
0.0
 40
5.0
100
AcDbArc
 50
360.0
 51
180.0
  0
LINE
  5
E35
100
AcDbEntity
  8
V0-OBRYS
 48
3.0
100
AcDbLine
 10
745.0
 20
-707.009955
 30
0.0
 11
735.0
 21
-707.009955
 31
0.0
  0
DIMENSION
  5
E52
100
AcDbEntity
  8
V0-VYPLNE
  6
CONTINUOUS
 62
    41
 48
3.0
100
AcDbDimension
  2
*D57
 10
680.0
 20
-383.021738
 30
0.0
 11
355.0
 21
-359.021738
 31
0.0
 70
    32
  3
ED40
100
AcDbAlignedDimension
 13
30.0
 23
-325.0
 33
0.0
 14
680.0
 24
-325.0
 34
0.0
100
AcDbRotatedDimension
1001
ACAD
1000
DSTYLE
1002
{
1070
    40
1040
1.0
1002
}
  0
DIMENSION
  5
E5F
100
AcDbEntity
  8
V0-VYPLNE
  6
CONTINUOUS
 62
    41
 48
3.0
100
AcDbDimension
  2
*D58
 10
745.0
 20
-437.543013
 30
0.0
 11
355.0
 21
-413.543013
 31
0.0
 70
    32
  3
ED40
100
AcDbAlignedDimension
 13
-35.0
 23
-177.5
 33
0.0
 14
745.0
 24
-177.5
 34
0.0
100
AcDbRotatedDimension
1001
ACAD
1000
DSTYLE
1002
{
1070
    40
1040
1.0
1002
}
  0
DIMENSION
  5
E6C
100
AcDbEntity
  8
V0-VYPLNE
  6
CONTINUOUS
 62
    41
 48
3.0
100
AcDbDimension
  2
*D59
 10
-84.431014
 20
-177.5
 30
0.0
 11
-108.431014
 21
0.0
 31
0.0
 70
    32
  3
ED40
100
AcDbAlignedDimension
 13
-35.0
 23
177.5
 33
0.0
 14
-35.0
 24
-177.5
 34
0.0
 50
90.0
100
AcDbRotatedDimension
1001
ACAD
1000
DSTYLE
1002
{
1070
    40
1040
1.0
1002
}
  0
DIMENSION
  5
E79
100
AcDbEntity
  8
V0-VYPLNE
  6
CONTINUOUS
 62
    41
 48
3.0
100
AcDbDimension
  2
*D60
 10
871.557499
 20
-325.0
 30
0.0
 11
847.557499
 21
0.0
 31
0.0
 70
    32
  3
ED40
100
AcDbAlignedDimension
 13
680.0
 23
325.0
 33
0.0
 14
680.0
 24
-325.0
 34
0.0
 50
90.0
100
AcDbRotatedDimension
1001
ACAD
1000
DSTYLE
1002
{
1070
    40
1040
1.0
1002
}
  0
DIMENSION
  5
E86
100
AcDbEntity
  8
V0-VYPLNE
  6
CONTINUOUS
 62
    41
 48
3.0
100
AcDbDimension
  2
*D61
 10
816.971893
 20
-245.0
 30
0.0
 11
792.971893
 21
0.0
 31
0.0
 70
    32
  3
ED40
100
AcDbAlignedDimension
 13
605.0
 23
245.0
 33
0.0
 14
603.822087
 24
-245.0
 34
0.0
 50
90.0
100
AcDbRotatedDimension
1001
ACAD
1000
DSTYLE
1002
{
1070
    40
1040
1.0
1002
}
  0
DIMENSION
  5
E93
100
AcDbEntity
  8
V0-VYPLNE
  6
CONTINUOUS
 62
    41
 48
3.0
100
AcDbDimension
  2
*D62
 10
600.0
 20
374.026103
 30
0.0
 11
355.0
 21
398.026103
 31
0.0
 70
    32
  3
ED40
100
AcDbAlignedDimension
 13
110.0
 23
175.978829
 33
0.0
 14
600.0
 24
180.0
 34
0.0
100
AcDbRotatedDimension
1001
ACAD
1000
DSTYLE
1002
{
1070
    40
1040
1.0
1002
}
  0
DIMENSION
  5
EA0
100
AcDbEntity
  8
V0-VYPLNE
  6
CONTINUOUS
 62
    41
 48
3.0
100
AcDbDimension
  2
*D63
 10
1635.088327
 20
-437.543013
 30
0.0
 11
1310.088327
 21
-413.543013
 31
0.0
 70
    32
  3
ED40
100
AcDbAlignedDimension
 13
985.088327
 23
-325.0
 33
0.0
 14
1635.088327
 24
-325.0
 34
0.0
100
AcDbRotatedDimension
1001
ACAD
1000
DSTYLE
1002
{
1070
    40
1040
1.0
1002
}
  0
MTEXT
  5
EB5
100
AcDbEntity
  8
V0-ZBYTEK
100
AcDbMText
 10
1224.353723
 20
-985.643213
 30
0.0
 40
33.75
 41
530.19735
 71
     5
 72
     5
  1
ZVUKOVE  IZOLOVANY
  7
ED10
  0
MTEXT
  5
EB6
100
AcDbEntity
  8
V0-ZBYTEK
 62
    51
100
AcDbMText
 10
1229.733178
 20
-883.365929
 30
0.0
 40
47.25
 41
1338.49935
 71
     5
 72
     5
  1
RADIALNI VENTILATOR
  7
ED10
  0
MTEXT
  5
EB7
100
AcDbEntity
  8
V0-NAZVY
100
AcDbMText
 10
1208.07864
 20
-759.687314
 30
0.0
 40
84.375
 41
694.03665
 71
     5
 72
     5
  1
CVAB-3800-355
  7
ED10
  0
MTEXT
  5
EB8
100
AcDbEntity
  8
V0-NAZVY
100
AcDbMText
 10
340.265719
 20
-622.201258
 30
0.0
 40
50.625
 41
416.42205
 71
     5
 72
     5
  1
CVAB-3800-355
  7
ED10
  0
MTEXT
  5
EB9
100
AcDbEntity
  8
V0-NAZVY
100
AcDbMText
 10
388.175192
 20
45.916734
 30
0.0
 40
50.625
 41
416.42205
 71
     5
 72
     5
  1
CVAB-3800-355
  7
ED10
  0
MTEXT
  5
EBB
100
AcDbEntity
  8
V0-NAZVY
100
AcDbMText
 10
1268.928725
 20
379.286402
 30
0.0
 40
50.625
 41
416.42205
 71
     5
 72
     5
  1
CVAB-3800-355
  7
ED10
  0
LINE
  5
EBD
100
AcDbEntity
  8
V0-VYPLNE
  6
DASHED
 48
3.0
100
AcDbLine
 10
68.960956
 20
-708.531126
 30
0.0
 11
382.128926
 21
-708.531126
 31
0.0
  0
LINE
  5
EBE
100
AcDbEntity
  8
V0-VYPLNE
  6
DASHED
 48
3.0
100
AcDbLine
 10
68.960956
 20
-1075.488784
 30
0.0
 11
382.128926
 21
-1075.488784
 31
0.0
  0
LINE
  5
EBF
100
AcDbEntity
  8
V0-VYPLNE
  6
DASHED
 48
3.0
100
AcDbLine
 10
68.960956
 20
-708.531126
 30
0.0
 11
68.960956
 21
-884.474454
 31
0.0
  0
LINE
  5
EC0
100
AcDbEntity
  8
V0-VYPLNE
  6
DASHED
 48
3.0
100
AcDbLine
 10
68.960956
 20
-1075.488784
 30
0.0
 11
68.960956
 21
-884.545456
 31
0.0
  0
LINE
  5
EC1
100
AcDbEntity
  8
V0-VYPLNE
  6
DASHED
 48
3.0
100
AcDbLine
 10
382.128907
 20
-708.531126
 30
0.0
 11
382.128907
 21
-884.474454
 31
0.0
  0
LINE
  5
EC2
100
AcDbEntity
  8
V0-VYPLNE
  6
DASHED
 48
3.0
100
AcDbLine
 10
370.489668
 20
-708.531126
 30
0.0
 11
370.489668
 21
-1075.417782
 31
0.0
  0
LINE
  5
EC3
100
AcDbEntity
  8
V0-VYPLNE
  6
DASHED
 48
3.0
100
AcDbLine
 10
76.720468
 20
-706.593534
 30
0.0
 11
76.720468
 21
-1075.417782
 31
0.0
  0
LINE
  5
EC5
100
AcDbEntity
  8
V0-VYPLNE
  6
DASHED
 48
3.0
100
AcDbLine
 10
380.189053
 20
-758.719784
 30
0.0
 11
591.327878
 21
-758.719784
 31
0.0
  0
LINE
  5
EC6
100
AcDbEntity
  8
V0-VYPLNE
  6
DASHED
 48
3.0
100
AcDbLine
 10
463.603697
 20
-1063.790947
 30
0.0
 11
393.768185
 21
-1063.790947
 31
0.0
  0
LINE
  5
EC7
100
AcDbEntity
  8
V0-VYPLNE
  6
DASHED
 48
3.0
100
AcDbLine
 10
380.189053
 20
-1010.300126
 30
0.0
 11
591.327878
 21
-1010.300126
 31
0.0
  0
LINE
  5
EC9
100
AcDbEntity
  8
V0-VYPLNE
  6
DASHED
 48
3.0
100
AcDbLine
 10
382.128907
 20
-1075.488784
 30
0.0
 11
382.128907
 21
-884.545456
 31
0.0
  0
LINE
  5
ECA
100
AcDbEntity
  8
V0-VYPLNE
  6
DASHED
 48
3.0
100
AcDbLine
 10
393.768185
 20
-1063.790947
 30
0.0
 11
393.768185
 21
-1010.300126
 31
0.0
  0
LINE
  5
ECB
100
AcDbEntity
  8
V0-VYPLNE
  6
DASHED
 48
3.0
100
AcDbLine
 10
70.716054
 20
-977.340534
 30
0.0
 11
364.485254
 21
-977.340534
 31
0.0
  0
LINE
  5
ECC
100
AcDbEntity
  8
V0-VYPLNE
  6
DASHED
 48
3.0
100
AcDbLine
 10
76.720468
 20
-806.970859
 30
0.0
 11
370.489668
 21
-806.970859
 31
0.0
  0
LINE
  5
ECD
100
AcDbEntity
  8
V0-VYPLNE
  6
DASHED
 48
3.0
100
AcDbLine
 10
76.720468
 20
-898.960437
 30
0.0
 11
370.489668
 21
-898.960437
 31
0.0
  0
LINE
  5
ECE
100
AcDbEntity
  8
V0-VYPLNE
  6
DASHED
 48
3.0
100
AcDbLine
 10
463.603697
 20
-1010.300126
 30
0.0
 11
463.603697
 21
-1063.790947
 31
0.0
  0
LINE
  5
ED0
100
AcDbEntity
  8
V0-VYPLNE
  6
DASHED
 48
3.0
100
AcDbLine
 10
584.942341
 20
-1000.541164
 30
0.0
 11
662.318975
 21
-1000.541164
 31
0.0
  0
LINE
  5
ED1
100
AcDbEntity
  8
V0-VYPLNE
  6
DASHED
 48
3.0
100
AcDbLine
 10
591.327878
 20
-768.407734
 30
0.0
 11
660.379102
 21
-768.407734
 31
0.0
  0
LINE
  5
ED2
100
AcDbEntity
  8
V0-VYPLNE
  6
DASHED
 48
3.0
100
AcDbLine
 10
591.327878
 20
-758.719784
 30
0.0
 11
591.327878
 21
-1010.300126
 31
0.0
  0
DIMENSION
  5
FBD
100
AcDbEntity
  8
V0-VYPLNE
  6
CONTINUOUS
 62
    41
 48
3.0
100
AcDbDimension
  2
*D64
 10
1555.088327
 20
-384.468344
 30
0.0
 11
1310.088327
 21
-360.468344
 31
0.0
 70
    32
  3
ED40
100
AcDbAlignedDimension
 13
1065.088327
 23
-245.595777
 33
0.0
 14
1555.088327
 24
-241.720598
 34
0.0
100
AcDbRotatedDimension
1001
ACAD
1000
DSTYLE
1002
{
1070
    40
1040
1.0
1002
}
  0
CIRCLE
  5
FBE
100
AcDbEntity
  8
V0-OBRYS
  6
CONTINUOUS
 62
    90
 48
3.0
100
AcDbCircle
 10
1310.088327
 20
0.0
 30
0.0
 40
221.733042
  0
CIRCLE
  5
FBF
100
AcDbEntity
  8
V0-OBRYS
 48
3.0
100
AcDbCircle
 10
1210.404327
 20
172.657753
 30
0.0
 40
7.384
  0
CIRCLE
  5
FC0
100
AcDbEntity
  8
V0-OBRYS
 48
3.0
100
AcDbCircle
 10
1137.430575
 20
99.684
 30
0.0
 40
7.384
  0
CIRCLE
  5
FC1
100
AcDbEntity
  8
V0-OBRYS
 48
3.0
100
AcDbCircle
 10
1110.720327
 20
0.0
 30
0.0
 40
7.384
  0
CIRCLE
  5
FC2
100
AcDbEntity
  8
V0-OBRYS
 48
3.0
100
AcDbCircle
 10
1137.430575
 20
-99.684
 30
0.0
 40
7.384
  0
CIRCLE
  5
FC3
100
AcDbEntity
  8
V0-OBRYS
 48
3.0
100
AcDbCircle
 10
1210.404327
 20
-172.657753
 30
0.0
 40
7.384
  0
CIRCLE
  5
FC4
100
AcDbEntity
  8
V0-OBRYS
 48
3.0
100
AcDbCircle
 10
1310.088327
 20
-199.368
 30
0.0
 40
7.384
  0
CIRCLE
  5
FC5
100
AcDbEntity
  8
V0-OBRYS
 48
3.0
100
AcDbCircle
 10
1409.772327
 20
-172.657753
 30
0.0
 40
7.384
  0
CIRCLE
  5
FC6
100
AcDbEntity
  8
V0-OBRYS
 48
3.0
100
AcDbCircle
 10
1482.74608
 20
-99.684
 30
0.0
 40
7.384
  0
CIRCLE
  5
FC7
100
AcDbEntity
  8
V0-OBRYS
 48
3.0
100
AcDbCircle
 10
1509.456327
 20
0.0
 30
0.0
 40
7.384
  0
CIRCLE
  5
FC8
100
AcDbEntity
  8
V0-OBRYS
 48
3.0
100
AcDbCircle
 10
1482.74608
 20
99.684
 30
0.0
 40
7.384
  0
CIRCLE
  5
FC9
100
AcDbEntity
  8
V0-OBRYS
 48
3.0
100
AcDbCircle
 10
1409.772327
 20
172.657753
 30
0.0
 40
7.384
  0
DIMENSION
  5
FE4
100
AcDbEntity
  8
V0-VYPLNE
  6
CONTINUOUS
 62
    41
 48
3.0
100
AcDbDimension
  2
*D65
 10
30.0
 20
-383.021738
 30
0.0
 11
-2.5
 21
-359.021738
 31
0.0
 70
    32
  3
ED40
100
AcDbAlignedDimension
 13
-35.0
 23
-177.5
 33
0.0
 14
30.0
 24
-325.0
 34
0.0
100
AcDbRotatedDimension
1001
ACAD
1000
DSTYLE
1002
{
1070
    40
1040
1.0
1002
}
  0
LINE
  5
117D
100
AcDbEntity
  8
V0-VYPLNE
 48
3.0
100
AcDbLine
 10
1555.088327
 20
-188.000494
 30
0.0
 11
1555.088327
 21
-291.597211
 31
0.0
  0
LINE
  5
1477
100
AcDbEntity
  8
V0-VYPLNE
  6
DASHED
 48
3.0
100
AcDbLine
 10
108.497561
 20
-175.978829
 30
0.0
 11
382.128926
 21
-175.978829
 31
0.0
  0
POINT
  5
1479
100
AcDbEntity
  8
V0-VYPLNE
  6
CONTINUOUS
 62
    41
 48
3.0
100
AcDbPoint
 10
-35.0
 20
0.0
 30
0.0
  0
POINT
  5
147A
100
AcDbEntity
  8
V0-VYPLNE
  6
CONTINUOUS
 62
    41
 48
3.0
100
AcDbPoint
 10
745.0
 20
0.0
 30
0.0
  0
POINT
  5
147B
100
AcDbEntity
  8
V0-VYPLNE
  6
CONTINUOUS
 62
    41
 48
3.0
100
AcDbPoint
 10
-35.0
 20
-884.509955
 30
0.0
  0
POINT
  5
147C
100
AcDbEntity
  8
V0-VYPLNE
  6
CONTINUOUS
 62
    41
 48
3.0
100
AcDbPoint
 10
745.0
 20
-884.509955
 30
0.0
  0
POINT
  5
147D
100
AcDbEntity
  8
V0-VYPLNE
  6
CONTINUOUS
 62
    41
 48
3.0
100
AcDbPoint
 10
1310.088327
 20
0.0
 30
0.0
  0
VIEWPORT
  5
22
100
AcDbEntity
 67
     1
  8
0
100
AcDbViewport
 10
261.517699
 20
148.5
 30
0.0
 40
523.035398
 41
297.0
 68
    -1
 69
     1
1001
ACAD
1000
MVIEW
1002
{
1070
    16
1010
0.0
1020
0.0
1030
0.0
1010
0.0
1020
0.0
1030
1.0
1040
0.0
1040
297.0
1040
261.517699
1040
148.5
1040
50.0
1040
0.0
1040
0.0
1070
     0
1070
   100
1070
     1
1070
     1
1070
     0
1070
     0
1070
     0
1070
     0
1040
0.0
1040
0.0
1040
0.0
1040
1.0
1040
1.0
1040
10.0
1040
10.0
1070
     0
1002
{
1002
}
1002
}
  0
ENDSEC
  0
SECTION
  2
OBJECTS
  0
DICTIONARY
  5
C
100
AcDbDictionary
  3
ACAD_GROUP
350
D
  3
ACAD_MLINESTYLE
350
E
  3
ACDBVARIABLEDICTIONARY
350
5D
  0
DICTIONARY
  5
D
102
{ACAD_REACTORS
330
C
102
}
100
AcDbDictionary
  0
DICTIONARY
  5
E
102
{ACAD_REACTORS
330
C
102
}
100
AcDbDictionary
  3
STANDARD
350
13
  0
DICTIONARY
  5
5D
102
{ACAD_REACTORS
330
C
102
}
100
AcDbDictionary
  3
DIMADEC
350
5E
  3
SORTENTS
350
3D8
  0
MLINESTYLE
  5
13
102
{ACAD_REACTORS
330
E
102
}
100
AcDbMlineStyle
  2
STANDARD
 70
     0
  3

 62
     0
 51
90.0
 52
90.0
 71
     2
 49
0.5
 62
   256
  6
BYLAYER
 49
-0.5
 62
   256
  6
BYLAYER
  0
DICTIONARYVAR
  5
5E
102
{ACAD_REACTORS
330
5D
102
}
100
DictionaryVariables
280
     0
  1
0
  0
DICTIONARYVAR
  5
3D8
102
{ACAD_REACTORS
330
5D
102
}
100
DictionaryVariables
280
     0
  1
96
  0
ENDSEC
  0
EOF
