  0
SECTION
  2
HEADER
  9
$ACADVER
  1
AC1014
  9
$ACADMAINTVER
 70
     9
  9
$DWGCODEPAGE
  3
ANSI_1250
  9
$INSBASE
 10
0.0
 20
0.0
 30
0.0
  9
$EXTMIN
 10
-1019.270281142858
 20
-1952.780569
 30
0.0
  9
$EXTMAX
 10
2306.645528
 20
697.4758430000001
 30
0.0
  9
$LIMMIN
 10
0.0
 20
0.0
  9
$LIMMAX
 10
0.0
 20
0.0
  9
$ORTHOMODE
 70
     1
  9
$REGENMODE
 70
     1
  9
$FILLMODE
 70
     1
  9
$QTEXTMODE
 70
     0
  9
$MIRRTEXT
 70
     1
  9
$DRAGMODE
 70
     2
  9
$LTSCALE
 40
1.0
  9
$OSMODE
 70
    37
  9
$ATTMODE
 70
     1
  9
$TEXTSIZE
 40
0.2
  9
$TRACEWID
 40
0.05
  9
$TEXTSTYLE
  7
ED60
  9
$CLAYER
  8
V0-OBRYS
  9
$CELTYPE
  6
CONTINUOUS
  9
$CECOLOR
 62
    90
  9
$CELTSCALE
 40
1.0
  9
$DELOBJ
 70
     1
  9
$DISPSILH
 70
     0
  9
$DIMSCALE
 40
1.0
  9
$DIMASZ
 40
60.0
  9
$DIMEXO
 40
1.0
  9
$DIMDLI
 40
0.38
  9
$DIMRND
 40
0.0
  9
$DIMDLE
 40
0.0
  9
$DIMEXE
 40
1.25
  9
$DIMTP
 40
0.0
  9
$DIMTM
 40
0.0
  9
$DIMTXT
 40
50.0
  9
$DIMCEN
 40
0.09
  9
$DIMTSZ
 40
0.0
  9
$DIMTOL
 70
     0
  9
$DIMLIM
 70
     0
  9
$DIMTIH
 70
     0
  9
$DIMTOH
 70
     0
  9
$DIMSE1
 70
     0
  9
$DIMSE2
 70
     0
  9
$DIMTAD
 70
     1
  9
$DIMZIN
 70
     0
  9
$DIMBLK
  1
OPEN
  9
$DIMASO
 70
     1
  9
$DIMSHO
 70
     1
  9
$DIMPOST
  1

  9
$DIMAPOST
  1

  9
$DIMALT
 70
     0
  9
$DIMALTD
 70
     2
  9
$DIMALTF
 40
25.4
  9
$DIMLFAC
 40
1.0
  9
$DIMTOFL
 70
     1
  9
$DIMTVP
 40
0.0
  9
$DIMTIX
 70
     1
  9
$DIMSOXD
 70
     0
  9
$DIMSAH
 70
     0
  9
$DIMBLK1
  1

  9
$DIMBLK2
  1

  9
$DIMSTYLE
  2
ED60
  9
$DIMCLRD
 70
     0
  9
$DIMCLRE
 70
     0
  9
$DIMCLRT
 70
     0
  9
$DIMTFAC
 40
1.0
  9
$DIMGAP
 40
4.0
  9
$DIMJUST
 70
     0
  9
$DIMSD1
 70
     0
  9
$DIMSD2
 70
     0
  9
$DIMTOLJ
 70
     1
  9
$DIMTZIN
 70
     0
  9
$DIMALTZ
 70
     0
  9
$DIMALTTZ
 70
     0
  9
$DIMFIT
 70
     3
  9
$DIMUPT
 70
     1
  9
$DIMUNIT
 70
     2
  9
$DIMDEC
 70
     0
  9
$DIMTDEC
 70
     4
  9
$DIMALTU
 70
     2
  9
$DIMALTTD
 70
     2
  9
$DIMTXSTY
  7
ED60
  9
$DIMAUNIT
 70
     0
  9
$LUNITS
 70
     2
  9
$LUPREC
 70
     4
  9
$SKETCHINC
 40
0.1
  9
$FILLETRAD
 40
0.5
  9
$AUNITS
 70
     0
  9
$AUPREC
 70
     0
  9
$MENU
  1
.
  9
$ELEVATION
 40
0.0
  9
$PELEVATION
 40
0.0
  9
$THICKNESS
 40
0.0
  9
$LIMCHECK
 70
     0
  9
$BLIPMODE
 70
     0
  9
$CHAMFERA
 40
0.5
  9
$CHAMFERB
 40
0.5
  9
$CHAMFERC
 40
1.0
  9
$CHAMFERD
 40
0.0
  9
$SKPOLY
 70
     0
  9
$TDCREATE
 40
2455645.56070294
  9
$TDUPDATE
 40
2455645.560702951
  9
$TDINDWG
 40
0.0000000116
  9
$TDUSRTIMER
 40
0.0000000116
  9
$USRTIMER
 70
     1
  9
$ANGBASE
 50
0.0
  9
$ANGDIR
 70
     0
  9
$PDMODE
 70
     3
  9
$PDSIZE
 40
20.0
  9
$PLINEWID
 40
0.0
  9
$COORDS
 70
     1
  9
$SPLFRAME
 70
     0
  9
$SPLINETYPE
 70
     6
  9
$SPLINESEGS
 70
     8
  9
$ATTDIA
 70
     0
  9
$ATTREQ
 70
     1
  9
$HANDLING
 70
     1
  9
$HANDSEED
  5
234D
  9
$SURFTAB1
 70
     6
  9
$SURFTAB2
 70
     6
  9
$SURFTYPE
 70
     6
  9
$SURFU
 70
     6
  9
$SURFV
 70
     6
  9
$UCSNAME
  2

  9
$UCSORG
 10
0.0
 20
0.0
 30
0.0
  9
$UCSXDIR
 10
1.0
 20
0.0
 30
0.0
  9
$UCSYDIR
 10
0.0
 20
1.0
 30
0.0
  9
$PUCSNAME
  2

  9
$PUCSORG
 10
0.0
 20
0.0
 30
0.0
  9
$PUCSXDIR
 10
1.0
 20
0.0
 30
0.0
  9
$PUCSYDIR
 10
0.0
 20
1.0
 30
0.0
  9
$USERI1
 70
     0
  9
$USERI2
 70
     0
  9
$USERI3
 70
     0
  9
$USERI4
 70
     0
  9
$USERI5
 70
     0
  9
$USERR1
 40
0.0
  9
$USERR2
 40
0.0
  9
$USERR3
 40
0.0
  9
$USERR4
 40
0.0
  9
$USERR5
 40
0.0
  9
$WORLDVIEW
 70
     1
  9
$SHADEDGE
 70
     3
  9
$SHADEDIF
 70
    70
  9
$TILEMODE
 70
     1
  9
$MAXACTVP
 70
    64
  9
$PINSBASE
 10
0.0
 20
0.0
 30
0.0
  9
$PLIMCHECK
 70
     0
  9
$PEXTMIN
 10
1.000000000000000E+20
 20
1.000000000000000E+20
 30
1.000000000000000E+20
  9
$PEXTMAX
 10
-1.000000000000000E+20
 20
-1.000000000000000E+20
 30
-1.000000000000000E+20
  9
$PLIMMIN
 10
0.0
 20
0.0
  9
$PLIMMAX
 10
0.0
 20
0.0
  9
$UNITMODE
 70
     0
  9
$VISRETAIN
 70
     1
  9
$PLINEGEN
 70
     0
  9
$PSLTSCALE
 70
     1
  9
$TREEDEPTH
 70
  3020
  9
$PICKSTYLE
 70
     1
  9
$CMLSTYLE
  2
STANDARD
  9
$CMLJUST
 70
     0
  9
$CMLSCALE
 40
1.0
  9
$PROXYGRAPHICS
 70
     1
  9
$MEASUREMENT
 70
     0
  0
ENDSEC
  0
SECTION
  2
CLASSES
  0
CLASS
  1
ACDBDICTIONARYWDFLT
  2
AcDbDictionaryWithDefault
  3
ObjectDBX Classes
 90
        0
280
     0
281
     0
  0
CLASS
  1
XRECORD
  2
AcDbXrecord
  3
AutoCAD 2000
 90
        0
280
     0
281
     0
  0
CLASS
  1
LWPOLYLINE
  2
AcDbPolyline
  3
AutoCAD 2000
 90
        0
280
     0
281
     1
  0
CLASS
  1
HATCH
  2
AcDbHatch
  3
AutoCAD 2000
 90
        0
280
     0
281
     1
  0
CLASS
  1
ACDBPLACEHOLDER
  2
AcDbPlaceHolder
  3
ObjectDBX Classes
 90
        0
280
     0
281
     0
  0
CLASS
  1
LAYOUT
  2
AcDbLayout
  3
ObjectDBX Classes
 90
        0
280
     0
281
     0
  0
ENDSEC
  0
SECTION
  2
TABLES
  0
TABLE
  2
VPORT
  5
229D
330
0
100
AcDbSymbolTable
 70
     2
  0
VPORT
  5
22BE
102
{ACAD_XDICTIONARY
360
234B
102
}
330
229D
100
AcDbSymbolTableRecord
100
AcDbViewportTableRecord
  2
*ACTIVE
 70
     0
 10
0.0
 20
0.0
 11
1.0
 21
1.0
 12
245.7431314765476
 22
-389.2078683445238
 13
0.0
 23
0.0
 14
10.0
 24
10.0
 15
10.0
 25
10.0
 16
0.0
 26
0.0
 36
1.0
 17
0.0
 27
0.0
 37
0.0
 40
3399.975243599999
 41
0.0052226135437538
 42
50.0
 43
0.0
 44
0.0
 50
0.0
 51
0.0000000000007958
 71
     0
 72
   100
 73
     1
 74
     3
 75
     0
 76
     0
 77
     0
 78
     0
  0
ENDTAB
  0
TABLE
  2
LTYPE
  5
229A
330
0
100
AcDbSymbolTable
 70
    25
  0
LTYPE
  5
22A9
330
229A
100
AcDbSymbolTableRecord
100
AcDbLinetypeTableRecord
  2
BYBLOCK
 70
     0
  3

 72
    65
 73
     0
 40
0.0
  0
LTYPE
  5
22AA
330
229A
100
AcDbSymbolTableRecord
100
AcDbLinetypeTableRecord
  2
BYLAYER
 70
     0
  3

 72
    65
 73
     0
 40
0.0
  0
LTYPE
  5
22AB
330
229A
100
AcDbSymbolTableRecord
100
AcDbLinetypeTableRecord
  2
CONTINUOUS
 70
     0
  3
Solid line
 72
    65
 73
     0
 40
0.0
  0
LTYPE
  5
22C6
330
229A
100
AcDbSymbolTableRecord
100
AcDbLinetypeTableRecord
  2
CENTER
 70
     0
  3
Center ____ _ ____ _ ____ _ ____ _ ____ _ ____
 72
    65
 73
     4
 40
2.0
 49
1.25
 74
     0
 49
-0.25
 74
     0
 49
0.25
 74
     0
 49
-0.25
 74
     0
  0
LTYPE
  5
22C7
330
229A
100
AcDbSymbolTableRecord
100
AcDbLinetypeTableRecord
  2
DASHDOT
 70
     0
  3
Dashdot __ . __ . __ . __ . __ . __ . __ . __
 72
    65
 73
     4
 40
1.0
 49
0.5
 74
     0
 49
-0.25
 74
     0
 49
0.0
 74
     0
 49
-0.25
 74
     0
  0
LTYPE
  5
22C8
330
229A
100
AcDbSymbolTableRecord
100
AcDbLinetypeTableRecord
  2
DASHED
 70
     0
  3
Dashed __ __ __ __ __ __ __ __ __ __ __ __ __ _
 72
    65
 73
     2
 40
0.75
 49
0.5
 74
     0
 49
-0.25
 74
     0
  0
LTYPE
  5
22C9
330
229A
100
AcDbSymbolTableRecord
100
AcDbLinetypeTableRecord
  2
HIDDEN
 70
     0
  3
Hidden __ __ __ __ __ __ __ __ __ __ __ __ __ __
 72
    65
 73
     2
 40
0.375
 49
0.25
 74
     0
 49
-0.125
 74
     0
  0
LTYPE
  5
22CA
330
229A
100
AcDbSymbolTableRecord
100
AcDbLinetypeTableRecord
  2
HIDDEN2
 70
     0
  3
Hidden2 _ _ _ _ _ _ _ _ _ _ _ _ _ _ _ _ _ 
 72
    65
 73
     2
 40
0.1875
 49
0.125
 74
     0
 49
-0.0625
 74
     0
  0
LTYPE
  5
22CB
330
229A
100
AcDbSymbolTableRecord
100
AcDbLinetypeTableRecord
  2
BORDER
 70
     0
  3
Border __ __ . __ __ . __ __ . __ __ . __ __ .
 72
    65
 73
     6
 40
1.75
 49
0.5
 74
     0
 49
-0.25
 74
     0
 49
0.5
 74
     0
 49
-0.25
 74
     0
 49
0.0
 74
     0
 49
-0.25
 74
     0
  0
LTYPE
  5
22CC
330
229A
100
AcDbSymbolTableRecord
100
AcDbLinetypeTableRecord
  2
BORDER2
 70
     0
  3
Border2 __.__.__.__.__.__.__.__.__.__.__.
 72
    65
 73
     6
 40
0.875
 49
0.25
 74
     0
 49
-0.125
 74
     0
 49
0.25
 74
     0
 49
-0.125
 74
     0
 49
0.0
 74
     0
 49
-0.125
 74
     0
  0
LTYPE
  5
22CD
330
229A
100
AcDbSymbolTableRecord
100
AcDbLinetypeTableRecord
  2
BORDERX2
 70
     0
  3
Borderx2  ____  ____  .  ____  ____  .  ___
 72
    65
 73
     6
 40
3.5
 49
1.0
 74
     0
 49
-0.5
 74
     0
 49
1.0
 74
     0
 49
-0.5
 74
     0
 49
0.0
 74
     0
 49
-0.5
 74
     0
  0
LTYPE
  5
22CE
330
229A
100
AcDbSymbolTableRecord
100
AcDbLinetypeTableRecord
  2
CENTER2
 70
     0
  3
Center2  ___ _ ___ _ ___ _ ___ _ ___ _ ___
 72
    65
 73
     4
 40
1.125
 49
0.75
 74
     0
 49
-0.125
 74
     0
 49
0.125
 74
     0
 49
-0.125
 74
     0
  0
LTYPE
  5
22CF
330
229A
100
AcDbSymbolTableRecord
100
AcDbLinetypeTableRecord
  2
CENTERX2
 70
     0
  3
Centerx2  ________  __  ________  __  _____
 72
    65
 73
     4
 40
4.0
 49
2.5
 74
     0
 49
-0.5
 74
     0
 49
0.5
 74
     0
 49
-0.5
 74
     0
  0
LTYPE
  5
22D0
330
229A
100
AcDbSymbolTableRecord
100
AcDbLinetypeTableRecord
  2
DASHDOT2
 70
     0
  3
Dashdot2  _._._._._._._._._._._._._._._.
 72
    65
 73
     4
 40
0.5
 49
0.25
 74
     0
 49
-0.125
 74
     0
 49
0.0
 74
     0
 49
-0.125
 74
     0
  0
LTYPE
  5
22D1
330
229A
100
AcDbSymbolTableRecord
100
AcDbLinetypeTableRecord
  2
DASHDOTX2
 70
     0
  3
Dashdotx2 ____  .  ____  .  ____  .  ___
 72
    65
 73
     4
 40
2.0
 49
1.0
 74
     0
 49
-0.5
 74
     0
 49
0.0
 74
     0
 49
-0.5
 74
     0
  0
LTYPE
  5
22D2
330
229A
100
AcDbSymbolTableRecord
100
AcDbLinetypeTableRecord
  2
DASHED2
 70
     0
  3
Dashed2 _ _ _ _ _ _ _ _ _ _ _ _ _ _ _ _ _ 
 72
    65
 73
     2
 40
0.375
 49
0.25
 74
     0
 49
-0.125
 74
     0
  0
LTYPE
  5
22D3
330
229A
100
AcDbSymbolTableRecord
100
AcDbLinetypeTableRecord
  2
DASHEDX2
 70
     0
  3
Dashedx2 ____  ____  ____  ____  ____  ___
 72
    65
 73
     2
 40
1.5
 49
1.0
 74
     0
 49
-0.5
 74
     0
  0
LTYPE
  5
22D4
330
229A
100
AcDbSymbolTableRecord
100
AcDbLinetypeTableRecord
  2
DIVIDE
 70
     0
  3
Divide ____ . . ____ . . ____ . . ____ . . ____
 72
    65
 73
     6
 40
1.25
 49
0.5
 74
     0
 49
-0.25
 74
     0
 49
0.0
 74
     0
 49
-0.25
 74
     0
 49
0.0
 74
     0
 49
-0.25
 74
     0
  0
LTYPE
  5
22D5
330
229A
100
AcDbSymbolTableRecord
100
AcDbLinetypeTableRecord
  2
DIVIDE2
 70
     0
  3
Divide2 __..__..__..__..__..__..__..__.._
 72
    65
 73
     6
 40
0.625
 49
0.25
 74
     0
 49
-0.125
 74
     0
 49
0.0
 74
     0
 49
-0.125
 74
     0
 49
0.0
 74
     0
 49
-0.125
 74
     0
  0
LTYPE
  5
22D6
330
229A
100
AcDbSymbolTableRecord
100
AcDbLinetypeTableRecord
  2
DIVIDEX2
 70
     0
  3
Dividex2 ________  .  .  ________  .  .  _
 72
    65
 73
     6
 40
2.5
 49
1.0
 74
     0
 49
-0.5
 74
     0
 49
0.0
 74
     0
 49
-0.5
 74
     0
 49
0.0
 74
     0
 49
-0.5
 74
     0
  0
LTYPE
  5
22D7
330
229A
100
AcDbSymbolTableRecord
100
AcDbLinetypeTableRecord
  2
DOT
 70
     0
  3
Dot . . . . . . . . . . . . . . . . . . . . . . . .
 72
    65
 73
     2
 40
0.25
 49
0.0
 74
     0
 49
-0.25
 74
     0
  0
LTYPE
  5
22D8
330
229A
100
AcDbSymbolTableRecord
100
AcDbLinetypeTableRecord
  2
DOT2
 70
     0
  3
Dot2 ........................................
 72
    65
 73
     2
 40
0.125
 49
0.0
 74
     0
 49
-0.125
 74
     0
  0
LTYPE
  5
22D9
330
229A
100
AcDbSymbolTableRecord
100
AcDbLinetypeTableRecord
  2
DOTX2
 70
     0
  3
Dotx2 .  .  .  .  .  .  .  .  .  .  .  .  .  .
 72
    65
 73
     2
 40
0.5
 49
0.0
 74
     0
 49
-0.5
 74
     0
  0
LTYPE
  5
22DA
330
229A
100
AcDbSymbolTableRecord
100
AcDbLinetypeTableRecord
  2
HIDDENX2
 70
     0
  3
Hiddenx2 ____ ____ ____ ____ ____ ____ ____ 
 72
    65
 73
     2
 40
0.75
 49
0.5
 74
     0
 49
-0.25
 74
     0
  0
LTYPE
  5
22DB
330
229A
100
AcDbSymbolTableRecord
100
AcDbLinetypeTableRecord
  2
PHANTOM
 70
     0
  3
Phantom ______  __  __  ______  __  __  ______ 
 72
    65
 73
     6
 40
2.5
 49
1.25
 74
     0
 49
-0.25
 74
     0
 49
0.25
 74
     0
 49
-0.25
 74
     0
 49
0.25
 74
     0
 49
-0.25
 74
     0
  0
LTYPE
  5
22DC
330
229A
100
AcDbSymbolTableRecord
100
AcDbLinetypeTableRecord
  2
PHANTOM2
 70
     0
  3
Phantom2 ___ _ _ ___ _ _ ___ _ _ ___ _ _
 72
    65
 73
     6
 40
1.25
 49
0.625
 74
     0
 49
-0.125
 74
     0
 49
0.125
 74
     0
 49
-0.125
 74
     0
 49
0.125
 74
     0
 49
-0.125
 74
     0
  0
LTYPE
  5
22DD
330
229A
100
AcDbSymbolTableRecord
100
AcDbLinetypeTableRecord
  2
PHANTOMX2
 70
     0
  3
Phantomx2 ____________    ____    ____   _
 72
    65
 73
     6
 40
5.0
 49
2.5
 74
     0
 49
-0.5
 74
     0
 49
0.5
 74
     0
 49
-0.5
 74
     0
 49
0.5
 74
     0
 49
-0.5
 74
     0
  0
ENDTAB
  0
TABLE
  2
LAYER
  5
2297
330
0
100
AcDbSymbolTable
 70
     6
  0
LAYER
  5
22A5
330
2297
100
AcDbSymbolTableRecord
100
AcDbLayerTableRecord
  2
0
 70
     0
 62
     7
  6
CONTINUOUS
  0
LAYER
  5
9E
330
2297
100
AcDbSymbolTableRecord
100
AcDbLayerTableRecord
  2
DEFPOINTS
 70
     0
 62
     7
  6
CONTINUOUS
  0
LAYER
  5
377
330
2297
100
AcDbSymbolTableRecord
100
AcDbLayerTableRecord
  2
V0-OBRYS
 70
     0
 62
    90
  6
CONTINUOUS
  0
LAYER
  5
378
330
2297
100
AcDbSymbolTableRecord
100
AcDbLayerTableRecord
  2
V0-VYPLNE
 70
     0
 62
    63
  6
DASHDOT
  0
LAYER
  5
37A
330
2297
100
AcDbSymbolTableRecord
100
AcDbLayerTableRecord
  2
V0-NAZVY
 70
     0
 62
   210
  6
CONTINUOUS
  0
LAYER
  5
559
330
2297
100
AcDbSymbolTableRecord
100
AcDbLayerTableRecord
  2
V0-ZBYTEK
 70
     0
 62
    51
  6
CONTINUOUS
  0
ENDTAB
  0
TABLE
  2
STYLE
  5
2298
330
0
100
AcDbSymbolTable
 70
     7
  0
STYLE
  5
22A6
330
2298
100
AcDbSymbolTableRecord
100
AcDbTextStyleTableRecord
  2
STANDARD
 70
     0
 40
0.0
 41
1.0
 50
0.0
 71
     0
 42
0.2
  3
ISOCP.shx
  4

1001
ACAD
1000
ISOCP.shx
1071
        0
  0
STYLE
  5
331
330
2298
100
AcDbSymbolTableRecord
100
AcDbTextStyleTableRecord
  2
ED20
 70
     0
 40
25.0
 41
1.0
 50
0.0
 71
     0
 42
0.2
  3
ISOCP.shx
  4

1001
ACAD
1000
ISOCP.shx
1071
        0
  0
STYLE
  5
648
330
2298
100
AcDbSymbolTableRecord
100
AcDbTextStyleTableRecord
  2
ED10
 70
     0
 40
10.0
 41
1.0
 50
0.0
 71
     0
 42
0.2
  3
ISOCP.shx
  4

1001
ACAD
1000
ISOCP.shx
1071
        0
  0
STYLE
  5
F38
330
2298
100
AcDbSymbolTableRecord
100
AcDbTextStyleTableRecord
  2
ED30
 70
     0
 40
30.0
 41
1.0
 50
0.0
 71
     0
 42
0.2
  3
ISOCP.shx
  4

1001
ACAD
1000
ISOCP.shx
1071
        0
  0
STYLE
  5
F39
330
2298
100
AcDbSymbolTableRecord
100
AcDbTextStyleTableRecord
  2
ED40
 70
     0
 40
40.0
 41
1.0
 50
0.0
 71
     0
 42
0.2
  3
ISOCP.shx
  4

1001
ACAD
1000
ISOCP.shx
1071
        0
  0
STYLE
  5
1EA9
330
2298
100
AcDbSymbolTableRecord
100
AcDbTextStyleTableRecord
  2
ED50
 70
     0
 40
50.0
 41
1.0
 50
0.0
 71
     0
 42
0.2
  3
ISOCP.shx
  4

1001
ACAD
1000
ISOCP.shx
1071
        0
  0
STYLE
  5
2121
330
2298
100
AcDbSymbolTableRecord
100
AcDbTextStyleTableRecord
  2
ED60
 70
     0
 40
65.0
 41
1.0
 50
0.0
 71
     0
 42
0.2
  3
ISOCP.shx
  4

1001
ACAD
1000
ISOCP.shx
1071
        0
  0
ENDTAB
  0
TABLE
  2
VIEW
  5
229B
330
0
100
AcDbSymbolTable
 70
     0
  0
ENDTAB
  0
TABLE
  2
UCS
  5
229C
330
0
100
AcDbSymbolTable
 70
     0
  0
ENDTAB
  0
TABLE
  2
APPID
  5
229E
330
0
100
AcDbSymbolTable
 70
     6
  0
APPID
  5
22A7
330
229E
100
AcDbSymbolTableRecord
100
AcDbRegAppTableRecord
  2
ACAD
 70
     0
  0
APPID
  5
22BF
330
229E
100
AcDbSymbolTableRecord
100
AcDbRegAppTableRecord
  2
VD_INVISIBLE_NOT_FOR_READ
 70
     0
  0
APPID
  5
22C0
330
229E
100
AcDbSymbolTableRecord
100
AcDbRegAppTableRecord
  2
VD_TEMPHATCH
 70
     0
  0
APPID
  5
22C1
330
229E
100
AcDbSymbolTableRecord
100
AcDbRegAppTableRecord
  2
VDEXTRAPARAM
 70
     0
  0
APPID
  5
22C2
330
229E
100
AcDbSymbolTableRecord
100
AcDbRegAppTableRecord
  2
PE_URL
 70
     0
  0
APPID
  5
22C3
330
229E
100
AcDbSymbolTableRecord
100
AcDbRegAppTableRecord
  2
VD_UNKNOWN
 70
     0
  0
ENDTAB
  0
TABLE
  2
DIMSTYLE
  5
229F
330
0
100
AcDbSymbolTable
 70
     6
  0
DIMSTYLE
105
22BC
330
229F
100
AcDbSymbolTableRecord
100
AcDbDimStyleTableRecord
  2
STANDARD
 70
     0
  3

  4

  5
OPEN
  6

  7

 40
1.0
 41
15.0
 42
0.625
 43
0.38
 44
1.25
 45
0.0
 46
0.0
 47
0.0
 48
0.0
140
15.0
141
0.09
142
0.0
143
25.4
144
1.0
145
0.0
146
1.0
147
3.0
 71
     0
 72
     0
 73
     0
 74
     0
 75
     0
 76
     0
 77
     1
 78
     0
170
     0
171
     2
172
     1
173
     0
174
     1
175
     0
176
     0
177
     0
178
     0
270
     2
271
     0
272
     4
273
     2
274
     2
340
331
275
     0
280
     0
281
     0
282
     0
283
     1
284
     0
285
     0
286
     0
287
     3
288
     1
  0
DIMSTYLE
105
397
330
229F
100
AcDbSymbolTableRecord
100
AcDbDimStyleTableRecord
  2
ED40
 70
     0
  3

  4

  5
OPEN
  6

  7

 40
1.0
 41
35.0
 42
1.0
 43
0.38
 44
1.25
 45
0.0
 46
0.0
 47
0.0
 48
0.0
140
40.0
141
0.09
142
0.0
143
25.4
144
1.0
145
0.0
146
1.0
147
4.0
 71
     0
 72
     0
 73
     0
 74
     0
 75
     0
 76
     0
 77
     1
 78
     0
170
     0
171
     2
172
     1
173
     0
174
     1
175
     0
176
     0
177
     0
178
     0
270
     2
271
     0
272
     4
273
     2
274
     2
340
F39
275
     0
280
     0
281
     0
282
     0
283
     1
284
     0
285
     0
286
     0
287
     3
288
     1
  0
DIMSTYLE
105
FEA
330
229F
100
AcDbSymbolTableRecord
100
AcDbDimStyleTableRecord
  2
ED30
 70
     0
  3

  4

  5
OPEN
  6

  7

 40
1.0
 41
25.0
 42
1.0
 43
0.38
 44
1.25
 45
0.0
 46
0.0
 47
0.0
 48
0.0
140
30.0
141
0.09
142
0.0
143
25.4
144
1.0
145
0.0
146
1.0
147
4.0
 71
     0
 72
     0
 73
     0
 74
     0
 75
     0
 76
     0
 77
     1
 78
     0
170
     0
171
     2
172
     1
173
     0
174
     1
175
     0
176
     0
177
     0
178
     0
270
     2
271
     0
272
     4
273
     2
274
     2
340
F38
275
     0
280
     0
281
     0
282
     0
283
     1
284
     0
285
     0
286
     0
287
     3
288
     1
  0
DIMSTYLE
105
1457
330
229F
100
AcDbSymbolTableRecord
100
AcDbDimStyleTableRecord
  2
ED20
 70
     0
  3

  4

  5
OPEN
  6

  7

 40
1.0
 41
20.0
 42
1.0
 43
0.38
 44
1.25
 45
0.0
 46
0.0
 47
0.0
 48
0.0
140
20.0
141
0.09
142
0.0
143
25.4
144
1.0
145
0.0
146
1.0
147
1.5
 71
     0
 72
     0
 73
     0
 74
     0
 75
     0
 76
     0
 77
     1
 78
     0
170
     0
171
     2
172
     1
173
     0
174
     1
175
     0
176
     0
177
     0
178
     0
270
     2
271
     0
272
     4
273
     2
274
     2
340
331
275
     0
280
     0
281
     0
282
     0
283
     1
284
     0
285
     0
286
     0
287
     3
288
     1
  0
DIMSTYLE
105
1458
330
229F
100
AcDbSymbolTableRecord
100
AcDbDimStyleTableRecord
  2
ED10
 70
     0
  3

  4

  5
OPEN
  6

  7

 40
1.0
 41
15.0
 42
1.0
 43
0.38
 44
1.25
 45
0.0
 46
0.0
 47
0.0
 48
0.0
140
10.0
141
0.09
142
0.0
143
25.4
144
1.0
145
0.0
146
1.0
147
1.5
 71
     0
 72
     0
 73
     0
 74
     0
 75
     0
 76
     0
 77
     1
 78
     0
170
     0
171
     2
172
     1
173
     0
174
     1
175
     0
176
     0
177
     0
178
     0
270
     2
271
     0
272
     4
273
     2
274
     2
340
331
275
     0
280
     0
281
     0
282
     0
283
     1
284
     0
285
     0
286
     0
287
     3
288
     1
  0
DIMSTYLE
105
2122
102
{ACAD_REACTORS
330
1469
330
1483
330
1490
330
1BAE
330
1E0D
102
}
330
229F
100
AcDbSymbolTableRecord
100
AcDbDimStyleTableRecord
  2
ED60
 70
     0
  3

  4

  5
OPEN
  6

  7

 40
1.0
 41
60.0
 42
1.0
 43
0.38
 44
1.25
 45
0.0
 46
0.0
 47
0.0
 48
0.0
140
50.0
141
0.09
142
0.0
143
25.4
144
1.0
145
0.0
146
1.0
147
4.0
 71
     0
 72
     0
 73
     0
 74
     0
 75
     0
 76
     0
 77
     1
 78
     0
170
     0
171
     2
172
     1
173
     0
174
     1
175
     0
176
     0
177
     0
178
     0
270
     2
271
     0
272
     4
273
     2
274
     2
340
2121
275
     0
280
     0
281
     0
282
     0
283
     1
284
     0
285
     0
286
     0
287
     3
288
     1
  0
ENDTAB
  0
TABLE
  2
BLOCK_RECORD
  5
2296
330
0
100
AcDbSymbolTable
 70
    10
  0
BLOCK_RECORD
  5
22B4
330
2296
100
AcDbSymbolTableRecord
100
AcDbBlockTableRecord
  2
*MODEL_SPACE
  0
BLOCK_RECORD
  5
22B0
330
2296
100
AcDbSymbolTableRecord
100
AcDbBlockTableRecord
  2
*PAPER_SPACE
  0
BLOCK_RECORD
  5
90
330
2296
100
AcDbSymbolTableRecord
100
AcDbBlockTableRecord
  2
_OPEN
  0
BLOCK_RECORD
  5
1459
330
2296
100
AcDbSymbolTableRecord
100
AcDbBlockTableRecord
  2
A10_100
  0
BLOCK_RECORD
  5
2292
330
2296
100
AcDbSymbolTableRecord
100
AcDbBlockTableRecord
  2
VDDIM_DEFAULT
  0
BLOCK_RECORD
  5
2294
330
2296
100
AcDbSymbolTableRecord
100
AcDbBlockTableRecord
  2
VDDIM_NONE
  0
BLOCK_RECORD
  5
22E7
330
2296
100
AcDbSymbolTableRecord
100
AcDbBlockTableRecord
  2
*D5
  0
BLOCK_RECORD
  5
22F4
330
2296
100
AcDbSymbolTableRecord
100
AcDbBlockTableRecord
  2
*D6
  0
BLOCK_RECORD
  5
2301
330
2296
100
AcDbSymbolTableRecord
100
AcDbBlockTableRecord
  2
*D7
  0
BLOCK_RECORD
  5
230E
330
2296
100
AcDbSymbolTableRecord
100
AcDbBlockTableRecord
  2
*D8
  0
BLOCK_RECORD
  5
231B
330
2296
100
AcDbSymbolTableRecord
100
AcDbBlockTableRecord
  2
*D9
  0
ENDTAB
  0
ENDSEC
  0
SECTION
  2
BLOCKS
  0
BLOCK
  5
22B5
330
22B4
100
AcDbEntity
  8
0
100
AcDbBlockBegin
  2
*MODEL_SPACE
 70
     0
 71
     0
 10
0.0
 20
0.0
 30
0.0
  3
*MODEL_SPACE
  1

  0
ENDBLK
  5
22B6
330
22B4
100
AcDbEntity
  8
0
100
AcDbBlockEnd
  0
BLOCK
  5
22B1
330
22B0
100
AcDbEntity
 67
     1
  8
0
100
AcDbBlockBegin
  2
*PAPER_SPACE
 70
     0
 71
     0
 10
0.0
 20
0.0
 30
0.0
  3
*PAPER_SPACE
  1

  0
ENDBLK
  5
22B2
330
22B0
100
AcDbEntity
 67
     1
  8
0
100
AcDbBlockEnd
  0
BLOCK
  5
22DE
330
90
100
AcDbEntity
  8
0
100
AcDbBlockBegin
  2
_OPEN
 70
     0
 71
     0
 10
0.0
 20
0.0
 30
0.0
  3
_OPEN
  1

  0
LINE
  5
92
330
90
100
AcDbEntity
  8
0
  6
BYBLOCK
 62
     0
100
AcDbLine
 10
-1.0
 20
0.166667
 30
0.0
 11
0.0
 21
0.0
 31
0.0
  0
LINE
  5
93
330
90
100
AcDbEntity
  8
0
  6
BYBLOCK
 62
     0
100
AcDbLine
 10
0.0
 20
0.0
 30
0.0
 11
-1.0
 21
-0.166667
 31
0.0
  0
LINE
  5
94
330
90
100
AcDbEntity
  8
0
  6
BYBLOCK
 62
     0
100
AcDbLine
 10
0.0
 20
0.0
 30
0.0
 11
-1.0
 21
0.0
 31
0.0
  0
ENDBLK
  5
22DF
330
90
100
AcDbEntity
  8
0
100
AcDbBlockEnd
  0
BLOCK
  5
22E0
330
1459
100
AcDbEntity
  8
0
100
AcDbBlockBegin
  2
A10_100
 70
     0
 71
     0
 10
0.0
 20
0.0
 30
0.0
  3
A10_100
  1

  0
ENDBLK
  5
22E1
330
1459
100
AcDbEntity
  8
0
100
AcDbBlockEnd
  0
BLOCK
  5
22E2
330
2292
100
AcDbEntity
  8
0
100
AcDbBlockBegin
  2
VDDIM_DEFAULT
 70
     0
 71
     0
 10
0.0
 20
0.0
 30
0.0
  3
VDDIM_DEFAULT
  1

  0
LWPOLYLINE
  5
2293
330
2292
100
AcDbEntity
  8
0
  6
CONTINUOUS
 62
     0
100
AcDbPolyline
 90
        4
 70
     0
 43
0.0
 10
0.0
 20
0.0
 10
-1.0
 20
-0.1665
 10
-1.0
 20
0.1665
 10
0.0
 20
0.0
1001
VDEXTRAPARAM
1071
        1
1071
        0
1071
        0
1040
1.0
1000

1000

1040
0.0
1040
0.0
  0
HATCH
  5
22E6
330
2292
100
AcDbEntity
  8
0
  6
CONTINUOUS
 62
     0
100
AcDbHatch
 10
0.0
 20
0.0
 30
0.0
210
0.0
220
0.0
230
1.0
  2
SOLID
 70
     1
 71
     0
 91
        1
 92
        2
 72
     0
 73
     1
 93
        3
 10
0.0
 20
0.0
 10
-1.0
 20
-0.1665
 10
-1.0
 20
0.1665
 97
        0
 75
     0
 76
     1
 98
        1
 10
0.0
 20
0.0
1001
VDEXTRAPARAM
1071
        1
1071
        0
1071
        0
1040
1.0
1000

1000

1040
0.0
1040
0.0
1001
VD_TEMPHATCH
1000
VD_TEMPHATCH
  0
ENDBLK
  5
22E3
330
2292
100
AcDbEntity
  8
0
100
AcDbBlockEnd
  0
BLOCK
  5
22E4
330
2294
100
AcDbEntity
  8
0
100
AcDbBlockBegin
  2
VDDIM_NONE
 70
     0
 71
     0
 10
0.0
 20
0.0
 30
0.0
  3
VDDIM_NONE
  1

  0
ENDBLK
  5
22E5
330
2294
100
AcDbEntity
  8
0
100
AcDbBlockEnd
  0
BLOCK
  5
22F2
330
22E7
100
AcDbEntity
  8
0
100
AcDbBlockBegin
  2
*D5
 70
     1
 71
     0
 10
0.0
 20
0.0
 30
0.0
  3
*D5
  1

  0
LINE
  5
22E8
330
22E7
100
AcDbEntity
  8
V0-VYPLNE
 62
     0
100
AcDbLine
 10
-108.858761
 20
-277.166006
 30
0.0
 11
-108.858761
 21
-375.4346220000006
 31
0.0
  0
LINE
  5
22E9
330
22E7
100
AcDbEntity
  8
V0-VYPLNE
 62
     0
100
AcDbLine
 10
521.141239
 20
-277.166006
 30
0.0
 11
521.141239
 21
-375.4346220000007
 31
0.0
  0
LINE
  5
22EA
330
22E7
100
AcDbEntity
  8
V0-VYPLNE
 62
     0
100
AcDbLine
 10
-48.85876099999996
 20
-374.1846220000006
 30
0.0
 11
104.2626602857143
 21
-374.1846220000006
 31
0.0
  0
LINE
  5
22EB
330
22E7
100
AcDbEntity
  8
V0-VYPLNE
 62
     0
100
AcDbLine
 10
461.141239
 20
-374.1846220000007
 30
0.0
 11
283.6912317142857
 21
-374.1846220000006
 31
0.0
  0
INSERT
  5
22EC
330
22E7
100
AcDbEntity
  8
V0-VYPLNE
 62
     0
100
AcDbBlockReference
  2
_OPEN
 10
-108.858761
 20
-374.1846220000006
 30
0.0
 41
60.0
 42
60.0
 43
60.0
 50
180.0
  0
INSERT
  5
22ED
330
22E7
100
AcDbEntity
  8
V0-VYPLNE
 62
     0
100
AcDbBlockReference
  2
_OPEN
 10
521.141239
 20
-374.1846220000007
 30
0.0
 41
60.0
 42
60.0
 43
60.0
  0
MTEXT
  5
22EE
330
22E7
100
AcDbEntity
  8
V0-VYPLNE
 62
     0
100
AcDbMText
 10
193.976946
 20
-374.184622
 30
0.0
 40
50.0
 41
0.0
 71
     5
 72
     1
  1
%%c\A1;630
  7
ED60
  0
POINT
  5
22EF
330
22E7
100
AcDbEntity
  8
DEFPOINTS
 62
     0
100
AcDbPoint
 10
-108.858761
 20
-276.166006
 30
0.0
  0
POINT
  5
22F0
330
22E7
100
AcDbEntity
  8
DEFPOINTS
 62
     0
100
AcDbPoint
 10
521.141239
 20
-276.166006
 30
0.0
  0
POINT
  5
22F1
330
22E7
100
AcDbEntity
  8
DEFPOINTS
 62
     0
100
AcDbPoint
 10
521.141239
 20
-374.1846220000007
 30
0.0
  0
ENDBLK
  5
22F3
330
22E7
100
AcDbEntity
  8
0
100
AcDbBlockEnd
  0
BLOCK
  5
22FF
330
22F4
100
AcDbEntity
  8
0
100
AcDbBlockBegin
  2
*D6
 70
     1
 71
     0
 10
0.0
 20
0.0
 30
0.0
  3
*D6
  1

  0
LINE
  5
22F5
330
22F4
100
AcDbEntity
  8
V0-VYPLNE
 62
     0
100
AcDbLine
 10
-246.358761
 20
-277.166006
 30
0.0
 11
-246.3587609999998
 21
-596.8792300000205
 31
0.0
  0
LINE
  5
22F6
330
22F4
100
AcDbEntity
  8
V0-VYPLNE
 62
     0
100
AcDbLine
 10
658.641239
 20
-277.166006
 30
0.0
 11
658.641239
 21
-596.8792300000205
 31
0.0
  0
LINE
  5
22F7
330
22F4
100
AcDbEntity
  8
V0-VYPLNE
 62
     0
100
AcDbLine
 10
-186.3587609999998
 20
-595.6292300000205
 30
0.0
 11
137.8555247142857
 21
-595.6292300000205
 31
0.0
  0
LINE
  5
22F8
330
22F4
100
AcDbEntity
  8
V0-VYPLNE
 62
     0
100
AcDbLine
 10
598.641239
 20
-595.6292300000205
 30
0.0
 11
274.4269532857143
 21
-595.6292300000205
 31
0.0
  0
INSERT
  5
22F9
330
22F4
100
AcDbEntity
  8
V0-VYPLNE
 62
     0
100
AcDbBlockReference
  2
_OPEN
 10
-246.3587609999998
 20
-595.6292300000205
 30
0.0
 41
60.0
 42
60.0
 43
60.0
 50
180.0
  0
INSERT
  5
22FA
330
22F4
100
AcDbEntity
  8
V0-VYPLNE
 62
     0
100
AcDbBlockReference
  2
_OPEN
 10
658.641239
 20
-595.6292300000205
 30
0.0
 41
60.0
 42
60.0
 43
60.0
  0
MTEXT
  5
22FB
330
22F4
100
AcDbEntity
  8
V0-VYPLNE
 62
     0
100
AcDbMText
 10
206.141239
 20
-595.62923
 30
0.0
 40
50.0
 41
0.0
 71
     5
 72
     1
  1
\A1;905
  7
ED60
  0
POINT
  5
22FC
330
22F4
100
AcDbEntity
  8
DEFPOINTS
 62
     0
100
AcDbPoint
 10
-246.358761
 20
-276.166006
 30
0.0
  0
POINT
  5
22FD
330
22F4
100
AcDbEntity
  8
DEFPOINTS
 62
     0
100
AcDbPoint
 10
658.641239
 20
-276.166006
 30
0.0
  0
POINT
  5
22FE
330
22F4
100
AcDbEntity
  8
DEFPOINTS
 62
     0
100
AcDbPoint
 10
658.641239
 20
-595.6292300000205
 30
0.0
  0
ENDBLK
  5
2300
330
22F4
100
AcDbEntity
  8
0
100
AcDbBlockEnd
  0
BLOCK
  5
230C
330
2301
100
AcDbEntity
  8
0
100
AcDbBlockBegin
  2
*D7
 70
     1
 71
     0
 10
0.0
 20
0.0
 30
0.0
  3
*D7
  1

  0
LINE
  5
2302
330
2301
100
AcDbEntity
  8
V0-VYPLNE
 62
     0
100
AcDbLine
 10
659.641239
 20
-276.166006
 30
0.0
 11
930.6680920000074
 21
-276.1660060000002
 31
0.0
  0
LINE
  5
2303
330
2301
100
AcDbEntity
  8
V0-VYPLNE
 62
     0
100
AcDbLine
 10
207.141239
 20
538.833994
 30
0.0
 11
930.6680920000074
 21
538.833994
 31
0.0
  0
LINE
  5
2304
330
2301
100
AcDbEntity
  8
V0-VYPLNE
 62
     0
100
AcDbLine
 10
929.4180920000074
 20
-216.1660060000002
 30
0.0
 11
929.4180920000075
 21
80.77304071428563
 31
0.0
  0
LINE
  5
2305
330
2301
100
AcDbEntity
  8
V0-VYPLNE
 62
     0
100
AcDbLine
 10
929.4180920000075
 20
478.833994
 30
0.0
 11
929.4180920000075
 21
217.3444692857144
 31
0.0
  0
INSERT
  5
2306
330
2301
100
AcDbEntity
  8
V0-VYPLNE
 62
     0
100
AcDbBlockReference
  2
_OPEN
 10
929.4180920000074
 20
-276.1660060000002
 30
0.0
 41
60.0
 42
60.0
 43
60.0
 50
270.0
  0
INSERT
  5
2307
330
2301
100
AcDbEntity
  8
V0-VYPLNE
 62
     0
100
AcDbBlockReference
  2
_OPEN
 10
929.4180920000075
 20
538.833994
 30
0.0
 41
60.0
 42
60.0
 43
60.0
 50
89.99999999999999
  0
MTEXT
  5
2308
330
2301
100
AcDbEntity
  8
V0-VYPLNE
 62
     0
100
AcDbMText
 10
929.418092
 20
149.058755
 30
0.0
 40
50.0
 41
0.0
 71
     5
 72
     1
  1
\A1;815
  7
ED60
 11
0.0
 21
-1.0
 31
0.0
  0
POINT
  5
2309
330
2301
100
AcDbEntity
  8
DEFPOINTS
 62
     0
100
AcDbPoint
 10
658.641239
 20
-276.166006
 30
0.0
  0
POINT
  5
230A
330
2301
100
AcDbEntity
  8
DEFPOINTS
 62
     0
100
AcDbPoint
 10
206.141239
 20
538.833994
 30
0.0
  0
POINT
  5
230B
330
2301
100
AcDbEntity
  8
DEFPOINTS
 62
     0
100
AcDbPoint
 10
929.4180920000074
 20
538.833994
 30
0.0
  0
ENDBLK
  5
230D
330
2301
100
AcDbEntity
  8
0
100
AcDbBlockEnd
  0
BLOCK
  5
2319
330
230E
100
AcDbEntity
  8
0
100
AcDbBlockBegin
  2
*D8
 70
     1
 71
     0
 10
0.0
 20
0.0
 30
0.0
  3
*D8
  1

  0
LINE
  5
230F
330
230E
100
AcDbEntity
  8
V0-VYPLNE
 62
     0
100
AcDbLine
 10
-168.858761
 20
-287.166006
 30
0.0
 11
-168.8587609999998
 21
-481.1950099999665
 31
0.0
  0
LINE
  5
2310
330
230E
100
AcDbEntity
  8
V0-VYPLNE
 62
     0
100
AcDbLine
 10
581.141239
 20
-277.166006
 30
0.0
 11
581.141239
 21
-481.1950099999666
 31
0.0
  0
LINE
  5
2311
330
230E
100
AcDbEntity
  8
V0-VYPLNE
 62
     0
100
AcDbLine
 10
-108.8587609999998
 20
-479.9450099999665
 30
0.0
 11
125.6912317142857
 21
-479.9450099999665
 31
0.0
  0
LINE
  5
2312
330
230E
100
AcDbEntity
  8
V0-VYPLNE
 62
     0
100
AcDbLine
 10
521.141239
 20
-479.9450099999666
 30
0.0
 11
262.2626602857143
 21
-479.9450099999665
 31
0.0
  0
INSERT
  5
2313
330
230E
100
AcDbEntity
  8
V0-VYPLNE
 62
     0
100
AcDbBlockReference
  2
_OPEN
 10
-168.8587609999998
 20
-479.9450099999665
 30
0.0
 41
60.0
 42
60.0
 43
60.0
 50
180.0
  0
INSERT
  5
2314
330
230E
100
AcDbEntity
  8
V0-VYPLNE
 62
     0
100
AcDbBlockReference
  2
_OPEN
 10
581.141239
 20
-479.9450099999666
 30
0.0
 41
60.0
 42
60.0
 43
60.0
  0
MTEXT
  5
2315
330
230E
100
AcDbEntity
  8
V0-VYPLNE
 62
     0
100
AcDbMText
 10
193.976946
 20
-479.94501
 30
0.0
 40
50.0
 41
0.0
 71
     5
 72
     1
  1
\A1;750
  7
ED60
  0
POINT
  5
2316
330
230E
100
AcDbEntity
  8
DEFPOINTS
 62
     0
100
AcDbPoint
 10
-168.858761
 20
-286.166006
 30
0.0
  0
POINT
  5
2317
330
230E
100
AcDbEntity
  8
DEFPOINTS
 62
     0
100
AcDbPoint
 10
581.141239
 20
-276.166006
 30
0.0
  0
POINT
  5
2318
330
230E
100
AcDbEntity
  8
DEFPOINTS
 62
     0
100
AcDbPoint
 10
581.141239
 20
-479.9450099999666
 30
0.0
  0
ENDBLK
  5
231A
330
230E
100
AcDbEntity
  8
0
100
AcDbBlockEnd
  0
BLOCK
  5
2326
330
231B
100
AcDbEntity
  8
0
100
AcDbBlockBegin
  2
*D9
 70
     1
 71
     0
 10
0.0
 20
0.0
 30
0.0
  3
*D9
  1

  0
LINE
  5
231C
330
231B
100
AcDbEntity
  8
V0-VYPLNE
 62
     0
100
AcDbLine
 10
-395.620251
 20
238.400519
 30
0.0
 11
-395.6202509999997
 21
656.850842999993
 31
0.0
  0
LINE
  5
231D
330
231B
100
AcDbEntity
  8
V0-VYPLNE
 62
     0
100
AcDbLine
 10
807.902729
 20
238.400519
 30
0.0
 11
807.902729
 21
656.8508429999929
 31
0.0
  0
LINE
  5
231E
330
231B
100
AcDbEntity
  8
V0-VYPLNE
 62
     0
100
AcDbLine
 10
-335.6202509999997
 20
655.600842999993
 30
0.0
 11
98.35777966666666
 21
655.6008429999929
 31
0.0
  0
LINE
  5
231F
330
231B
100
AcDbEntity
  8
V0-VYPLNE
 62
     0
100
AcDbLine
 10
747.902729
 20
655.6008429999929
 30
0.0
 11
323.0244463333333
 21
655.6008429999929
 31
0.0
  0
INSERT
  5
2320
330
231B
100
AcDbEntity
  8
V0-VYPLNE
 62
     0
100
AcDbBlockReference
  2
_OPEN
 10
-395.6202509999997
 20
655.600842999993
 30
0.0
 41
60.0
 42
60.0
 43
60.0
 50
180.0
  0
INSERT
  5
2321
330
231B
100
AcDbEntity
  8
V0-VYPLNE
 62
     0
100
AcDbBlockReference
  2
_OPEN
 10
807.902729
 20
655.6008429999929
 30
0.0
 41
60.0
 42
60.0
 43
60.0
 50
360.0
  0
MTEXT
  5
2322
330
231B
100
AcDbEntity
  8
V0-VYPLNE
 62
     0
100
AcDbMText
 10
210.691113
 20
655.6008430000001
 30
0.0
 40
50.0
 41
0.0
 71
     5
 72
     1
  1
%%c\A1;1204
  7
ED60
  0
POINT
  5
2323
330
231B
100
AcDbEntity
  8
DEFPOINTS
 62
     0
100
AcDbPoint
 10
-395.620251
 20
237.400519
 30
0.0
  0
POINT
  5
2324
330
231B
100
AcDbEntity
  8
DEFPOINTS
 62
     0
100
AcDbPoint
 10
807.902729
 20
237.400519
 30
0.0
  0
POINT
  5
2325
330
231B
100
AcDbEntity
  8
DEFPOINTS
 62
     0
100
AcDbPoint
 10
807.902729
 20
655.6008429999929
 30
0.0
  0
ENDBLK
  5
2327
330
231B
100
AcDbEntity
  8
0
100
AcDbBlockEnd
  0
ENDSEC
  0
SECTION
  2
ENTITIES
  0
LINE
  5
1127
330
22B4
100
AcDbEntity
  8
V0-VYPLNE
  6
DASHDOT
 62
    63
100
AcDbLine
 10
206.141239
 20
-595.62923
 30
0.0
 11
206.141239
 21
-1952.780569
 31
0.0
  0
CIRCLE
  5
11B0
330
22B4
100
AcDbEntity
  8
V0-VYPLNE
  6
DASHED
 62
    56
100
AcDbCircle
 10
580.580172
 20
-899.7659660000001
 30
0.0
 40
10.698255
  0
LINE
  5
11B1
330
22B4
100
AcDbEntity
  8
V0-VYPLNE
 62
    63
100
AcDbLine
 10
580.580172
 20
-945.615631
 30
0.0
 11
580.580172
 21
-793.845301
 31
0.0
  0
LINE
  5
11BB
330
22B4
100
AcDbEntity
  8
V0-VYPLNE
100
AcDbLine
 10
206.141239
 20
580.937864
 30
0.0
 11
206.141239
 21
-230.215523
 31
0.0
  0
LINE
  5
11BE
330
22B4
100
AcDbEntity
  8
V0-VYPLNE
100
AcDbLine
 10
-168.858761
 20
-286.166006
 30
0.0
 11
-168.858761
 21
-236.166006
 31
0.0
  0
LINE
  5
11BF
330
22B4
100
AcDbEntity
  8
V0-VYPLNE
100
AcDbLine
 10
581.141239
 20
-286.166006
 30
0.0
 11
581.141239
 21
-236.166006
 31
0.0
  0
POINT
  5
12BC
330
22B4
100
AcDbEntity
  8
V0-VYPLNE
  6
CONTINUOUS
 62
    41
100
AcDbPoint
 10
206.141239
 20
-1274.204899
 30
0.0
  0
POINT
  5
12BD
330
22B4
100
AcDbEntity
  8
V0-VYPLNE
  6
CONTINUOUS
 62
    41
100
AcDbPoint
 10
206.141239
 20
-276.166006
 30
0.0
  0
LINE
  5
13BB
330
22B4
100
AcDbEntity
  8
V0-VYPLNE
  6
DASHDOT
 62
    63
100
AcDbLine
 10
-472.434431
 20
-1274.204899
 30
0.0
 11
884.716908
 21
-1274.204899
 31
0.0
  0
CIRCLE
  5
13BE
330
22B4
100
AcDbEntity
  8
V0-OBRYS
  6
CONTINUOUS
 62
    90
100
AcDbCircle
 10
206.141239
 20
-1274.204899
 30
0.0
 40
603.000858
  0
CIRCLE
  5
13BF
330
22B4
100
AcDbEntity
  8
V0-OBRYS
  6
CONTINUOUS
 62
    90
100
AcDbCircle
 10
206.141239
 20
-1274.204899
 30
0.0
 40
561.753329
  0
CIRCLE
  5
13C0
330
22B4
100
AcDbEntity
  8
V0-VYPLNE
  6
DASHED
 62
    52
100
AcDbCircle
 10
206.141239
 20
-1274.204899
 30
0.0
 40
355.515333
  0
LINE
  5
13C2
330
22B4
100
AcDbEntity
  8
V0-VYPLNE
 62
    63
100
AcDbLine
 10
686.5008370000001
 20
-899.7659660000001
 30
0.0
 11
534.730506
 21
-899.7659660000001
 31
0.0
  0
LINE
  5
13C5
330
22B4
100
AcDbEntity
  8
V0-VYPLNE
 62
    63
100
AcDbLine
 10
-122.448029
 20
-899.7659660000001
 30
0.0
 11
-203.731966
 21
-899.7659660000001
 31
0.0
  0
LINE
  5
13C6
330
22B4
100
AcDbEntity
  8
V0-VYPLNE
 62
    63
100
AcDbLine
 10
-168.297694
 20
-864.7294910000001
 30
0.0
 11
-168.297694
 21
-945.615631
 31
0.0
  0
CIRCLE
  5
13C7
330
22B4
100
AcDbEntity
  8
V0-VYPLNE
  6
DASHED
 62
    56
100
AcDbCircle
 10
-168.297694
 20
-899.7659660000001
 30
0.0
 40
10.698255
  0
LINE
  5
13C8
330
22B4
100
AcDbEntity
  8
V0-VYPLNE
 62
    63
100
AcDbLine
 10
-168.297694
 20
-1602.794167
 30
0.0
 11
-168.297694
 21
-1754.564497
 31
0.0
  0
LINE
  5
13C9
330
22B4
100
AcDbEntity
  8
V0-VYPLNE
 62
    63
100
AcDbLine
 10
-274.21836
 20
-1648.643832
 30
0.0
 11
-122.448029
 21
-1648.643832
 31
0.0
  0
CIRCLE
  5
13CA
330
22B4
100
AcDbEntity
  8
V0-VYPLNE
  6
DASHED
 62
    56
100
AcDbCircle
 10
-168.297694
 20
-1648.643832
 30
0.0
 40
10.698255
  0
LINE
  5
13CB
330
22B4
100
AcDbEntity
  8
V0-VYPLNE
 62
    63
100
AcDbLine
 10
534.730506
 20
-1648.643832
 30
0.0
 11
686.5008370000001
 21
-1648.643832
 31
0.0
  0
LINE
  5
13CC
330
22B4
100
AcDbEntity
  8
V0-VYPLNE
 62
    63
100
AcDbLine
 10
580.580172
 20
-1754.564497
 30
0.0
 11
580.580172
 21
-1602.794167
 31
0.0
  0
LINE
  5
13CE
330
22B4
100
AcDbEntity
  8
V0-VYPLNE
  6
DASHED
 62
    52
100
AcDbLine
 10
656.962029
 20
-824.800159
 30
0.0
 11
-244.679551
 21
-824.800159
 31
0.0
  0
LINE
  5
13CF
330
22B4
100
AcDbEntity
  8
V0-VYPLNE
  6
DASHED
 62
    52
100
AcDbLine
 10
-244.679551
 20
-824.800159
 30
0.0
 11
-244.679551
 21
-1725.025689
 31
0.0
  0
LINE
  5
13D0
330
22B4
100
AcDbEntity
  8
V0-VYPLNE
  6
DASHED
 62
    52
100
AcDbLine
 10
-244.679551
 20
-1725.025689
 30
0.0
 11
656.962029
 21
-1725.025689
 31
0.0
  0
LINE
  5
13D1
330
22B4
100
AcDbEntity
  8
V0-VYPLNE
  6
DASHED
 62
    52
100
AcDbLine
 10
656.962029
 20
-1725.025689
 30
0.0
 11
656.962029
 21
-824.800159
 31
0.0
  0
LINE
  5
13D2
330
22B4
100
AcDbEntity
  8
V0-OBRYS
  6
CONTINUOUS
 62
    90
100
AcDbLine
 10
-246.358761
 20
-276.166006
 30
0.0
 11
658.641239
 21
-276.166006
 31
0.0
  0
LINE
  5
13D3
330
22B4
100
AcDbEntity
  8
V0-OBRYS
  6
CONTINUOUS
 62
    90
100
AcDbLine
 10
658.641239
 20
-276.166006
 30
0.0
 11
658.641239
 21
-261.166006
 31
0.0
  0
LINE
  5
13D4
330
22B4
100
AcDbEntity
  8
V0-OBRYS
  6
CONTINUOUS
 62
    90
100
AcDbLine
 10
658.641239
 20
-261.166006
 30
0.0
 11
-246.358761
 21
-261.166006
 31
0.0
  0
LINE
  5
13D5
330
22B4
100
AcDbEntity
  8
V0-OBRYS
  6
CONTINUOUS
 62
    90
100
AcDbLine
 10
-246.358761
 20
-261.166006
 30
0.0
 11
-246.358761
 21
-276.166006
 31
0.0
  0
LINE
  5
13D6
330
22B4
100
AcDbEntity
  8
V0-OBRYS
  6
CONTINUOUS
 62
    90
100
AcDbLine
 10
-181.358761
 20
-261.166006
 30
0.0
 11
-181.358761
 21
-258.166006
 31
0.0
  0
LINE
  5
13D7
330
22B4
100
AcDbEntity
  8
V0-OBRYS
  6
CONTINUOUS
 62
    90
100
AcDbLine
 10
-181.358761
 20
-258.166006
 30
0.0
 11
593.641239
 21
-258.166006
 31
0.0
  0
LINE
  5
13D8
330
22B4
100
AcDbEntity
  8
V0-OBRYS
  6
CONTINUOUS
 62
    90
100
AcDbLine
 10
593.641239
 20
-258.166006
 30
0.0
 11
593.641239
 21
-261.166006
 31
0.0
  0
LINE
  5
13D9
330
22B4
100
AcDbEntity
  8
V0-OBRYS
  6
CONTINUOUS
 62
    90
100
AcDbLine
 10
516.141239
 20
-258.166006
 30
0.0
 11
516.141239
 21
235.032056
 31
0.0
  0
LINE
  5
13E8
330
22B4
100
AcDbEntity
  8
V0-OBRYS
  6
CONTINUOUS
 62
    90
100
AcDbLine
 10
-21.619735
 20
-226.166006
 30
0.0
 11
433.902212
 21
-226.166006
 31
0.0
  0
LINE
  5
13EA
330
22B4
100
AcDbEntity
  8
V0-OBRYS
  6
CONTINUOUS
 62
    90
100
AcDbLine
 10
521.141239
 20
-256.166006
 30
0.0
 11
521.141239
 21
-276.166006
 31
0.0
  0
LINE
  5
13EF
330
22B4
100
AcDbEntity
  8
V0-OBRYS
  6
CONTINUOUS
 62
    90
100
AcDbLine
 10
-88.858761
 20
235.032056
 30
0.0
 11
-88.858761
 21
-75.88036999999997
 31
0.0
  0
LINE
  5
13F0
330
22B4
100
AcDbEntity
  8
V0-OBRYS
  6
CONTINUOUS
 62
    90
100
AcDbLine
 10
-103.858761
 20
-258.166006
 30
0.0
 11
-103.858761
 21
235.032056
 31
0.0
  0
LINE
  5
13F1
330
22B4
100
AcDbEntity
  8
V0-OBRYS
  6
CONTINUOUS
 62
    90
100
AcDbLine
 10
-151.358761
 20
-258.166006
 30
0.0
 11
-321.035076
 21
237.400519
 31
0.0
  0
LINE
  5
13F2
330
22B4
100
AcDbEntity
  8
V0-OBRYS
  6
CONTINUOUS
 62
    90
100
AcDbLine
 10
-36.917837
 20
-105.87024
 30
0.0
 11
-36.917837
 21
233.893418
 31
0.0
  0
LINE
  5
1414
330
22B4
100
AcDbEntity
  8
V0-VYPLNE
  6
CONTINUOUS
 62
    52
100
AcDbLine
 10
-103.858761
 20
235.032056
 30
0.0
 11
516.141239
 21
235.032056
 31
0.0
  0
LINE
  5
1415
330
22B4
100
AcDbEntity
  8
V0-VYPLNE
  6
CONTINUOUS
 62
    52
100
AcDbLine
 10
516.141239
 20
235.032056
 30
0.0
 11
516.141239
 21
-258.166006
 31
0.0
  0
LINE
  5
1416
330
22B4
100
AcDbEntity
  8
V0-VYPLNE
  6
CONTINUOUS
 62
    52
100
AcDbLine
 10
516.141239
 20
-258.166006
 30
0.0
 11
-103.858761
 21
-258.166006
 31
0.0
  0
LINE
  5
1417
330
22B4
100
AcDbEntity
  8
V0-VYPLNE
  6
CONTINUOUS
 62
    52
100
AcDbLine
 10
-103.858761
 20
-258.166006
 30
0.0
 11
-103.858761
 21
235.032056
 31
0.0
  0
LINE
  5
1456
330
22B4
100
AcDbEntity
  8
V0-OBRYS
  6
CONTINUOUS
 62
    90
100
AcDbLine
 10
-108.858761
 20
-256.166006
 30
0.0
 11
-108.858761
 21
-276.166006
 31
0.0
  0
INSERT
  5
145C
330
22B4
100
AcDbEntity
  8
V0-VYPLNE
  6
CONTINUOUS
 62
    52
100
AcDbBlockReference
  2
A10_100
 10
1091.344077
 20
-456.786598
 30
0.0
  0
DIMENSION
  5
1469
330
22B4
100
AcDbEntity
  8
V0-VYPLNE
  6
CONTINUOUS
 62
    41
100
AcDbDimension
  2
*D5
 10
521.141239
 20
-374.1846220000007
 30
0.0
 11
193.976946
 21
-374.184622
 31
0.0
 70
   160
  1
%%c<>
  3
ED60
100
AcDbAlignedDimension
 13
-108.858761
 23
-276.166006
 33
0.0
 14
521.141239
 24
-276.166006
 34
0.0
100
AcDbRotatedDimension
1001
ACAD
1000
DSTYLE
1002
{
1070
    40
1040
1.0
1002
}
  0
DIMENSION
  5
1483
330
22B4
100
AcDbEntity
  8
V0-VYPLNE
  6
CONTINUOUS
 62
    41
100
AcDbDimension
  2
*D6
 10
658.641239
 20
-595.6292300000205
 30
0.0
 11
206.141239
 21
-595.62923
 31
0.0
 70
   160
  3
ED60
100
AcDbAlignedDimension
 13
-246.358761
 23
-276.166006
 33
0.0
 14
658.641239
 24
-276.166006
 34
0.0
100
AcDbRotatedDimension
1001
ACAD
1000
DSTYLE
1002
{
1070
    40
1040
1.0
1002
}
  0
DIMENSION
  5
1490
330
22B4
100
AcDbEntity
  8
V0-VYPLNE
  6
CONTINUOUS
 62
    41
100
AcDbDimension
  2
*D7
 10
929.4180920000074
 20
538.833994
 30
0.0
 11
929.418092
 21
149.058755
 31
0.0
 70
   160
  3
ED60
100
AcDbAlignedDimension
 13
658.641239
 23
-276.166006
 33
0.0
 14
206.141239
 24
538.833994
 34
0.0
 50
90.0
100
AcDbRotatedDimension
1001
ACAD
1000
DSTYLE
1002
{
1070
    40
1040
1.0
1002
}
  0
LINE
  5
14A6
330
22B4
100
AcDbEntity
  8
V0-VYPLNE
  6
CONTINUOUS
 62
    41
100
AcDbLine
 10
80.06106200000001
 20
-583.543031
 30
0.0
 11
115.367522
 21
-520.603236
 31
0.0
  0
LWPOLYLINE
  5
14A7
330
22B4
100
AcDbEntity
  8
V0-VYPLNE
  6
CONTINUOUS
 62
    41
100
AcDbPolyline
 90
        4
 70
     1
 43
0.0
 10
80.324263
 20
-570.731548
 10
117.870592
 20
-570.731548
 10
117.870592
 20
-533.219798
 10
80.324263
 20
-533.219798
  0
LWPOLYLINE
  5
14A8
330
22B4
100
AcDbEntity
  8
V0-VYPLNE
  6
CONTINUOUS
 62
    41
100
AcDbPolyline
 90
        4
 70
     1
 43
0.0
 10
79.17277300000001
 20
-463.07616
 10
116.719102
 20
-463.07616
 10
116.719102
 20
-425.56441
 10
79.17277300000001
 20
-425.56441
  0
LINE
  5
14A9
330
22B4
100
AcDbEntity
  8
V0-VYPLNE
  6
CONTINUOUS
 62
    41
100
AcDbLine
 10
78.909573
 20
-475.887643
 30
0.0
 11
114.216032
 21
-412.947848
 31
0.0
  0
LINE
  5
176E
330
22B4
100
AcDbEntity
  8
V0-OBRYS
  6
CONTINUOUS
 62
    90
100
AcDbLine
 10
-349.022121
 20
293.83483
 30
0.0
 11
761.3045980000002
 21
293.83483
 31
0.0
  0
LINE
  5
176F
330
22B4
100
AcDbEntity
  8
V0-OBRYS
  6
CONTINUOUS
 62
    90
100
AcDbLine
 10
-328.878447
 20
315.094138
 30
0.0
 11
741.1609249999999
 21
315.094138
 31
0.0
  0
LINE
  5
18B8
330
22B4
100
AcDbEntity
  8
V0-OBRYS
  6
CONTINUOUS
 62
    90
100
AcDbLine
 10
-395.620251
 20
237.400519
 30
0.0
 11
807.9027289999999
 21
237.400519
 31
0.0
  0
DIMENSION
  5
1BAE
330
22B4
100
AcDbEntity
  8
V0-VYPLNE
  6
CONTINUOUS
 62
    41
100
AcDbDimension
  2
*D8
 10
581.141239
 20
-479.9450099999666
 30
0.0
 11
193.976946
 21
-479.94501
 31
0.0
 70
   160
  3
ED60
100
AcDbAlignedDimension
 13
-168.858761
 23
-286.166006
 33
0.0
 14
581.141239
 24
-276.166006
 34
0.0
100
AcDbRotatedDimension
1001
ACAD
1000
DSTYLE
1002
{
1070
    40
1040
1.0
1002
}
  0
ARC
  5
1DF3
330
22B4
100
AcDbEntity
  8
V0-OBRYS
  6
CONTINUOUS
 62
    90
100
AcDbCircle
 10
206.141239
 20
-212.022026
 30
0.0
 40
751.064254
100
AcDbArc
 50
36.75403
 51
42.339331
  0
LINE
  5
1DFF
330
22B4
100
AcDbEntity
  8
V0-OBRYS
  6
CONTINUOUS
 62
    90
100
AcDbLine
 10
563.641239
 20
-258.166006
 30
0.0
 11
731.817553
 21
237.400519
 31
0.0
  0
DIMENSION
  5
1E0D
330
22B4
100
AcDbEntity
  8
V0-VYPLNE
  6
CONTINUOUS
 62
    41
100
AcDbDimension
  2
*D9
 10
807.902729
 20
655.6008429999929
 30
0.0
 11
210.691113
 21
655.6008430000001
 31
0.0
 70
   160
  1
%%c<>
  3
ED60
100
AcDbAlignedDimension
 13
-395.620251
 23
237.400519
 33
0.0
 14
807.902729
 24
237.400519
 34
0.0
100
AcDbRotatedDimension
1001
ACAD
1000
DSTYLE
1002
{
1070
    40
1040
1.0
1002
}
  0
ARC
  5
201D
330
22B4
100
AcDbEntity
  8
V0-OBRYS
  6
CONTINUOUS
 62
    90
100
AcDbCircle
 10
206.141239
 20
-212.022026
 30
0.0
 40
751.064254
100
AcDbArc
 50
137.660669
 51
143.24597
  0
ARC
  5
201E
330
22B4
100
AcDbEntity
  8
V0-OBRYS
  6
CONTINUOUS
 62
    90
100
AcDbCircle
 10
206.141239
 20
-212.022026
 30
0.0
 40
751.064254
100
AcDbArc
 50
44.57366100000001
 51
135.426339
  0
LINE
  5
2021
330
22B4
100
AcDbEntity
  8
V0-OBRYS
  6
CONTINUOUS
 62
    90
100
AcDbLine
 10
-328.878447
 20
315.094138
 30
0.0
 11
-310.073162
 21
293.839281
 31
0.0
  0
LINE
  5
2022
330
22B4
100
AcDbEntity
  8
V0-OBRYS
  6
CONTINUOUS
 62
    90
100
AcDbLine
 10
741.160925
 20
315.094138
 30
0.0
 11
720.861219
 21
293.839281
 31
0.0
  0
ARC
  5
2039
330
22B4
100
AcDbEntity
  8
V0-OBRYS
  6
CONTINUOUS
 62
    90
100
AcDbCircle
 10
-112.376906
 20
-176.587045
 30
0.0
 40
103.416331
100
AcDbArc
 50
308.73204
 51
76.85523000000001
  0
LINE
  5
203A
330
22B4
100
AcDbEntity
  8
V0-OBRYS
  6
CONTINUOUS
 62
    90
100
AcDbLine
 10
501.141239
 20
235.032056
 30
0.0
 11
501.141239
 21
-75.88036999999997
 31
0.0
  0
LINE
  5
203B
330
22B4
100
AcDbEntity
  8
V0-OBRYS
  6
CONTINUOUS
 62
    90
100
AcDbLine
 10
449.200314
 20
-105.87024
 30
0.0
 11
449.200314
 21
233.893418
 31
0.0
  0
ARC
  5
203C
330
22B4
100
AcDbEntity
  8
V0-OBRYS
  6
CONTINUOUS
 62
    90
100
AcDbCircle
 10
524.6593830000001
 20
-176.587045
 30
0.0
 40
103.416331
100
AcDbArc
 50
103.14477
 51
231.26796
  0
HATCH
  5
20C0
330
22B4
100
AcDbEntity
  8
V0-VYPLNE
  6
CONTINUOUS
 62
    52
100
AcDbHatch
 10
0.0
 20
0.0
 30
0.0
210
0.0
220
0.0
230
1.0
  2
NET
 70
     0
 71
     0
 91
        1
 92
        3
 72
     0
 73
     1
 93
        4
 10
-103.8587612699193
 20
235.0320558011441
 10
-103.8587612699193
 20
-258.166005630735
 10
516.1412387300805
 20
-258.166005630735
 10
516.1412387300805
 20
235.032055801144
 97
        0
 75
     0
 76
     2
 52
0.0
 41
15.0
 77
     0
 78
     2
 53
0.0
 43
206.141239
 44
-276.166006
 45
0.0
 46
47.625
 79
     0
 53
90.0
 43
206.141239
 44
-276.166006
 45
-47.625
 46
0.0000000000000029
 79
     0
 98
        1
 10
0.0
 20
0.0
1001
VDEXTRAPARAM
1071
       76
1071
        0
1071
        0
1040
15.0
1000
NET
1000

1040
0.0
1040
0.0
  0
CIRCLE
  5
20DB
330
22B4
100
AcDbEntity
  8
V0-OBRYS
  6
CONTINUOUS
 62
    90
100
AcDbCircle
 10
206.141239
 20
-1274.204899
 30
0.0
 40
533.384785
  0
LINE
  5
20E1
330
22B4
100
AcDbEntity
  8
V0-OBRYS
  6
CONTINUOUS
 62
    90
100
AcDbLine
 10
-195.910269
 20
-824.800159
 30
0.0
 11
-244.679551
 21
-824.800159
 31
0.0
  0
LINE
  5
20E2
330
22B4
100
AcDbEntity
  8
V0-OBRYS
  6
CONTINUOUS
 62
    90
100
AcDbLine
 10
-244.679551
 20
-824.800159
 30
0.0
 11
-244.679551
 21
-873.741854
 31
0.0
  0
LINE
  5
20E3
330
22B4
100
AcDbEntity
  8
V0-OBRYS
  6
CONTINUOUS
 62
    90
100
AcDbLine
 10
608.1927460000001
 20
-824.800159
 30
0.0
 11
656.962029
 21
-824.800159
 31
0.0
  0
LINE
  5
20E4
330
22B4
100
AcDbEntity
  8
V0-OBRYS
  6
CONTINUOUS
 62
    90
100
AcDbLine
 10
656.962029
 20
-824.800159
 30
0.0
 11
656.962029
 21
-873.741854
 31
0.0
  0
LINE
  5
20E5
330
22B4
100
AcDbEntity
  8
V0-OBRYS
  6
CONTINUOUS
 62
    90
100
AcDbLine
 10
656.962029
 20
-1674.667944
 30
0.0
 11
656.962029
 21
-1725.025689
 31
0.0
  0
LINE
  5
20E6
330
22B4
100
AcDbEntity
  8
V0-OBRYS
  6
CONTINUOUS
 62
    90
100
AcDbLine
 10
656.962029
 20
-1725.025689
 30
0.0
 11
606.604284
 21
-1725.025689
 31
0.0
  0
LINE
  5
20E7
330
22B4
100
AcDbEntity
  8
V0-OBRYS
  6
CONTINUOUS
 62
    90
100
AcDbLine
 10
-244.679551
 20
-1674.667944
 30
0.0
 11
-244.679551
 21
-1725.025689
 31
0.0
  0
LINE
  5
20E8
330
22B4
100
AcDbEntity
  8
V0-OBRYS
  6
CONTINUOUS
 62
    90
100
AcDbLine
 10
-244.679551
 20
-1725.025689
 30
0.0
 11
-194.321806
 21
-1725.025689
 31
0.0
  0
CIRCLE
  5
20E9
330
22B4
100
AcDbEntity
  8
V0-VYPLNE
  6
DASHED
 62
    56
100
AcDbCircle
 10
580.580172
 20
-1648.643832
 30
0.0
 40
10.698255
  0
LINE
  5
215B
330
22B4
100
AcDbEntity
  8
V0-VYPLNE
  6
CONTINUOUS
 62
    52
100
AcDbLine
 10
1394.884038
 20
235.032056
 30
0.0
 11
2014.884038
 21
235.032056
 31
0.0
  0
POINT
  5
215C
330
22B4
100
AcDbEntity
  8
V0-VYPLNE
  6
CONTINUOUS
 62
    41
100
AcDbPoint
 10
1704.884038
 20
-276.166006
 30
0.0
  0
LINE
  5
215D
330
22B4
100
AcDbEntity
  8
V0-VYPLNE
  6
CONTINUOUS
 62
    52
100
AcDbLine
 10
2014.884038
 20
-258.166006
 30
0.0
 11
1394.884038
 21
-258.166006
 31
0.0
  0
LINE
  5
215E
330
22B4
100
AcDbEntity
  8
V0-OBRYS
  6
CONTINUOUS
 62
    90
100
AcDbLine
 10
1477.123065
 20
-226.166006
 30
0.0
 11
1932.645011
 21
-226.166006
 31
0.0
  0
HATCH
  5
215F
330
22B4
100
AcDbEntity
  8
V0-VYPLNE
  6
CONTINUOUS
 62
    52
100
AcDbHatch
 10
0.0
 20
0.0
 30
0.0
210
0.0
220
0.0
230
1.0
  2
NET
 70
     0
 71
     0
 91
        1
 92
        3
 72
     0
 73
     1
 93
        4
 10
1394.884038008429
 20
-258.166005630735
 10
2014.884038008429
 20
-258.166005630735
 10
2014.884038008429
 20
235.032055801144
 10
1394.884038008429
 20
235.032055801144
 97
        0
 75
     0
 76
     2
 52
0.0
 41
15.0
 77
     0
 78
     2
 53
0.0
 43
206.141239
 44
-276.166006
 45
0.0
 46
47.625
 79
     0
 53
90.0
 43
206.141239
 44
-276.166006
 45
-47.625
 46
0.0000000000000029
 79
     0
 98
        1
 10
0.0
 20
0.0
1001
VDEXTRAPARAM
1071
       76
1071
        0
1071
        0
1040
15.0
1000
NET
1000

1040
0.0
1040
0.0
  0
ARC
  5
2160
330
22B4
100
AcDbEntity
  8
V0-OBRYS
  6
CONTINUOUS
 62
    90
100
AcDbCircle
 10
1704.884038
 20
-212.022026
 30
0.0
 40
751.064254
100
AcDbArc
 50
44.57366100000001
 51
135.426339
  0
LINE
  5
2161
330
22B4
100
AcDbEntity
  8
V0-OBRYS
  6
CONTINUOUS
 62
    90
100
AcDbLine
 10
1103.122548
 20
237.400519
 30
0.0
 11
2306.645528
 21
237.400519
 31
0.0
  0
LINE
  5
2162
330
22B4
100
AcDbEntity
  8
V0-OBRYS
  6
CONTINUOUS
 62
    90
100
AcDbLine
 10
1169.864352
 20
315.094138
 30
0.0
 11
2239.903724
 21
315.094138
 31
0.0
  0
LINE
  5
2163
330
22B4
100
AcDbEntity
  8
V0-OBRYS
  6
CONTINUOUS
 62
    90
100
AcDbLine
 10
1149.720679
 20
293.83483
 30
0.0
 11
2260.047397
 21
293.83483
 31
0.0
  0
LINE
  5
2164
330
22B4
100
AcDbEntity
  8
V0-OBRYS
  6
CONTINUOUS
 62
    90
100
AcDbLine
 10
1317.384038
 20
-258.166006
 30
0.0
 11
2092.384038
 21
-258.166006
 31
0.0
  0
LINE
  5
2165
330
22B4
100
AcDbEntity
  8
V0-OBRYS
  6
CONTINUOUS
 62
    90
100
AcDbLine
 10
2157.384038
 20
-261.166006
 30
0.0
 11
1252.384038
 21
-261.166006
 31
0.0
  0
LINE
  5
2166
330
22B4
100
AcDbEntity
  8
V0-OBRYS
  6
CONTINUOUS
 62
    90
100
AcDbLine
 10
1252.384038
 20
-276.166006
 30
0.0
 11
2157.384038
 21
-276.166006
 31
0.0
  0
LINE
  5
2167
330
22B4
100
AcDbEntity
  8
V0-OBRYS
  6
CONTINUOUS
 62
    90
100
AcDbLine
 10
1317.384038
 20
-261.166006
 30
0.0
 11
1317.384038
 21
-258.166006
 31
0.0
  0
LINE
  5
2168
330
22B4
100
AcDbEntity
  8
V0-OBRYS
  6
CONTINUOUS
 62
    90
100
AcDbLine
 10
1389.884038
 20
-256.166006
 30
0.0
 11
1389.884038
 21
-276.166006
 31
0.0
  0
LINE
  5
2169
330
22B4
100
AcDbEntity
  8
V0-VYPLNE
100
AcDbLine
 10
1329.884038
 20
-286.166006
 30
0.0
 11
1329.884038
 21
-236.166006
 31
0.0
  0
ARC
  5
216A
330
22B4
100
AcDbEntity
  8
V0-OBRYS
  6
CONTINUOUS
 62
    90
100
AcDbCircle
 10
1386.365893
 20
-176.587045
 30
0.0
 40
103.416331
100
AcDbArc
 50
308.73204
 51
76.85523000000001
  0
LINE
  5
216B
330
22B4
100
AcDbEntity
  8
V0-VYPLNE
  6
CONTINUOUS
 62
    52
100
AcDbLine
 10
1394.884038
 20
-258.166006
 30
0.0
 11
1394.884038
 21
235.032056
 31
0.0
  0
LINE
  5
216C
330
22B4
100
AcDbEntity
  8
V0-OBRYS
  6
CONTINUOUS
 62
    90
100
AcDbLine
 10
1461.824963
 20
-105.87024
 30
0.0
 11
1461.824963
 21
233.893418
 31
0.0
  0
LINE
  5
216D
330
22B4
100
AcDbEntity
  8
V0-OBRYS
  6
CONTINUOUS
 62
    90
100
AcDbLine
 10
1394.884038
 20
-258.166006
 30
0.0
 11
1394.884038
 21
235.032056
 31
0.0
  0
LINE
  5
216E
330
22B4
100
AcDbEntity
  8
V0-OBRYS
  6
CONTINUOUS
 62
    90
100
AcDbLine
 10
1409.884038
 20
235.032056
 30
0.0
 11
1409.884038
 21
-75.88036999999997
 31
0.0
  0
LINE
  5
216F
330
22B4
100
AcDbEntity
  8
V0-VYPLNE
100
AcDbLine
 10
1704.884038
 20
580.937864
 30
0.0
 11
1704.884038
 21
-230.215523
 31
0.0
  0
LINE
  5
2170
330
22B4
100
AcDbEntity
  8
V0-OBRYS
  6
CONTINUOUS
 62
    90
100
AcDbLine
 10
1169.864352
 20
315.094138
 30
0.0
 11
1188.669637
 21
293.839281
 31
0.0
  0
ARC
  5
2171
330
22B4
100
AcDbEntity
  8
V0-OBRYS
  6
CONTINUOUS
 62
    90
100
AcDbCircle
 10
1704.884038
 20
-212.022026
 30
0.0
 40
751.064254
100
AcDbArc
 50
137.660669
 51
143.24597
  0
LINE
  5
2172
330
22B4
100
AcDbEntity
  8
V0-OBRYS
  6
CONTINUOUS
 62
    90
100
AcDbLine
 10
1252.384038
 20
-261.166006
 30
0.0
 11
1252.384038
 21
-276.166006
 31
0.0
  0
LINE
  5
2173
330
22B4
100
AcDbEntity
  8
V0-OBRYS
  6
CONTINUOUS
 62
    90
100
AcDbLine
 10
1347.384038
 20
-258.166006
 30
0.0
 11
1177.707724
 21
237.400519
 31
0.0
  0
LINE
  5
2174
330
22B4
100
AcDbEntity
  8
V0-OBRYS
  6
CONTINUOUS
 62
    90
100
AcDbLine
 10
2239.903724
 20
315.094138
 30
0.0
 11
2219.604018
 21
293.839281
 31
0.0
  0
ARC
  5
2175
330
22B4
100
AcDbEntity
  8
V0-OBRYS
  6
CONTINUOUS
 62
    90
100
AcDbCircle
 10
1704.884038
 20
-212.022026
 30
0.0
 40
751.064254
100
AcDbArc
 50
36.75403
 51
42.339331
  0
LINE
  5
2176
330
22B4
100
AcDbEntity
  8
V0-OBRYS
  6
CONTINUOUS
 62
    90
100
AcDbLine
 10
2157.384038
 20
-276.166006
 30
0.0
 11
2157.384038
 21
-261.166006
 31
0.0
  0
LINE
  5
2177
330
22B4
100
AcDbEntity
  8
V0-OBRYS
  6
CONTINUOUS
 62
    90
100
AcDbLine
 10
2092.384038
 20
-258.166006
 30
0.0
 11
2092.384038
 21
-261.166006
 31
0.0
  0
LINE
  5
2178
330
22B4
100
AcDbEntity
  8
V0-OBRYS
  6
CONTINUOUS
 62
    90
100
AcDbLine
 10
2019.884038
 20
-256.166006
 30
0.0
 11
2019.884038
 21
-276.166006
 31
0.0
  0
LINE
  5
2179
330
22B4
100
AcDbEntity
  8
V0-VYPLNE
100
AcDbLine
 10
2079.884038
 20
-286.166006
 30
0.0
 11
2079.884038
 21
-236.166006
 31
0.0
  0
LINE
  5
217A
330
22B4
100
AcDbEntity
  8
V0-OBRYS
  6
CONTINUOUS
 62
    90
100
AcDbLine
 10
2062.384038
 20
-258.166006
 30
0.0
 11
2230.560352
 21
237.400519
 31
0.0
  0
ARC
  5
217B
330
22B4
100
AcDbEntity
  8
V0-OBRYS
  6
CONTINUOUS
 62
    90
100
AcDbCircle
 10
2023.402183
 20
-176.587045
 30
0.0
 40
103.416331
100
AcDbArc
 50
103.14477
 51
231.26796
  0
LINE
  5
217C
330
22B4
100
AcDbEntity
  8
V0-OBRYS
  6
CONTINUOUS
 62
    90
100
AcDbLine
 10
1947.943113
 20
-105.87024
 30
0.0
 11
1947.943113
 21
233.893418
 31
0.0
  0
LINE
  5
217D
330
22B4
100
AcDbEntity
  8
V0-OBRYS
  6
CONTINUOUS
 62
    90
100
AcDbLine
 10
1999.884038
 20
235.032056
 30
0.0
 11
1999.884038
 21
-75.88036999999997
 31
0.0
  0
LINE
  5
217E
330
22B4
100
AcDbEntity
  8
V0-VYPLNE
  6
CONTINUOUS
 62
    52
100
AcDbLine
 10
2014.884038
 20
235.032056
 30
0.0
 11
2014.884038
 21
-258.166006
 31
0.0
  0
LINE
  5
217F
330
22B4
100
AcDbEntity
  8
V0-OBRYS
  6
CONTINUOUS
 62
    90
100
AcDbLine
 10
2014.884038
 20
-258.166006
 30
0.0
 11
2014.884038
 21
235.032056
 31
0.0
  0
TEXT
  5
2284
330
22B4
100
AcDbEntity
  8
V0-NAZVY
  6
CONTINUOUS
100
AcDbText
 10
1081.57037886139
 20
-1085.070895999903
 30
0.0
 40
108.0
  1
CTHT 500
  7
ED60
100
AcDbText
  0
LWPOLYLINE
  5
2287
330
22B4
100
AcDbEntity
  8
V0-VYPLNE
  6
CONTINUOUS
 62
    41
100
AcDbPolyline
 90
        4
 70
     1
 43
0.0
 10
-209.0480630152519
 20
-225.7802882042058
 10
-167.226379
 20
-254.42276
 10
-216.0768817590094
 20
-240.8923193332493
 10
-216.0768817590094
 20
-240.8923193332493
1001
VDEXTRAPARAM
1071
       65
1071
        0
1071
        0
1040
1.0
1000

1000

1040
0.0
1040
0.0
  0
HATCH
  5
2328
330
22B4
100
AcDbEntity
  8
V0-VYPLNE
  6
CONTINUOUS
 62
    41
100
AcDbHatch
 10
0.0
 20
0.0
 30
0.0
210
0.0
220
0.0
230
1.0
  2
SOLID
 70
     1
 71
     0
 91
        1
 92
        2
 72
     0
 73
     1
 93
        3
 10
-209.0480630152519
 20
-225.7802882042058
 10
-167.226379
 20
-254.42276
 10
-216.0768817590094
 20
-240.8923193332493
 97
        0
 75
     0
 76
     1
 98
        1
 10
0.0
 20
0.0
1001
VDEXTRAPARAM
1071
       65
1071
        0
1071
        0
1040
1.0
1000

1000

1040
0.0
1040
0.0
1001
VD_TEMPHATCH
1000
VD_TEMPHATCH
  0
LWPOLYLINE
  5
2288
330
22B4
100
AcDbEntity
  8
V0-VYPLNE
  6
CONTINUOUS
 62
    41
100
AcDbPolyline
 90
        3
 70
     0
 43
0.0
 10
-212.5624723871306
 20
-233.3363037687276
 10
-312.127424
 20
-187.027241
 10
-846.727424
 20
-187.027241
  0
TEXT
  5
228D
330
22B4
100
AcDbEntity
  8
V0-VYPLNE
  6
CONTINUOUS
 62
    41
100
AcDbText
 10
-1019.270281142857
 20
-183.027241
 30
0.0
 40
54.0
  1
4 OTVORY %%c 14
  7
ED60
100
AcDbText
  0
VIEWPORT
  5
2329
330
22B0
100
AcDbEntity
 67
     1
  8
0
 60
     1
100
AcDbViewport
 10
261.517699
 20
148.5
 30
0.0
 40
297.0
 41
297.0
 68
     0
 69
     1
1001
VD_INVISIBLE_NOT_FOR_READ
1000
VD_INVISIBLE_NOT_FOR_READ
1001
ACAD
1000
MVIEW
1002
{
1070
    16
1010
0.0
1020
0.0
1030
0.0
1010
0.0
1020
0.0
1030
1.0
1040
6.2831853071796
1040
297.0
1040
261.517699
1040
148.5
1040
0.0
1040
0.0
1040
0.0
1070
     0
1070
   100
1070
     0
1070
     1
1070
     0
1070
     0
1070
     0
1070
     0
1040
0.0
1040
0.0
1040
0.0
1040
1.0
1040
1.0
1040
0.0
1040
0.0
1070
     0
1002
{
1002
}
1002
}
  0
VIEWPORT
  5
232A
330
22B0
100
AcDbEntity
 67
     1
  8
0
 60
     1
100
AcDbViewport
 10
261.517699
 20
148.5
 30
0.0
 40
297.0
 41
297.0
 68
     0
 69
     2
1001
VD_INVISIBLE_NOT_FOR_READ
1000
VD_INVISIBLE_NOT_FOR_READ
1001
ACAD
1000
MVIEW
1002
{
1070
    16
1010
0.0
1020
0.0
1030
0.0
1010
0.0
1020
0.0
1030
1.0
1040
6.2831853071796
1040
297.0
1040
261.517699
1040
148.5
1040
0.0
1040
0.0
1040
0.0
1070
     0
1070
   100
1070
     0
1070
     1
1070
     0
1070
     0
1070
     0
1070
     0
1040
0.0
1040
0.0
1040
0.0
1040
1.0
1040
1.0
1040
0.0
1040
0.0
1070
     0
1002
{
1002
}
1002
}
  0
ENDSEC
  0
SECTION
  2
OBJECTS
  0
DICTIONARY
  5
22A1
330
0
100
AcDbDictionary
  3
ACAD_GROUP
350
22A2
  3
ACAD_LAYOUT
350
22AF
  3
ACAD_MLINESTYLE
350
22AC
  3
ACAD_PLOTSETTINGS
350
22AE
  3
ACDBHEADERROUNDTRIPXREC
350
232B
  3
VECTORDRAW_OBJECTS
350
22C4
  0
DICTIONARY
  5
234B
330
22BE
100
AcDbDictionary
280
     1
  3
ACAD_XREC_ROUNDTRIP
360
234C
  0
DICTIONARY
  5
22A2
102
{ACAD_REACTORS
330
22A1
102
}
330
22A1
100
AcDbDictionary
  0
DICTIONARY
  5
22AF
102
{ACAD_REACTORS
330
22A1
102
}
330
22A1
100
AcDbDictionary
  0
DICTIONARY
  5
22AC
102
{ACAD_REACTORS
330
22A1
102
}
330
22A1
100
AcDbDictionary
  3
STANDARD
350
22AD
  0
DICTIONARY
  5
22AE
102
{ACAD_REACTORS
330
22A1
102
}
330
22A1
100
AcDbDictionary
  0
DICTIONARY
  5
232B
102
{ACAD_REACTORS
330
22A1
102
}
330
22A1
100
AcDbDictionary
  3
CEPSNTYPE
350
2334
  3
DIMSTYLEDATA
350
234A
  3
FINGERPRINTGUID
350
2335
  3
HYPERLINKBASE
350
232E
  3
INSUNITS
350
2333
  3
LAYOUTDICT
350
2330
  3
LWETCUNION
350
2332
  3
PLOTSETDICT
350
2331
  3
PSVPSCALE
350
2337
  3
PUCSBASE
350
233A
  3
PUCSORGBACK
350
2340
  3
PUCSORGBOTTOM
350
233C
  3
PUCSORGFRONT
350
233F
  3
PUCSORGLEFT
350
233D
  3
PUCSORGRIGHT
350
233E
  3
PUCSORGTOP
350
233B
  3
PUCSORTHOREF
350
2338
  3
PUCSORTHOVIEW
350
2339
  3
STYLESHEET
350
232F
  3
TSTACKALIGN
350
232C
  3
TSTACKSIZE
350
232D
  3
UCSBASE
350
2343
  3
UCSORGBACK
350
2349
  3
UCSORGBOTTOM
350
2345
  3
UCSORGFRONT
350
2348
  3
UCSORGLEFT
350
2346
  3
UCSORGRIGHT
350
2347
  3
UCSORGTOP
350
2344
  3
UCSORTHOREF
350
2341
  3
UCSORTHOVIEW
350
2342
  3
VERSIONGUID
350
2336
  0
DICTIONARY
  5
22C4
102
{ACAD_REACTORS
330
22A1
102
}
330
22A1
100
AcDbDictionary
  3
SERIALNO
350
22C5
  0
XRECORD
  5
234C
102
{ACAD_REACTORS
330
234B
102
}
330
234B
100
AcDbXrecord
102
UCS
 74
     0
 71
     1
 10
0.0
 20
0.0
 30
0.0
 10
1.0
 20
0.0
 30
0.0
 10
0.0
 20
1.0
 30
0.0
146
0.0
 79
     0
102
VIEW
281
     0
  0
MLINESTYLE
  5
22AD
102
{ACAD_REACTORS
330
22AC
102
}
330
22AC
100
AcDbMlineStyle
  2
Standard
 70
     0
  3

 62
   256
 51
90.0
 52
90.0
 71
     2
 49
0.5
 62
   256
  6
BYLAYER
 49
-0.5
 62
   256
  6
BYLAYER
  0
XRECORD
  5
2334
102
{ACAD_REACTORS
330
232B
102
}
330
232B
100
AcDbXrecord
 90
        0
  0
XRECORD
  5
234A
102
{ACAD_REACTORS
330
232B
102
}
330
232B
100
AcDbXrecord
1000
DSTYLE
1002
{
1070
    41
 40
60.0
1070
   342
340
90
1070
   271
 70
     0
1070
    44
 40
1.25
1070
    42
 40
1.0
1070
   147
 40
4.0
1070
    77
 70
     1
1070
    73
 70
     0
1070
   174
 70
     1
1070
   172
 70
     1
1070
    74
 70
     0
1070
   340
340
2121
1070
   140
 40
50.0
1070
   288
 70
     1
1002
}
  0
XRECORD
  5
2335
102
{ACAD_REACTORS
330
232B
102
}
330
232B
100
AcDbXrecord
  1
{FAEB1C30-E019-11D5-929B-00C0DF256EC4}
  0
XRECORD
  5
232E
102
{ACAD_REACTORS
330
232B
102
}
330
232B
100
AcDbXrecord
  1

  0
XRECORD
  5
2333
102
{ACAD_REACTORS
330
232B
102
}
330
232B
100
AcDbXrecord
 90
        1
  0
XRECORD
  5
2330
102
{ACAD_REACTORS
330
232B
102
}
330
232B
100
AcDbXrecord
340
22AF
  0
XRECORD
  5
2332
102
{ACAD_REACTORS
330
232B
102
}
330
232B
100
AcDbXrecord
 90
     2560
  0
XRECORD
  5
2331
102
{ACAD_REACTORS
330
232B
102
}
330
232B
100
AcDbXrecord
340
22AE
  0
XRECORD
  5
2337
102
{ACAD_REACTORS
330
232B
102
}
330
232B
100
AcDbXrecord
 40
0.0
  0
XRECORD
  5
233A
102
{ACAD_REACTORS
330
232B
102
}
330
232B
100
AcDbXrecord
340
0
  0
XRECORD
  5
2340
102
{ACAD_REACTORS
330
232B
102
}
330
232B
100
AcDbXrecord
 10
0.0
 20
0.0
 30
0.0
  0
XRECORD
  5
233C
102
{ACAD_REACTORS
330
232B
102
}
330
232B
100
AcDbXrecord
 10
0.0
 20
0.0
 30
0.0
  0
XRECORD
  5
233F
102
{ACAD_REACTORS
330
232B
102
}
330
232B
100
AcDbXrecord
 10
0.0
 20
0.0
 30
0.0
  0
XRECORD
  5
233D
102
{ACAD_REACTORS
330
232B
102
}
330
232B
100
AcDbXrecord
 10
0.0
 20
0.0
 30
0.0
  0
XRECORD
  5
233E
102
{ACAD_REACTORS
330
232B
102
}
330
232B
100
AcDbXrecord
 10
0.0
 20
0.0
 30
0.0
  0
XRECORD
  5
233B
102
{ACAD_REACTORS
330
232B
102
}
330
232B
100
AcDbXrecord
 10
0.0
 20
0.0
 30
0.0
  0
XRECORD
  5
2338
102
{ACAD_REACTORS
330
232B
102
}
330
232B
100
AcDbXrecord
340
0
  0
XRECORD
  5
2339
102
{ACAD_REACTORS
330
232B
102
}
330
232B
100
AcDbXrecord
 70
     0
  0
XRECORD
  5
232F
102
{ACAD_REACTORS
330
232B
102
}
330
232B
100
AcDbXrecord
  1

  0
XRECORD
  5
232C
102
{ACAD_REACTORS
330
232B
102
}
330
232B
100
AcDbXrecord
 90
        1
  0
XRECORD
  5
232D
102
{ACAD_REACTORS
330
232B
102
}
330
232B
100
AcDbXrecord
 90
       70
  0
XRECORD
  5
2343
102
{ACAD_REACTORS
330
232B
102
}
330
232B
100
AcDbXrecord
340
0
  0
XRECORD
  5
2349
102
{ACAD_REACTORS
330
232B
102
}
330
232B
100
AcDbXrecord
 10
0.0
 20
0.0
 30
0.0
  0
XRECORD
  5
2345
102
{ACAD_REACTORS
330
232B
102
}
330
232B
100
AcDbXrecord
 10
0.0
 20
0.0
 30
0.0
  0
XRECORD
  5
2348
102
{ACAD_REACTORS
330
232B
102
}
330
232B
100
AcDbXrecord
 10
0.0
 20
0.0
 30
0.0
  0
XRECORD
  5
2346
102
{ACAD_REACTORS
330
232B
102
}
330
232B
100
AcDbXrecord
 10
0.0
 20
0.0
 30
0.0
  0
XRECORD
  5
2347
102
{ACAD_REACTORS
330
232B
102
}
330
232B
100
AcDbXrecord
 10
0.0
 20
0.0
 30
0.0
  0
XRECORD
  5
2344
102
{ACAD_REACTORS
330
232B
102
}
330
232B
100
AcDbXrecord
 10
0.0
 20
0.0
 30
0.0
  0
XRECORD
  5
2341
102
{ACAD_REACTORS
330
232B
102
}
330
232B
100
AcDbXrecord
340
0
  0
XRECORD
  5
2342
102
{ACAD_REACTORS
330
232B
102
}
330
232B
100
AcDbXrecord
 70
     0
  0
XRECORD
  5
2336
102
{ACAD_REACTORS
330
232B
102
}
330
232B
100
AcDbXrecord
  1
{FAEB1C32-E019-11D5-929B-00C0DF256EC4}
  0
XRECORD
  5
22C5
102
{ACAD_REACTORS
330
22C4
102
}
330
22C4
100
AcDbXrecord
1000
rInJVR9YY4Q8hfPWdUq5j5319
1070
     4
1070
     6
  0
ENDSEC
  0
EOF
