  0
SECTION
  2
HEADER
  9
$ACADVER
  1
AC1014
  9
$ACADMAINTVER
 70
     9
  9
$DWGCODEPAGE
  3
ANSI_1250
  9
$INSBASE
 10
0.0
 20
0.0
 30
0.0
  9
$EXTMIN
 10
-636.3308394285715
 20
-1513.876067
 30
0.0
  9
$EXTMAX
 10
1805.084947854469
 20
554.5464367691945
 30
0.0
  9
$LIMMIN
 10
0.0
 20
0.0
  9
$LIMMAX
 10
0.0
 20
0.0
  9
$ORTHOMODE
 70
     0
  9
$REGENMODE
 70
     1
  9
$FILLMODE
 70
     1
  9
$QTEXTMODE
 70
     0
  9
$MIRRTEXT
 70
     1
  9
$DRAGMODE
 70
     2
  9
$LTSCALE
 40
1.0
  9
$OSMODE
 70
    37
  9
$ATTMODE
 70
     1
  9
$TEXTSIZE
 40
0.2
  9
$TRACEWID
 40
0.05
  9
$TEXTSTYLE
  7
ED50
  9
$CLAYER
  8
V0-OBRYS
  9
$CELTYPE
  6
CONTINUOUS
  9
$CECOLOR
 62
    90
  9
$CELTSCALE
 40
1.0
  9
$DELOBJ
 70
     1
  9
$DISPSILH
 70
     0
  9
$DIMSCALE
 40
1.0
  9
$DIMASZ
 40
35.0
  9
$DIMEXO
 40
1.0
  9
$DIMDLI
 40
0.38
  9
$DIMRND
 40
0.0
  9
$DIMDLE
 40
0.0
  9
$DIMEXE
 40
1.25
  9
$DIMTP
 40
0.0
  9
$DIMTM
 40
0.0
  9
$DIMTXT
 40
40.0
  9
$DIMCEN
 40
0.09
  9
$DIMTSZ
 40
0.0
  9
$DIMTOL
 70
     0
  9
$DIMLIM
 70
     0
  9
$DIMTIH
 70
     0
  9
$DIMTOH
 70
     0
  9
$DIMSE1
 70
     0
  9
$DIMSE2
 70
     0
  9
$DIMTAD
 70
     1
  9
$DIMZIN
 70
     0
  9
$DIMBLK
  1
OPEN
  9
$DIMASO
 70
     1
  9
$DIMSHO
 70
     1
  9
$DIMPOST
  1

  9
$DIMAPOST
  1

  9
$DIMALT
 70
     0
  9
$DIMALTD
 70
     2
  9
$DIMALTF
 40
25.4
  9
$DIMLFAC
 40
1.0
  9
$DIMTOFL
 70
     1
  9
$DIMTVP
 40
0.0
  9
$DIMTIX
 70
     1
  9
$DIMSOXD
 70
     0
  9
$DIMSAH
 70
     0
  9
$DIMBLK1
  1

  9
$DIMBLK2
  1

  9
$DIMSTYLE
  2
ED40
  9
$DIMCLRD
 70
     0
  9
$DIMCLRE
 70
     0
  9
$DIMCLRT
 70
     0
  9
$DIMTFAC
 40
1.0
  9
$DIMGAP
 40
4.0
  9
$DIMJUST
 70
     0
  9
$DIMSD1
 70
     0
  9
$DIMSD2
 70
     0
  9
$DIMTOLJ
 70
     1
  9
$DIMTZIN
 70
     0
  9
$DIMALTZ
 70
     0
  9
$DIMALTTZ
 70
     0
  9
$DIMFIT
 70
     3
  9
$DIMUPT
 70
     1
  9
$DIMUNIT
 70
     2
  9
$DIMDEC
 70
     0
  9
$DIMTDEC
 70
     4
  9
$DIMALTU
 70
     2
  9
$DIMALTTD
 70
     2
  9
$DIMTXSTY
  7
ED40
  9
$DIMAUNIT
 70
     0
  9
$LUNITS
 70
     2
  9
$LUPREC
 70
     4
  9
$SKETCHINC
 40
0.1
  9
$FILLETRAD
 40
0.5
  9
$AUNITS
 70
     0
  9
$AUPREC
 70
     0
  9
$MENU
  1
.
  9
$ELEVATION
 40
0.0
  9
$PELEVATION
 40
0.0
  9
$THICKNESS
 40
0.0
  9
$LIMCHECK
 70
     0
  9
$BLIPMODE
 70
     0
  9
$CHAMFERA
 40
0.5
  9
$CHAMFERB
 40
0.5
  9
$CHAMFERC
 40
1.0
  9
$CHAMFERD
 40
0.0
  9
$SKPOLY
 70
     0
  9
$TDCREATE
 40
2455645.561145289
  9
$TDUPDATE
 40
2455645.561145301
  9
$TDINDWG
 40
0.0000000116
  9
$TDUSRTIMER
 40
0.0000000116
  9
$USRTIMER
 70
     1
  9
$ANGBASE
 50
0.0
  9
$ANGDIR
 70
     0
  9
$PDMODE
 70
     3
  9
$PDSIZE
 40
20.0
  9
$PLINEWID
 40
0.0
  9
$COORDS
 70
     1
  9
$SPLFRAME
 70
     0
  9
$SPLINETYPE
 70
     6
  9
$SPLINESEGS
 70
     8
  9
$ATTDIA
 70
     0
  9
$ATTREQ
 70
     1
  9
$HANDLING
 70
     1
  9
$HANDSEED
  5
2158
  9
$SURFTAB1
 70
     6
  9
$SURFTAB2
 70
     6
  9
$SURFTYPE
 70
     6
  9
$SURFU
 70
     6
  9
$SURFV
 70
     6
  9
$UCSNAME
  2

  9
$UCSORG
 10
0.0
 20
0.0
 30
0.0
  9
$UCSXDIR
 10
1.0
 20
0.0
 30
0.0
  9
$UCSYDIR
 10
0.0
 20
1.0
 30
0.0
  9
$PUCSNAME
  2

  9
$PUCSORG
 10
0.0
 20
0.0
 30
0.0
  9
$PUCSXDIR
 10
1.0
 20
0.0
 30
0.0
  9
$PUCSYDIR
 10
0.0
 20
1.0
 30
0.0
  9
$USERI1
 70
     0
  9
$USERI2
 70
     0
  9
$USERI3
 70
     0
  9
$USERI4
 70
     0
  9
$USERI5
 70
     0
  9
$USERR1
 40
0.0
  9
$USERR2
 40
0.0
  9
$USERR3
 40
0.0
  9
$USERR4
 40
0.0
  9
$USERR5
 40
0.0
  9
$WORLDVIEW
 70
     1
  9
$SHADEDGE
 70
     3
  9
$SHADEDIF
 70
    70
  9
$TILEMODE
 70
     1
  9
$MAXACTVP
 70
    64
  9
$PINSBASE
 10
0.0
 20
0.0
 30
0.0
  9
$PLIMCHECK
 70
     0
  9
$PEXTMIN
 10
1.000000000000000E+20
 20
1.000000000000000E+20
 30
1.000000000000000E+20
  9
$PEXTMAX
 10
-1.000000000000000E+20
 20
-1.000000000000000E+20
 30
-1.000000000000000E+20
  9
$PLIMMIN
 10
0.0
 20
0.0
  9
$PLIMMAX
 10
0.0
 20
0.0
  9
$UNITMODE
 70
     0
  9
$VISRETAIN
 70
     1
  9
$PLINEGEN
 70
     0
  9
$PSLTSCALE
 70
     1
  9
$TREEDEPTH
 70
  3020
  9
$PICKSTYLE
 70
     1
  9
$CMLSTYLE
  2
STANDARD
  9
$CMLJUST
 70
     0
  9
$CMLSCALE
 40
1.0
  9
$PROXYGRAPHICS
 70
     1
  9
$MEASUREMENT
 70
     0
  0
ENDSEC
  0
SECTION
  2
CLASSES
  0
CLASS
  1
ACDBDICTIONARYWDFLT
  2
AcDbDictionaryWithDefault
  3
ObjectDBX Classes
 90
        0
280
     0
281
     0
  0
CLASS
  1
XRECORD
  2
AcDbXrecord
  3
AutoCAD 2000
 90
        0
280
     0
281
     0
  0
CLASS
  1
LWPOLYLINE
  2
AcDbPolyline
  3
AutoCAD 2000
 90
        0
280
     0
281
     1
  0
CLASS
  1
HATCH
  2
AcDbHatch
  3
AutoCAD 2000
 90
        0
280
     0
281
     1
  0
CLASS
  1
ACDBPLACEHOLDER
  2
AcDbPlaceHolder
  3
ObjectDBX Classes
 90
        0
280
     0
281
     0
  0
CLASS
  1
LAYOUT
  2
AcDbLayout
  3
ObjectDBX Classes
 90
        0
280
     0
281
     0
  0
ENDSEC
  0
SECTION
  2
TABLES
  0
TABLE
  2
VPORT
  5
20AA
330
0
100
AcDbSymbolTable
 70
     2
  0
VPORT
  5
20CB
102
{ACAD_XDICTIONARY
360
2156
102
}
330
20AA
100
AcDbSymbolTableRecord
100
AcDbViewportTableRecord
  2
*ACTIVE
 70
     0
 10
0.0
 20
0.0
 11
1.0
 21
1.0
 12
641.891344
 22
-432.636978
 13
0.0
 23
0.0
 14
10.0
 24
10.0
 15
10.0
 25
10.0
 16
0.0
 26
0.0
 36
1.0
 17
0.0
 27
0.0
 37
0.0
 40
2188.082184
 41
0.0081152147234215
 42
50.0
 43
0.0
 44
0.0
 50
0.0
 51
0.0000000000007958
 71
     0
 72
   100
 73
     1
 74
     3
 75
     0
 76
     0
 77
     0
 78
     0
  0
ENDTAB
  0
TABLE
  2
LTYPE
  5
20A7
330
0
100
AcDbSymbolTable
 70
    25
  0
LTYPE
  5
20B6
330
20A7
100
AcDbSymbolTableRecord
100
AcDbLinetypeTableRecord
  2
BYBLOCK
 70
     0
  3

 72
    65
 73
     0
 40
0.0
  0
LTYPE
  5
20B7
330
20A7
100
AcDbSymbolTableRecord
100
AcDbLinetypeTableRecord
  2
BYLAYER
 70
     0
  3

 72
    65
 73
     0
 40
0.0
  0
LTYPE
  5
20B8
330
20A7
100
AcDbSymbolTableRecord
100
AcDbLinetypeTableRecord
  2
CONTINUOUS
 70
     0
  3
Solid line
 72
    65
 73
     0
 40
0.0
  0
LTYPE
  5
20D3
330
20A7
100
AcDbSymbolTableRecord
100
AcDbLinetypeTableRecord
  2
CENTER
 70
     0
  3
Center ____ _ ____ _ ____ _ ____ _ ____ _ ____
 72
    65
 73
     4
 40
2.0
 49
1.25
 74
     0
 49
-0.25
 74
     0
 49
0.25
 74
     0
 49
-0.25
 74
     0
  0
LTYPE
  5
20D4
330
20A7
100
AcDbSymbolTableRecord
100
AcDbLinetypeTableRecord
  2
DASHDOT
 70
     0
  3
Dashdot __ . __ . __ . __ . __ . __ . __ . __
 72
    65
 73
     4
 40
1.0
 49
0.5
 74
     0
 49
-0.25
 74
     0
 49
0.0
 74
     0
 49
-0.25
 74
     0
  0
LTYPE
  5
20D5
330
20A7
100
AcDbSymbolTableRecord
100
AcDbLinetypeTableRecord
  2
DASHED
 70
     0
  3
Dashed __ __ __ __ __ __ __ __ __ __ __ __ __ _
 72
    65
 73
     2
 40
0.75
 49
0.5
 74
     0
 49
-0.25
 74
     0
  0
LTYPE
  5
20D6
330
20A7
100
AcDbSymbolTableRecord
100
AcDbLinetypeTableRecord
  2
HIDDEN
 70
     0
  3
Hidden __ __ __ __ __ __ __ __ __ __ __ __ __ __
 72
    65
 73
     2
 40
0.375
 49
0.25
 74
     0
 49
-0.125
 74
     0
  0
LTYPE
  5
20D7
330
20A7
100
AcDbSymbolTableRecord
100
AcDbLinetypeTableRecord
  2
HIDDEN2
 70
     0
  3
Hidden2 _ _ _ _ _ _ _ _ _ _ _ _ _ _ _ _ _ 
 72
    65
 73
     2
 40
0.1875
 49
0.125
 74
     0
 49
-0.0625
 74
     0
  0
LTYPE
  5
20D8
330
20A7
100
AcDbSymbolTableRecord
100
AcDbLinetypeTableRecord
  2
BORDER
 70
     0
  3
Border __ __ . __ __ . __ __ . __ __ . __ __ .
 72
    65
 73
     6
 40
1.75
 49
0.5
 74
     0
 49
-0.25
 74
     0
 49
0.5
 74
     0
 49
-0.25
 74
     0
 49
0.0
 74
     0
 49
-0.25
 74
     0
  0
LTYPE
  5
20D9
330
20A7
100
AcDbSymbolTableRecord
100
AcDbLinetypeTableRecord
  2
BORDER2
 70
     0
  3
Border2 __.__.__.__.__.__.__.__.__.__.__.
 72
    65
 73
     6
 40
0.875
 49
0.25
 74
     0
 49
-0.125
 74
     0
 49
0.25
 74
     0
 49
-0.125
 74
     0
 49
0.0
 74
     0
 49
-0.125
 74
     0
  0
LTYPE
  5
20DA
330
20A7
100
AcDbSymbolTableRecord
100
AcDbLinetypeTableRecord
  2
BORDERX2
 70
     0
  3
Borderx2  ____  ____  .  ____  ____  .  ___
 72
    65
 73
     6
 40
3.5
 49
1.0
 74
     0
 49
-0.5
 74
     0
 49
1.0
 74
     0
 49
-0.5
 74
     0
 49
0.0
 74
     0
 49
-0.5
 74
     0
  0
LTYPE
  5
20DB
330
20A7
100
AcDbSymbolTableRecord
100
AcDbLinetypeTableRecord
  2
CENTER2
 70
     0
  3
Center2  ___ _ ___ _ ___ _ ___ _ ___ _ ___
 72
    65
 73
     4
 40
1.125
 49
0.75
 74
     0
 49
-0.125
 74
     0
 49
0.125
 74
     0
 49
-0.125
 74
     0
  0
LTYPE
  5
20DC
330
20A7
100
AcDbSymbolTableRecord
100
AcDbLinetypeTableRecord
  2
CENTERX2
 70
     0
  3
Centerx2  ________  __  ________  __  _____
 72
    65
 73
     4
 40
4.0
 49
2.5
 74
     0
 49
-0.5
 74
     0
 49
0.5
 74
     0
 49
-0.5
 74
     0
  0
LTYPE
  5
20DD
330
20A7
100
AcDbSymbolTableRecord
100
AcDbLinetypeTableRecord
  2
DASHDOT2
 70
     0
  3
Dashdot2  _._._._._._._._._._._._._._._.
 72
    65
 73
     4
 40
0.5
 49
0.25
 74
     0
 49
-0.125
 74
     0
 49
0.0
 74
     0
 49
-0.125
 74
     0
  0
LTYPE
  5
20DE
330
20A7
100
AcDbSymbolTableRecord
100
AcDbLinetypeTableRecord
  2
DASHDOTX2
 70
     0
  3
Dashdotx2 ____  .  ____  .  ____  .  ___
 72
    65
 73
     4
 40
2.0
 49
1.0
 74
     0
 49
-0.5
 74
     0
 49
0.0
 74
     0
 49
-0.5
 74
     0
  0
LTYPE
  5
20DF
330
20A7
100
AcDbSymbolTableRecord
100
AcDbLinetypeTableRecord
  2
DASHED2
 70
     0
  3
Dashed2 _ _ _ _ _ _ _ _ _ _ _ _ _ _ _ _ _ 
 72
    65
 73
     2
 40
0.375
 49
0.25
 74
     0
 49
-0.125
 74
     0
  0
LTYPE
  5
20E0
330
20A7
100
AcDbSymbolTableRecord
100
AcDbLinetypeTableRecord
  2
DASHEDX2
 70
     0
  3
Dashedx2 ____  ____  ____  ____  ____  ___
 72
    65
 73
     2
 40
1.5
 49
1.0
 74
     0
 49
-0.5
 74
     0
  0
LTYPE
  5
20E1
330
20A7
100
AcDbSymbolTableRecord
100
AcDbLinetypeTableRecord
  2
DIVIDE
 70
     0
  3
Divide ____ . . ____ . . ____ . . ____ . . ____
 72
    65
 73
     6
 40
1.25
 49
0.5
 74
     0
 49
-0.25
 74
     0
 49
0.0
 74
     0
 49
-0.25
 74
     0
 49
0.0
 74
     0
 49
-0.25
 74
     0
  0
LTYPE
  5
20E2
330
20A7
100
AcDbSymbolTableRecord
100
AcDbLinetypeTableRecord
  2
DIVIDE2
 70
     0
  3
Divide2 __..__..__..__..__..__..__..__.._
 72
    65
 73
     6
 40
0.625
 49
0.25
 74
     0
 49
-0.125
 74
     0
 49
0.0
 74
     0
 49
-0.125
 74
     0
 49
0.0
 74
     0
 49
-0.125
 74
     0
  0
LTYPE
  5
20E3
330
20A7
100
AcDbSymbolTableRecord
100
AcDbLinetypeTableRecord
  2
DIVIDEX2
 70
     0
  3
Dividex2 ________  .  .  ________  .  .  _
 72
    65
 73
     6
 40
2.5
 49
1.0
 74
     0
 49
-0.5
 74
     0
 49
0.0
 74
     0
 49
-0.5
 74
     0
 49
0.0
 74
     0
 49
-0.5
 74
     0
  0
LTYPE
  5
20E4
330
20A7
100
AcDbSymbolTableRecord
100
AcDbLinetypeTableRecord
  2
DOT
 70
     0
  3
Dot . . . . . . . . . . . . . . . . . . . . . . . .
 72
    65
 73
     2
 40
0.25
 49
0.0
 74
     0
 49
-0.25
 74
     0
  0
LTYPE
  5
20E5
330
20A7
100
AcDbSymbolTableRecord
100
AcDbLinetypeTableRecord
  2
DOT2
 70
     0
  3
Dot2 ........................................
 72
    65
 73
     2
 40
0.125
 49
0.0
 74
     0
 49
-0.125
 74
     0
  0
LTYPE
  5
20E6
330
20A7
100
AcDbSymbolTableRecord
100
AcDbLinetypeTableRecord
  2
DOTX2
 70
     0
  3
Dotx2 .  .  .  .  .  .  .  .  .  .  .  .  .  .
 72
    65
 73
     2
 40
0.5
 49
0.0
 74
     0
 49
-0.5
 74
     0
  0
LTYPE
  5
20E7
330
20A7
100
AcDbSymbolTableRecord
100
AcDbLinetypeTableRecord
  2
HIDDENX2
 70
     0
  3
Hiddenx2 ____ ____ ____ ____ ____ ____ ____ 
 72
    65
 73
     2
 40
0.75
 49
0.5
 74
     0
 49
-0.25
 74
     0
  0
LTYPE
  5
20E8
330
20A7
100
AcDbSymbolTableRecord
100
AcDbLinetypeTableRecord
  2
PHANTOM
 70
     0
  3
Phantom ______  __  __  ______  __  __  ______ 
 72
    65
 73
     6
 40
2.5
 49
1.25
 74
     0
 49
-0.25
 74
     0
 49
0.25
 74
     0
 49
-0.25
 74
     0
 49
0.25
 74
     0
 49
-0.25
 74
     0
  0
LTYPE
  5
20E9
330
20A7
100
AcDbSymbolTableRecord
100
AcDbLinetypeTableRecord
  2
PHANTOM2
 70
     0
  3
Phantom2 ___ _ _ ___ _ _ ___ _ _ ___ _ _
 72
    65
 73
     6
 40
1.25
 49
0.625
 74
     0
 49
-0.125
 74
     0
 49
0.125
 74
     0
 49
-0.125
 74
     0
 49
0.125
 74
     0
 49
-0.125
 74
     0
  0
LTYPE
  5
20EA
330
20A7
100
AcDbSymbolTableRecord
100
AcDbLinetypeTableRecord
  2
PHANTOMX2
 70
     0
  3
Phantomx2 ____________    ____    ____   _
 72
    65
 73
     6
 40
5.0
 49
2.5
 74
     0
 49
-0.5
 74
     0
 49
0.5
 74
     0
 49
-0.5
 74
     0
 49
0.5
 74
     0
 49
-0.5
 74
     0
  0
ENDTAB
  0
TABLE
  2
LAYER
  5
20A4
330
0
100
AcDbSymbolTable
 70
     6
  0
LAYER
  5
20B2
330
20A4
100
AcDbSymbolTableRecord
100
AcDbLayerTableRecord
  2
0
 70
     0
 62
     7
  6
CONTINUOUS
  0
LAYER
  5
9E
330
20A4
100
AcDbSymbolTableRecord
100
AcDbLayerTableRecord
  2
DEFPOINTS
 70
     0
 62
     7
  6
CONTINUOUS
  0
LAYER
  5
377
330
20A4
100
AcDbSymbolTableRecord
100
AcDbLayerTableRecord
  2
V0-OBRYS
 70
     0
 62
    90
  6
CONTINUOUS
  0
LAYER
  5
378
330
20A4
100
AcDbSymbolTableRecord
100
AcDbLayerTableRecord
  2
V0-VYPLNE
 70
     0
 62
    63
  6
DASHDOT
  0
LAYER
  5
37A
330
20A4
100
AcDbSymbolTableRecord
100
AcDbLayerTableRecord
  2
V0-NAZVY
 70
     0
 62
   210
  6
CONTINUOUS
  0
LAYER
  5
559
330
20A4
100
AcDbSymbolTableRecord
100
AcDbLayerTableRecord
  2
V0-ZBYTEK
 70
     0
 62
    51
  6
CONTINUOUS
  0
ENDTAB
  0
TABLE
  2
STYLE
  5
20A5
330
0
100
AcDbSymbolTable
 70
     6
  0
STYLE
  5
20B3
330
20A5
100
AcDbSymbolTableRecord
100
AcDbTextStyleTableRecord
  2
STANDARD
 70
     0
 40
0.0
 41
1.0
 50
0.0
 71
     0
 42
0.2
  3
ISOCP.shx
  4

1001
ACAD
1000
ISOCP.shx
1071
        0
  0
STYLE
  5
331
330
20A5
100
AcDbSymbolTableRecord
100
AcDbTextStyleTableRecord
  2
ED20
 70
     0
 40
25.0
 41
1.0
 50
0.0
 71
     0
 42
0.2
  3
ISOCP.shx
  4

1001
ACAD
1000
ISOCP.shx
1071
        0
  0
STYLE
  5
648
330
20A5
100
AcDbSymbolTableRecord
100
AcDbTextStyleTableRecord
  2
ED10
 70
     0
 40
10.0
 41
1.0
 50
0.0
 71
     0
 42
0.2
  3
ISOCP.shx
  4

1001
ACAD
1000
ISOCP.shx
1071
        0
  0
STYLE
  5
F38
330
20A5
100
AcDbSymbolTableRecord
100
AcDbTextStyleTableRecord
  2
ED30
 70
     0
 40
30.0
 41
1.0
 50
0.0
 71
     0
 42
0.2
  3
ISOCP.shx
  4

1001
ACAD
1000
ISOCP.shx
1071
        0
  0
STYLE
  5
F39
330
20A5
100
AcDbSymbolTableRecord
100
AcDbTextStyleTableRecord
  2
ED40
 70
     0
 40
40.0
 41
1.0
 50
0.0
 71
     0
 42
0.2
  3
ISOCP.shx
  4

1001
ACAD
1000
ISOCP.shx
1071
        0
  0
STYLE
  5
1EA9
330
20A5
100
AcDbSymbolTableRecord
100
AcDbTextStyleTableRecord
  2
ED50
 70
     0
 40
50.0
 41
1.0
 50
0.0
 71
     0
 42
0.2
  3
ISOCP.shx
  4

1001
ACAD
1000
ISOCP.shx
1071
        0
  0
ENDTAB
  0
TABLE
  2
VIEW
  5
20A8
330
0
100
AcDbSymbolTable
 70
     0
  0
ENDTAB
  0
TABLE
  2
UCS
  5
20A9
330
0
100
AcDbSymbolTable
 70
     0
  0
ENDTAB
  0
TABLE
  2
APPID
  5
20AB
330
0
100
AcDbSymbolTable
 70
     6
  0
APPID
  5
20B4
330
20AB
100
AcDbSymbolTableRecord
100
AcDbRegAppTableRecord
  2
ACAD
 70
     0
  0
APPID
  5
20CC
330
20AB
100
AcDbSymbolTableRecord
100
AcDbRegAppTableRecord
  2
VD_INVISIBLE_NOT_FOR_READ
 70
     0
  0
APPID
  5
20CD
330
20AB
100
AcDbSymbolTableRecord
100
AcDbRegAppTableRecord
  2
VD_TEMPHATCH
 70
     0
  0
APPID
  5
20CE
330
20AB
100
AcDbSymbolTableRecord
100
AcDbRegAppTableRecord
  2
VDEXTRAPARAM
 70
     0
  0
APPID
  5
20CF
330
20AB
100
AcDbSymbolTableRecord
100
AcDbRegAppTableRecord
  2
PE_URL
 70
     0
  0
APPID
  5
20D0
330
20AB
100
AcDbSymbolTableRecord
100
AcDbRegAppTableRecord
  2
VD_UNKNOWN
 70
     0
  0
ENDTAB
  0
TABLE
  2
DIMSTYLE
  5
20AC
330
0
100
AcDbSymbolTable
 70
     5
  0
DIMSTYLE
105
20C9
330
20AC
100
AcDbSymbolTableRecord
100
AcDbDimStyleTableRecord
  2
STANDARD
 70
     0
  3

  4

  5
OPEN
  6

  7

 40
1.0
 41
15.0
 42
0.625
 43
0.38
 44
1.25
 45
0.0
 46
0.0
 47
0.0
 48
0.0
140
15.0
141
0.09
142
0.0
143
25.4
144
1.0
145
0.0
146
1.0
147
3.0
 71
     0
 72
     0
 73
     0
 74
     0
 75
     0
 76
     0
 77
     1
 78
     0
170
     0
171
     2
172
     1
173
     0
174
     1
175
     0
176
     0
177
     0
178
     0
270
     2
271
     0
272
     4
273
     2
274
     2
340
331
275
     0
280
     0
281
     0
282
     0
283
     1
284
     0
285
     0
286
     0
287
     3
288
     1
  0
DIMSTYLE
105
397
102
{ACAD_REACTORS
330
1469
330
1483
330
1490
330
1BAE
330
1E0D
102
}
330
20AC
100
AcDbSymbolTableRecord
100
AcDbDimStyleTableRecord
  2
ED40
 70
     0
  3

  4

  5
OPEN
  6

  7

 40
1.0
 41
35.0
 42
1.0
 43
0.38
 44
1.25
 45
0.0
 46
0.0
 47
0.0
 48
0.0
140
40.0
141
0.09
142
0.0
143
25.4
144
1.0
145
0.0
146
1.0
147
4.0
 71
     0
 72
     0
 73
     0
 74
     0
 75
     0
 76
     0
 77
     1
 78
     0
170
     0
171
     2
172
     1
173
     0
174
     1
175
     0
176
     0
177
     0
178
     0
270
     2
271
     0
272
     4
273
     2
274
     2
340
F39
275
     0
280
     0
281
     0
282
     0
283
     1
284
     0
285
     0
286
     0
287
     3
288
     1
  0
DIMSTYLE
105
FEA
330
20AC
100
AcDbSymbolTableRecord
100
AcDbDimStyleTableRecord
  2
ED30
 70
     0
  3

  4

  5
OPEN
  6

  7

 40
1.0
 41
25.0
 42
1.0
 43
0.38
 44
1.25
 45
0.0
 46
0.0
 47
0.0
 48
0.0
140
30.0
141
0.09
142
0.0
143
25.4
144
1.0
145
0.0
146
1.0
147
4.0
 71
     0
 72
     0
 73
     0
 74
     0
 75
     0
 76
     0
 77
     1
 78
     0
170
     0
171
     2
172
     1
173
     0
174
     1
175
     0
176
     0
177
     0
178
     0
270
     2
271
     0
272
     4
273
     2
274
     2
340
F38
275
     0
280
     0
281
     0
282
     0
283
     1
284
     0
285
     0
286
     0
287
     3
288
     1
  0
DIMSTYLE
105
1457
330
20AC
100
AcDbSymbolTableRecord
100
AcDbDimStyleTableRecord
  2
ED20
 70
     0
  3

  4

  5
OPEN
  6

  7

 40
1.0
 41
20.0
 42
1.0
 43
0.38
 44
1.25
 45
0.0
 46
0.0
 47
0.0
 48
0.0
140
20.0
141
0.09
142
0.0
143
25.4
144
1.0
145
0.0
146
1.0
147
1.5
 71
     0
 72
     0
 73
     0
 74
     0
 75
     0
 76
     0
 77
     1
 78
     0
170
     0
171
     2
172
     1
173
     0
174
     1
175
     0
176
     0
177
     0
178
     0
270
     2
271
     0
272
     4
273
     2
274
     2
340
331
275
     0
280
     0
281
     0
282
     0
283
     1
284
     0
285
     0
286
     0
287
     3
288
     1
  0
DIMSTYLE
105
1458
330
20AC
100
AcDbSymbolTableRecord
100
AcDbDimStyleTableRecord
  2
ED10
 70
     0
  3

  4

  5
OPEN
  6

  7

 40
1.0
 41
15.0
 42
1.0
 43
0.38
 44
1.25
 45
0.0
 46
0.0
 47
0.0
 48
0.0
140
10.0
141
0.09
142
0.0
143
25.4
144
1.0
145
0.0
146
1.0
147
1.5
 71
     0
 72
     0
 73
     0
 74
     0
 75
     0
 76
     0
 77
     1
 78
     0
170
     0
171
     2
172
     1
173
     0
174
     1
175
     0
176
     0
177
     0
178
     0
270
     2
271
     0
272
     4
273
     2
274
     2
340
331
275
     0
280
     0
281
     0
282
     0
283
     1
284
     0
285
     0
286
     0
287
     3
288
     1
  0
ENDTAB
  0
TABLE
  2
BLOCK_RECORD
  5
20A3
330
0
100
AcDbSymbolTable
 70
    10
  0
BLOCK_RECORD
  5
20C1
330
20A3
100
AcDbSymbolTableRecord
100
AcDbBlockTableRecord
  2
*MODEL_SPACE
  0
BLOCK_RECORD
  5
20BD
330
20A3
100
AcDbSymbolTableRecord
100
AcDbBlockTableRecord
  2
*PAPER_SPACE
  0
BLOCK_RECORD
  5
90
330
20A3
100
AcDbSymbolTableRecord
100
AcDbBlockTableRecord
  2
_OPEN
  0
BLOCK_RECORD
  5
1459
330
20A3
100
AcDbSymbolTableRecord
100
AcDbBlockTableRecord
  2
A10_100
  0
BLOCK_RECORD
  5
1FE5
330
20A3
100
AcDbSymbolTableRecord
100
AcDbBlockTableRecord
  2
VDDIM_DEFAULT
  0
BLOCK_RECORD
  5
1FE7
330
20A3
100
AcDbSymbolTableRecord
100
AcDbBlockTableRecord
  2
VDDIM_NONE
  0
BLOCK_RECORD
  5
20F4
330
20A3
100
AcDbSymbolTableRecord
100
AcDbBlockTableRecord
  2
*D5
  0
BLOCK_RECORD
  5
2101
330
20A3
100
AcDbSymbolTableRecord
100
AcDbBlockTableRecord
  2
*D6
  0
BLOCK_RECORD
  5
210E
330
20A3
100
AcDbSymbolTableRecord
100
AcDbBlockTableRecord
  2
*D7
  0
BLOCK_RECORD
  5
211B
330
20A3
100
AcDbSymbolTableRecord
100
AcDbBlockTableRecord
  2
*D8
  0
BLOCK_RECORD
  5
2128
330
20A3
100
AcDbSymbolTableRecord
100
AcDbBlockTableRecord
  2
*D9
  0
ENDTAB
  0
ENDSEC
  0
SECTION
  2
BLOCKS
  0
BLOCK
  5
20C2
330
20C1
100
AcDbEntity
  8
0
100
AcDbBlockBegin
  2
*MODEL_SPACE
 70
     0
 71
     0
 10
0.0
 20
0.0
 30
0.0
  3
*MODEL_SPACE
  1

  0
ENDBLK
  5
20C3
330
20C1
100
AcDbEntity
  8
0
100
AcDbBlockEnd
  0
BLOCK
  5
20BE
330
20BD
100
AcDbEntity
 67
     1
  8
0
100
AcDbBlockBegin
  2
*PAPER_SPACE
 70
     0
 71
     0
 10
0.0
 20
0.0
 30
0.0
  3
*PAPER_SPACE
  1

  0
ENDBLK
  5
20BF
330
20BD
100
AcDbEntity
 67
     1
  8
0
100
AcDbBlockEnd
  0
BLOCK
  5
20EB
330
90
100
AcDbEntity
  8
0
100
AcDbBlockBegin
  2
_OPEN
 70
     0
 71
     0
 10
0.0
 20
0.0
 30
0.0
  3
_OPEN
  1

  0
LINE
  5
92
330
90
100
AcDbEntity
  8
0
  6
BYBLOCK
 62
     0
100
AcDbLine
 10
-1.0
 20
0.166667
 30
0.0
 11
0.0
 21
0.0
 31
0.0
  0
LINE
  5
93
330
90
100
AcDbEntity
  8
0
  6
BYBLOCK
 62
     0
100
AcDbLine
 10
0.0
 20
0.0
 30
0.0
 11
-1.0
 21
-0.166667
 31
0.0
  0
LINE
  5
94
330
90
100
AcDbEntity
  8
0
  6
BYBLOCK
 62
     0
100
AcDbLine
 10
0.0
 20
0.0
 30
0.0
 11
-1.0
 21
0.0
 31
0.0
  0
ENDBLK
  5
20EC
330
90
100
AcDbEntity
  8
0
100
AcDbBlockEnd
  0
BLOCK
  5
20ED
330
1459
100
AcDbEntity
  8
0
100
AcDbBlockBegin
  2
A10_100
 70
     0
 71
     0
 10
0.0
 20
0.0
 30
0.0
  3
A10_100
  1

  0
ENDBLK
  5
20EE
330
1459
100
AcDbEntity
  8
0
100
AcDbBlockEnd
  0
BLOCK
  5
20EF
330
1FE5
100
AcDbEntity
  8
0
100
AcDbBlockBegin
  2
VDDIM_DEFAULT
 70
     0
 71
     0
 10
0.0
 20
0.0
 30
0.0
  3
VDDIM_DEFAULT
  1

  0
LWPOLYLINE
  5
1FE6
330
1FE5
100
AcDbEntity
  8
0
  6
CONTINUOUS
 62
     0
100
AcDbPolyline
 90
        4
 70
     0
 43
0.0
 10
0.0
 20
0.0
 10
-1.0
 20
-0.1665
 10
-1.0
 20
0.1665
 10
0.0
 20
0.0
1001
VDEXTRAPARAM
1071
        1
1071
        0
1071
        0
1040
1.0
1000

1000

1040
0.0
1040
0.0
  0
HATCH
  5
20F3
330
1FE5
100
AcDbEntity
  8
0
  6
CONTINUOUS
 62
     0
100
AcDbHatch
 10
0.0
 20
0.0
 30
0.0
210
0.0
220
0.0
230
1.0
  2
SOLID
 70
     1
 71
     0
 91
        1
 92
        2
 72
     0
 73
     1
 93
        3
 10
0.0
 20
0.0
 10
-1.0
 20
-0.1665
 10
-1.0
 20
0.1665
 97
        0
 75
     0
 76
     1
 98
        1
 10
0.0
 20
0.0
1001
VDEXTRAPARAM
1071
        1
1071
        0
1071
        0
1040
1.0
1000

1000

1040
0.0
1040
0.0
1001
VD_TEMPHATCH
1000
VD_TEMPHATCH
  0
ENDBLK
  5
20F0
330
1FE5
100
AcDbEntity
  8
0
100
AcDbBlockEnd
  0
BLOCK
  5
20F1
330
1FE7
100
AcDbEntity
  8
0
100
AcDbBlockBegin
  2
VDDIM_NONE
 70
     0
 71
     0
 10
0.0
 20
0.0
 30
0.0
  3
VDDIM_NONE
  1

  0
ENDBLK
  5
20F2
330
1FE7
100
AcDbEntity
  8
0
100
AcDbBlockEnd
  0
BLOCK
  5
20FF
330
20F4
100
AcDbEntity
  8
0
100
AcDbBlockBegin
  2
*D5
 70
     1
 71
     0
 10
0.0
 20
0.0
 30
0.0
  3
*D5
  1

  0
LINE
  5
20F5
330
20F4
100
AcDbEntity
  8
V0-VYPLNE
 62
     0
100
AcDbLine
 10
-43.858761
 20
-277.166006
 30
0.0
 11
-43.85876100000007
 21
-364.4386980000126
 31
0.0
  0
LINE
  5
20F6
330
20F4
100
AcDbEntity
  8
V0-VYPLNE
 62
     0
100
AcDbLine
 10
456.141239
 20
-277.166006
 30
0.0
 11
456.141239
 21
-364.4386980000127
 31
0.0
  0
LINE
  5
20F7
330
20F4
100
AcDbEntity
  8
V0-VYPLNE
 62
     0
100
AcDbLine
 10
6.141238999999928
 20
-363.1886980000126
 30
0.0
 11
98.87208009523806
 21
-363.1886980000126
 31
0.0
  0
LINE
  5
20F8
330
20F4
100
AcDbEntity
  8
V0-VYPLNE
 62
     0
100
AcDbLine
 10
406.141239
 20
-363.1886980000127
 30
0.0
 11
280.6816039047619
 21
-363.1886980000126
 31
0.0
  0
INSERT
  5
20F9
330
20F4
100
AcDbEntity
  8
V0-VYPLNE
 62
     0
100
AcDbBlockReference
  2
_OPEN
 10
-43.85876100000007
 20
-363.1886980000126
 30
0.0
 41
50.0
 42
50.0
 43
50.0
 50
180.0
  0
INSERT
  5
20FA
330
20F4
100
AcDbEntity
  8
V0-VYPLNE
 62
     0
100
AcDbBlockReference
  2
_OPEN
 10
456.141239
 20
-363.1886980000127
 30
0.0
 41
50.0
 42
50.0
 43
50.0
  0
MTEXT
  5
20FB
330
20F4
100
AcDbEntity
  8
V0-VYPLNE
 62
     0
100
AcDbMText
 10
189.776842
 20
-363.188698
 30
0.0
 40
50.0
 41
0.0
 71
     5
 72
     1
  1
%%c\A1;500
  7
ED40
  0
POINT
  5
20FC
330
20F4
100
AcDbEntity
  8
DEFPOINTS
 62
     0
100
AcDbPoint
 10
-43.858761
 20
-276.166006
 30
0.0
  0
POINT
  5
20FD
330
20F4
100
AcDbEntity
  8
DEFPOINTS
 62
     0
100
AcDbPoint
 10
456.141239
 20
-276.166006
 30
0.0
  0
POINT
  5
20FE
330
20F4
100
AcDbEntity
  8
DEFPOINTS
 62
     0
100
AcDbPoint
 10
456.141239
 20
-363.1886980000127
 30
0.0
  0
ENDBLK
  5
2100
330
20F4
100
AcDbEntity
  8
0
100
AcDbBlockEnd
  0
BLOCK
  5
210C
330
2101
100
AcDbEntity
  8
0
100
AcDbBlockBegin
  2
*D6
 70
     1
 71
     0
 10
0.0
 20
0.0
 30
0.0
  3
*D6
  1

  0
LINE
  5
2102
330
2101
100
AcDbEntity
  8
V0-VYPLNE
 62
     0
100
AcDbLine
 10
-148.858761
 20
-277.166006
 30
0.0
 11
-148.8587610000001
 21
-491.3193229999742
 31
0.0
  0
LINE
  5
2103
330
2101
100
AcDbEntity
  8
V0-VYPLNE
 62
     0
100
AcDbLine
 10
561.141239
 20
-277.166006
 30
0.0
 11
561.141239
 21
-491.3193229999743
 31
0.0
  0
LINE
  5
2104
330
2101
100
AcDbEntity
  8
V0-VYPLNE
 62
     0
100
AcDbLine
 10
-98.85876100000007
 20
-490.0693229999742
 30
0.0
 11
131.0159477142857
 21
-490.0693229999742
 31
0.0
  0
LINE
  5
2105
330
2101
100
AcDbEntity
  8
V0-VYPLNE
 62
     0
100
AcDbLine
 10
511.141239
 20
-490.0693229999743
 30
0.0
 11
267.5873762857143
 21
-490.0693229999742
 31
0.0
  0
INSERT
  5
2106
330
2101
100
AcDbEntity
  8
V0-VYPLNE
 62
     0
100
AcDbBlockReference
  2
_OPEN
 10
-148.8587610000001
 20
-490.0693229999742
 30
0.0
 41
50.0
 42
50.0
 43
50.0
 50
180.0
  0
INSERT
  5
2107
330
2101
100
AcDbEntity
  8
V0-VYPLNE
 62
     0
100
AcDbBlockReference
  2
_OPEN
 10
561.141239
 20
-490.0693229999743
 30
0.0
 41
50.0
 42
50.0
 43
50.0
  0
MTEXT
  5
2108
330
2101
100
AcDbEntity
  8
V0-VYPLNE
 62
     0
100
AcDbMText
 10
199.301662
 20
-490.069323
 30
0.0
 40
50.0
 41
0.0
 71
     5
 72
     1
  1
\A1;710
  7
ED40
  0
POINT
  5
2109
330
2101
100
AcDbEntity
  8
DEFPOINTS
 62
     0
100
AcDbPoint
 10
-148.858761
 20
-276.166006
 30
0.0
  0
POINT
  5
210A
330
2101
100
AcDbEntity
  8
DEFPOINTS
 62
     0
100
AcDbPoint
 10
561.141239
 20
-276.166006
 30
0.0
  0
POINT
  5
210B
330
2101
100
AcDbEntity
  8
DEFPOINTS
 62
     0
100
AcDbPoint
 10
561.141239
 20
-490.0693229999743
 30
0.0
  0
ENDBLK
  5
210D
330
2101
100
AcDbEntity
  8
0
100
AcDbBlockEnd
  0
BLOCK
  5
2119
330
210E
100
AcDbEntity
  8
0
100
AcDbBlockBegin
  2
*D7
 70
     1
 71
     0
 10
0.0
 20
0.0
 30
0.0
  3
*D7
  1

  0
LINE
  5
210F
330
210E
100
AcDbEntity
  8
V0-VYPLNE
 62
     0
100
AcDbLine
 10
562.141239
 20
-276.166006
 30
0.0
 11
768.150059000007
 21
-276.1660060000002
 31
0.0
  0
LINE
  5
2110
330
210E
100
AcDbEntity
  8
V0-VYPLNE
 62
     0
100
AcDbLine
 10
207.141239
 20
419.833994
 30
0.0
 11
768.1500590000071
 21
419.833994
 31
0.0
  0
LINE
  5
2111
330
210E
100
AcDbEntity
  8
V0-VYPLNE
 62
     0
100
AcDbLine
 10
766.900059000007
 20
-226.1660060000001
 30
0.0
 11
766.9000590000071
 21
67.23457590476193
 31
0.0
  0
LINE
  5
2112
330
210E
100
AcDbEntity
  8
V0-VYPLNE
 62
     0
100
AcDbLine
 10
766.9000590000071
 20
369.8339940000001
 30
0.0
 11
766.9000590000071
 21
201.4250520952381
 31
0.0
  0
INSERT
  5
2113
330
210E
100
AcDbEntity
  8
V0-VYPLNE
 62
     0
100
AcDbBlockReference
  2
_OPEN
 10
766.900059000007
 20
-276.1660060000001
 30
0.0
 41
50.0
 42
50.0
 43
50.0
 50
270.0
  0
INSERT
  5
2114
330
210E
100
AcDbEntity
  8
V0-VYPLNE
 62
     0
100
AcDbBlockReference
  2
_OPEN
 10
766.9000590000071
 20
419.8339940000001
 30
0.0
 41
50.0
 42
50.0
 43
50.0
 50
89.99999999999999
  0
MTEXT
  5
2115
330
210E
100
AcDbEntity
  8
V0-VYPLNE
 62
     0
100
AcDbMText
 10
766.9000590000001
 20
134.329814
 30
0.0
 40
50.0
 41
0.0
 71
     5
 72
     1
  1
\A1;696
  7
ED40
 11
1.633431576460000E-16
 21
1.0
 31
0.0
  0
POINT
  5
2116
330
210E
100
AcDbEntity
  8
DEFPOINTS
 62
     0
100
AcDbPoint
 10
561.141239
 20
-276.166006
 30
0.0
  0
POINT
  5
2117
330
210E
100
AcDbEntity
  8
DEFPOINTS
 62
     0
100
AcDbPoint
 10
206.141239
 20
419.833994
 30
0.0
  0
POINT
  5
2118
330
210E
100
AcDbEntity
  8
DEFPOINTS
 62
     0
100
AcDbPoint
 10
766.9000590000071
 20
419.833994
 30
0.0
  0
ENDBLK
  5
211A
330
210E
100
AcDbEntity
  8
0
100
AcDbBlockEnd
  0
BLOCK
  5
2126
330
211B
100
AcDbEntity
  8
0
100
AcDbBlockBegin
  2
*D8
 70
     1
 71
     0
 10
0.0
 20
0.0
 30
0.0
  3
*D8
  1

  0
LINE
  5
211C
330
211B
100
AcDbEntity
  8
V0-VYPLNE
 62
     0
100
AcDbLine
 10
-88.858761
 20
-287.166006
 30
0.0
 11
-88.85876100000002
 21
-431.0510270000084
 31
0.0
  0
LINE
  5
211D
330
211B
100
AcDbEntity
  8
V0-VYPLNE
 62
     0
100
AcDbLine
 10
501.141239
 20
-277.166006
 30
0.0
 11
501.141239
 21
-431.0510270000085
 31
0.0
  0
LINE
  5
211E
330
211B
100
AcDbEntity
  8
V0-VYPLNE
 62
     0
100
AcDbLine
 10
-38.85876100000002
 20
-429.8010270000084
 30
0.0
 11
124.6660677142857
 21
-429.8010270000084
 31
0.0
  0
LINE
  5
211F
330
211B
100
AcDbEntity
  8
V0-VYPLNE
 62
     0
100
AcDbLine
 10
451.141239
 20
-429.8010270000085
 30
0.0
 11
261.2374962857143
 21
-429.8010270000084
 31
0.0
  0
INSERT
  5
2120
330
211B
100
AcDbEntity
  8
V0-VYPLNE
 62
     0
100
AcDbBlockReference
  2
_OPEN
 10
-88.85876100000002
 20
-429.8010270000084
 30
0.0
 41
50.0
 42
50.0
 43
50.0
 50
180.0
  0
INSERT
  5
2121
330
211B
100
AcDbEntity
  8
V0-VYPLNE
 62
     0
100
AcDbBlockReference
  2
_OPEN
 10
501.141239
 20
-429.8010270000085
 30
0.0
 41
50.0
 42
50.0
 43
50.0
  0
MTEXT
  5
2122
330
211B
100
AcDbEntity
  8
V0-VYPLNE
 62
     0
100
AcDbMText
 10
192.951782
 20
-429.801027
 30
0.0
 40
50.0
 41
0.0
 71
     5
 72
     1
  1
\A1;590
  7
ED40
  0
POINT
  5
2123
330
211B
100
AcDbEntity
  8
DEFPOINTS
 62
     0
100
AcDbPoint
 10
-88.858761
 20
-286.166006
 30
0.0
  0
POINT
  5
2124
330
211B
100
AcDbEntity
  8
DEFPOINTS
 62
     0
100
AcDbPoint
 10
501.141239
 20
-276.166006
 30
0.0
  0
POINT
  5
2125
330
211B
100
AcDbEntity
  8
DEFPOINTS
 62
     0
100
AcDbPoint
 10
501.141239
 20
-429.8010270000085
 30
0.0
  0
ENDBLK
  5
2127
330
211B
100
AcDbEntity
  8
0
100
AcDbBlockEnd
  0
BLOCK
  5
2132
330
2128
100
AcDbEntity
  8
0
100
AcDbBlockBegin
  2
*D9
 70
     1
 71
     0
 10
0.0
 20
0.0
 30
0.0
  3
*D9
  1

  0
LINE
  5
2129
330
2128
100
AcDbEntity
  8
V0-VYPLNE
 62
     0
100
AcDbLine
 10
-268.620251
 20
119.400519
 30
0.0
 11
-268.6202509999999
 21
499.427205999964
 31
0.0
  0
LINE
  5
212A
330
2128
100
AcDbEntity
  8
V0-VYPLNE
 62
     0
100
AcDbLine
 10
680.902729
 20
119.400519
 30
0.0
 11
680.902729
 21
499.4272059999639
 31
0.0
  0
LINE
  5
212B
330
2128
100
AcDbEntity
  8
V0-VYPLNE
 62
     0
100
AcDbLine
 10
-218.6202509999999
 20
498.177205999964
 30
0.0
 11
630.902729
 21
498.1772059999639
 31
0.0
  0
INSERT
  5
212C
330
2128
100
AcDbEntity
  8
V0-VYPLNE
 62
     0
100
AcDbBlockReference
  2
_OPEN
 10
-268.6202509999999
 20
498.177205999964
 30
0.0
 41
50.0
 42
50.0
 43
50.0
 50
180.0
  0
INSERT
  5
212D
330
2128
100
AcDbEntity
  8
V0-VYPLNE
 62
     0
100
AcDbBlockReference
  2
_OPEN
 10
680.902729
 20
498.1772059999639
 30
0.0
 41
50.0
 42
50.0
 43
50.0
 50
360.0
  0
MTEXT
  5
212E
330
2128
100
AcDbEntity
  8
V0-VYPLNE
 62
     0
100
AcDbMText
 10
206.141239
 20
527.1772059999639
 30
0.0
 40
50.0
 41
0.0
 71
     5
 72
     1
  1
%%c\A1;950
  7
ED40
  0
POINT
  5
212F
330
2128
100
AcDbEntity
  8
DEFPOINTS
 62
     0
100
AcDbPoint
 10
-268.620251
 20
118.400519
 30
0.0
  0
POINT
  5
2130
330
2128
100
AcDbEntity
  8
DEFPOINTS
 62
     0
100
AcDbPoint
 10
680.902729
 20
118.400519
 30
0.0
  0
POINT
  5
2131
330
2128
100
AcDbEntity
  8
DEFPOINTS
 62
     0
100
AcDbPoint
 10
680.902729
 20
498.1772059999639
 30
0.0
  0
ENDBLK
  5
2133
330
2128
100
AcDbEntity
  8
0
100
AcDbBlockEnd
  0
ENDSEC
  0
SECTION
  2
ENTITIES
  0
LINE
  5
1127
330
20C1
100
AcDbEntity
  8
V0-VYPLNE
  6
DASHDOT
 62
    63
100
AcDbLine
 10
206.141239
 20
-677.130466
 30
0.0
 11
206.141239
 21
-1457.050119
 31
0.0
  0
CIRCLE
  5
11B0
330
20C1
100
AcDbEntity
  8
V0-VYPLNE
  6
DASHED
 62
    56
100
AcDbCircle
 10
500.975044
 20
-744.238436
 30
0.0
 40
8.423823000000001
  0
LINE
  5
11B1
330
20C1
100
AcDbEntity
  8
V0-VYPLNE
 62
    63
100
AcDbLine
 10
500.975044
 20
-780.3405350000001
 30
0.0
 11
500.975044
 21
-698.0552760000001
 31
0.0
  0
LINE
  5
11BB
330
20C1
100
AcDbEntity
  8
V0-VYPLNE
100
AcDbLine
 10
206.141239
 20
461.937864
 30
0.0
 11
206.141239
 21
-230.215523
 31
0.0
  0
LINE
  5
11BE
330
20C1
100
AcDbEntity
  8
V0-VYPLNE
100
AcDbLine
 10
-88.858761
 20
-286.166006
 30
0.0
 11
-88.858761
 21
-236.166006
 31
0.0
  0
LINE
  5
11BF
330
20C1
100
AcDbEntity
  8
V0-VYPLNE
100
AcDbLine
 10
501.141239
 20
-286.166006
 30
0.0
 11
501.141239
 21
-236.166006
 31
0.0
  0
POINT
  5
12BC
330
20C1
100
AcDbEntity
  8
V0-VYPLNE
  6
CONTINUOUS
 62
    41
100
AcDbPoint
 10
206.141239
 20
-1039.072242
 30
0.0
  0
POINT
  5
12BD
330
20C1
100
AcDbEntity
  8
V0-VYPLNE
  6
CONTINUOUS
 62
    41
100
AcDbPoint
 10
206.141239
 20
-276.166006
 30
0.0
  0
LINE
  5
13BB
330
20C1
100
AcDbEntity
  8
V0-VYPLNE
  6
DASHDOT
 62
    63
100
AcDbLine
 10
-180.960537
 20
-1039.072242
 30
0.0
 11
624.1191160000001
 21
-1039.072242
 31
0.0
  0
CIRCLE
  5
13BE
330
20C1
100
AcDbEntity
  8
V0-OBRYS
  6
CONTINUOUS
 62
    90
100
AcDbCircle
 10
206.141239
 20
-1039.072242
 30
0.0
 40
474.803825
  0
ARC
  5
13BF
330
20C1
100
AcDbEntity
  8
V0-OBRYS
  6
CONTINUOUS
 62
    90
100
AcDbCircle
 10
206.141239
 20
-1039.072242
 30
0.0
 40
444.548196
100
AcDbArc
 50
325.242093
 51
319.013577
  0
CIRCLE
  5
13C0
330
20C1
100
AcDbEntity
  8
V0-VYPLNE
  6
DASHED
 62
    52
100
AcDbCircle
 10
206.141239
 20
-1039.072242
 30
0.0
 40
279.933333
  0
LINE
  5
13C2
330
20C1
100
AcDbEntity
  8
V0-VYPLNE
 62
    63
100
AcDbLine
 10
552.599695
 20
-744.238436
 30
0.0
 11
464.872946
 21
-744.238436
 31
0.0
  0
LINE
  5
13C5
330
20C1
100
AcDbEntity
  8
V0-VYPLNE
 62
    63
100
AcDbLine
 10
-52.590468
 20
-744.238436
 30
0.0
 11
-116.593568
 21
-744.238436
 31
0.0
  0
LINE
  5
13C6
330
20C1
100
AcDbEntity
  8
V0-VYPLNE
 62
    63
100
AcDbLine
 10
-88.692567
 20
-716.65066
 30
0.0
 11
-88.692567
 21
-780.3405350000001
 31
0.0
  0
CIRCLE
  5
13C7
330
20C1
100
AcDbEntity
  8
V0-VYPLNE
  6
DASHED
 62
    56
100
AcDbCircle
 10
-88.692567
 20
-744.238436
 30
0.0
 40
8.423823000000001
  0
LINE
  5
13CE
330
20C1
100
AcDbEntity
  8
V0-VYPLNE
  6
DASHED
 62
    52
100
AcDbLine
 10
561.118239
 20
-685.210242
 30
0.0
 11
-148.8357609999999
 21
-685.210242
 31
0.0
  0
LINE
  5
13CF
330
20C1
100
AcDbEntity
  8
V0-VYPLNE
  6
DASHED
 62
    52
100
AcDbLine
 10
-148.835761
 20
-685.210242
 30
0.0
 11
-148.835761
 21
-1394.049242
 31
0.0
  0
LINE
  5
13D0
330
20C1
100
AcDbEntity
  8
V0-VYPLNE
  6
DASHED
 62
    52
100
AcDbLine
 10
-148.835761
 20
-1394.049242
 30
0.0
 11
561.1182389999999
 21
-1394.049242
 31
0.0
  0
LINE
  5
13D1
330
20C1
100
AcDbEntity
  8
V0-VYPLNE
  6
DASHED
 62
    52
100
AcDbLine
 10
561.118239
 20
-1394.049242
 30
0.0
 11
561.118239
 21
-685.210242
 31
0.0
  0
LINE
  5
13D2
330
20C1
100
AcDbEntity
  8
V0-OBRYS
  6
CONTINUOUS
 62
    90
100
AcDbLine
 10
-148.858761
 20
-276.166006
 30
0.0
 11
561.141239
 21
-276.166006
 31
0.0
  0
LINE
  5
13D3
330
20C1
100
AcDbEntity
  8
V0-OBRYS
  6
CONTINUOUS
 62
    90
100
AcDbLine
 10
561.141239
 20
-276.166006
 30
0.0
 11
561.141239
 21
-261.166006
 31
0.0
  0
LINE
  5
13D4
330
20C1
100
AcDbEntity
  8
V0-OBRYS
  6
CONTINUOUS
 62
    90
100
AcDbLine
 10
561.141239
 20
-261.166006
 30
0.0
 11
-148.858761
 21
-261.166006
 31
0.0
  0
LINE
  5
13D5
330
20C1
100
AcDbEntity
  8
V0-OBRYS
  6
CONTINUOUS
 62
    90
100
AcDbLine
 10
-148.858761
 20
-261.166006
 30
0.0
 11
-148.858761
 21
-276.166006
 31
0.0
  0
LINE
  5
13D6
330
20C1
100
AcDbEntity
  8
V0-OBRYS
  6
CONTINUOUS
 62
    90
100
AcDbLine
 10
-101.358761
 20
-261.166006
 30
0.0
 11
-101.358761
 21
-258.166006
 31
0.0
  0
LINE
  5
13D7
330
20C1
100
AcDbEntity
  8
V0-OBRYS
  6
CONTINUOUS
 62
    90
100
AcDbLine
 10
-101.358761
 20
-258.166006
 30
0.0
 11
513.641239
 21
-258.166006
 31
0.0
  0
LINE
  5
13D8
330
20C1
100
AcDbEntity
  8
V0-OBRYS
  6
CONTINUOUS
 62
    90
100
AcDbLine
 10
513.641239
 20
-258.166006
 30
0.0
 11
513.641239
 21
-261.166006
 31
0.0
  0
LINE
  5
13D9
330
20C1
100
AcDbEntity
  8
V0-OBRYS
  6
CONTINUOUS
 62
    90
100
AcDbLine
 10
451.141239
 20
-258.166006
 30
0.0
 11
451.141239
 21
116.032056
 31
0.0
  0
LINE
  5
13E8
330
20C1
100
AcDbEntity
  8
V0-OBRYS
  6
CONTINUOUS
 62
    90
100
AcDbLine
 10
19.386419
 20
-226.166006
 30
0.0
 11
392.896059
 21
-226.166006
 31
0.0
  0
LINE
  5
13EA
330
20C1
100
AcDbEntity
  8
V0-OBRYS
  6
CONTINUOUS
 62
    90
100
AcDbLine
 10
456.141239
 20
-256.166006
 30
0.0
 11
456.141239
 21
-276.166006
 31
0.0
  0
LINE
  5
13EF
330
20C1
100
AcDbEntity
  8
V0-OBRYS
  6
CONTINUOUS
 62
    90
100
AcDbLine
 10
-23.858761
 20
116.032056
 30
0.0
 11
-23.858761
 21
-149.666006
 31
0.0
  0
LINE
  5
13F0
330
20C1
100
AcDbEntity
  8
V0-OBRYS
  6
CONTINUOUS
 62
    90
100
AcDbLine
 10
-38.858761
 20
-258.166006
 30
0.0
 11
-38.858761
 21
116.032056
 31
0.0
  0
LINE
  5
13F1
330
20C1
100
AcDbEntity
  8
V0-OBRYS
  6
CONTINUOUS
 62
    90
100
AcDbLine
 10
-71.358761
 20
-258.166006
 30
0.0
 11
-194.035076
 21
118.400519
 31
0.0
  0
LINE
  5
13F2
330
20C1
100
AcDbEntity
  8
V0-OBRYS
  6
CONTINUOUS
 62
    90
100
AcDbLine
 10
13.266239
 20
-174.019204
 30
0.0
 11
13.266239
 21
116.032056
 31
0.0
  0
LINE
  5
1414
330
20C1
100
AcDbEntity
  8
V0-VYPLNE
  6
CONTINUOUS
 62
    52
100
AcDbLine
 10
-38.858761
 20
116.032056
 30
0.0
 11
451.141239
 21
116.032056
 31
0.0
  0
LINE
  5
1415
330
20C1
100
AcDbEntity
  8
V0-VYPLNE
  6
CONTINUOUS
 62
    52
100
AcDbLine
 10
451.141239
 20
116.032056
 30
0.0
 11
451.141239
 21
-258.166006
 31
0.0
  0
LINE
  5
1416
330
20C1
100
AcDbEntity
  8
V0-VYPLNE
  6
CONTINUOUS
 62
    52
100
AcDbLine
 10
451.141239
 20
-258.166006
 30
0.0
 11
-38.85876100000002
 21
-258.166006
 31
0.0
  0
LINE
  5
1417
330
20C1
100
AcDbEntity
  8
V0-VYPLNE
  6
CONTINUOUS
 62
    52
100
AcDbLine
 10
-38.858761
 20
-258.166006
 30
0.0
 11
-38.858761
 21
116.032056
 31
0.0
  0
HATCH
  5
142F
330
20C1
100
AcDbEntity
  8
V0-VYPLNE
  6
CONTINUOUS
 62
    52
100
AcDbHatch
 10
0.0
 20
0.0
 30
0.0
210
0.0
220
0.0
230
1.0
  2
NET
 70
     0
 71
     0
 91
        1
 92
        3
 72
     0
 73
     1
 93
        4
 10
451.1412387300806
 20
-258.166005630735
 10
451.1412387300806
 20
116.032055801144
 10
-38.85876126991942
 20
116.032055801144
 10
-38.85876126991934
 20
-258.166005630735
 97
        0
 75
     0
 76
     2
 52
0.0
 41
5.0
 77
     0
 78
     2
 53
0.0
 43
206.141239
 44
-213.166006
 45
0.0
 46
15.875
 79
     0
 53
90.0
 43
206.141239
 44
-213.166006
 45
-15.875
 46
0.000000000000001
 79
     0
 98
        1
 10
0.0
 20
0.0
1001
VDEXTRAPARAM
1071
       76
1071
        0
1071
        0
1040
5.0
1000
NET
1000

1040
0.0
1040
0.0
  0
LINE
  5
1456
330
20C1
100
AcDbEntity
  8
V0-OBRYS
  6
CONTINUOUS
 62
    90
100
AcDbLine
 10
-43.858761
 20
-256.166006
 30
0.0
 11
-43.858761
 21
-276.166006
 31
0.0
  0
INSERT
  5
145C
330
20C1
100
AcDbEntity
  8
V0-VYPLNE
  6
CONTINUOUS
 62
    52
100
AcDbBlockReference
  2
A10_100
 10
1091.344077
 20
-456.786598
 30
0.0
  0
DIMENSION
  5
1469
330
20C1
100
AcDbEntity
  8
V0-VYPLNE
  6
CONTINUOUS
 62
    41
100
AcDbDimension
  2
*D5
 10
456.141239
 20
-363.1886980000127
 30
0.0
 11
189.776842
 21
-363.188698
 31
0.0
 70
   160
  1
%%c<>
  3
ED40
100
AcDbAlignedDimension
 13
-43.858761
 23
-276.166006
 33
0.0
 14
456.141239
 24
-276.166006
 34
0.0
100
AcDbRotatedDimension
1001
ACAD
1000
DSTYLE
1002
{
1070
    41
1040
50.0
1070
   140
1040
50.0
1002
}
  0
DIMENSION
  5
1483
330
20C1
100
AcDbEntity
  8
V0-VYPLNE
  6
CONTINUOUS
 62
    41
100
AcDbDimension
  2
*D6
 10
561.141239
 20
-490.0693229999743
 30
0.0
 11
199.301662
 21
-490.069323
 31
0.0
 70
   160
  3
ED40
100
AcDbAlignedDimension
 13
-148.858761
 23
-276.166006
 33
0.0
 14
561.141239
 24
-276.166006
 34
0.0
100
AcDbRotatedDimension
1001
ACAD
1000
DSTYLE
1002
{
1070
    41
1040
50.0
1070
   140
1040
50.0
1002
}
  0
DIMENSION
  5
1490
330
20C1
100
AcDbEntity
  8
V0-VYPLNE
  6
CONTINUOUS
 62
    41
100
AcDbDimension
  2
*D7
 10
766.9000590000071
 20
419.833994
 30
0.0
 11
766.9000590000001
 21
134.329814
 31
0.0
 70
   160
  3
ED40
100
AcDbAlignedDimension
 13
561.141239
 23
-276.166006
 33
0.0
 14
206.141239
 24
419.833994
 34
0.0
 50
90.0
100
AcDbRotatedDimension
1001
ACAD
1000
DSTYLE
1002
{
1070
    41
1040
50.0
1070
   140
1040
50.0
1002
}
  0
LINE
  5
14A6
330
20C1
100
AcDbEntity
  8
V0-VYPLNE
  6
CONTINUOUS
 62
    41
100
AcDbLine
 10
96.197148
 20
-482.947181
 30
0.0
 11
119.734787
 21
-440.987318
 31
0.0
  0
LWPOLYLINE
  5
14A7
330
20C1
100
AcDbEntity
  8
V0-VYPLNE
  6
CONTINUOUS
 62
    41
100
AcDbPolyline
 90
        4
 70
     1
 43
0.0
 10
96.372614
 20
-474.406193
 10
121.403501
 20
-474.406193
 10
121.403501
 20
-449.398359
 10
96.372614
 20
-449.398359
  0
LWPOLYLINE
  5
14A8
330
20C1
100
AcDbEntity
  8
V0-VYPLNE
  6
CONTINUOUS
 62
    41
100
AcDbPolyline
 90
        4
 70
     1
 43
0.0
 10
99.192522
 20
-415.428089
 10
124.223409
 20
-415.428089
 10
124.223409
 20
-390.420256
 10
99.192522
 20
-390.420256
  0
LINE
  5
14A9
330
20C1
100
AcDbEntity
  8
V0-VYPLNE
  6
CONTINUOUS
 62
    41
100
AcDbLine
 10
99.017056
 20
-423.969078
 30
0.0
 11
122.554695
 21
-382.009214
 31
0.0
  0
LINE
  5
176E
330
20C1
100
AcDbEntity
  8
V0-OBRYS
  6
CONTINUOUS
 62
    90
100
AcDbLine
 10
-228.90289
 20
188.83765
 30
0.0
 11
641.185367
 21
188.83765
 31
0.0
  0
LINE
  5
176F
330
20C1
100
AcDbEntity
  8
V0-OBRYS
  6
CONTINUOUS
 62
    90
100
AcDbLine
 10
-223.945205
 20
196.094138
 30
0.0
 11
636.227683
 21
196.094138
 31
0.0
  0
LINE
  5
18B8
330
20C1
100
AcDbEntity
  8
V0-OBRYS
  6
CONTINUOUS
 62
    90
100
AcDbLine
 10
-268.620251
 20
118.400519
 30
0.0
 11
680.9027289999999
 21
118.400519
 31
0.0
  0
DIMENSION
  5
1BAE
330
20C1
100
AcDbEntity
  8
V0-VYPLNE
  6
CONTINUOUS
 62
    41
100
AcDbDimension
  2
*D8
 10
501.141239
 20
-429.8010270000085
 30
0.0
 11
192.951782
 21
-429.801027
 31
0.0
 70
   160
  3
ED40
100
AcDbAlignedDimension
 13
-88.858761
 23
-286.166006
 33
0.0
 14
501.141239
 24
-276.166006
 34
0.0
100
AcDbRotatedDimension
1001
ACAD
1000
DSTYLE
1002
{
1070
    41
1040
50.0
1070
   140
1040
50.0
1002
}
  0
ARC
  5
1C7D
330
20C1
100
AcDbEntity
  8
V0-OBRYS
  6
CONTINUOUS
 62
    90
100
AcDbCircle
 10
-34.283838
 20
-206.032439
 30
0.0
 40
57.322395
100
AcDbArc
 50
294.566421
 51
79.521449
  0
LINE
  5
1C7E
330
20C1
100
AcDbEntity
  8
V0-OBRYS
  6
CONTINUOUS
 62
    90
100
AcDbLine
 10
436.141239
 20
116.032056
 30
0.0
 11
436.141239
 21
-149.666006
 31
0.0
  0
LINE
  5
1C7F
330
20C1
100
AcDbEntity
  8
V0-OBRYS
  6
CONTINUOUS
 62
    90
100
AcDbLine
 10
399.016239
 20
-174.019204
 30
0.0
 11
399.016239
 21
116.032056
 31
0.0
  0
ARC
  5
1C80
330
20C1
100
AcDbEntity
  8
V0-OBRYS
  6
CONTINUOUS
 62
    90
100
AcDbCircle
 10
446.566315
 20
-206.032439
 30
0.0
 40
57.322395
100
AcDbArc
 50
100.478551
 51
245.433579
  0
ARC
  5
1DF3
330
20C1
100
AcDbEntity
  8
V0-OBRYS
  6
CONTINUOUS
 62
    90
100
AcDbCircle
 10
206.141239
 20
-104.398164
 30
0.0
 40
524.440393
100
AcDbArc
 50
25.139984
 51
154.860016
  0
LINE
  5
1DFF
330
20C1
100
AcDbEntity
  8
V0-OBRYS
  6
CONTINUOUS
 62
    90
100
AcDbLine
 10
483.641239
 20
-258.166006
 30
0.0
 11
604.817553
 21
118.400519
 31
0.0
  0
DIMENSION
  5
1E0D
330
20C1
100
AcDbEntity
  8
V0-VYPLNE
  6
CONTINUOUS
 62
    41
100
AcDbDimension
  2
*D9
 10
680.902729
 20
498.1772059999639
 30
0.0
 11
206.141239
 21
527.1772059999639
 31
0.0
 70
    32
  1
%%c<>
  3
ED40
100
AcDbAlignedDimension
 13
-268.620251
 23
118.400519
 33
0.0
 14
680.902729
 24
118.400519
 34
0.0
100
AcDbRotatedDimension
1001
ACAD
1000
DSTYLE
1002
{
1070
    41
1040
50.0
1070
   140
1040
50.0
1002
}
  0
ARC
  5
1E3A
330
20C1
100
AcDbEntity
  8
V0-OBRYS
  6
CONTINUOUS
 62
    90
100
AcDbCircle
 10
1330.323456
 20
-104.398164
 30
0.0
 40
524.440393
100
AcDbArc
 50
25.139984
 51
154.860016
  0
LINE
  5
1E3B
330
20C1
100
AcDbEntity
  8
V0-OBRYS
  6
CONTINUOUS
 62
    90
100
AcDbLine
 10
855.561966
 20
118.400519
 30
0.0
 11
1805.084946
 21
118.400519
 31
0.0
  0
LINE
  5
1E3C
330
20C1
100
AcDbEntity
  8
V0-OBRYS
  6
CONTINUOUS
 62
    90
100
AcDbLine
 10
900.2370120000001
 20
196.094138
 30
0.0
 11
1760.4099
 21
196.094138
 31
0.0
  0
LINE
  5
1E3D
330
20C1
100
AcDbEntity
  8
V0-OBRYS
  6
CONTINUOUS
 62
    90
100
AcDbLine
 10
895.279328
 20
188.83765
 30
0.0
 11
1765.367585
 21
188.83765
 31
0.0
  0
LINE
  5
1E3E
330
20C1
100
AcDbEntity
  8
V0-OBRYS
  6
CONTINUOUS
 62
    90
100
AcDbLine
 10
1052.823456
 20
-258.166006
 30
0.0
 11
930.147142
 21
118.400519
 31
0.0
  0
LINE
  5
1E40
330
20C1
100
AcDbEntity
  8
V0-OBRYS
  6
CONTINUOUS
 62
    90
100
AcDbLine
 10
1607.823456
 20
-258.166006
 30
0.0
 11
1728.999771
 21
118.400519
 31
0.0
  0
HATCH
  5
1E41
330
20C1
100
AcDbEntity
  8
V0-VYPLNE
  6
CONTINUOUS
 62
    52
100
AcDbHatch
 10
0.0
 20
0.0
 30
0.0
210
0.0
220
0.0
230
1.0
  2
NET
 70
     0
 71
     0
 91
        1
 92
        3
 72
     0
 73
     1
 93
        4
 10
1575.323456243146
 20
-258.166005630735
 10
1575.323456243146
 20
116.032055801144
 10
1085.323456243146
 20
116.0320558011438
 10
1085.323456243146
 20
-258.166005630735
 97
        0
 75
     0
 76
     2
 52
0.0
 41
5.0
 77
     0
 78
     2
 53
0.0
 43
206.141239
 44
-213.166006
 45
0.0
 46
15.875
 79
     0
 53
90.0
 43
206.141239
 44
-213.166006
 45
-15.875
 46
0.000000000000001
 79
     0
 98
        1
 10
0.0
 20
0.0
1001
VDEXTRAPARAM
1071
       76
1071
        0
1071
        0
1040
5.0
1000
NET
1000

1040
0.0
1040
0.0
  0
LINE
  5
1E42
330
20C1
100
AcDbEntity
  8
V0-OBRYS
  6
CONTINUOUS
 62
    90
100
AcDbLine
 10
1575.323456
 20
-258.166006
 30
0.0
 11
1575.323456
 21
116.032056
 31
0.0
  0
LINE
  5
1E43
330
20C1
100
AcDbEntity
  8
V0-VYPLNE
  6
CONTINUOUS
 62
    52
100
AcDbLine
 10
1575.323456
 20
116.032056
 30
0.0
 11
1575.323456
 21
-258.166006
 31
0.0
  0
LINE
  5
1E44
330
20C1
100
AcDbEntity
  8
V0-OBRYS
  6
CONTINUOUS
 62
    90
100
AcDbLine
 10
1560.323456
 20
116.032056
 30
0.0
 11
1560.323456
 21
-149.666006
 31
0.0
  0
LINE
  5
1E45
330
20C1
100
AcDbEntity
  8
V0-OBRYS
  6
CONTINUOUS
 62
    90
100
AcDbLine
 10
1523.198456
 20
-174.019204
 30
0.0
 11
1523.198456
 21
116.032056
 31
0.0
  0
LINE
  5
1E46
330
20C1
100
AcDbEntity
  8
V0-VYPLNE
  6
CONTINUOUS
 62
    52
100
AcDbLine
 10
1085.323456
 20
116.032056
 30
0.0
 11
1575.323456
 21
116.032056
 31
0.0
  0
LINE
  5
1E47
330
20C1
100
AcDbEntity
  8
V0-OBRYS
  6
CONTINUOUS
 62
    90
100
AcDbLine
 10
1100.323456
 20
116.032056
 30
0.0
 11
1100.323456
 21
-149.666006
 31
0.0
  0
LINE
  5
1E48
330
20C1
100
AcDbEntity
  8
V0-OBRYS
  6
CONTINUOUS
 62
    90
100
AcDbLine
 10
1085.323456
 20
-258.166006
 30
0.0
 11
1085.323456
 21
116.032056
 31
0.0
  0
LINE
  5
1E49
330
20C1
100
AcDbEntity
  8
V0-OBRYS
  6
CONTINUOUS
 62
    90
100
AcDbLine
 10
1137.448456
 20
-174.019204
 30
0.0
 11
1137.448456
 21
116.032056
 31
0.0
  0
LINE
  5
1E4A
330
20C1
100
AcDbEntity
  8
V0-VYPLNE
  6
CONTINUOUS
 62
    52
100
AcDbLine
 10
1085.323456
 20
-258.166006
 30
0.0
 11
1085.323456
 21
116.032056
 31
0.0
  0
LINE
  5
1E4B
330
20C1
100
AcDbEntity
  8
V0-OBRYS
  6
CONTINUOUS
 62
    90
100
AcDbLine
 10
1685.323456
 20
-276.166006
 30
0.0
 11
1685.323456
 21
-261.166006
 31
0.0
  0
LINE
  5
1E4C
330
20C1
100
AcDbEntity
  8
V0-OBRYS
  6
CONTINUOUS
 62
    90
100
AcDbLine
 10
1685.323456
 20
-261.166006
 30
0.0
 11
975.323456
 21
-261.166006
 31
0.0
  0
LINE
  5
1E4D
330
20C1
100
AcDbEntity
  8
V0-OBRYS
  6
CONTINUOUS
 62
    90
100
AcDbLine
 10
975.323456
 20
-276.166006
 30
0.0
 11
1685.323456
 21
-276.166006
 31
0.0
  0
LINE
  5
1E4E
330
20C1
100
AcDbEntity
  8
V0-OBRYS
  6
CONTINUOUS
 62
    90
100
AcDbLine
 10
975.323456
 20
-261.166006
 30
0.0
 11
975.323456
 21
-276.166006
 31
0.0
  0
LINE
  5
1E4F
330
20C1
100
AcDbEntity
  8
V0-OBRYS
  6
CONTINUOUS
 62
    90
100
AcDbLine
 10
1637.823456
 20
-258.166006
 30
0.0
 11
1637.823456
 21
-261.166006
 31
0.0
  0
LINE
  5
1E50
330
20C1
100
AcDbEntity
  8
V0-VYPLNE
100
AcDbLine
 10
1625.323456
 20
-286.166006
 30
0.0
 11
1625.323456
 21
-236.166006
 31
0.0
  0
LINE
  5
1E51
330
20C1
100
AcDbEntity
  8
V0-OBRYS
  6
CONTINUOUS
 62
    90
100
AcDbLine
 10
1022.823456
 20
-258.166006
 30
0.0
 11
1637.823456
 21
-258.166006
 31
0.0
  0
LINE
  5
1E52
330
20C1
100
AcDbEntity
  8
V0-OBRYS
  6
CONTINUOUS
 62
    90
100
AcDbLine
 10
1022.823456
 20
-261.166006
 30
0.0
 11
1022.823456
 21
-258.166006
 31
0.0
  0
LINE
  5
1E53
330
20C1
100
AcDbEntity
  8
V0-VYPLNE
100
AcDbLine
 10
1035.323456
 20
-286.166006
 30
0.0
 11
1035.323456
 21
-236.166006
 31
0.0
  0
LINE
  5
1E54
330
20C1
100
AcDbEntity
  8
V0-OBRYS
  6
CONTINUOUS
 62
    90
100
AcDbLine
 10
1580.323456
 20
-256.166006
 30
0.0
 11
1580.323456
 21
-276.166006
 31
0.0
  0
ARC
  5
1E55
330
20C1
100
AcDbEntity
  8
V0-OBRYS
  6
CONTINUOUS
 62
    90
100
AcDbCircle
 10
1570.748533
 20
-206.032439
 30
0.0
 40
57.322395
100
AcDbArc
 50
100.478551
 51
245.433579
  0
LINE
  5
1E56
330
20C1
100
AcDbEntity
  8
V0-VYPLNE
  6
CONTINUOUS
 62
    52
100
AcDbLine
 10
1575.323456
 20
-258.166006
 30
0.0
 11
1085.323456
 21
-258.166006
 31
0.0
  0
LINE
  5
1E57
330
20C1
100
AcDbEntity
  8
V0-OBRYS
  6
CONTINUOUS
 62
    90
100
AcDbLine
 10
1143.568636
 20
-226.166006
 30
0.0
 11
1517.078276
 21
-226.166006
 31
0.0
  0
LINE
  5
1E58
330
20C1
100
AcDbEntity
  8
V0-OBRYS
  6
CONTINUOUS
 62
    90
100
AcDbLine
 10
1080.323456
 20
-256.166006
 30
0.0
 11
1080.323456
 21
-276.166006
 31
0.0
  0
ARC
  5
1E59
330
20C1
100
AcDbEntity
  8
V0-OBRYS
  6
CONTINUOUS
 62
    90
100
AcDbCircle
 10
1089.898379
 20
-206.032439
 30
0.0
 40
57.322395
100
AcDbArc
 50
294.566421
 51
79.521449
  0
POINT
  5
1E5A
330
20C1
100
AcDbEntity
  8
V0-VYPLNE
  6
CONTINUOUS
 62
    41
100
AcDbPoint
 10
1330.323456
 20
-276.166006
 30
0.0
  0
LINE
  5
1EA8
330
20C1
100
AcDbEntity
  8
V0-VYPLNE
100
AcDbLine
 10
1330.323456
 20
461.937864
 30
0.0
 11
1330.323456
 21
-230.215523
 31
0.0
  0
LINE
  5
1EEA
330
20C1
100
AcDbEntity
  8
V0-OBRYS
  6
CONTINUOUS
 62
    90
100
AcDbLine
 10
-110.434751
 20
-685.210242
 30
0.0
 11
-148.835761
 21
-685.210242
 31
0.0
  0
LINE
  5
1EEB
330
20C1
100
AcDbEntity
  8
V0-OBRYS
  6
CONTINUOUS
 62
    90
100
AcDbLine
 10
-148.835761
 20
-685.210242
 30
0.0
 11
-148.835761
 21
-723.7470100000001
 31
0.0
  0
LINE
  5
1EEC
330
20C1
100
AcDbEntity
  8
V0-OBRYS
  6
CONTINUOUS
 62
    90
100
AcDbLine
 10
522.717229
 20
-685.210242
 30
0.0
 11
561.118239
 21
-685.210242
 31
0.0
  0
LINE
  5
1EED
330
20C1
100
AcDbEntity
  8
V0-OBRYS
  6
CONTINUOUS
 62
    90
100
AcDbLine
 10
561.118239
 20
-685.210242
 30
0.0
 11
561.118239
 21
-723.7470100000001
 31
0.0
  0
CIRCLE
  5
1EEE
330
20C1
100
AcDbEntity
  8
V0-VYPLNE
  6
DASHED
 62
    56
100
AcDbCircle
 10
-88.692567
 20
-1333.906047
 30
0.0
 40
8.423823000000001
  0
LINE
  5
1EEF
330
20C1
100
AcDbEntity
  8
V0-VYPLNE
 62
    63
100
AcDbLine
 10
-52.590468
 20
-1333.906047
 30
0.0
 11
-116.593568
 21
-1333.906047
 31
0.0
  0
LINE
  5
1EF0
330
20C1
100
AcDbEntity
  8
V0-VYPLNE
 62
    63
100
AcDbLine
 10
-88.692567
 20
-1361.493823
 30
0.0
 11
-88.692567
 21
-1297.803949
 31
0.0
  0
CIRCLE
  5
1EF1
330
20C1
100
AcDbEntity
  8
V0-VYPLNE
  6
DASHED
 62
    56
100
AcDbCircle
 10
500.975044
 20
-1333.906047
 30
0.0
 40
8.423823000000001
  0
LINE
  5
1EF2
330
20C1
100
AcDbEntity
  8
V0-VYPLNE
 62
    63
100
AcDbLine
 10
543.417615
 20
-1333.906047
 30
0.0
 11
464.872946
 21
-1333.906047
 31
0.0
  0
LINE
  5
1EF3
330
20C1
100
AcDbEntity
  8
V0-VYPLNE
 62
    63
100
AcDbLine
 10
500.975044
 20
-1297.803949
 30
0.0
 11
500.975044
 21
-1363.768313
 31
0.0
  0
TEXT
  5
1FD8
330
20C1
100
AcDbEntity
  8
V0-NAZVY
  6
CONTINUOUS
100
AcDbText
 10
838.5582545857143
 20
-883.2777135142857
 30
0.0
 40
72.0
  1
CTHT 450
  7
ED50
100
AcDbText
  0
LWPOLYLINE
  5
1FDB
330
20C1
100
AcDbEntity
  8
V0-VYPLNE
  6
CONTINUOUS
 62
    41
100
AcDbPolyline
 90
        3
 70
     0
 43
0.0
 10
-85.80157199999999
 20
-259.600553
 10
-146.902268
 20
-216.00354
 10
-521.3022679999999
 20
-216.00354
  0
TEXT
  5
1FE0
330
20C1
100
AcDbEntity
  8
V0-VYPLNE
  6
CONTINUOUS
 62
    41
100
AcDbText
 10
-636.3308394285714
 20
-212.00354
 30
0.0
 40
36.0
  1
4 OTVORY %%c 14
  7
ED50
100
AcDbText
  0
VIEWPORT
  5
2134
330
20BD
100
AcDbEntity
 67
     1
  8
0
 60
     1
100
AcDbViewport
 10
261.517699
 20
148.5
 30
0.0
 40
297.0
 41
297.0
 68
     0
 69
     1
1001
VD_INVISIBLE_NOT_FOR_READ
1000
VD_INVISIBLE_NOT_FOR_READ
1001
ACAD
1000
MVIEW
1002
{
1070
    16
1010
0.0
1020
0.0
1030
0.0
1010
0.0
1020
0.0
1030
1.0
1040
6.2831853071796
1040
297.0
1040
261.517699
1040
148.5
1040
0.0
1040
0.0
1040
0.0
1070
     0
1070
   100
1070
     0
1070
     1
1070
     0
1070
     0
1070
     0
1070
     0
1040
0.0
1040
0.0
1040
0.0
1040
1.0
1040
1.0
1040
0.0
1040
0.0
1070
     0
1002
{
1002
}
1002
}
  0
VIEWPORT
  5
2135
330
20BD
100
AcDbEntity
 67
     1
  8
0
 60
     1
100
AcDbViewport
 10
261.517699
 20
148.5
 30
0.0
 40
297.0
 41
297.0
 68
     0
 69
     2
1001
VD_INVISIBLE_NOT_FOR_READ
1000
VD_INVISIBLE_NOT_FOR_READ
1001
ACAD
1000
MVIEW
1002
{
1070
    16
1010
0.0
1020
0.0
1030
0.0
1010
0.0
1020
0.0
1030
1.0
1040
6.2831853071796
1040
297.0
1040
261.517699
1040
148.5
1040
0.0
1040
0.0
1040
0.0
1070
     0
1070
   100
1070
     0
1070
     1
1070
     0
1070
     0
1070
     0
1070
     0
1040
0.0
1040
0.0
1040
0.0
1040
1.0
1040
1.0
1040
0.0
1040
0.0
1070
     0
1002
{
1002
}
1002
}
  0
ENDSEC
  0
SECTION
  2
OBJECTS
  0
DICTIONARY
  5
20AE
330
0
100
AcDbDictionary
  3
ACAD_GROUP
350
20AF
  3
ACAD_LAYOUT
350
20BC
  3
ACAD_MLINESTYLE
350
20B9
  3
ACAD_PLOTSETTINGS
350
20BB
  3
ACDBHEADERROUNDTRIPXREC
350
2136
  3
VECTORDRAW_OBJECTS
350
20D1
  0
DICTIONARY
  5
2156
330
20CB
100
AcDbDictionary
280
     1
  3
ACAD_XREC_ROUNDTRIP
360
2157
  0
DICTIONARY
  5
20AF
102
{ACAD_REACTORS
330
20AE
102
}
330
20AE
100
AcDbDictionary
  0
DICTIONARY
  5
20BC
102
{ACAD_REACTORS
330
20AE
102
}
330
20AE
100
AcDbDictionary
  0
DICTIONARY
  5
20B9
102
{ACAD_REACTORS
330
20AE
102
}
330
20AE
100
AcDbDictionary
  3
STANDARD
350
20BA
  0
DICTIONARY
  5
20BB
102
{ACAD_REACTORS
330
20AE
102
}
330
20AE
100
AcDbDictionary
  0
DICTIONARY
  5
2136
102
{ACAD_REACTORS
330
20AE
102
}
330
20AE
100
AcDbDictionary
  3
CEPSNTYPE
350
213F
  3
DIMSTYLEDATA
350
2155
  3
FINGERPRINTGUID
350
2140
  3
HYPERLINKBASE
350
2139
  3
INSUNITS
350
213E
  3
LAYOUTDICT
350
213B
  3
LWETCUNION
350
213D
  3
PLOTSETDICT
350
213C
  3
PSVPSCALE
350
2142
  3
PUCSBASE
350
2145
  3
PUCSORGBACK
350
214B
  3
PUCSORGBOTTOM
350
2147
  3
PUCSORGFRONT
350
214A
  3
PUCSORGLEFT
350
2148
  3
PUCSORGRIGHT
350
2149
  3
PUCSORGTOP
350
2146
  3
PUCSORTHOREF
350
2143
  3
PUCSORTHOVIEW
350
2144
  3
STYLESHEET
350
213A
  3
TSTACKALIGN
350
2137
  3
TSTACKSIZE
350
2138
  3
UCSBASE
350
214E
  3
UCSORGBACK
350
2154
  3
UCSORGBOTTOM
350
2150
  3
UCSORGFRONT
350
2153
  3
UCSORGLEFT
350
2151
  3
UCSORGRIGHT
350
2152
  3
UCSORGTOP
350
214F
  3
UCSORTHOREF
350
214C
  3
UCSORTHOVIEW
350
214D
  3
VERSIONGUID
350
2141
  0
DICTIONARY
  5
20D1
102
{ACAD_REACTORS
330
20AE
102
}
330
20AE
100
AcDbDictionary
  3
SERIALNO
350
20D2
  0
XRECORD
  5
2157
102
{ACAD_REACTORS
330
2156
102
}
330
2156
100
AcDbXrecord
102
UCS
 74
     0
 71
     1
 10
0.0
 20
0.0
 30
0.0
 10
1.0
 20
0.0
 30
0.0
 10
0.0
 20
1.0
 30
0.0
146
0.0
 79
     0
102
VIEW
281
     0
  0
MLINESTYLE
  5
20BA
102
{ACAD_REACTORS
330
20B9
102
}
330
20B9
100
AcDbMlineStyle
  2
Standard
 70
     0
  3

 62
   256
 51
90.0
 52
90.0
 71
     2
 49
0.5
 62
   256
  6
BYLAYER
 49
-0.5
 62
   256
  6
BYLAYER
  0
XRECORD
  5
213F
102
{ACAD_REACTORS
330
2136
102
}
330
2136
100
AcDbXrecord
 90
        0
  0
XRECORD
  5
2155
102
{ACAD_REACTORS
330
2136
102
}
330
2136
100
AcDbXrecord
1000
DSTYLE
1002
{
1070
    41
 40
35.0
1070
   342
340
90
1070
   271
 70
     0
1070
    44
 40
1.25
1070
    42
 40
1.0
1070
   147
 40
4.0
1070
    77
 70
     1
1070
    73
 70
     0
1070
   174
 70
     1
1070
   172
 70
     1
1070
    74
 70
     0
1070
   340
340
F39
1070
   140
 40
40.0
1070
   288
 70
     1
1002
}
  0
XRECORD
  5
2140
102
{ACAD_REACTORS
330
2136
102
}
330
2136
100
AcDbXrecord
  1
{FAEB1C30-E019-11D5-929B-00C0DF256EC4}
  0
XRECORD
  5
2139
102
{ACAD_REACTORS
330
2136
102
}
330
2136
100
AcDbXrecord
  1

  0
XRECORD
  5
213E
102
{ACAD_REACTORS
330
2136
102
}
330
2136
100
AcDbXrecord
 90
        1
  0
XRECORD
  5
213B
102
{ACAD_REACTORS
330
2136
102
}
330
2136
100
AcDbXrecord
340
20BC
  0
XRECORD
  5
213D
102
{ACAD_REACTORS
330
2136
102
}
330
2136
100
AcDbXrecord
 90
     2560
  0
XRECORD
  5
213C
102
{ACAD_REACTORS
330
2136
102
}
330
2136
100
AcDbXrecord
340
20BB
  0
XRECORD
  5
2142
102
{ACAD_REACTORS
330
2136
102
}
330
2136
100
AcDbXrecord
 40
0.0
  0
XRECORD
  5
2145
102
{ACAD_REACTORS
330
2136
102
}
330
2136
100
AcDbXrecord
340
0
  0
XRECORD
  5
214B
102
{ACAD_REACTORS
330
2136
102
}
330
2136
100
AcDbXrecord
 10
0.0
 20
0.0
 30
0.0
  0
XRECORD
  5
2147
102
{ACAD_REACTORS
330
2136
102
}
330
2136
100
AcDbXrecord
 10
0.0
 20
0.0
 30
0.0
  0
XRECORD
  5
214A
102
{ACAD_REACTORS
330
2136
102
}
330
2136
100
AcDbXrecord
 10
0.0
 20
0.0
 30
0.0
  0
XRECORD
  5
2148
102
{ACAD_REACTORS
330
2136
102
}
330
2136
100
AcDbXrecord
 10
0.0
 20
0.0
 30
0.0
  0
XRECORD
  5
2149
102
{ACAD_REACTORS
330
2136
102
}
330
2136
100
AcDbXrecord
 10
0.0
 20
0.0
 30
0.0
  0
XRECORD
  5
2146
102
{ACAD_REACTORS
330
2136
102
}
330
2136
100
AcDbXrecord
 10
0.0
 20
0.0
 30
0.0
  0
XRECORD
  5
2143
102
{ACAD_REACTORS
330
2136
102
}
330
2136
100
AcDbXrecord
340
0
  0
XRECORD
  5
2144
102
{ACAD_REACTORS
330
2136
102
}
330
2136
100
AcDbXrecord
 70
     0
  0
XRECORD
  5
213A
102
{ACAD_REACTORS
330
2136
102
}
330
2136
100
AcDbXrecord
  1

  0
XRECORD
  5
2137
102
{ACAD_REACTORS
330
2136
102
}
330
2136
100
AcDbXrecord
 90
        1
  0
XRECORD
  5
2138
102
{ACAD_REACTORS
330
2136
102
}
330
2136
100
AcDbXrecord
 90
       70
  0
XRECORD
  5
214E
102
{ACAD_REACTORS
330
2136
102
}
330
2136
100
AcDbXrecord
340
0
  0
XRECORD
  5
2154
102
{ACAD_REACTORS
330
2136
102
}
330
2136
100
AcDbXrecord
 10
0.0
 20
0.0
 30
0.0
  0
XRECORD
  5
2150
102
{ACAD_REACTORS
330
2136
102
}
330
2136
100
AcDbXrecord
 10
0.0
 20
0.0
 30
0.0
  0
XRECORD
  5
2153
102
{ACAD_REACTORS
330
2136
102
}
330
2136
100
AcDbXrecord
 10
0.0
 20
0.0
 30
0.0
  0
XRECORD
  5
2151
102
{ACAD_REACTORS
330
2136
102
}
330
2136
100
AcDbXrecord
 10
0.0
 20
0.0
 30
0.0
  0
XRECORD
  5
2152
102
{ACAD_REACTORS
330
2136
102
}
330
2136
100
AcDbXrecord
 10
0.0
 20
0.0
 30
0.0
  0
XRECORD
  5
214F
102
{ACAD_REACTORS
330
2136
102
}
330
2136
100
AcDbXrecord
 10
0.0
 20
0.0
 30
0.0
  0
XRECORD
  5
214C
102
{ACAD_REACTORS
330
2136
102
}
330
2136
100
AcDbXrecord
340
0
  0
XRECORD
  5
214D
102
{ACAD_REACTORS
330
2136
102
}
330
2136
100
AcDbXrecord
 70
     0
  0
XRECORD
  5
2141
102
{ACAD_REACTORS
330
2136
102
}
330
2136
100
AcDbXrecord
  1
{FAEB1C32-E019-11D5-929B-00C0DF256EC4}
  0
XRECORD
  5
20D2
102
{ACAD_REACTORS
330
20D1
102
}
330
20D1
100
AcDbXrecord
1000
rInJVR9YY4Q8hfPWdUq5j5319
1070
     4
1070
     6
  0
ENDSEC
  0
EOF
