  0
SECTION
  2
HEADER
  9
$ACADVER
  1
AC1014
  9
$ACADMAINTVER
 70
     9
  9
$DWGCODEPAGE
  3
ANSI_1250
  9
$INSBASE
 10
0.0
 20
0.0
 30
0.0
  9
$EXTMIN
 10
-569.6165537142857
 20
-1463.853792
 30
0.0
  9
$EXTMAX
 10
1625.949152
 20
325.7459307692308
 30
0.0
  9
$LIMMIN
 10
0.0
 20
0.0
  9
$LIMMAX
 10
0.0
 20
0.0
  9
$ORTHOMODE
 70
     1
  9
$REGENMODE
 70
     1
  9
$FILLMODE
 70
     1
  9
$QTEXTMODE
 70
     0
  9
$MIRRTEXT
 70
     1
  9
$DRAGMODE
 70
     2
  9
$LTSCALE
 40
1.0
  9
$OSMODE
 70
    37
  9
$ATTMODE
 70
     1
  9
$TEXTSIZE
 40
0.2
  9
$TRACEWID
 40
0.05
  9
$TEXTSTYLE
  7
ED40
  9
$CLAYER
  8
V0-OBRYS
  9
$CELTYPE
  6
CONTINUOUS
  9
$CECOLOR
 62
    90
  9
$CELTSCALE
 40
1.0
  9
$DELOBJ
 70
     1
  9
$DISPSILH
 70
     0
  9
$DIMSCALE
 40
1.0
  9
$DIMASZ
 40
35.0
  9
$DIMEXO
 40
1.0
  9
$DIMDLI
 40
0.38
  9
$DIMRND
 40
0.0
  9
$DIMDLE
 40
0.0
  9
$DIMEXE
 40
1.25
  9
$DIMTP
 40
0.0
  9
$DIMTM
 40
0.0
  9
$DIMTXT
 40
40.0
  9
$DIMCEN
 40
0.09
  9
$DIMTSZ
 40
0.0
  9
$DIMTOL
 70
     0
  9
$DIMLIM
 70
     0
  9
$DIMTIH
 70
     0
  9
$DIMTOH
 70
     0
  9
$DIMSE1
 70
     0
  9
$DIMSE2
 70
     0
  9
$DIMTAD
 70
     1
  9
$DIMZIN
 70
     0
  9
$DIMBLK
  1
OPEN
  9
$DIMASO
 70
     1
  9
$DIMSHO
 70
     1
  9
$DIMPOST
  1

  9
$DIMAPOST
  1

  9
$DIMALT
 70
     0
  9
$DIMALTD
 70
     2
  9
$DIMALTF
 40
25.4
  9
$DIMLFAC
 40
1.0
  9
$DIMTOFL
 70
     1
  9
$DIMTVP
 40
0.0
  9
$DIMTIX
 70
     1
  9
$DIMSOXD
 70
     0
  9
$DIMSAH
 70
     0
  9
$DIMBLK1
  1

  9
$DIMBLK2
  1

  9
$DIMSTYLE
  2
ED40
  9
$DIMCLRD
 70
     0
  9
$DIMCLRE
 70
     0
  9
$DIMCLRT
 70
     0
  9
$DIMTFAC
 40
1.0
  9
$DIMGAP
 40
4.0
  9
$DIMJUST
 70
     0
  9
$DIMSD1
 70
     0
  9
$DIMSD2
 70
     0
  9
$DIMTOLJ
 70
     1
  9
$DIMTZIN
 70
     0
  9
$DIMALTZ
 70
     0
  9
$DIMALTTZ
 70
     0
  9
$DIMFIT
 70
     3
  9
$DIMUPT
 70
     1
  9
$DIMUNIT
 70
     2
  9
$DIMDEC
 70
     0
  9
$DIMTDEC
 70
     4
  9
$DIMALTU
 70
     2
  9
$DIMALTTD
 70
     2
  9
$DIMTXSTY
  7
ED40
  9
$DIMAUNIT
 70
     0
  9
$LUNITS
 70
     2
  9
$LUPREC
 70
     4
  9
$SKETCHINC
 40
0.1
  9
$FILLETRAD
 40
0.5
  9
$AUNITS
 70
     0
  9
$AUPREC
 70
     0
  9
$MENU
  1
.
  9
$ELEVATION
 40
0.0
  9
$PELEVATION
 40
0.0
  9
$THICKNESS
 40
0.0
  9
$LIMCHECK
 70
     0
  9
$BLIPMODE
 70
     0
  9
$CHAMFERA
 40
0.5
  9
$CHAMFERB
 40
0.5
  9
$CHAMFERC
 40
1.0
  9
$CHAMFERD
 40
0.0
  9
$SKPOLY
 70
     0
  9
$TDCREATE
 40
2455645.557679757
  9
$TDUPDATE
 40
2455645.557679769
  9
$TDINDWG
 40
0.0000000116
  9
$TDUSRTIMER
 40
0.0000000116
  9
$USRTIMER
 70
     1
  9
$ANGBASE
 50
0.0
  9
$ANGDIR
 70
     0
  9
$PDMODE
 70
     3
  9
$PDSIZE
 40
20.0
  9
$PLINEWID
 40
0.0
  9
$COORDS
 70
     1
  9
$SPLFRAME
 70
     0
  9
$SPLINETYPE
 70
     6
  9
$SPLINESEGS
 70
     8
  9
$ATTDIA
 70
     0
  9
$ATTREQ
 70
     1
  9
$HANDLING
 70
     1
  9
$HANDSEED
  5
1E55
  9
$SURFTAB1
 70
     6
  9
$SURFTAB2
 70
     6
  9
$SURFTYPE
 70
     6
  9
$SURFU
 70
     6
  9
$SURFV
 70
     6
  9
$UCSNAME
  2

  9
$UCSORG
 10
0.0
 20
0.0
 30
0.0
  9
$UCSXDIR
 10
1.0
 20
0.0
 30
0.0
  9
$UCSYDIR
 10
0.0
 20
1.0
 30
0.0
  9
$PUCSNAME
  2

  9
$PUCSORG
 10
0.0
 20
0.0
 30
0.0
  9
$PUCSXDIR
 10
1.0
 20
0.0
 30
0.0
  9
$PUCSYDIR
 10
0.0
 20
1.0
 30
0.0
  9
$USERI1
 70
     0
  9
$USERI2
 70
     0
  9
$USERI3
 70
     0
  9
$USERI4
 70
     0
  9
$USERI5
 70
     0
  9
$USERR1
 40
0.0
  9
$USERR2
 40
0.0
  9
$USERR3
 40
0.0
  9
$USERR4
 40
0.0
  9
$USERR5
 40
0.0
  9
$WORLDVIEW
 70
     1
  9
$SHADEDGE
 70
     3
  9
$SHADEDIF
 70
    70
  9
$TILEMODE
 70
     1
  9
$MAXACTVP
 70
    64
  9
$PINSBASE
 10
0.0
 20
0.0
 30
0.0
  9
$PLIMCHECK
 70
     0
  9
$PEXTMIN
 10
1.000000000000000E+20
 20
1.000000000000000E+20
 30
1.000000000000000E+20
  9
$PEXTMAX
 10
-1.000000000000000E+20
 20
-1.000000000000000E+20
 30
-1.000000000000000E+20
  9
$PLIMMIN
 10
0.0
 20
0.0
  9
$PLIMMAX
 10
0.0
 20
0.0
  9
$UNITMODE
 70
     0
  9
$VISRETAIN
 70
     1
  9
$PLINEGEN
 70
     0
  9
$PSLTSCALE
 70
     1
  9
$TREEDEPTH
 70
  3020
  9
$PICKSTYLE
 70
     1
  9
$CMLSTYLE
  2
STANDARD
  9
$CMLJUST
 70
     0
  9
$CMLSCALE
 40
1.0
  9
$PROXYGRAPHICS
 70
     1
  9
$MEASUREMENT
 70
     0
  0
ENDSEC
  0
SECTION
  2
CLASSES
  0
CLASS
  1
ACDBDICTIONARYWDFLT
  2
AcDbDictionaryWithDefault
  3
ObjectDBX Classes
 90
        0
280
     0
281
     0
  0
CLASS
  1
XRECORD
  2
AcDbXrecord
  3
AutoCAD 2000
 90
        0
280
     0
281
     0
  0
CLASS
  1
LWPOLYLINE
  2
AcDbPolyline
  3
AutoCAD 2000
 90
        0
280
     0
281
     1
  0
CLASS
  1
HATCH
  2
AcDbHatch
  3
AutoCAD 2000
 90
        0
280
     0
281
     1
  0
CLASS
  1
ACDBPLACEHOLDER
  2
AcDbPlaceHolder
  3
ObjectDBX Classes
 90
        0
280
     0
281
     0
  0
CLASS
  1
LAYOUT
  2
AcDbLayout
  3
ObjectDBX Classes
 90
        0
280
     0
281
     0
  0
ENDSEC
  0
SECTION
  2
TABLES
  0
TABLE
  2
VPORT
  5
1DA6
330
0
100
AcDbSymbolTable
 70
     2
  0
VPORT
  5
1DC7
102
{ACAD_XDICTIONARY
360
1E53
102
}
330
1DA6
100
AcDbSymbolTableRecord
100
AcDbViewportTableRecord
  2
*ACTIVE
 70
     0
 10
0.0
 20
0.0
 11
1.0
 21
1.0
 12
595.930056
 22
-525.009274
 13
0.0
 23
0.0
 14
10.0
 24
10.0
 15
10.0
 25
10.0
 16
0.0
 26
0.0
 36
1.0
 17
0.0
 27
0.0
 37
0.0
 40
1969.766684
 41
0.0090146497551651
 42
50.0
 43
0.0
 44
0.0
 50
0.0
 51
0.0000000000007958
 71
     0
 72
   100
 73
     1
 74
     3
 75
     0
 76
     0
 77
     0
 78
     0
  0
ENDTAB
  0
TABLE
  2
LTYPE
  5
1DA3
330
0
100
AcDbSymbolTable
 70
    25
  0
LTYPE
  5
1DB2
330
1DA3
100
AcDbSymbolTableRecord
100
AcDbLinetypeTableRecord
  2
BYBLOCK
 70
     0
  3

 72
    65
 73
     0
 40
0.0
  0
LTYPE
  5
1DB3
330
1DA3
100
AcDbSymbolTableRecord
100
AcDbLinetypeTableRecord
  2
BYLAYER
 70
     0
  3

 72
    65
 73
     0
 40
0.0
  0
LTYPE
  5
1DB4
330
1DA3
100
AcDbSymbolTableRecord
100
AcDbLinetypeTableRecord
  2
CONTINUOUS
 70
     0
  3
Solid line
 72
    65
 73
     0
 40
0.0
  0
LTYPE
  5
1DCF
330
1DA3
100
AcDbSymbolTableRecord
100
AcDbLinetypeTableRecord
  2
CENTER
 70
     0
  3
Center ____ _ ____ _ ____ _ ____ _ ____ _ ____
 72
    65
 73
     4
 40
2.0
 49
1.25
 74
     0
 49
-0.25
 74
     0
 49
0.25
 74
     0
 49
-0.25
 74
     0
  0
LTYPE
  5
1DD0
330
1DA3
100
AcDbSymbolTableRecord
100
AcDbLinetypeTableRecord
  2
DASHDOT
 70
     0
  3
Dashdot __ . __ . __ . __ . __ . __ . __ . __
 72
    65
 73
     4
 40
1.0
 49
0.5
 74
     0
 49
-0.25
 74
     0
 49
0.0
 74
     0
 49
-0.25
 74
     0
  0
LTYPE
  5
1DD1
330
1DA3
100
AcDbSymbolTableRecord
100
AcDbLinetypeTableRecord
  2
DASHED
 70
     0
  3
Dashed __ __ __ __ __ __ __ __ __ __ __ __ __ _
 72
    65
 73
     2
 40
0.75
 49
0.5
 74
     0
 49
-0.25
 74
     0
  0
LTYPE
  5
1DD2
330
1DA3
100
AcDbSymbolTableRecord
100
AcDbLinetypeTableRecord
  2
HIDDEN
 70
     0
  3
Hidden __ __ __ __ __ __ __ __ __ __ __ __ __ __
 72
    65
 73
     2
 40
0.375
 49
0.25
 74
     0
 49
-0.125
 74
     0
  0
LTYPE
  5
1DD3
330
1DA3
100
AcDbSymbolTableRecord
100
AcDbLinetypeTableRecord
  2
HIDDEN2
 70
     0
  3
Hidden2 _ _ _ _ _ _ _ _ _ _ _ _ _ _ _ _ _ 
 72
    65
 73
     2
 40
0.1875
 49
0.125
 74
     0
 49
-0.0625
 74
     0
  0
LTYPE
  5
1DD4
330
1DA3
100
AcDbSymbolTableRecord
100
AcDbLinetypeTableRecord
  2
BORDER
 70
     0
  3
Border __ __ . __ __ . __ __ . __ __ . __ __ .
 72
    65
 73
     6
 40
1.75
 49
0.5
 74
     0
 49
-0.25
 74
     0
 49
0.5
 74
     0
 49
-0.25
 74
     0
 49
0.0
 74
     0
 49
-0.25
 74
     0
  0
LTYPE
  5
1DD5
330
1DA3
100
AcDbSymbolTableRecord
100
AcDbLinetypeTableRecord
  2
BORDER2
 70
     0
  3
Border2 __.__.__.__.__.__.__.__.__.__.__.
 72
    65
 73
     6
 40
0.875
 49
0.25
 74
     0
 49
-0.125
 74
     0
 49
0.25
 74
     0
 49
-0.125
 74
     0
 49
0.0
 74
     0
 49
-0.125
 74
     0
  0
LTYPE
  5
1DD6
330
1DA3
100
AcDbSymbolTableRecord
100
AcDbLinetypeTableRecord
  2
BORDERX2
 70
     0
  3
Borderx2  ____  ____  .  ____  ____  .  ___
 72
    65
 73
     6
 40
3.5
 49
1.0
 74
     0
 49
-0.5
 74
     0
 49
1.0
 74
     0
 49
-0.5
 74
     0
 49
0.0
 74
     0
 49
-0.5
 74
     0
  0
LTYPE
  5
1DD7
330
1DA3
100
AcDbSymbolTableRecord
100
AcDbLinetypeTableRecord
  2
CENTER2
 70
     0
  3
Center2  ___ _ ___ _ ___ _ ___ _ ___ _ ___
 72
    65
 73
     4
 40
1.125
 49
0.75
 74
     0
 49
-0.125
 74
     0
 49
0.125
 74
     0
 49
-0.125
 74
     0
  0
LTYPE
  5
1DD8
330
1DA3
100
AcDbSymbolTableRecord
100
AcDbLinetypeTableRecord
  2
CENTERX2
 70
     0
  3
Centerx2  ________  __  ________  __  _____
 72
    65
 73
     4
 40
4.0
 49
2.5
 74
     0
 49
-0.5
 74
     0
 49
0.5
 74
     0
 49
-0.5
 74
     0
  0
LTYPE
  5
1DD9
330
1DA3
100
AcDbSymbolTableRecord
100
AcDbLinetypeTableRecord
  2
DASHDOT2
 70
     0
  3
Dashdot2  _._._._._._._._._._._._._._._.
 72
    65
 73
     4
 40
0.5
 49
0.25
 74
     0
 49
-0.125
 74
     0
 49
0.0
 74
     0
 49
-0.125
 74
     0
  0
LTYPE
  5
1DDA
330
1DA3
100
AcDbSymbolTableRecord
100
AcDbLinetypeTableRecord
  2
DASHDOTX2
 70
     0
  3
Dashdotx2 ____  .  ____  .  ____  .  ___
 72
    65
 73
     4
 40
2.0
 49
1.0
 74
     0
 49
-0.5
 74
     0
 49
0.0
 74
     0
 49
-0.5
 74
     0
  0
LTYPE
  5
1DDB
330
1DA3
100
AcDbSymbolTableRecord
100
AcDbLinetypeTableRecord
  2
DASHED2
 70
     0
  3
Dashed2 _ _ _ _ _ _ _ _ _ _ _ _ _ _ _ _ _ 
 72
    65
 73
     2
 40
0.375
 49
0.25
 74
     0
 49
-0.125
 74
     0
  0
LTYPE
  5
1DDC
330
1DA3
100
AcDbSymbolTableRecord
100
AcDbLinetypeTableRecord
  2
DASHEDX2
 70
     0
  3
Dashedx2 ____  ____  ____  ____  ____  ___
 72
    65
 73
     2
 40
1.5
 49
1.0
 74
     0
 49
-0.5
 74
     0
  0
LTYPE
  5
1DDD
330
1DA3
100
AcDbSymbolTableRecord
100
AcDbLinetypeTableRecord
  2
DIVIDE
 70
     0
  3
Divide ____ . . ____ . . ____ . . ____ . . ____
 72
    65
 73
     6
 40
1.25
 49
0.5
 74
     0
 49
-0.25
 74
     0
 49
0.0
 74
     0
 49
-0.25
 74
     0
 49
0.0
 74
     0
 49
-0.25
 74
     0
  0
LTYPE
  5
1DDE
330
1DA3
100
AcDbSymbolTableRecord
100
AcDbLinetypeTableRecord
  2
DIVIDE2
 70
     0
  3
Divide2 __..__..__..__..__..__..__..__.._
 72
    65
 73
     6
 40
0.625
 49
0.25
 74
     0
 49
-0.125
 74
     0
 49
0.0
 74
     0
 49
-0.125
 74
     0
 49
0.0
 74
     0
 49
-0.125
 74
     0
  0
LTYPE
  5
1DDF
330
1DA3
100
AcDbSymbolTableRecord
100
AcDbLinetypeTableRecord
  2
DIVIDEX2
 70
     0
  3
Dividex2 ________  .  .  ________  .  .  _
 72
    65
 73
     6
 40
2.5
 49
1.0
 74
     0
 49
-0.5
 74
     0
 49
0.0
 74
     0
 49
-0.5
 74
     0
 49
0.0
 74
     0
 49
-0.5
 74
     0
  0
LTYPE
  5
1DE0
330
1DA3
100
AcDbSymbolTableRecord
100
AcDbLinetypeTableRecord
  2
DOT
 70
     0
  3
Dot . . . . . . . . . . . . . . . . . . . . . . . .
 72
    65
 73
     2
 40
0.25
 49
0.0
 74
     0
 49
-0.25
 74
     0
  0
LTYPE
  5
1DE1
330
1DA3
100
AcDbSymbolTableRecord
100
AcDbLinetypeTableRecord
  2
DOT2
 70
     0
  3
Dot2 ........................................
 72
    65
 73
     2
 40
0.125
 49
0.0
 74
     0
 49
-0.125
 74
     0
  0
LTYPE
  5
1DE2
330
1DA3
100
AcDbSymbolTableRecord
100
AcDbLinetypeTableRecord
  2
DOTX2
 70
     0
  3
Dotx2 .  .  .  .  .  .  .  .  .  .  .  .  .  .
 72
    65
 73
     2
 40
0.5
 49
0.0
 74
     0
 49
-0.5
 74
     0
  0
LTYPE
  5
1DE3
330
1DA3
100
AcDbSymbolTableRecord
100
AcDbLinetypeTableRecord
  2
HIDDENX2
 70
     0
  3
Hiddenx2 ____ ____ ____ ____ ____ ____ ____ 
 72
    65
 73
     2
 40
0.75
 49
0.5
 74
     0
 49
-0.25
 74
     0
  0
LTYPE
  5
1DE4
330
1DA3
100
AcDbSymbolTableRecord
100
AcDbLinetypeTableRecord
  2
PHANTOM
 70
     0
  3
Phantom ______  __  __  ______  __  __  ______ 
 72
    65
 73
     6
 40
2.5
 49
1.25
 74
     0
 49
-0.25
 74
     0
 49
0.25
 74
     0
 49
-0.25
 74
     0
 49
0.25
 74
     0
 49
-0.25
 74
     0
  0
LTYPE
  5
1DE5
330
1DA3
100
AcDbSymbolTableRecord
100
AcDbLinetypeTableRecord
  2
PHANTOM2
 70
     0
  3
Phantom2 ___ _ _ ___ _ _ ___ _ _ ___ _ _
 72
    65
 73
     6
 40
1.25
 49
0.625
 74
     0
 49
-0.125
 74
     0
 49
0.125
 74
     0
 49
-0.125
 74
     0
 49
0.125
 74
     0
 49
-0.125
 74
     0
  0
LTYPE
  5
1DE6
330
1DA3
100
AcDbSymbolTableRecord
100
AcDbLinetypeTableRecord
  2
PHANTOMX2
 70
     0
  3
Phantomx2 ____________    ____    ____   _
 72
    65
 73
     6
 40
5.0
 49
2.5
 74
     0
 49
-0.5
 74
     0
 49
0.5
 74
     0
 49
-0.5
 74
     0
 49
0.5
 74
     0
 49
-0.5
 74
     0
  0
ENDTAB
  0
TABLE
  2
LAYER
  5
1DA0
330
0
100
AcDbSymbolTable
 70
     6
  0
LAYER
  5
1DAE
330
1DA0
100
AcDbSymbolTableRecord
100
AcDbLayerTableRecord
  2
0
 70
     0
 62
     7
  6
CONTINUOUS
  0
LAYER
  5
9E
330
1DA0
100
AcDbSymbolTableRecord
100
AcDbLayerTableRecord
  2
DEFPOINTS
 70
     0
 62
     7
  6
CONTINUOUS
  0
LAYER
  5
377
330
1DA0
100
AcDbSymbolTableRecord
100
AcDbLayerTableRecord
  2
V0-OBRYS
 70
     0
 62
    90
  6
CONTINUOUS
  0
LAYER
  5
378
330
1DA0
100
AcDbSymbolTableRecord
100
AcDbLayerTableRecord
  2
V0-VYPLNE
 70
     0
 62
    63
  6
DASHDOT
  0
LAYER
  5
37A
330
1DA0
100
AcDbSymbolTableRecord
100
AcDbLayerTableRecord
  2
V0-NAZVY
 70
     0
 62
   210
  6
CONTINUOUS
  0
LAYER
  5
559
330
1DA0
100
AcDbSymbolTableRecord
100
AcDbLayerTableRecord
  2
V0-ZBYTEK
 70
     0
 62
    51
  6
CONTINUOUS
  0
ENDTAB
  0
TABLE
  2
STYLE
  5
1DA1
330
0
100
AcDbSymbolTable
 70
     5
  0
STYLE
  5
1DAF
330
1DA1
100
AcDbSymbolTableRecord
100
AcDbTextStyleTableRecord
  2
STANDARD
 70
     0
 40
0.0
 41
1.0
 50
0.0
 71
     0
 42
0.2
  3
ISOCP.shx
  4

1001
ACAD
1000
ISOCP.shx
1071
        0
  0
STYLE
  5
331
330
1DA1
100
AcDbSymbolTableRecord
100
AcDbTextStyleTableRecord
  2
ED20
 70
     0
 40
25.0
 41
1.0
 50
0.0
 71
     0
 42
0.2
  3
ISOCP.shx
  4

1001
ACAD
1000
ISOCP.shx
1071
        0
  0
STYLE
  5
648
330
1DA1
100
AcDbSymbolTableRecord
100
AcDbTextStyleTableRecord
  2
ED10
 70
     0
 40
10.0
 41
1.0
 50
0.0
 71
     0
 42
0.2
  3
ISOCP.shx
  4

1001
ACAD
1000
ISOCP.shx
1071
        0
  0
STYLE
  5
F38
330
1DA1
100
AcDbSymbolTableRecord
100
AcDbTextStyleTableRecord
  2
ED30
 70
     0
 40
30.0
 41
1.0
 50
0.0
 71
     0
 42
0.2
  3
ISOCP.shx
  4

1001
ACAD
1000
ISOCP.shx
1071
        0
  0
STYLE
  5
F39
330
1DA1
100
AcDbSymbolTableRecord
100
AcDbTextStyleTableRecord
  2
ED40
 70
     0
 40
40.0
 41
1.0
 50
0.0
 71
     0
 42
0.2
  3
ISOCP.shx
  4

1001
ACAD
1000
ISOCP.shx
1071
        0
  0
ENDTAB
  0
TABLE
  2
VIEW
  5
1DA4
330
0
100
AcDbSymbolTable
 70
     0
  0
ENDTAB
  0
TABLE
  2
UCS
  5
1DA5
330
0
100
AcDbSymbolTable
 70
     0
  0
ENDTAB
  0
TABLE
  2
APPID
  5
1DA7
330
0
100
AcDbSymbolTable
 70
     6
  0
APPID
  5
1DB0
330
1DA7
100
AcDbSymbolTableRecord
100
AcDbRegAppTableRecord
  2
ACAD
 70
     0
  0
APPID
  5
1DC8
330
1DA7
100
AcDbSymbolTableRecord
100
AcDbRegAppTableRecord
  2
VD_INVISIBLE_NOT_FOR_READ
 70
     0
  0
APPID
  5
1DC9
330
1DA7
100
AcDbSymbolTableRecord
100
AcDbRegAppTableRecord
  2
VD_TEMPHATCH
 70
     0
  0
APPID
  5
1DCA
330
1DA7
100
AcDbSymbolTableRecord
100
AcDbRegAppTableRecord
  2
VDEXTRAPARAM
 70
     0
  0
APPID
  5
1DCB
330
1DA7
100
AcDbSymbolTableRecord
100
AcDbRegAppTableRecord
  2
PE_URL
 70
     0
  0
APPID
  5
1DCC
330
1DA7
100
AcDbSymbolTableRecord
100
AcDbRegAppTableRecord
  2
VD_UNKNOWN
 70
     0
  0
ENDTAB
  0
TABLE
  2
DIMSTYLE
  5
1DA8
330
0
100
AcDbSymbolTable
 70
     5
  0
DIMSTYLE
105
1DC5
330
1DA8
100
AcDbSymbolTableRecord
100
AcDbDimStyleTableRecord
  2
STANDARD
 70
     0
  3

  4

  5
OPEN
  6

  7

 40
1.0
 41
15.0
 42
0.625
 43
0.38
 44
1.25
 45
0.0
 46
0.0
 47
0.0
 48
0.0
140
15.0
141
0.09
142
0.0
143
25.4
144
1.0
145
0.0
146
1.0
147
3.0
 71
     0
 72
     0
 73
     0
 74
     0
 75
     0
 76
     0
 77
     1
 78
     0
170
     0
171
     2
172
     1
173
     0
174
     1
175
     0
176
     0
177
     0
178
     0
270
     2
271
     0
272
     4
273
     2
274
     2
340
331
275
     0
280
     0
281
     0
282
     0
283
     1
284
     0
285
     0
286
     0
287
     3
288
     1
  0
DIMSTYLE
105
397
102
{ACAD_REACTORS
330
1469
330
1483
330
1490
330
14E2
330
1BAE
102
}
330
1DA8
100
AcDbSymbolTableRecord
100
AcDbDimStyleTableRecord
  2
ED40
 70
     0
  3

  4

  5
OPEN
  6

  7

 40
1.0
 41
35.0
 42
1.0
 43
0.38
 44
1.25
 45
0.0
 46
0.0
 47
0.0
 48
0.0
140
40.0
141
0.09
142
0.0
143
25.4
144
1.0
145
0.0
146
1.0
147
4.0
 71
     0
 72
     0
 73
     0
 74
     0
 75
     0
 76
     0
 77
     1
 78
     0
170
     0
171
     2
172
     1
173
     0
174
     1
175
     0
176
     0
177
     0
178
     0
270
     2
271
     0
272
     4
273
     2
274
     2
340
F39
275
     0
280
     0
281
     0
282
     0
283
     1
284
     0
285
     0
286
     0
287
     3
288
     1
  0
DIMSTYLE
105
FEA
330
1DA8
100
AcDbSymbolTableRecord
100
AcDbDimStyleTableRecord
  2
ED30
 70
     0
  3

  4

  5
OPEN
  6

  7

 40
1.0
 41
25.0
 42
1.0
 43
0.38
 44
1.25
 45
0.0
 46
0.0
 47
0.0
 48
0.0
140
30.0
141
0.09
142
0.0
143
25.4
144
1.0
145
0.0
146
1.0
147
4.0
 71
     0
 72
     0
 73
     0
 74
     0
 75
     0
 76
     0
 77
     1
 78
     0
170
     0
171
     2
172
     1
173
     0
174
     1
175
     0
176
     0
177
     0
178
     0
270
     2
271
     0
272
     4
273
     2
274
     2
340
F38
275
     0
280
     0
281
     0
282
     0
283
     1
284
     0
285
     0
286
     0
287
     3
288
     1
  0
DIMSTYLE
105
1457
330
1DA8
100
AcDbSymbolTableRecord
100
AcDbDimStyleTableRecord
  2
ED20
 70
     0
  3

  4

  5
OPEN
  6

  7

 40
1.0
 41
20.0
 42
1.0
 43
0.38
 44
1.25
 45
0.0
 46
0.0
 47
0.0
 48
0.0
140
20.0
141
0.09
142
0.0
143
25.4
144
1.0
145
0.0
146
1.0
147
1.5
 71
     0
 72
     0
 73
     0
 74
     0
 75
     0
 76
     0
 77
     1
 78
     0
170
     0
171
     2
172
     1
173
     0
174
     1
175
     0
176
     0
177
     0
178
     0
270
     2
271
     0
272
     4
273
     2
274
     2
340
331
275
     0
280
     0
281
     0
282
     0
283
     1
284
     0
285
     0
286
     0
287
     3
288
     1
  0
DIMSTYLE
105
1458
330
1DA8
100
AcDbSymbolTableRecord
100
AcDbDimStyleTableRecord
  2
ED10
 70
     0
  3

  4

  5
OPEN
  6

  7

 40
1.0
 41
15.0
 42
1.0
 43
0.38
 44
1.25
 45
0.0
 46
0.0
 47
0.0
 48
0.0
140
10.0
141
0.09
142
0.0
143
25.4
144
1.0
145
0.0
146
1.0
147
1.5
 71
     0
 72
     0
 73
     0
 74
     0
 75
     0
 76
     0
 77
     1
 78
     0
170
     0
171
     2
172
     1
173
     0
174
     1
175
     0
176
     0
177
     0
178
     0
270
     2
271
     0
272
     4
273
     2
274
     2
340
331
275
     0
280
     0
281
     0
282
     0
283
     1
284
     0
285
     0
286
     0
287
     3
288
     1
  0
ENDTAB
  0
TABLE
  2
BLOCK_RECORD
  5
1D9F
330
0
100
AcDbSymbolTable
 70
    10
  0
BLOCK_RECORD
  5
1DBD
330
1D9F
100
AcDbSymbolTableRecord
100
AcDbBlockTableRecord
  2
*MODEL_SPACE
  0
BLOCK_RECORD
  5
1DB9
330
1D9F
100
AcDbSymbolTableRecord
100
AcDbBlockTableRecord
  2
*PAPER_SPACE
  0
BLOCK_RECORD
  5
90
330
1D9F
100
AcDbSymbolTableRecord
100
AcDbBlockTableRecord
  2
_OPEN
  0
BLOCK_RECORD
  5
1459
330
1D9F
100
AcDbSymbolTableRecord
100
AcDbBlockTableRecord
  2
A10_100
  0
BLOCK_RECORD
  5
1D9B
330
1D9F
100
AcDbSymbolTableRecord
100
AcDbBlockTableRecord
  2
VDDIM_DEFAULT
  0
BLOCK_RECORD
  5
1D9D
330
1D9F
100
AcDbSymbolTableRecord
100
AcDbBlockTableRecord
  2
VDDIM_NONE
  0
BLOCK_RECORD
  5
1DF0
330
1D9F
100
AcDbSymbolTableRecord
100
AcDbBlockTableRecord
  2
*D5
  0
BLOCK_RECORD
  5
1DFD
330
1D9F
100
AcDbSymbolTableRecord
100
AcDbBlockTableRecord
  2
*D6
  0
BLOCK_RECORD
  5
1E0A
330
1D9F
100
AcDbSymbolTableRecord
100
AcDbBlockTableRecord
  2
*D7
  0
BLOCK_RECORD
  5
1E17
330
1D9F
100
AcDbSymbolTableRecord
100
AcDbBlockTableRecord
  2
*D8
  0
BLOCK_RECORD
  5
1E24
330
1D9F
100
AcDbSymbolTableRecord
100
AcDbBlockTableRecord
  2
*D9
  0
ENDTAB
  0
ENDSEC
  0
SECTION
  2
BLOCKS
  0
BLOCK
  5
1DBE
330
1DBD
100
AcDbEntity
  8
0
100
AcDbBlockBegin
  2
*MODEL_SPACE
 70
     0
 71
     0
 10
0.0
 20
0.0
 30
0.0
  3
*MODEL_SPACE
  1

  0
ENDBLK
  5
1DBF
330
1DBD
100
AcDbEntity
  8
0
100
AcDbBlockEnd
  0
BLOCK
  5
1DBA
330
1DB9
100
AcDbEntity
 67
     1
  8
0
100
AcDbBlockBegin
  2
*PAPER_SPACE
 70
     0
 71
     0
 10
0.0
 20
0.0
 30
0.0
  3
*PAPER_SPACE
  1

  0
ENDBLK
  5
1DBB
330
1DB9
100
AcDbEntity
 67
     1
  8
0
100
AcDbBlockEnd
  0
BLOCK
  5
1DE7
330
90
100
AcDbEntity
  8
0
100
AcDbBlockBegin
  2
_OPEN
 70
     0
 71
     0
 10
0.0
 20
0.0
 30
0.0
  3
_OPEN
  1

  0
LINE
  5
92
330
90
100
AcDbEntity
  8
0
  6
BYBLOCK
 62
     0
100
AcDbLine
 10
-1.0
 20
0.166667
 30
0.0
 11
0.0
 21
0.0
 31
0.0
  0
LINE
  5
93
330
90
100
AcDbEntity
  8
0
  6
BYBLOCK
 62
     0
100
AcDbLine
 10
0.0
 20
0.0
 30
0.0
 11
-1.0
 21
-0.166667
 31
0.0
  0
LINE
  5
94
330
90
100
AcDbEntity
  8
0
  6
BYBLOCK
 62
     0
100
AcDbLine
 10
0.0
 20
0.0
 30
0.0
 11
-1.0
 21
0.0
 31
0.0
  0
ENDBLK
  5
1DE8
330
90
100
AcDbEntity
  8
0
100
AcDbBlockEnd
  0
BLOCK
  5
1DE9
330
1459
100
AcDbEntity
  8
0
100
AcDbBlockBegin
  2
A10_100
 70
     0
 71
     0
 10
0.0
 20
0.0
 30
0.0
  3
A10_100
  1

  0
ENDBLK
  5
1DEA
330
1459
100
AcDbEntity
  8
0
100
AcDbBlockEnd
  0
BLOCK
  5
1DEB
330
1D9B
100
AcDbEntity
  8
0
100
AcDbBlockBegin
  2
VDDIM_DEFAULT
 70
     0
 71
     0
 10
0.0
 20
0.0
 30
0.0
  3
VDDIM_DEFAULT
  1

  0
LWPOLYLINE
  5
1D9C
330
1D9B
100
AcDbEntity
  8
0
  6
CONTINUOUS
 62
     0
100
AcDbPolyline
 90
        4
 70
     0
 43
0.0
 10
0.0
 20
0.0
 10
-1.0
 20
-0.1665
 10
-1.0
 20
0.1665
 10
0.0
 20
0.0
1001
VDEXTRAPARAM
1071
        1
1071
        0
1071
        0
1040
1.0
1000

1000

1040
0.0
1040
0.0
  0
HATCH
  5
1DEF
330
1D9B
100
AcDbEntity
  8
0
  6
CONTINUOUS
 62
     0
100
AcDbHatch
 10
0.0
 20
0.0
 30
0.0
210
0.0
220
0.0
230
1.0
  2
SOLID
 70
     1
 71
     0
 91
        1
 92
        2
 72
     0
 73
     1
 93
        3
 10
0.0
 20
0.0
 10
-1.0
 20
-0.1665
 10
-1.0
 20
0.1665
 97
        0
 75
     0
 76
     1
 98
        1
 10
0.0
 20
0.0
1001
VDEXTRAPARAM
1071
        1
1071
        0
1071
        0
1040
1.0
1000

1000

1040
0.0
1040
0.0
1001
VD_TEMPHATCH
1000
VD_TEMPHATCH
  0
ENDBLK
  5
1DEC
330
1D9B
100
AcDbEntity
  8
0
100
AcDbBlockEnd
  0
BLOCK
  5
1DED
330
1D9D
100
AcDbEntity
  8
0
100
AcDbBlockBegin
  2
VDDIM_NONE
 70
     0
 71
     0
 10
0.0
 20
0.0
 30
0.0
  3
VDDIM_NONE
  1

  0
ENDBLK
  5
1DEE
330
1D9D
100
AcDbEntity
  8
0
100
AcDbBlockEnd
  0
BLOCK
  5
1DFB
330
1DF0
100
AcDbEntity
  8
0
100
AcDbBlockBegin
  2
*D5
 70
     1
 71
     0
 10
0.0
 20
0.0
 30
0.0
  3
*D5
  1

  0
LINE
  5
1DF1
330
1DF0
100
AcDbEntity
  8
V0-VYPLNE
 62
     0
100
AcDbLine
 10
6.141238999999999
 20
-277.166006
 30
0.0
 11
6.141238999999927
 21
-364.4386980000127
 31
0.0
  0
LINE
  5
1DF2
330
1DF0
100
AcDbEntity
  8
V0-VYPLNE
 62
     0
100
AcDbLine
 10
406.141239
 20
-277.166006
 30
0.0
 11
406.141239
 21
-364.4386980000127
 31
0.0
  0
LINE
  5
1DF3
330
1DF0
100
AcDbEntity
  8
V0-VYPLNE
 62
     0
100
AcDbLine
 10
41.14123899999993
 20
-363.1886980000127
 30
0.0
 11
116.2530324761905
 21
-363.1886980000127
 31
0.0
  0
LINE
  5
1DF4
330
1DF0
100
AcDbEntity
  8
V0-VYPLNE
 62
     0
100
AcDbLine
 10
371.141239
 20
-363.1886980000127
 30
0.0
 11
263.3006515238095
 21
-363.1886980000127
 31
0.0
  0
INSERT
  5
1DF5
330
1DF0
100
AcDbEntity
  8
V0-VYPLNE
 62
     0
100
AcDbBlockReference
  2
_OPEN
 10
6.141238999999928
 20
-363.1886980000127
 30
0.0
 41
35.0
 42
35.0
 43
35.0
 50
180.0
  0
INSERT
  5
1DF6
330
1DF0
100
AcDbEntity
  8
V0-VYPLNE
 62
     0
100
AcDbBlockReference
  2
_OPEN
 10
406.141239
 20
-363.1886980000127
 30
0.0
 41
35.0
 42
35.0
 43
35.0
  0
MTEXT
  5
1DF7
330
1DF0
100
AcDbEntity
  8
V0-VYPLNE
 62
     0
100
AcDbMText
 10
189.776842
 20
-363.188698
 30
0.0
 40
40.0
 41
0.0
 71
     5
 72
     1
  1
%%c\A1;400
  7
ED40
  0
POINT
  5
1DF8
330
1DF0
100
AcDbEntity
  8
DEFPOINTS
 62
     0
100
AcDbPoint
 10
6.141239
 20
-276.166006
 30
0.0
  0
POINT
  5
1DF9
330
1DF0
100
AcDbEntity
  8
DEFPOINTS
 62
     0
100
AcDbPoint
 10
406.141239
 20
-276.166006
 30
0.0
  0
POINT
  5
1DFA
330
1DF0
100
AcDbEntity
  8
DEFPOINTS
 62
     0
100
AcDbPoint
 10
406.141239
 20
-363.1886980000127
 30
0.0
  0
ENDBLK
  5
1DFC
330
1DF0
100
AcDbEntity
  8
0
100
AcDbBlockEnd
  0
BLOCK
  5
1E08
330
1DFD
100
AcDbEntity
  8
0
100
AcDbBlockBegin
  2
*D6
 70
     1
 71
     0
 10
0.0
 20
0.0
 30
0.0
  3
*D6
  1

  0
LINE
  5
1DFE
330
1DFD
100
AcDbEntity
  8
V0-VYPLNE
 62
     0
100
AcDbLine
 10
-108.858761
 20
-277.166006
 30
0.0
 11
-108.858761
 21
-491.3193230000033
 31
0.0
  0
LINE
  5
1DFF
330
1DFD
100
AcDbEntity
  8
V0-VYPLNE
 62
     0
100
AcDbLine
 10
521.141239
 20
-277.166006
 30
0.0
 11
521.141239
 21
-491.3193230000034
 31
0.0
  0
LINE
  5
1E00
330
1DFD
100
AcDbEntity
  8
V0-VYPLNE
 62
     0
100
AcDbLine
 10
-73.85876099999996
 20
-490.0693230000033
 30
0.0
 11
144.8254715238095
 21
-490.0693230000033
 31
0.0
  0
LINE
  5
1E01
330
1DFD
100
AcDbEntity
  8
V0-VYPLNE
 62
     0
100
AcDbLine
 10
486.141239
 20
-490.0693230000034
 30
0.0
 11
253.7778524761905
 21
-490.0693230000033
 31
0.0
  0
INSERT
  5
1E02
330
1DFD
100
AcDbEntity
  8
V0-VYPLNE
 62
     0
100
AcDbBlockReference
  2
_OPEN
 10
-108.858761
 20
-490.0693230000033
 30
0.0
 41
35.0
 42
35.0
 43
35.0
 50
180.0
  0
INSERT
  5
1E03
330
1DFD
100
AcDbEntity
  8
V0-VYPLNE
 62
     0
100
AcDbBlockReference
  2
_OPEN
 10
521.141239
 20
-490.0693230000034
 30
0.0
 41
35.0
 42
35.0
 43
35.0
  0
MTEXT
  5
1E04
330
1DFD
100
AcDbEntity
  8
V0-VYPLNE
 62
     0
100
AcDbMText
 10
199.301662
 20
-490.069323
 30
0.0
 40
40.0
 41
0.0
 71
     5
 72
     1
  1
\A1;630
  7
ED40
  0
POINT
  5
1E05
330
1DFD
100
AcDbEntity
  8
DEFPOINTS
 62
     0
100
AcDbPoint
 10
-108.858761
 20
-276.166006
 30
0.0
  0
POINT
  5
1E06
330
1DFD
100
AcDbEntity
  8
DEFPOINTS
 62
     0
100
AcDbPoint
 10
521.141239
 20
-276.166006
 30
0.0
  0
POINT
  5
1E07
330
1DFD
100
AcDbEntity
  8
DEFPOINTS
 62
     0
100
AcDbPoint
 10
521.141239
 20
-490.0693230000034
 30
0.0
  0
ENDBLK
  5
1E09
330
1DFD
100
AcDbEntity
  8
0
100
AcDbBlockEnd
  0
BLOCK
  5
1E15
330
1E0A
100
AcDbEntity
  8
0
100
AcDbBlockBegin
  2
*D7
 70
     1
 71
     0
 10
0.0
 20
0.0
 30
0.0
  3
*D7
  1

  0
LINE
  5
1E0B
330
1E0A
100
AcDbEntity
  8
V0-VYPLNE
 62
     0
100
AcDbLine
 10
522.141239
 20
-276.166006
 30
0.0
 11
683.2434910000206
 21
-276.166006
 31
0.0
  0
LINE
  5
1E0C
330
1E0A
100
AcDbEntity
  8
V0-VYPLNE
 62
     0
100
AcDbLine
 10
207.141239
 20
255.833994
 30
0.0
 11
683.2434910000208
 21
255.833994
 31
0.0
  0
LINE
  5
1E0D
330
1E0A
100
AcDbEntity
  8
V0-VYPLNE
 62
     0
100
AcDbLine
 10
681.9934910000206
 20
-241.1660060000001
 30
0.0
 11
681.9934910000206
 21
-85.09875742857145
 31
0.0
  0
LINE
  5
1E0E
330
1E0A
100
AcDbEntity
  8
V0-VYPLNE
 62
     0
100
AcDbLine
 10
681.9934910000206
 20
220.833994
 30
0.0
 11
681.9934910000206
 21
25.75838542857144
 31
0.0
  0
INSERT
  5
1E0F
330
1E0A
100
AcDbEntity
  8
V0-VYPLNE
 62
     0
100
AcDbBlockReference
  2
_OPEN
 10
681.9934910000206
 20
-276.1660060000001
 30
0.0
 41
35.0
 42
35.0
 43
35.0
 50
270.0
  0
INSERT
  5
1E10
330
1E0A
100
AcDbEntity
  8
V0-VYPLNE
 62
     0
100
AcDbBlockReference
  2
_OPEN
 10
681.9934910000206
 20
255.833994
 30
0.0
 41
35.0
 42
35.0
 43
35.0
 50
90.0
  0
MTEXT
  5
1E11
330
1E0A
100
AcDbEntity
  8
V0-VYPLNE
 62
     0
100
AcDbMText
 10
681.993491
 20
-29.670186
 30
0.0
 40
40.0
 41
0.0
 71
     5
 72
     1
  1
\A1;532
  7
ED40
 11
2.136970633864963E-16
 21
1.0
 31
0.0
  0
POINT
  5
1E12
330
1E0A
100
AcDbEntity
  8
DEFPOINTS
 62
     0
100
AcDbPoint
 10
521.141239
 20
-276.166006
 30
0.0
  0
POINT
  5
1E13
330
1E0A
100
AcDbEntity
  8
DEFPOINTS
 62
     0
100
AcDbPoint
 10
206.141239
 20
255.833994
 30
0.0
  0
POINT
  5
1E14
330
1E0A
100
AcDbEntity
  8
DEFPOINTS
 62
     0
100
AcDbPoint
 10
681.9934910000208
 20
255.833994
 30
0.0
  0
ENDBLK
  5
1E16
330
1E0A
100
AcDbEntity
  8
0
100
AcDbBlockEnd
  0
BLOCK
  5
1E22
330
1E17
100
AcDbEntity
  8
0
100
AcDbBlockBegin
  2
*D8
 70
     1
 71
     0
 10
0.0
 20
0.0
 30
0.0
  3
*D8
  1

  0
LINE
  5
1E18
330
1E17
100
AcDbEntity
  8
V0-VYPLNE
 62
     0
100
AcDbLine
 10
-218.858761
 20
38.545559
 30
0.0
 11
-218.8587610000001
 21
301.2266999999994
 31
0.0
  0
LINE
  5
1E19
330
1E17
100
AcDbEntity
  8
V0-VYPLNE
 62
     0
100
AcDbLine
 10
631.141239
 20
38.545559
 30
0.0
 11
631.141239
 21
301.2266999999993
 31
0.0
  0
LINE
  5
1E1A
330
1E17
100
AcDbEntity
  8
V0-VYPLNE
 62
     0
100
AcDbLine
 10
-183.8587610000001
 20
299.9766999999993
 30
0.0
 11
128.7363194761905
 21
299.9766999999993
 31
0.0
  0
LINE
  5
1E1B
330
1E17
100
AcDbEntity
  8
V0-VYPLNE
 62
     0
100
AcDbLine
 10
596.141239
 20
299.9766999999993
 30
0.0
 11
275.7839385238095
 21
299.9766999999993
 31
0.0
  0
INSERT
  5
1E1C
330
1E17
100
AcDbEntity
  8
V0-VYPLNE
 62
     0
100
AcDbBlockReference
  2
_OPEN
 10
-218.8587610000001
 20
299.9766999999993
 30
0.0
 41
35.0
 42
35.0
 43
35.0
 50
180.0
  0
INSERT
  5
1E1D
330
1E17
100
AcDbEntity
  8
V0-VYPLNE
 62
     0
100
AcDbBlockReference
  2
_OPEN
 10
631.141239
 20
299.9766999999993
 30
0.0
 41
35.0
 42
35.0
 43
35.0
  0
MTEXT
  5
1E1E
330
1E17
100
AcDbEntity
  8
V0-VYPLNE
 62
     0
100
AcDbMText
 10
202.260129
 20
299.9767
 30
0.0
 40
40.0
 41
0.0
 71
     5
 72
     1
  1
%%c\A1;850
  7
ED40
  0
POINT
  5
1E1F
330
1E17
100
AcDbEntity
  8
DEFPOINTS
 62
     0
100
AcDbPoint
 10
-218.858761
 20
37.545559
 30
0.0
  0
POINT
  5
1E20
330
1E17
100
AcDbEntity
  8
DEFPOINTS
 62
     0
100
AcDbPoint
 10
631.141239
 20
37.545559
 30
0.0
  0
POINT
  5
1E21
330
1E17
100
AcDbEntity
  8
DEFPOINTS
 62
     0
100
AcDbPoint
 10
631.141239
 20
299.9766999999993
 30
0.0
  0
ENDBLK
  5
1E23
330
1E17
100
AcDbEntity
  8
0
100
AcDbBlockEnd
  0
BLOCK
  5
1E2F
330
1E24
100
AcDbEntity
  8
0
100
AcDbBlockBegin
  2
*D9
 70
     1
 71
     0
 10
0.0
 20
0.0
 30
0.0
  3
*D9
  1

  0
LINE
  5
1E25
330
1E24
100
AcDbEntity
  8
V0-VYPLNE
 62
     0
100
AcDbLine
 10
-61.358761
 20
-287.166006
 30
0.0
 11
-61.35876100000002
 21
-431.0510270000087
 31
0.0
  0
LINE
  5
1E26
330
1E24
100
AcDbEntity
  8
V0-VYPLNE
 62
     0
100
AcDbLine
 10
473.641239
 20
-277.166006
 30
0.0
 11
473.641239
 21
-431.0510270000087
 31
0.0
  0
LINE
  5
1E27
330
1E24
100
AcDbEntity
  8
V0-VYPLNE
 62
     0
100
AcDbLine
 10
-26.35876100000002
 20
-429.8010270000087
 30
0.0
 11
137.5232105714286
 21
-429.8010270000087
 31
0.0
  0
LINE
  5
1E28
330
1E24
100
AcDbEntity
  8
V0-VYPLNE
 62
     0
100
AcDbLine
 10
438.641239
 20
-429.8010270000087
 30
0.0
 11
248.3803534285714
 21
-429.8010270000087
 31
0.0
  0
INSERT
  5
1E29
330
1E24
100
AcDbEntity
  8
V0-VYPLNE
 62
     0
100
AcDbBlockReference
  2
_OPEN
 10
-61.35876100000002
 20
-429.8010270000087
 30
0.0
 41
35.0
 42
35.0
 43
35.0
 50
180.0
  0
INSERT
  5
1E2A
330
1E24
100
AcDbEntity
  8
V0-VYPLNE
 62
     0
100
AcDbBlockReference
  2
_OPEN
 10
473.641239
 20
-429.8010270000087
 30
0.0
 41
35.0
 42
35.0
 43
35.0
  0
MTEXT
  5
1E2B
330
1E24
100
AcDbEntity
  8
V0-VYPLNE
 62
     0
100
AcDbMText
 10
192.951782
 20
-429.801027
 30
0.0
 40
40.0
 41
0.0
 71
     5
 72
     1
  1
\A1;535
  7
ED40
  0
POINT
  5
1E2C
330
1E24
100
AcDbEntity
  8
DEFPOINTS
 62
     0
100
AcDbPoint
 10
-61.358761
 20
-286.166006
 30
0.0
  0
POINT
  5
1E2D
330
1E24
100
AcDbEntity
  8
DEFPOINTS
 62
     0
100
AcDbPoint
 10
473.641239
 20
-276.166006
 30
0.0
  0
POINT
  5
1E2E
330
1E24
100
AcDbEntity
  8
DEFPOINTS
 62
     0
100
AcDbPoint
 10
473.641239
 20
-429.8010270000087
 30
0.0
  0
ENDBLK
  5
1E30
330
1E24
100
AcDbEntity
  8
0
100
AcDbBlockEnd
  0
ENDSEC
  0
SECTION
  2
ENTITIES
  0
LINE
  5
1127
330
1DBD
100
AcDbEntity
  8
V0-VYPLNE
  6
DASHDOT
 62
    63
100
AcDbLine
 10
206.141239
 20
-677.130466
 30
0.0
 11
206.141239
 21
-1414.050119
 31
0.0
  0
CIRCLE
  5
11B0
330
1DBD
100
AcDbEntity
  8
V0-VYPLNE
  6
DASHED
 62
    56
100
AcDbCircle
 10
474.171971
 20
-771.04151
 30
0.0
 40
7.658021
  0
LINE
  5
11B1
330
1DBD
100
AcDbEntity
  8
V0-VYPLNE
 62
    63
100
AcDbLine
 10
474.171971
 20
-803.861599
 30
0.0
 11
474.171971
 21
-738.22142
 31
0.0
  0
LINE
  5
11BB
330
1DBD
100
AcDbEntity
  8
V0-VYPLNE
100
AcDbLine
 10
206.141239
 20
297.937864
 30
0.0
 11
206.141239
 21
-230.215523
 31
0.0
  0
LINE
  5
11BE
330
1DBD
100
AcDbEntity
  8
V0-VYPLNE
100
AcDbLine
 10
-61.358761
 20
-286.166006
 30
0.0
 11
-61.358761
 21
-236.166006
 31
0.0
  0
LINE
  5
11BF
330
1DBD
100
AcDbEntity
  8
V0-VYPLNE
100
AcDbLine
 10
473.641239
 20
-286.166006
 30
0.0
 11
473.641239
 21
-236.166006
 31
0.0
  0
POINT
  5
12BC
330
1DBD
100
AcDbEntity
  8
V0-VYPLNE
  6
CONTINUOUS
 62
    41
100
AcDbPoint
 10
206.141239
 20
-1039.072242
 30
0.0
  0
POINT
  5
12BD
330
1DBD
100
AcDbEntity
  8
V0-VYPLNE
  6
CONTINUOUS
 62
    41
100
AcDbPoint
 10
206.141239
 20
-276.166006
 30
0.0
  0
LINE
  5
13BB
330
1DBD
100
AcDbEntity
  8
V0-VYPLNE
  6
DASHDOT
 62
    63
100
AcDbLine
 10
-137.960537
 20
-1039.072242
 30
0.0
 11
581.1191160000001
 21
-1039.072242
 31
0.0
  0
CIRCLE
  5
13BE
330
1DBD
100
AcDbEntity
  8
V0-OBRYS
  6
CONTINUOUS
 62
    90
100
AcDbCircle
 10
206.141239
 20
-1039.072242
 30
0.0
 40
424.78155
  0
CIRCLE
  5
13BF
330
1DBD
100
AcDbEntity
  8
V0-OBRYS
  6
CONTINUOUS
 62
    90
100
AcDbCircle
 10
206.141239
 20
-1039.072242
 30
0.0
 40
396.918033
  0
CIRCLE
  5
13C0
330
1DBD
100
AcDbEntity
  8
V0-VYPLNE
  6
DASHED
 62
    52
100
AcDbCircle
 10
206.141239
 20
-1039.072242
 30
0.0
 40
199.952381
  0
LINE
  5
13C2
330
1DBD
100
AcDbEntity
  8
V0-VYPLNE
 62
    63
100
AcDbLine
 10
506.992061
 20
-771.04151
 30
0.0
 11
441.351881
 21
-771.04151
 31
0.0
  0
LINE
  5
13C5
330
1DBD
100
AcDbEntity
  8
V0-VYPLNE
 62
    63
100
AcDbLine
 10
-29.069404
 20
-771.04151
 30
0.0
 11
-94.70958299999998
 21
-771.04151
 31
0.0
  0
LINE
  5
13C6
330
1DBD
100
AcDbEntity
  8
V0-VYPLNE
 62
    63
100
AcDbLine
 10
-61.889494
 20
-738.22142
 30
0.0
 11
-61.889494
 21
-803.861599
 31
0.0
  0
CIRCLE
  5
13C7
330
1DBD
100
AcDbEntity
  8
V0-VYPLNE
  6
DASHED
 62
    56
100
AcDbCircle
 10
-61.889494
 20
-771.04151
 30
0.0
 40
7.658021
  0
LINE
  5
13C8
330
1DBD
100
AcDbEntity
  8
V0-VYPLNE
 62
    63
100
AcDbLine
 10
-61.889494
 20
-1274.282884
 30
0.0
 11
-61.889494
 21
-1339.923064
 31
0.0
  0
LINE
  5
13C9
330
1DBD
100
AcDbEntity
  8
V0-VYPLNE
 62
    63
100
AcDbLine
 10
-94.709583
 20
-1307.102974
 30
0.0
 11
-29.06940400000001
 21
-1307.102974
 31
0.0
  0
CIRCLE
  5
13CA
330
1DBD
100
AcDbEntity
  8
V0-VYPLNE
  6
DASHED
 62
    56
100
AcDbCircle
 10
-61.889494
 20
-1307.102974
 30
0.0
 40
7.658021
  0
LINE
  5
13CB
330
1DBD
100
AcDbEntity
  8
V0-VYPLNE
 62
    63
100
AcDbLine
 10
441.351881
 20
-1307.102974
 30
0.0
 11
506.992061
 21
-1307.102974
 31
0.0
  0
LINE
  5
13CC
330
1DBD
100
AcDbEntity
  8
V0-VYPLNE
 62
    63
100
AcDbLine
 10
474.171971
 20
-1339.923064
 30
0.0
 11
474.171971
 21
-1274.282884
 31
0.0
  0
CIRCLE
  5
13CD
330
1DBD
100
AcDbEntity
  8
V0-VYPLNE
  6
DASHED
 62
    56
100
AcDbCircle
 10
474.171971
 20
-1307.102974
 30
0.0
 40
7.658021
  0
LINE
  5
13CE
330
1DBD
100
AcDbEntity
  8
V0-VYPLNE
  6
DASHED
 62
    52
100
AcDbLine
 10
518.118239
 20
-728.210242
 30
0.0
 11
-105.8357610000001
 21
-728.210242
 31
0.0
  0
LINE
  5
13CF
330
1DBD
100
AcDbEntity
  8
V0-VYPLNE
  6
DASHED
 62
    52
100
AcDbLine
 10
-105.835761
 20
-728.210242
 30
0.0
 11
-105.835761
 21
-1351.049242
 31
0.0
  0
LINE
  5
13D0
330
1DBD
100
AcDbEntity
  8
V0-VYPLNE
  6
DASHED
 62
    52
100
AcDbLine
 10
-105.835761
 20
-1351.049242
 30
0.0
 11
518.118239
 21
-1351.049242
 31
0.0
  0
LINE
  5
13D1
330
1DBD
100
AcDbEntity
  8
V0-VYPLNE
  6
DASHED
 62
    52
100
AcDbLine
 10
518.118239
 20
-1351.049242
 30
0.0
 11
518.118239
 21
-728.210242
 31
0.0
  0
LINE
  5
13D2
330
1DBD
100
AcDbEntity
  8
V0-OBRYS
  6
CONTINUOUS
 62
    90
100
AcDbLine
 10
-108.858761
 20
-276.166006
 30
0.0
 11
521.141239
 21
-276.166006
 31
0.0
  0
LINE
  5
13D3
330
1DBD
100
AcDbEntity
  8
V0-OBRYS
  6
CONTINUOUS
 62
    90
100
AcDbLine
 10
521.141239
 20
-276.166006
 30
0.0
 11
521.141239
 21
-261.166006
 31
0.0
  0
LINE
  5
13D4
330
1DBD
100
AcDbEntity
  8
V0-OBRYS
  6
CONTINUOUS
 62
    90
100
AcDbLine
 10
521.141239
 20
-261.166006
 30
0.0
 11
-108.858761
 21
-261.166006
 31
0.0
  0
LINE
  5
13D5
330
1DBD
100
AcDbEntity
  8
V0-OBRYS
  6
CONTINUOUS
 62
    90
100
AcDbLine
 10
-108.858761
 20
-261.166006
 30
0.0
 11
-108.858761
 21
-276.166006
 31
0.0
  0
LINE
  5
13D6
330
1DBD
100
AcDbEntity
  8
V0-OBRYS
  6
CONTINUOUS
 62
    90
100
AcDbLine
 10
-73.858761
 20
-261.166006
 30
0.0
 11
-73.858761
 21
-258.166006
 31
0.0
  0
LINE
  5
13D7
330
1DBD
100
AcDbEntity
  8
V0-OBRYS
  6
CONTINUOUS
 62
    90
100
AcDbLine
 10
-73.858761
 20
-258.166006
 30
0.0
 11
486.141239
 21
-258.166006
 31
0.0
  0
LINE
  5
13D8
330
1DBD
100
AcDbEntity
  8
V0-OBRYS
  6
CONTINUOUS
 62
    90
100
AcDbLine
 10
486.141239
 20
-258.166006
 30
0.0
 11
486.141239
 21
-261.166006
 31
0.0
  0
LINE
  5
13D9
330
1DBD
100
AcDbEntity
  8
V0-OBRYS
  6
CONTINUOUS
 62
    90
100
AcDbLine
 10
401.141239
 20
-258.166006
 30
0.0
 11
401.141239
 21
44.96301999999997
 31
0.0
  0
LINE
  5
13DE
330
1DBD
100
AcDbEntity
  8
V0-OBRYS
  6
CONTINUOUS
 62
    90
100
AcDbLine
 10
456.141239
 20
-258.166006
 30
0.0
 11
569.82732
 21
42.30255599999998
 31
0.0
  0
LINE
  5
13E8
330
1DBD
100
AcDbEntity
  8
V0-OBRYS
  6
CONTINUOUS
 62
    90
100
AcDbLine
 10
69.386419
 20
-226.166006
 30
0.0
 11
342.896059
 21
-226.166006
 31
0.0
  0
LINE
  5
13EA
330
1DBD
100
AcDbEntity
  8
V0-OBRYS
  6
CONTINUOUS
 62
    90
100
AcDbLine
 10
406.141239
 20
-256.166006
 30
0.0
 11
406.141239
 21
-276.166006
 31
0.0
  0
LINE
  5
13EF
330
1DBD
100
AcDbEntity
  8
V0-OBRYS
  6
CONTINUOUS
 62
    90
100
AcDbLine
 10
26.141239
 20
44.96302
 30
0.0
 11
26.141239
 21
-149.666006
 31
0.0
  0
LINE
  5
13F0
330
1DBD
100
AcDbEntity
  8
V0-OBRYS
  6
CONTINUOUS
 62
    90
100
AcDbLine
 10
11.141239
 20
-258.166006
 30
0.0
 11
11.141239
 21
44.96301999999997
 31
0.0
  0
LINE
  5
13F1
330
1DBD
100
AcDbEntity
  8
V0-OBRYS
  6
CONTINUOUS
 62
    90
100
AcDbLine
 10
-43.858761
 20
-258.166006
 30
0.0
 11
-157.544843
 21
42.30255599999998
 31
0.0
  0
LINE
  5
13F2
330
1DBD
100
AcDbEntity
  8
V0-OBRYS
  6
CONTINUOUS
 62
    90
100
AcDbLine
 10
63.266239
 20
-174.019204
 30
0.0
 11
63.266239
 21
44.96302
 31
0.0
  0
LINE
  5
1414
330
1DBD
100
AcDbEntity
  8
V0-VYPLNE
  6
CONTINUOUS
 62
    52
100
AcDbLine
 10
11.141239
 20
44.96302
 30
0.0
 11
401.141239
 21
44.96302
 31
0.0
  0
LINE
  5
1415
330
1DBD
100
AcDbEntity
  8
V0-VYPLNE
  6
CONTINUOUS
 62
    52
100
AcDbLine
 10
401.141239
 20
44.96302
 30
0.0
 11
401.141239
 21
-258.1660059999999
 31
0.0
  0
LINE
  5
1416
330
1DBD
100
AcDbEntity
  8
V0-VYPLNE
  6
CONTINUOUS
 62
    52
100
AcDbLine
 10
401.141239
 20
-258.166006
 30
0.0
 11
11.14123899999999
 21
-258.166006
 31
0.0
  0
LINE
  5
1417
330
1DBD
100
AcDbEntity
  8
V0-VYPLNE
  6
CONTINUOUS
 62
    52
100
AcDbLine
 10
11.141239
 20
-258.166006
 30
0.0
 11
11.141239
 21
44.96301999999997
 31
0.0
  0
HATCH
  5
142F
330
1DBD
100
AcDbEntity
  8
V0-VYPLNE
  6
CONTINUOUS
 62
    52
100
AcDbHatch
 10
0.0
 20
0.0
 30
0.0
210
0.0
220
0.0
230
1.0
  2
NET
 70
     0
 71
     0
 91
        1
 92
        3
 72
     0
 73
     1
 93
        4
 10
401.1412387300806
 20
-258.166005630735
 10
401.1412387300806
 20
44.96302008641896
 10
11.14123873008057
 20
44.96302008641896
 10
11.14123873008068
 20
-258.166005630735
 97
        0
 75
     0
 76
     2
 52
0.0
 41
5.0
 77
     0
 78
     2
 53
0.0
 43
206.141239
 44
-213.166006
 45
0.0
 46
15.875
 79
     0
 53
90.0
 43
206.141239
 44
-213.166006
 45
-15.875
 46
0.000000000000001
 79
     0
 98
        1
 10
0.0
 20
0.0
1001
VDEXTRAPARAM
1071
       76
1071
        0
1071
        0
1040
5.0
1000
NET
1000

1040
0.0
1040
0.0
  0
LINE
  5
1456
330
1DBD
100
AcDbEntity
  8
V0-OBRYS
  6
CONTINUOUS
 62
    90
100
AcDbLine
 10
6.141239
 20
-256.166006
 30
0.0
 11
6.141239
 21
-276.166006
 31
0.0
  0
INSERT
  5
145C
330
1DBD
100
AcDbEntity
  8
V0-VYPLNE
  6
CONTINUOUS
 62
    52
100
AcDbBlockReference
  2
A10_100
 10
1091.344077
 20
-456.786598
 30
0.0
  0
DIMENSION
  5
1469
330
1DBD
100
AcDbEntity
  8
V0-VYPLNE
  6
CONTINUOUS
 62
    41
100
AcDbDimension
  2
*D5
 10
406.141239
 20
-363.1886980000127
 30
0.0
 11
189.776842
 21
-363.188698
 31
0.0
 70
   160
  1
%%c<>
  3
ED40
100
AcDbAlignedDimension
 13
6.141239
 23
-276.166006
 33
0.0
 14
406.141239
 24
-276.166006
 34
0.0
100
AcDbRotatedDimension
  0
DIMENSION
  5
1483
330
1DBD
100
AcDbEntity
  8
V0-VYPLNE
  6
CONTINUOUS
 62
    41
100
AcDbDimension
  2
*D6
 10
521.141239
 20
-490.0693230000034
 30
0.0
 11
199.301662
 21
-490.069323
 31
0.0
 70
   160
  3
ED40
100
AcDbAlignedDimension
 13
-108.858761
 23
-276.166006
 33
0.0
 14
521.141239
 24
-276.166006
 34
0.0
100
AcDbRotatedDimension
  0
DIMENSION
  5
1490
330
1DBD
100
AcDbEntity
  8
V0-VYPLNE
  6
CONTINUOUS
 62
    41
100
AcDbDimension
  2
*D7
 10
681.9934910000208
 20
255.833994
 30
0.0
 11
681.993491
 21
-29.670186
 31
0.0
 70
   160
  3
ED40
100
AcDbAlignedDimension
 13
521.141239
 23
-276.166006
 33
0.0
 14
206.141239
 24
255.833994
 34
0.0
 50
90.0
100
AcDbRotatedDimension
  0
LINE
  5
14A6
330
1DBD
100
AcDbEntity
  8
V0-VYPLNE
  6
CONTINUOUS
 62
    41
100
AcDbLine
 10
127.702892
 20
-482.330712
 30
0.0
 11
143.394651
 21
-454.35747
 31
0.0
  0
LWPOLYLINE
  5
14A7
330
1DBD
100
AcDbEntity
  8
V0-VYPLNE
  6
CONTINUOUS
 62
    41
100
AcDbPolyline
 90
        4
 70
     1
 43
0.0
 10
127.819869
 20
-476.63672
 10
144.507127
 20
-476.63672
 10
144.507127
 20
-459.964831
 10
127.819869
 20
-459.964831
  0
LWPOLYLINE
  5
14A8
330
1DBD
100
AcDbEntity
  8
V0-VYPLNE
  6
CONTINUOUS
 62
    41
100
AcDbPolyline
 90
        4
 70
     1
 43
0.0
 10
130.078666
 20
-420.663826
 10
146.765924
 20
-420.663826
 10
146.765924
 20
-403.991937
 10
130.078666
 20
-403.991937
  0
LINE
  5
14A9
330
1DBD
100
AcDbEntity
  8
V0-VYPLNE
  6
CONTINUOUS
 62
    41
100
AcDbLine
 10
129.961688
 20
-426.357818
 30
0.0
 11
145.653448
 21
-398.384576
 31
0.0
  0
DIMENSION
  5
14E2
330
1DBD
100
AcDbEntity
  8
V0-VYPLNE
  6
CONTINUOUS
 62
    41
100
AcDbDimension
  2
*D8
 10
631.141239
 20
299.9766999999993
 30
0.0
 11
202.260129
 21
299.9767
 31
0.0
 70
   160
  1
%%c<>
  3
ED40
100
AcDbAlignedDimension
 13
-218.858761
 23
37.545559
 33
0.0
 14
631.141239
 24
37.545559
 34
0.0
100
AcDbRotatedDimension
  0
LINE
  5
176E
330
1DBD
100
AcDbEntity
  8
V0-OBRYS
  6
CONTINUOUS
 62
    90
100
AcDbLine
 10
-156.603756
 20
112.739687
 30
0.0
 11
568.8862339999999
 21
112.739687
 31
0.0
  0
LINE
  5
176F
330
1DBD
100
AcDbEntity
  8
V0-OBRYS
  6
CONTINUOUS
 62
    90
100
AcDbLine
 10
-148.659115
 20
119.996175
 30
0.0
 11
560.941592
 21
119.996175
 31
0.0
  0
LINE
  5
18B8
330
1DBD
100
AcDbEntity
  8
V0-OBRYS
  6
CONTINUOUS
 62
    90
100
AcDbLine
 10
-220.266289
 20
42.302556
 30
0.0
 11
633.844723
 21
42.302556
 31
0.0
  0
LINE
  5
19B4
330
1DBD
100
AcDbEntity
  8
V0-OBRYS
  6
CONTINUOUS
 62
    90
100
AcDbLine
 10
-83.348281
 20
-728.210242
 30
0.0
 11
-105.835761
 21
-728.210242
 31
0.0
  0
LINE
  5
19B5
330
1DBD
100
AcDbEntity
  8
V0-OBRYS
  6
CONTINUOUS
 62
    90
100
AcDbLine
 10
-105.835761
 20
-728.210242
 30
0.0
 11
-105.835761
 21
-750.784683
 31
0.0
  0
LINE
  5
19B6
330
1DBD
100
AcDbEntity
  8
V0-OBRYS
  6
CONTINUOUS
 62
    90
100
AcDbLine
 10
495.630759
 20
-728.210242
 30
0.0
 11
518.118239
 21
-728.210242
 31
0.0
  0
LINE
  5
19B7
330
1DBD
100
AcDbEntity
  8
V0-OBRYS
  6
CONTINUOUS
 62
    90
100
AcDbLine
 10
518.118239
 20
-728.210242
 30
0.0
 11
518.118239
 21
-750.784683
 31
0.0
  0
LINE
  5
19B8
330
1DBD
100
AcDbEntity
  8
V0-OBRYS
  6
CONTINUOUS
 62
    90
100
AcDbLine
 10
494.428798
 20
-1351.049242
 30
0.0
 11
518.118239
 21
-1351.049242
 31
0.0
  0
LINE
  5
19B9
330
1DBD
100
AcDbEntity
  8
V0-OBRYS
  6
CONTINUOUS
 62
    90
100
AcDbLine
 10
518.118239
 20
-1351.049242
 30
0.0
 11
518.118239
 21
-1327.359801
 31
0.0
  0
LINE
  5
19BA
330
1DBD
100
AcDbEntity
  8
V0-OBRYS
  6
CONTINUOUS
 62
    90
100
AcDbLine
 10
-105.835761
 20
-1327.359801
 30
0.0
 11
-105.835761
 21
-1351.049242
 31
0.0
  0
LINE
  5
19BB
330
1DBD
100
AcDbEntity
  8
V0-OBRYS
  6
CONTINUOUS
 62
    90
100
AcDbLine
 10
-105.835761
 20
-1351.049242
 30
0.0
 11
-82.14632
 21
-1351.049242
 31
0.0
  0
ARC
  5
1ABA
330
1DBD
100
AcDbEntity
  8
V0-OBRYS
  6
CONTINUOUS
 62
    90
100
AcDbCircle
 10
206.141239
 20
-276.166006
 30
0.0
 40
532.208234
100
AcDbArc
 50
36.754741
 51
143.245259
  0
DIMENSION
  5
1BAE
330
1DBD
100
AcDbEntity
  8
V0-VYPLNE
  6
CONTINUOUS
 62
    41
100
AcDbDimension
  2
*D9
 10
473.641239
 20
-429.8010270000087
 30
0.0
 11
192.951782
 21
-429.801027
 31
0.0
 70
   160
  3
ED40
100
AcDbAlignedDimension
 13
-61.358761
 23
-286.166006
 33
0.0
 14
473.641239
 24
-276.166006
 34
0.0
100
AcDbRotatedDimension
  0
ARC
  5
1C7D
330
1DBD
100
AcDbEntity
  8
V0-OBRYS
  6
CONTINUOUS
 62
    90
100
AcDbCircle
 10
15.716162
 20
-206.032439
 30
0.0
 40
57.322395
100
AcDbArc
 50
294.566421
 51
79.521449
  0
LINE
  5
1C7E
330
1DBD
100
AcDbEntity
  8
V0-OBRYS
  6
CONTINUOUS
 62
    90
100
AcDbLine
 10
386.141239
 20
44.96302
 30
0.0
 11
386.141239
 21
-149.666006
 31
0.0
  0
LINE
  5
1C7F
330
1DBD
100
AcDbEntity
  8
V0-OBRYS
  6
CONTINUOUS
 62
    90
100
AcDbLine
 10
349.016239
 20
-174.019204
 30
0.0
 11
349.016239
 21
44.96302
 31
0.0
  0
ARC
  5
1C80
330
1DBD
100
AcDbEntity
  8
V0-OBRYS
  6
CONTINUOUS
 62
    90
100
AcDbCircle
 10
396.566315
 20
-206.032439
 30
0.0
 40
57.322395
100
AcDbArc
 50
100.478551
 51
245.433579
  0
LINE
  5
1C81
330
1DBD
100
AcDbEntity
  8
V0-OBRYS
  6
CONTINUOUS
 62
    90
100
AcDbLine
 10
1448.245667
 20
-258.166006
 30
0.0
 11
1561.931749
 21
42.30255599999998
 31
0.0
  0
ARC
  5
1C82
330
1DBD
100
AcDbEntity
  8
V0-OBRYS
  6
CONTINUOUS
 62
    90
100
AcDbCircle
 10
1198.245667
 20
-276.166006
 30
0.0
 40
532.208234
100
AcDbArc
 50
36.754741
 51
143.245259
  0
LINE
  5
1C83
330
1DBD
100
AcDbEntity
  8
V0-OBRYS
  6
CONTINUOUS
 62
    90
100
AcDbLine
 10
771.838139
 20
42.302556
 30
0.0
 11
1625.949152
 21
42.302556
 31
0.0
  0
LINE
  5
1C84
330
1DBD
100
AcDbEntity
  8
V0-OBRYS
  6
CONTINUOUS
 62
    90
100
AcDbLine
 10
835.500672
 20
112.739687
 30
0.0
 11
1560.990663
 21
112.739687
 31
0.0
  0
LINE
  5
1C85
330
1DBD
100
AcDbEntity
  8
V0-OBRYS
  6
CONTINUOUS
 62
    90
100
AcDbLine
 10
1513.245667
 20
-261.166006
 30
0.0
 11
883.245667
 21
-261.166006
 31
0.0
  0
LINE
  5
1C86
330
1DBD
100
AcDbEntity
  8
V0-OBRYS
  6
CONTINUOUS
 62
    90
100
AcDbLine
 10
883.245667
 20
-276.166006
 30
0.0
 11
1513.245667
 21
-276.166006
 31
0.0
  0
LINE
  5
1C87
330
1DBD
100
AcDbEntity
  8
V0-OBRYS
  6
CONTINUOUS
 62
    90
100
AcDbLine
 10
918.245667
 20
-258.166006
 30
0.0
 11
1478.245667
 21
-258.166006
 31
0.0
  0
LINE
  5
1C88
330
1DBD
100
AcDbEntity
  8
V0-OBRYS
  6
CONTINUOUS
 62
    90
100
AcDbLine
 10
843.4453140000001
 20
119.996175
 30
0.0
 11
1553.046021
 21
119.996175
 31
0.0
  0
LINE
  5
1C89
330
1DBD
100
AcDbEntity
  8
V0-OBRYS
  6
CONTINUOUS
 62
    90
100
AcDbLine
 10
948.245667
 20
-258.166006
 30
0.0
 11
834.559586
 21
42.30255599999998
 31
0.0
  0
LINE
  5
1C8A
330
1DBD
100
AcDbEntity
  8
V0-VYPLNE
100
AcDbLine
 10
930.745667
 20
-286.166006
 30
0.0
 11
930.745667
 21
-236.166006
 31
0.0
  0
LINE
  5
1C8B
330
1DBD
100
AcDbEntity
  8
V0-OBRYS
  6
CONTINUOUS
 62
    90
100
AcDbLine
 10
883.245667
 20
-261.166006
 30
0.0
 11
883.245667
 21
-276.166006
 31
0.0
  0
LINE
  5
1C8C
330
1DBD
100
AcDbEntity
  8
V0-OBRYS
  6
CONTINUOUS
 62
    90
100
AcDbLine
 10
918.245667
 20
-261.166006
 30
0.0
 11
918.245667
 21
-258.166006
 31
0.0
  0
LINE
  5
1C8D
330
1DBD
100
AcDbEntity
  8
V0-OBRYS
  6
CONTINUOUS
 62
    90
100
AcDbLine
 10
1341.120667
 20
-174.019204
 30
0.0
 11
1341.120667
 21
44.96302
 31
0.0
  0
LINE
  5
1C8E
330
1DBD
100
AcDbEntity
  8
V0-OBRYS
  6
CONTINUOUS
 62
    90
100
AcDbLine
 10
1378.245667
 20
44.96302
 30
0.0
 11
1378.245667
 21
-149.666006
 31
0.0
  0
LINE
  5
1C8F
330
1DBD
100
AcDbEntity
  8
V0-OBRYS
  6
CONTINUOUS
 62
    90
100
AcDbLine
 10
1055.370667
 20
-174.019204
 30
0.0
 11
1055.370667
 21
44.96302
 31
0.0
  0
LINE
  5
1C90
330
1DBD
100
AcDbEntity
  8
V0-OBRYS
  6
CONTINUOUS
 62
    90
100
AcDbLine
 10
1018.245667
 20
44.96302
 30
0.0
 11
1018.245667
 21
-149.666006
 31
0.0
  0
HATCH
  5
1C91
330
1DBD
100
AcDbEntity
  8
V0-VYPLNE
  6
CONTINUOUS
 62
    52
100
AcDbHatch
 10
0.0
 20
0.0
 30
0.0
210
0.0
220
0.0
230
1.0
  2
NET
 70
     0
 71
     0
 91
        1
 92
        3
 72
     0
 73
     1
 93
        4
 10
1393.245667469655
 20
-258.166005630735
 10
1393.245667469655
 20
44.96302008641896
 10
1003.245667469655
 20
44.96302008641896
 10
1003.245667469655
 20
-258.166005630735
 97
        0
 75
     0
 76
     2
 52
0.0
 41
5.0
 77
     0
 78
     2
 53
0.0
 43
206.141239
 44
-213.166006
 45
0.0
 46
15.875
 79
     0
 53
90.0
 43
206.141239
 44
-213.166006
 45
-15.875
 46
0.000000000000001
 79
     0
 98
        1
 10
0.0
 20
0.0
1001
VDEXTRAPARAM
1071
       76
1071
        0
1071
        0
1040
5.0
1000
NET
1000

1040
0.0
1040
0.0
  0
LINE
  5
1C92
330
1DBD
100
AcDbEntity
  8
V0-VYPLNE
  6
CONTINUOUS
 62
    52
100
AcDbLine
 10
1393.245667
 20
44.96302
 30
0.0
 11
1393.245667
 21
-258.1660059999999
 31
0.0
  0
LINE
  5
1C93
330
1DBD
100
AcDbEntity
  8
V0-OBRYS
  6
CONTINUOUS
 62
    90
100
AcDbLine
 10
1393.245667
 20
-258.166006
 30
0.0
 11
1393.245667
 21
44.96301999999997
 31
0.0
  0
LINE
  5
1C94
330
1DBD
100
AcDbEntity
  8
V0-VYPLNE
  6
CONTINUOUS
 62
    52
100
AcDbLine
 10
1003.245667
 20
-258.166006
 30
0.0
 11
1003.245667
 21
44.96301999999997
 31
0.0
  0
LINE
  5
1C95
330
1DBD
100
AcDbEntity
  8
V0-OBRYS
  6
CONTINUOUS
 62
    90
100
AcDbLine
 10
1003.245667
 20
-258.166006
 30
0.0
 11
1003.245667
 21
44.96301999999997
 31
0.0
  0
LINE
  5
1C96
330
1DBD
100
AcDbEntity
  8
V0-OBRYS
  6
CONTINUOUS
 62
    90
100
AcDbLine
 10
1061.490847
 20
-226.166006
 30
0.0
 11
1335.000488
 21
-226.166006
 31
0.0
  0
LINE
  5
1C97
330
1DBD
100
AcDbEntity
  8
V0-VYPLNE
  6
CONTINUOUS
 62
    52
100
AcDbLine
 10
1393.245667
 20
-258.166006
 30
0.0
 11
1003.245667
 21
-258.166006
 31
0.0
  0
ARC
  5
1C98
330
1DBD
100
AcDbEntity
  8
V0-OBRYS
  6
CONTINUOUS
 62
    90
100
AcDbCircle
 10
1007.820591
 20
-206.032439
 30
0.0
 40
57.322395
100
AcDbArc
 50
294.566421
 51
79.521449
  0
LINE
  5
1C99
330
1DBD
100
AcDbEntity
  8
V0-OBRYS
  6
CONTINUOUS
 62
    90
100
AcDbLine
 10
998.245667
 20
-256.166006
 30
0.0
 11
998.245667
 21
-276.166006
 31
0.0
  0
POINT
  5
1C9A
330
1DBD
100
AcDbEntity
  8
V0-VYPLNE
  6
CONTINUOUS
 62
    41
100
AcDbPoint
 10
1198.245667
 20
-276.166006
 30
0.0
  0
ARC
  5
1C9B
330
1DBD
100
AcDbEntity
  8
V0-OBRYS
  6
CONTINUOUS
 62
    90
100
AcDbCircle
 10
1388.670744
 20
-206.032439
 30
0.0
 40
57.322395
100
AcDbArc
 50
100.478551
 51
245.433579
  0
LINE
  5
1C9C
330
1DBD
100
AcDbEntity
  8
V0-VYPLNE
100
AcDbLine
 10
1465.745667
 20
-286.166006
 30
0.0
 11
1465.745667
 21
-236.166006
 31
0.0
  0
LINE
  5
1C9D
330
1DBD
100
AcDbEntity
  8
V0-OBRYS
  6
CONTINUOUS
 62
    90
100
AcDbLine
 10
1398.245667
 20
-256.166006
 30
0.0
 11
1398.245667
 21
-276.166006
 31
0.0
  0
LINE
  5
1C9E
330
1DBD
100
AcDbEntity
  8
V0-OBRYS
  6
CONTINUOUS
 62
    90
100
AcDbLine
 10
1478.245667
 20
-258.166006
 30
0.0
 11
1478.245667
 21
-261.166006
 31
0.0
  0
LINE
  5
1C9F
330
1DBD
100
AcDbEntity
  8
V0-OBRYS
  6
CONTINUOUS
 62
    90
100
AcDbLine
 10
1513.245667
 20
-276.166006
 30
0.0
 11
1513.245667
 21
-261.166006
 31
0.0
  0
LINE
  5
1CA1
330
1DBD
100
AcDbEntity
  8
V0-VYPLNE
  6
CONTINUOUS
 62
    52
100
AcDbLine
 10
1003.245667
 20
44.96302
 30
0.0
 11
1393.245667
 21
44.96302
 31
0.0
  0
LINE
  5
1CA2
330
1DBD
100
AcDbEntity
  8
V0-VYPLNE
100
AcDbLine
 10
1198.245667
 20
297.937864
 30
0.0
 11
1198.245667
 21
-230.215523
 31
0.0
  0
TEXT
  5
1D8E
330
1DBD
100
AcDbEntity
  8
V0-NAZVY
  6
CONTINUOUS
100
AcDbText
 10
787.0443235547282
 20
-904.4472510000924
 30
0.0
 40
60.0
  1
CTHB/CTHT 400
  7
ED40
100
AcDbText
  0
LWPOLYLINE
  5
1D91
330
1DBD
100
AcDbEntity
  8
V0-VYPLNE
  6
CONTINUOUS
 62
    41
100
AcDbPolyline
 90
        3
 70
     0
 43
0.0
 10
-58.301572
 20
-259.600553
 10
-96.90226799999999
 20
-216.007083
 10
-454.864394
 20
-216.007083
  0
TEXT
  5
1D96
330
1DBD
100
AcDbEntity
  8
V0-VYPLNE
  6
CONTINUOUS
 62
    41
100
AcDbText
 10
-569.6165537142856
 20
-212.00354
 30
0.0
 40
36.0
  1
4 OTVORY %%c 12
  7
ED40
100
AcDbText
  0
VIEWPORT
  5
1E31
330
1DB9
100
AcDbEntity
 67
     1
  8
0
 60
     1
100
AcDbViewport
 10
261.517699
 20
148.5
 30
0.0
 40
297.0
 41
297.0
 68
     0
 69
     1
1001
VD_INVISIBLE_NOT_FOR_READ
1000
VD_INVISIBLE_NOT_FOR_READ
1001
ACAD
1000
MVIEW
1002
{
1070
    16
1010
0.0
1020
0.0
1030
0.0
1010
0.0
1020
0.0
1030
1.0
1040
6.2831853071796
1040
297.0
1040
261.517699
1040
148.5
1040
0.0
1040
0.0
1040
0.0
1070
     0
1070
   100
1070
     0
1070
     1
1070
     0
1070
     0
1070
     0
1070
     0
1040
0.0
1040
0.0
1040
0.0
1040
1.0
1040
1.0
1040
0.0
1040
0.0
1070
     0
1002
{
1002
}
1002
}
  0
VIEWPORT
  5
1E32
330
1DB9
100
AcDbEntity
 67
     1
  8
0
 60
     1
100
AcDbViewport
 10
261.517699
 20
148.5
 30
0.0
 40
297.0
 41
297.0
 68
     0
 69
     2
1001
VD_INVISIBLE_NOT_FOR_READ
1000
VD_INVISIBLE_NOT_FOR_READ
1001
ACAD
1000
MVIEW
1002
{
1070
    16
1010
0.0
1020
0.0
1030
0.0
1010
0.0
1020
0.0
1030
1.0
1040
6.2831853071796
1040
297.0
1040
261.517699
1040
148.5
1040
0.0
1040
0.0
1040
0.0
1070
     0
1070
   100
1070
     0
1070
     1
1070
     0
1070
     0
1070
     0
1070
     0
1040
0.0
1040
0.0
1040
0.0
1040
1.0
1040
1.0
1040
0.0
1040
0.0
1070
     0
1002
{
1002
}
1002
}
  0
ENDSEC
  0
SECTION
  2
OBJECTS
  0
DICTIONARY
  5
1DAA
330
0
100
AcDbDictionary
  3
ACAD_GROUP
350
1DAB
  3
ACAD_LAYOUT
350
1DB8
  3
ACAD_MLINESTYLE
350
1DB5
  3
ACAD_PLOTSETTINGS
350
1DB7
  3
ACDBHEADERROUNDTRIPXREC
350
1E33
  3
VECTORDRAW_OBJECTS
350
1DCD
  0
DICTIONARY
  5
1E53
330
1DC7
100
AcDbDictionary
280
     1
  3
ACAD_XREC_ROUNDTRIP
360
1E54
  0
DICTIONARY
  5
1DAB
102
{ACAD_REACTORS
330
1DAA
102
}
330
1DAA
100
AcDbDictionary
  0
DICTIONARY
  5
1DB8
102
{ACAD_REACTORS
330
1DAA
102
}
330
1DAA
100
AcDbDictionary
  0
DICTIONARY
  5
1DB5
102
{ACAD_REACTORS
330
1DAA
102
}
330
1DAA
100
AcDbDictionary
  3
STANDARD
350
1DB6
  0
DICTIONARY
  5
1DB7
102
{ACAD_REACTORS
330
1DAA
102
}
330
1DAA
100
AcDbDictionary
  0
DICTIONARY
  5
1E33
102
{ACAD_REACTORS
330
1DAA
102
}
330
1DAA
100
AcDbDictionary
  3
CEPSNTYPE
350
1E3C
  3
DIMSTYLEDATA
350
1E52
  3
FINGERPRINTGUID
350
1E3D
  3
HYPERLINKBASE
350
1E36
  3
INSUNITS
350
1E3B
  3
LAYOUTDICT
350
1E38
  3
LWETCUNION
350
1E3A
  3
PLOTSETDICT
350
1E39
  3
PSVPSCALE
350
1E3F
  3
PUCSBASE
350
1E42
  3
PUCSORGBACK
350
1E48
  3
PUCSORGBOTTOM
350
1E44
  3
PUCSORGFRONT
350
1E47
  3
PUCSORGLEFT
350
1E45
  3
PUCSORGRIGHT
350
1E46
  3
PUCSORGTOP
350
1E43
  3
PUCSORTHOREF
350
1E40
  3
PUCSORTHOVIEW
350
1E41
  3
STYLESHEET
350
1E37
  3
TSTACKALIGN
350
1E34
  3
TSTACKSIZE
350
1E35
  3
UCSBASE
350
1E4B
  3
UCSORGBACK
350
1E51
  3
UCSORGBOTTOM
350
1E4D
  3
UCSORGFRONT
350
1E50
  3
UCSORGLEFT
350
1E4E
  3
UCSORGRIGHT
350
1E4F
  3
UCSORGTOP
350
1E4C
  3
UCSORTHOREF
350
1E49
  3
UCSORTHOVIEW
350
1E4A
  3
VERSIONGUID
350
1E3E
  0
DICTIONARY
  5
1DCD
102
{ACAD_REACTORS
330
1DAA
102
}
330
1DAA
100
AcDbDictionary
  3
SERIALNO
350
1DCE
  0
XRECORD
  5
1E54
102
{ACAD_REACTORS
330
1E53
102
}
330
1E53
100
AcDbXrecord
102
UCS
 74
     0
 71
     1
 10
0.0
 20
0.0
 30
0.0
 10
1.0
 20
0.0
 30
0.0
 10
0.0
 20
1.0
 30
0.0
146
0.0
 79
     0
102
VIEW
281
     0
  0
MLINESTYLE
  5
1DB6
102
{ACAD_REACTORS
330
1DB5
102
}
330
1DB5
100
AcDbMlineStyle
  2
Standard
 70
     0
  3

 62
   256
 51
90.0
 52
90.0
 71
     2
 49
0.5
 62
   256
  6
BYLAYER
 49
-0.5
 62
   256
  6
BYLAYER
  0
XRECORD
  5
1E3C
102
{ACAD_REACTORS
330
1E33
102
}
330
1E33
100
AcDbXrecord
 90
        0
  0
XRECORD
  5
1E52
102
{ACAD_REACTORS
330
1E33
102
}
330
1E33
100
AcDbXrecord
1000
DSTYLE
1002
{
1070
    41
 40
35.0
1070
   342
340
90
1070
   271
 70
     0
1070
    44
 40
1.25
1070
    42
 40
1.0
1070
   147
 40
4.0
1070
    77
 70
     1
1070
    73
 70
     0
1070
   174
 70
     1
1070
   172
 70
     1
1070
    74
 70
     0
1070
   340
340
F39
1070
   140
 40
40.0
1070
   288
 70
     1
1002
}
  0
XRECORD
  5
1E3D
102
{ACAD_REACTORS
330
1E33
102
}
330
1E33
100
AcDbXrecord
  1
{FAEB1C30-E019-11D5-929B-00C0DF256EC4}
  0
XRECORD
  5
1E36
102
{ACAD_REACTORS
330
1E33
102
}
330
1E33
100
AcDbXrecord
  1

  0
XRECORD
  5
1E3B
102
{ACAD_REACTORS
330
1E33
102
}
330
1E33
100
AcDbXrecord
 90
        1
  0
XRECORD
  5
1E38
102
{ACAD_REACTORS
330
1E33
102
}
330
1E33
100
AcDbXrecord
340
1DB8
  0
XRECORD
  5
1E3A
102
{ACAD_REACTORS
330
1E33
102
}
330
1E33
100
AcDbXrecord
 90
     2560
  0
XRECORD
  5
1E39
102
{ACAD_REACTORS
330
1E33
102
}
330
1E33
100
AcDbXrecord
340
1DB7
  0
XRECORD
  5
1E3F
102
{ACAD_REACTORS
330
1E33
102
}
330
1E33
100
AcDbXrecord
 40
0.0
  0
XRECORD
  5
1E42
102
{ACAD_REACTORS
330
1E33
102
}
330
1E33
100
AcDbXrecord
340
0
  0
XRECORD
  5
1E48
102
{ACAD_REACTORS
330
1E33
102
}
330
1E33
100
AcDbXrecord
 10
0.0
 20
0.0
 30
0.0
  0
XRECORD
  5
1E44
102
{ACAD_REACTORS
330
1E33
102
}
330
1E33
100
AcDbXrecord
 10
0.0
 20
0.0
 30
0.0
  0
XRECORD
  5
1E47
102
{ACAD_REACTORS
330
1E33
102
}
330
1E33
100
AcDbXrecord
 10
0.0
 20
0.0
 30
0.0
  0
XRECORD
  5
1E45
102
{ACAD_REACTORS
330
1E33
102
}
330
1E33
100
AcDbXrecord
 10
0.0
 20
0.0
 30
0.0
  0
XRECORD
  5
1E46
102
{ACAD_REACTORS
330
1E33
102
}
330
1E33
100
AcDbXrecord
 10
0.0
 20
0.0
 30
0.0
  0
XRECORD
  5
1E43
102
{ACAD_REACTORS
330
1E33
102
}
330
1E33
100
AcDbXrecord
 10
0.0
 20
0.0
 30
0.0
  0
XRECORD
  5
1E40
102
{ACAD_REACTORS
330
1E33
102
}
330
1E33
100
AcDbXrecord
340
0
  0
XRECORD
  5
1E41
102
{ACAD_REACTORS
330
1E33
102
}
330
1E33
100
AcDbXrecord
 70
     0
  0
XRECORD
  5
1E37
102
{ACAD_REACTORS
330
1E33
102
}
330
1E33
100
AcDbXrecord
  1

  0
XRECORD
  5
1E34
102
{ACAD_REACTORS
330
1E33
102
}
330
1E33
100
AcDbXrecord
 90
        1
  0
XRECORD
  5
1E35
102
{ACAD_REACTORS
330
1E33
102
}
330
1E33
100
AcDbXrecord
 90
       70
  0
XRECORD
  5
1E4B
102
{ACAD_REACTORS
330
1E33
102
}
330
1E33
100
AcDbXrecord
340
0
  0
XRECORD
  5
1E51
102
{ACAD_REACTORS
330
1E33
102
}
330
1E33
100
AcDbXrecord
 10
0.0
 20
0.0
 30
0.0
  0
XRECORD
  5
1E4D
102
{ACAD_REACTORS
330
1E33
102
}
330
1E33
100
AcDbXrecord
 10
0.0
 20
0.0
 30
0.0
  0
XRECORD
  5
1E50
102
{ACAD_REACTORS
330
1E33
102
}
330
1E33
100
AcDbXrecord
 10
0.0
 20
0.0
 30
0.0
  0
XRECORD
  5
1E4E
102
{ACAD_REACTORS
330
1E33
102
}
330
1E33
100
AcDbXrecord
 10
0.0
 20
0.0
 30
0.0
  0
XRECORD
  5
1E4F
102
{ACAD_REACTORS
330
1E33
102
}
330
1E33
100
AcDbXrecord
 10
0.0
 20
0.0
 30
0.0
  0
XRECORD
  5
1E4C
102
{ACAD_REACTORS
330
1E33
102
}
330
1E33
100
AcDbXrecord
 10
0.0
 20
0.0
 30
0.0
  0
XRECORD
  5
1E49
102
{ACAD_REACTORS
330
1E33
102
}
330
1E33
100
AcDbXrecord
340
0
  0
XRECORD
  5
1E4A
102
{ACAD_REACTORS
330
1E33
102
}
330
1E33
100
AcDbXrecord
 70
     0
  0
XRECORD
  5
1E3E
102
{ACAD_REACTORS
330
1E33
102
}
330
1E33
100
AcDbXrecord
  1
{FAEB1C32-E019-11D5-929B-00C0DF256EC4}
  0
XRECORD
  5
1DCE
102
{ACAD_REACTORS
330
1DCD
102
}
330
1DCD
100
AcDbXrecord
1000
rInJVR9YY4Q8hfPWdUq5j5319
1070
     4
1070
     6
  0
ENDSEC
  0
EOF
