  0
SECTION
  2
HEADER
  9
$ACADVER
  1
AC1014
  9
$ACADMAINTVER
 70
     9
  9
$DWGCODEPAGE
  3
ANSI_1250
  9
$INSBASE
 10
0.0
 20
0.0
 30
0.0
  9
$EXTMIN
 10
-450.0969984285716
 20
-1273.368243
 30
0.0
  9
$EXTMAX
 10
1478.338148984058
 20
269.9475680769231
 30
0.0
  9
$LIMMIN
 10
0.0
 20
0.0
  9
$LIMMAX
 10
0.0
 20
0.0
  9
$ORTHOMODE
 70
     1
  9
$REGENMODE
 70
     1
  9
$FILLMODE
 70
     1
  9
$QTEXTMODE
 70
     0
  9
$MIRRTEXT
 70
     1
  9
$DRAGMODE
 70
     2
  9
$LTSCALE
 40
1.0
  9
$OSMODE
 70
    37
  9
$ATTMODE
 70
     1
  9
$TEXTSIZE
 40
0.2
  9
$TRACEWID
 40
0.05
  9
$TEXTSTYLE
  7
ED30
  9
$CLAYER
  8
V0-OBRYS
  9
$CELTYPE
  6
CONTINUOUS
  9
$CECOLOR
 62
    90
  9
$CELTSCALE
 40
1.0
  9
$DELOBJ
 70
     1
  9
$DISPSILH
 70
     0
  9
$DIMSCALE
 40
1.0
  9
$DIMASZ
 40
25.0
  9
$DIMEXO
 40
1.0
  9
$DIMDLI
 40
0.38
  9
$DIMRND
 40
0.0
  9
$DIMDLE
 40
0.0
  9
$DIMEXE
 40
1.25
  9
$DIMTP
 40
0.0
  9
$DIMTM
 40
0.0
  9
$DIMTXT
 40
30.0
  9
$DIMCEN
 40
0.09
  9
$DIMTSZ
 40
0.0
  9
$DIMTOL
 70
     0
  9
$DIMLIM
 70
     0
  9
$DIMTIH
 70
     0
  9
$DIMTOH
 70
     0
  9
$DIMSE1
 70
     0
  9
$DIMSE2
 70
     0
  9
$DIMTAD
 70
     1
  9
$DIMZIN
 70
     0
  9
$DIMBLK
  1
OPEN
  9
$DIMASO
 70
     1
  9
$DIMSHO
 70
     1
  9
$DIMPOST
  1

  9
$DIMAPOST
  1

  9
$DIMALT
 70
     0
  9
$DIMALTD
 70
     2
  9
$DIMALTF
 40
25.4
  9
$DIMLFAC
 40
1.0
  9
$DIMTOFL
 70
     1
  9
$DIMTVP
 40
0.0
  9
$DIMTIX
 70
     1
  9
$DIMSOXD
 70
     0
  9
$DIMSAH
 70
     0
  9
$DIMBLK1
  1

  9
$DIMBLK2
  1

  9
$DIMSTYLE
  2
ED30
  9
$DIMCLRD
 70
     0
  9
$DIMCLRE
 70
     0
  9
$DIMCLRT
 70
     0
  9
$DIMTFAC
 40
1.0
  9
$DIMGAP
 40
4.0
  9
$DIMJUST
 70
     0
  9
$DIMSD1
 70
     0
  9
$DIMSD2
 70
     0
  9
$DIMTOLJ
 70
     1
  9
$DIMTZIN
 70
     0
  9
$DIMALTZ
 70
     0
  9
$DIMALTTZ
 70
     0
  9
$DIMFIT
 70
     3
  9
$DIMUPT
 70
     1
  9
$DIMUNIT
 70
     2
  9
$DIMDEC
 70
     0
  9
$DIMTDEC
 70
     4
  9
$DIMALTU
 70
     2
  9
$DIMALTTD
 70
     2
  9
$DIMTXSTY
  7
ED30
  9
$DIMAUNIT
 70
     0
  9
$LUNITS
 70
     2
  9
$LUPREC
 70
     4
  9
$SKETCHINC
 40
0.1
  9
$FILLETRAD
 40
0.5
  9
$AUNITS
 70
     0
  9
$AUPREC
 70
     0
  9
$MENU
  1
.
  9
$ELEVATION
 40
0.0
  9
$PELEVATION
 40
0.0
  9
$THICKNESS
 40
0.0
  9
$LIMCHECK
 70
     0
  9
$BLIPMODE
 70
     0
  9
$CHAMFERA
 40
0.5
  9
$CHAMFERB
 40
0.5
  9
$CHAMFERC
 40
1.0
  9
$CHAMFERD
 40
0.0
  9
$SKPOLY
 70
     0
  9
$TDCREATE
 40
2455644.646179467
  9
$TDUPDATE
 40
2455644.646179479
  9
$TDINDWG
 40
0.0000000116
  9
$TDUSRTIMER
 40
0.0000000116
  9
$USRTIMER
 70
     1
  9
$ANGBASE
 50
0.0
  9
$ANGDIR
 70
     0
  9
$PDMODE
 70
     3
  9
$PDSIZE
 40
20.0
  9
$PLINEWID
 40
0.0
  9
$COORDS
 70
     1
  9
$SPLFRAME
 70
     0
  9
$SPLINETYPE
 70
     6
  9
$SPLINESEGS
 70
     8
  9
$ATTDIA
 70
     0
  9
$ATTREQ
 70
     1
  9
$HANDLING
 70
     1
  9
$HANDSEED
  5
1C97
  9
$SURFTAB1
 70
     6
  9
$SURFTAB2
 70
     6
  9
$SURFTYPE
 70
     6
  9
$SURFU
 70
     6
  9
$SURFV
 70
     6
  9
$UCSNAME
  2

  9
$UCSORG
 10
0.0
 20
0.0
 30
0.0
  9
$UCSXDIR
 10
1.0
 20
0.0
 30
0.0
  9
$UCSYDIR
 10
0.0
 20
1.0
 30
0.0
  9
$PUCSNAME
  2

  9
$PUCSORG
 10
0.0
 20
0.0
 30
0.0
  9
$PUCSXDIR
 10
1.0
 20
0.0
 30
0.0
  9
$PUCSYDIR
 10
0.0
 20
1.0
 30
0.0
  9
$USERI1
 70
     0
  9
$USERI2
 70
     0
  9
$USERI3
 70
     0
  9
$USERI4
 70
     0
  9
$USERI5
 70
     0
  9
$USERR1
 40
0.0
  9
$USERR2
 40
0.0
  9
$USERR3
 40
0.0
  9
$USERR4
 40
0.0
  9
$USERR5
 40
0.0
  9
$WORLDVIEW
 70
     1
  9
$SHADEDGE
 70
     3
  9
$SHADEDIF
 70
    70
  9
$TILEMODE
 70
     1
  9
$MAXACTVP
 70
    64
  9
$PINSBASE
 10
0.0
 20
0.0
 30
0.0
  9
$PLIMCHECK
 70
     0
  9
$PEXTMIN
 10
1.000000000000000E+20
 20
1.000000000000000E+20
 30
1.000000000000000E+20
  9
$PEXTMAX
 10
-1.000000000000000E+20
 20
-1.000000000000000E+20
 30
-1.000000000000000E+20
  9
$PLIMMIN
 10
0.0
 20
0.0
  9
$PLIMMAX
 10
0.0
 20
0.0
  9
$UNITMODE
 70
     0
  9
$VISRETAIN
 70
     1
  9
$PLINEGEN
 70
     0
  9
$PSLTSCALE
 70
     1
  9
$TREEDEPTH
 70
  3020
  9
$PICKSTYLE
 70
     1
  9
$CMLSTYLE
  2
STANDARD
  9
$CMLJUST
 70
     0
  9
$CMLSCALE
 40
1.0
  9
$PROXYGRAPHICS
 70
     1
  9
$MEASUREMENT
 70
     0
  0
ENDSEC
  0
SECTION
  2
CLASSES
  0
CLASS
  1
ACDBDICTIONARYWDFLT
  2
AcDbDictionaryWithDefault
  3
ObjectDBX Classes
 90
        0
280
     0
281
     0
  0
CLASS
  1
XRECORD
  2
AcDbXrecord
  3
AutoCAD 2000
 90
        0
280
     0
281
     0
  0
CLASS
  1
LWPOLYLINE
  2
AcDbPolyline
  3
AutoCAD 2000
 90
        0
280
     0
281
     1
  0
CLASS
  1
HATCH
  2
AcDbHatch
  3
AutoCAD 2000
 90
        0
280
     0
281
     1
  0
CLASS
  1
ACDBPLACEHOLDER
  2
AcDbPlaceHolder
  3
ObjectDBX Classes
 90
        0
280
     0
281
     0
  0
CLASS
  1
LAYOUT
  2
AcDbLayout
  3
ObjectDBX Classes
 90
        0
280
     0
281
     0
  0
ENDSEC
  0
SECTION
  2
TABLES
  0
TABLE
  2
VPORT
  5
1BE7
330
0
100
AcDbSymbolTable
 70
     2
  0
VPORT
  5
1C08
102
{ACAD_XDICTIONARY
360
1C95
102
}
330
1BE7
100
AcDbSymbolTableRecord
100
AcDbViewportTableRecord
  2
*ACTIVE
 70
     0
 10
0.0
 20
0.0
 11
1.0
 21
1.0
 12
556.484189
 22
-461.51772
 13
0.0
 23
0.0
 14
10.0
 24
10.0
 15
10.0
 25
10.0
 16
0.0
 26
0.0
 36
1.0
 17
0.0
 27
0.0
 37
0.0
 40
1614.562858
 41
0.0109978726858914
 42
50.0
 43
0.0
 44
0.0
 50
0.0
 51
0.0000000000007958
 71
     0
 72
   100
 73
     1
 74
     3
 75
     0
 76
     0
 77
     0
 78
     0
  0
ENDTAB
  0
TABLE
  2
LTYPE
  5
1BE4
330
0
100
AcDbSymbolTable
 70
    25
  0
LTYPE
  5
1BF3
330
1BE4
100
AcDbSymbolTableRecord
100
AcDbLinetypeTableRecord
  2
BYBLOCK
 70
     0
  3

 72
    65
 73
     0
 40
0.0
  0
LTYPE
  5
1BF4
330
1BE4
100
AcDbSymbolTableRecord
100
AcDbLinetypeTableRecord
  2
BYLAYER
 70
     0
  3

 72
    65
 73
     0
 40
0.0
  0
LTYPE
  5
1BF5
330
1BE4
100
AcDbSymbolTableRecord
100
AcDbLinetypeTableRecord
  2
CONTINUOUS
 70
     0
  3
Solid line
 72
    65
 73
     0
 40
0.0
  0
LTYPE
  5
1C10
330
1BE4
100
AcDbSymbolTableRecord
100
AcDbLinetypeTableRecord
  2
CENTER
 70
     0
  3
Center ____ _ ____ _ ____ _ ____ _ ____ _ ____
 72
    65
 73
     4
 40
2.0
 49
1.25
 74
     0
 49
-0.25
 74
     0
 49
0.25
 74
     0
 49
-0.25
 74
     0
  0
LTYPE
  5
1C11
330
1BE4
100
AcDbSymbolTableRecord
100
AcDbLinetypeTableRecord
  2
DASHDOT
 70
     0
  3
Dashdot __ . __ . __ . __ . __ . __ . __ . __
 72
    65
 73
     4
 40
1.0
 49
0.5
 74
     0
 49
-0.25
 74
     0
 49
0.0
 74
     0
 49
-0.25
 74
     0
  0
LTYPE
  5
1C12
330
1BE4
100
AcDbSymbolTableRecord
100
AcDbLinetypeTableRecord
  2
DASHED
 70
     0
  3
Dashed __ __ __ __ __ __ __ __ __ __ __ __ __ _
 72
    65
 73
     2
 40
0.75
 49
0.5
 74
     0
 49
-0.25
 74
     0
  0
LTYPE
  5
1C13
330
1BE4
100
AcDbSymbolTableRecord
100
AcDbLinetypeTableRecord
  2
HIDDEN
 70
     0
  3
Hidden __ __ __ __ __ __ __ __ __ __ __ __ __ __
 72
    65
 73
     2
 40
0.375
 49
0.25
 74
     0
 49
-0.125
 74
     0
  0
LTYPE
  5
1C14
330
1BE4
100
AcDbSymbolTableRecord
100
AcDbLinetypeTableRecord
  2
HIDDEN2
 70
     0
  3
Hidden2 _ _ _ _ _ _ _ _ _ _ _ _ _ _ _ _ _ 
 72
    65
 73
     2
 40
0.1875
 49
0.125
 74
     0
 49
-0.0625
 74
     0
  0
LTYPE
  5
1C15
330
1BE4
100
AcDbSymbolTableRecord
100
AcDbLinetypeTableRecord
  2
BORDER
 70
     0
  3
Border __ __ . __ __ . __ __ . __ __ . __ __ .
 72
    65
 73
     6
 40
1.75
 49
0.5
 74
     0
 49
-0.25
 74
     0
 49
0.5
 74
     0
 49
-0.25
 74
     0
 49
0.0
 74
     0
 49
-0.25
 74
     0
  0
LTYPE
  5
1C16
330
1BE4
100
AcDbSymbolTableRecord
100
AcDbLinetypeTableRecord
  2
BORDER2
 70
     0
  3
Border2 __.__.__.__.__.__.__.__.__.__.__.
 72
    65
 73
     6
 40
0.875
 49
0.25
 74
     0
 49
-0.125
 74
     0
 49
0.25
 74
     0
 49
-0.125
 74
     0
 49
0.0
 74
     0
 49
-0.125
 74
     0
  0
LTYPE
  5
1C17
330
1BE4
100
AcDbSymbolTableRecord
100
AcDbLinetypeTableRecord
  2
BORDERX2
 70
     0
  3
Borderx2  ____  ____  .  ____  ____  .  ___
 72
    65
 73
     6
 40
3.5
 49
1.0
 74
     0
 49
-0.5
 74
     0
 49
1.0
 74
     0
 49
-0.5
 74
     0
 49
0.0
 74
     0
 49
-0.5
 74
     0
  0
LTYPE
  5
1C18
330
1BE4
100
AcDbSymbolTableRecord
100
AcDbLinetypeTableRecord
  2
CENTER2
 70
     0
  3
Center2  ___ _ ___ _ ___ _ ___ _ ___ _ ___
 72
    65
 73
     4
 40
1.125
 49
0.75
 74
     0
 49
-0.125
 74
     0
 49
0.125
 74
     0
 49
-0.125
 74
     0
  0
LTYPE
  5
1C19
330
1BE4
100
AcDbSymbolTableRecord
100
AcDbLinetypeTableRecord
  2
CENTERX2
 70
     0
  3
Centerx2  ________  __  ________  __  _____
 72
    65
 73
     4
 40
4.0
 49
2.5
 74
     0
 49
-0.5
 74
     0
 49
0.5
 74
     0
 49
-0.5
 74
     0
  0
LTYPE
  5
1C1A
330
1BE4
100
AcDbSymbolTableRecord
100
AcDbLinetypeTableRecord
  2
DASHDOT2
 70
     0
  3
Dashdot2  _._._._._._._._._._._._._._._.
 72
    65
 73
     4
 40
0.5
 49
0.25
 74
     0
 49
-0.125
 74
     0
 49
0.0
 74
     0
 49
-0.125
 74
     0
  0
LTYPE
  5
1C1B
330
1BE4
100
AcDbSymbolTableRecord
100
AcDbLinetypeTableRecord
  2
DASHDOTX2
 70
     0
  3
Dashdotx2 ____  .  ____  .  ____  .  ___
 72
    65
 73
     4
 40
2.0
 49
1.0
 74
     0
 49
-0.5
 74
     0
 49
0.0
 74
     0
 49
-0.5
 74
     0
  0
LTYPE
  5
1C1C
330
1BE4
100
AcDbSymbolTableRecord
100
AcDbLinetypeTableRecord
  2
DASHED2
 70
     0
  3
Dashed2 _ _ _ _ _ _ _ _ _ _ _ _ _ _ _ _ _ 
 72
    65
 73
     2
 40
0.375
 49
0.25
 74
     0
 49
-0.125
 74
     0
  0
LTYPE
  5
1C1D
330
1BE4
100
AcDbSymbolTableRecord
100
AcDbLinetypeTableRecord
  2
DASHEDX2
 70
     0
  3
Dashedx2 ____  ____  ____  ____  ____  ___
 72
    65
 73
     2
 40
1.5
 49
1.0
 74
     0
 49
-0.5
 74
     0
  0
LTYPE
  5
1C1E
330
1BE4
100
AcDbSymbolTableRecord
100
AcDbLinetypeTableRecord
  2
DIVIDE
 70
     0
  3
Divide ____ . . ____ . . ____ . . ____ . . ____
 72
    65
 73
     6
 40
1.25
 49
0.5
 74
     0
 49
-0.25
 74
     0
 49
0.0
 74
     0
 49
-0.25
 74
     0
 49
0.0
 74
     0
 49
-0.25
 74
     0
  0
LTYPE
  5
1C1F
330
1BE4
100
AcDbSymbolTableRecord
100
AcDbLinetypeTableRecord
  2
DIVIDE2
 70
     0
  3
Divide2 __..__..__..__..__..__..__..__.._
 72
    65
 73
     6
 40
0.625
 49
0.25
 74
     0
 49
-0.125
 74
     0
 49
0.0
 74
     0
 49
-0.125
 74
     0
 49
0.0
 74
     0
 49
-0.125
 74
     0
  0
LTYPE
  5
1C20
330
1BE4
100
AcDbSymbolTableRecord
100
AcDbLinetypeTableRecord
  2
DIVIDEX2
 70
     0
  3
Dividex2 ________  .  .  ________  .  .  _
 72
    65
 73
     6
 40
2.5
 49
1.0
 74
     0
 49
-0.5
 74
     0
 49
0.0
 74
     0
 49
-0.5
 74
     0
 49
0.0
 74
     0
 49
-0.5
 74
     0
  0
LTYPE
  5
1C21
330
1BE4
100
AcDbSymbolTableRecord
100
AcDbLinetypeTableRecord
  2
DOT
 70
     0
  3
Dot . . . . . . . . . . . . . . . . . . . . . . . .
 72
    65
 73
     2
 40
0.25
 49
0.0
 74
     0
 49
-0.25
 74
     0
  0
LTYPE
  5
1C22
330
1BE4
100
AcDbSymbolTableRecord
100
AcDbLinetypeTableRecord
  2
DOT2
 70
     0
  3
Dot2 ........................................
 72
    65
 73
     2
 40
0.125
 49
0.0
 74
     0
 49
-0.125
 74
     0
  0
LTYPE
  5
1C23
330
1BE4
100
AcDbSymbolTableRecord
100
AcDbLinetypeTableRecord
  2
DOTX2
 70
     0
  3
Dotx2 .  .  .  .  .  .  .  .  .  .  .  .  .  .
 72
    65
 73
     2
 40
0.5
 49
0.0
 74
     0
 49
-0.5
 74
     0
  0
LTYPE
  5
1C24
330
1BE4
100
AcDbSymbolTableRecord
100
AcDbLinetypeTableRecord
  2
HIDDENX2
 70
     0
  3
Hiddenx2 ____ ____ ____ ____ ____ ____ ____ 
 72
    65
 73
     2
 40
0.75
 49
0.5
 74
     0
 49
-0.25
 74
     0
  0
LTYPE
  5
1C25
330
1BE4
100
AcDbSymbolTableRecord
100
AcDbLinetypeTableRecord
  2
PHANTOM
 70
     0
  3
Phantom ______  __  __  ______  __  __  ______ 
 72
    65
 73
     6
 40
2.5
 49
1.25
 74
     0
 49
-0.25
 74
     0
 49
0.25
 74
     0
 49
-0.25
 74
     0
 49
0.25
 74
     0
 49
-0.25
 74
     0
  0
LTYPE
  5
1C26
330
1BE4
100
AcDbSymbolTableRecord
100
AcDbLinetypeTableRecord
  2
PHANTOM2
 70
     0
  3
Phantom2 ___ _ _ ___ _ _ ___ _ _ ___ _ _
 72
    65
 73
     6
 40
1.25
 49
0.625
 74
     0
 49
-0.125
 74
     0
 49
0.125
 74
     0
 49
-0.125
 74
     0
 49
0.125
 74
     0
 49
-0.125
 74
     0
  0
LTYPE
  5
1C27
330
1BE4
100
AcDbSymbolTableRecord
100
AcDbLinetypeTableRecord
  2
PHANTOMX2
 70
     0
  3
Phantomx2 ____________    ____    ____   _
 72
    65
 73
     6
 40
5.0
 49
2.5
 74
     0
 49
-0.5
 74
     0
 49
0.5
 74
     0
 49
-0.5
 74
     0
 49
0.5
 74
     0
 49
-0.5
 74
     0
  0
ENDTAB
  0
TABLE
  2
LAYER
  5
1BE1
330
0
100
AcDbSymbolTable
 70
     6
  0
LAYER
  5
1BEF
330
1BE1
100
AcDbSymbolTableRecord
100
AcDbLayerTableRecord
  2
0
 70
     0
 62
     7
  6
CONTINUOUS
  0
LAYER
  5
9E
330
1BE1
100
AcDbSymbolTableRecord
100
AcDbLayerTableRecord
  2
DEFPOINTS
 70
     0
 62
     7
  6
CONTINUOUS
  0
LAYER
  5
377
330
1BE1
100
AcDbSymbolTableRecord
100
AcDbLayerTableRecord
  2
V0-OBRYS
 70
     0
 62
    90
  6
CONTINUOUS
  0
LAYER
  5
378
330
1BE1
100
AcDbSymbolTableRecord
100
AcDbLayerTableRecord
  2
V0-VYPLNE
 70
     0
 62
    63
  6
DASHDOT
  0
LAYER
  5
37A
330
1BE1
100
AcDbSymbolTableRecord
100
AcDbLayerTableRecord
  2
V0-NAZVY
 70
     0
 62
   210
  6
CONTINUOUS
  0
LAYER
  5
559
330
1BE1
100
AcDbSymbolTableRecord
100
AcDbLayerTableRecord
  2
V0-ZBYTEK
 70
     0
 62
    51
  6
CONTINUOUS
  0
ENDTAB
  0
TABLE
  2
STYLE
  5
1BE2
330
0
100
AcDbSymbolTable
 70
     5
  0
STYLE
  5
1BF0
330
1BE2
100
AcDbSymbolTableRecord
100
AcDbTextStyleTableRecord
  2
STANDARD
 70
     0
 40
0.0
 41
1.0
 50
0.0
 71
     0
 42
0.2
  3
ISOCP.shx
  4

1001
ACAD
1000
ISOCP.shx
1071
        0
  0
STYLE
  5
331
330
1BE2
100
AcDbSymbolTableRecord
100
AcDbTextStyleTableRecord
  2
ED20
 70
     0
 40
25.0
 41
1.0
 50
0.0
 71
     0
 42
0.2
  3
ISOCP.shx
  4

1001
ACAD
1000
ISOCP.shx
1071
        0
  0
STYLE
  5
648
330
1BE2
100
AcDbSymbolTableRecord
100
AcDbTextStyleTableRecord
  2
ED10
 70
     0
 40
10.0
 41
1.0
 50
0.0
 71
     0
 42
0.2
  3
ISOCP.shx
  4

1001
ACAD
1000
ISOCP.shx
1071
        0
  0
STYLE
  5
F38
330
1BE2
100
AcDbSymbolTableRecord
100
AcDbTextStyleTableRecord
  2
ED30
 70
     0
 40
30.0
 41
1.0
 50
0.0
 71
     0
 42
0.2
  3
ISOCP.shx
  4

1001
ACAD
1000
ISOCP.shx
1071
        0
  0
STYLE
  5
F39
330
1BE2
100
AcDbSymbolTableRecord
100
AcDbTextStyleTableRecord
  2
ED40
 70
     0
 40
40.0
 41
1.0
 50
0.0
 71
     0
 42
0.2
  3
ISOCP.shx
  4

1001
ACAD
1000
ISOCP.shx
1071
        0
  0
ENDTAB
  0
TABLE
  2
VIEW
  5
1BE5
330
0
100
AcDbSymbolTable
 70
     0
  0
ENDTAB
  0
TABLE
  2
UCS
  5
1BE6
330
0
100
AcDbSymbolTable
 70
     0
  0
ENDTAB
  0
TABLE
  2
APPID
  5
1BE8
330
0
100
AcDbSymbolTable
 70
     6
  0
APPID
  5
1BF1
330
1BE8
100
AcDbSymbolTableRecord
100
AcDbRegAppTableRecord
  2
ACAD
 70
     0
  0
APPID
  5
1C09
330
1BE8
100
AcDbSymbolTableRecord
100
AcDbRegAppTableRecord
  2
VD_INVISIBLE_NOT_FOR_READ
 70
     0
  0
APPID
  5
1C0A
330
1BE8
100
AcDbSymbolTableRecord
100
AcDbRegAppTableRecord
  2
VD_TEMPHATCH
 70
     0
  0
APPID
  5
1C0B
330
1BE8
100
AcDbSymbolTableRecord
100
AcDbRegAppTableRecord
  2
VDEXTRAPARAM
 70
     0
  0
APPID
  5
1C0C
330
1BE8
100
AcDbSymbolTableRecord
100
AcDbRegAppTableRecord
  2
PE_URL
 70
     0
  0
APPID
  5
1C0D
330
1BE8
100
AcDbSymbolTableRecord
100
AcDbRegAppTableRecord
  2
VD_UNKNOWN
 70
     0
  0
ENDTAB
  0
TABLE
  2
DIMSTYLE
  5
1BE9
330
0
100
AcDbSymbolTable
 70
     5
  0
DIMSTYLE
105
1C06
330
1BE9
100
AcDbSymbolTableRecord
100
AcDbDimStyleTableRecord
  2
STANDARD
 70
     0
  3

  4

  5
OPEN
  6

  7

 40
1.0
 41
15.0
 42
0.625
 43
0.38
 44
1.25
 45
0.0
 46
0.0
 47
0.0
 48
0.0
140
15.0
141
0.09
142
0.0
143
25.4
144
1.0
145
0.0
146
1.0
147
3.0
 71
     0
 72
     0
 73
     0
 74
     0
 75
     0
 76
     0
 77
     1
 78
     0
170
     0
171
     2
172
     1
173
     0
174
     1
175
     0
176
     0
177
     0
178
     0
270
     2
271
     0
272
     4
273
     2
274
     2
340
331
275
     0
280
     0
281
     0
282
     0
283
     1
284
     0
285
     0
286
     0
287
     3
288
     1
  0
DIMSTYLE
105
397
330
1BE9
100
AcDbSymbolTableRecord
100
AcDbDimStyleTableRecord
  2
ED40
 70
     0
  3

  4

  5
OPEN
  6

  7

 40
1.0
 41
35.0
 42
1.0
 43
0.38
 44
1.25
 45
0.0
 46
0.0
 47
0.0
 48
0.0
140
40.0
141
0.09
142
0.0
143
25.4
144
1.0
145
0.0
146
1.0
147
4.0
 71
     0
 72
     0
 73
     0
 74
     0
 75
     0
 76
     0
 77
     1
 78
     0
170
     0
171
     2
172
     1
173
     0
174
     1
175
     0
176
     0
177
     0
178
     0
270
     2
271
     0
272
     4
273
     2
274
     2
340
F39
275
     0
280
     0
281
     0
282
     0
283
     1
284
     0
285
     0
286
     0
287
     3
288
     1
  0
DIMSTYLE
105
FEA
102
{ACAD_REACTORS
330
1469
330
1476
330
1483
330
1490
330
14E2
102
}
330
1BE9
100
AcDbSymbolTableRecord
100
AcDbDimStyleTableRecord
  2
ED30
 70
     0
  3

  4

  5
OPEN
  6

  7

 40
1.0
 41
25.0
 42
1.0
 43
0.38
 44
1.25
 45
0.0
 46
0.0
 47
0.0
 48
0.0
140
30.0
141
0.09
142
0.0
143
25.4
144
1.0
145
0.0
146
1.0
147
4.0
 71
     0
 72
     0
 73
     0
 74
     0
 75
     0
 76
     0
 77
     1
 78
     0
170
     0
171
     2
172
     1
173
     0
174
     1
175
     0
176
     0
177
     0
178
     0
270
     2
271
     0
272
     4
273
     2
274
     2
340
F38
275
     0
280
     0
281
     0
282
     0
283
     1
284
     0
285
     0
286
     0
287
     3
288
     1
  0
DIMSTYLE
105
1457
330
1BE9
100
AcDbSymbolTableRecord
100
AcDbDimStyleTableRecord
  2
ED20
 70
     0
  3

  4

  5
OPEN
  6

  7

 40
1.0
 41
20.0
 42
1.0
 43
0.38
 44
1.25
 45
0.0
 46
0.0
 47
0.0
 48
0.0
140
20.0
141
0.09
142
0.0
143
25.4
144
1.0
145
0.0
146
1.0
147
1.5
 71
     0
 72
     0
 73
     0
 74
     0
 75
     0
 76
     0
 77
     1
 78
     0
170
     0
171
     2
172
     1
173
     0
174
     1
175
     0
176
     0
177
     0
178
     0
270
     2
271
     0
272
     4
273
     2
274
     2
340
331
275
     0
280
     0
281
     0
282
     0
283
     1
284
     0
285
     0
286
     0
287
     3
288
     1
  0
DIMSTYLE
105
1458
330
1BE9
100
AcDbSymbolTableRecord
100
AcDbDimStyleTableRecord
  2
ED10
 70
     0
  3

  4

  5
OPEN
  6

  7

 40
1.0
 41
15.0
 42
1.0
 43
0.38
 44
1.25
 45
0.0
 46
0.0
 47
0.0
 48
0.0
140
10.0
141
0.09
142
0.0
143
25.4
144
1.0
145
0.0
146
1.0
147
1.5
 71
     0
 72
     0
 73
     0
 74
     0
 75
     0
 76
     0
 77
     1
 78
     0
170
     0
171
     2
172
     1
173
     0
174
     1
175
     0
176
     0
177
     0
178
     0
270
     2
271
     0
272
     4
273
     2
274
     2
340
331
275
     0
280
     0
281
     0
282
     0
283
     1
284
     0
285
     0
286
     0
287
     3
288
     1
  0
ENDTAB
  0
TABLE
  2
BLOCK_RECORD
  5
1BE0
330
0
100
AcDbSymbolTable
 70
    10
  0
BLOCK_RECORD
  5
1BFE
330
1BE0
100
AcDbSymbolTableRecord
100
AcDbBlockTableRecord
  2
*MODEL_SPACE
  0
BLOCK_RECORD
  5
1BFA
330
1BE0
100
AcDbSymbolTableRecord
100
AcDbBlockTableRecord
  2
*PAPER_SPACE
  0
BLOCK_RECORD
  5
90
330
1BE0
100
AcDbSymbolTableRecord
100
AcDbBlockTableRecord
  2
_OPEN
  0
BLOCK_RECORD
  5
1459
330
1BE0
100
AcDbSymbolTableRecord
100
AcDbBlockTableRecord
  2
A10_100
  0
BLOCK_RECORD
  5
1BDC
330
1BE0
100
AcDbSymbolTableRecord
100
AcDbBlockTableRecord
  2
VDDIM_DEFAULT
  0
BLOCK_RECORD
  5
1BDE
330
1BE0
100
AcDbSymbolTableRecord
100
AcDbBlockTableRecord
  2
VDDIM_NONE
  0
BLOCK_RECORD
  5
1C31
330
1BE0
100
AcDbSymbolTableRecord
100
AcDbBlockTableRecord
  2
*D5
  0
BLOCK_RECORD
  5
1C3E
330
1BE0
100
AcDbSymbolTableRecord
100
AcDbBlockTableRecord
  2
*D6
  0
BLOCK_RECORD
  5
1C4B
330
1BE0
100
AcDbSymbolTableRecord
100
AcDbBlockTableRecord
  2
*D7
  0
BLOCK_RECORD
  5
1C58
330
1BE0
100
AcDbSymbolTableRecord
100
AcDbBlockTableRecord
  2
*D8
  0
BLOCK_RECORD
  5
1C65
330
1BE0
100
AcDbSymbolTableRecord
100
AcDbBlockTableRecord
  2
*D9
  0
ENDTAB
  0
ENDSEC
  0
SECTION
  2
BLOCKS
  0
BLOCK
  5
1BFF
330
1BFE
100
AcDbEntity
  8
0
100
AcDbBlockBegin
  2
*MODEL_SPACE
 70
     0
 71
     0
 10
0.0
 20
0.0
 30
0.0
  3
*MODEL_SPACE
  1

  0
ENDBLK
  5
1C00
330
1BFE
100
AcDbEntity
  8
0
100
AcDbBlockEnd
  0
BLOCK
  5
1BFB
330
1BFA
100
AcDbEntity
 67
     1
  8
0
100
AcDbBlockBegin
  2
*PAPER_SPACE
 70
     0
 71
     0
 10
0.0
 20
0.0
 30
0.0
  3
*PAPER_SPACE
  1

  0
ENDBLK
  5
1BFC
330
1BFA
100
AcDbEntity
 67
     1
  8
0
100
AcDbBlockEnd
  0
BLOCK
  5
1C28
330
90
100
AcDbEntity
  8
0
100
AcDbBlockBegin
  2
_OPEN
 70
     0
 71
     0
 10
0.0
 20
0.0
 30
0.0
  3
_OPEN
  1

  0
LINE
  5
92
330
90
100
AcDbEntity
  8
0
  6
BYBLOCK
 62
     0
100
AcDbLine
 10
-1.0
 20
0.166667
 30
0.0
 11
0.0
 21
0.0
 31
0.0
  0
LINE
  5
93
330
90
100
AcDbEntity
  8
0
  6
BYBLOCK
 62
     0
100
AcDbLine
 10
0.0
 20
0.0
 30
0.0
 11
-1.0
 21
-0.166667
 31
0.0
  0
LINE
  5
94
330
90
100
AcDbEntity
  8
0
  6
BYBLOCK
 62
     0
100
AcDbLine
 10
0.0
 20
0.0
 30
0.0
 11
-1.0
 21
0.0
 31
0.0
  0
ENDBLK
  5
1C29
330
90
100
AcDbEntity
  8
0
100
AcDbBlockEnd
  0
BLOCK
  5
1C2A
330
1459
100
AcDbEntity
  8
0
100
AcDbBlockBegin
  2
A10_100
 70
     0
 71
     0
 10
0.0
 20
0.0
 30
0.0
  3
A10_100
  1

  0
ENDBLK
  5
1C2B
330
1459
100
AcDbEntity
  8
0
100
AcDbBlockEnd
  0
BLOCK
  5
1C2C
330
1BDC
100
AcDbEntity
  8
0
100
AcDbBlockBegin
  2
VDDIM_DEFAULT
 70
     0
 71
     0
 10
0.0
 20
0.0
 30
0.0
  3
VDDIM_DEFAULT
  1

  0
LWPOLYLINE
  5
1BDD
330
1BDC
100
AcDbEntity
  8
0
  6
CONTINUOUS
 62
     0
100
AcDbPolyline
 90
        4
 70
     0
 43
0.0
 10
0.0
 20
0.0
 10
-1.0
 20
-0.1665
 10
-1.0
 20
0.1665
 10
0.0
 20
0.0
1001
VDEXTRAPARAM
1071
        1
1071
        0
1071
        0
1040
1.0
1000

1000

1040
0.0
1040
0.0
  0
HATCH
  5
1C30
330
1BDC
100
AcDbEntity
  8
0
  6
CONTINUOUS
 62
     0
100
AcDbHatch
 10
0.0
 20
0.0
 30
0.0
210
0.0
220
0.0
230
1.0
  2
SOLID
 70
     1
 71
     0
 91
        1
 92
        2
 72
     0
 73
     1
 93
        3
 10
0.0
 20
0.0
 10
-1.0
 20
-0.1665
 10
-1.0
 20
0.1665
 97
        0
 75
     0
 76
     1
 98
        1
 10
0.0
 20
0.0
1001
VDEXTRAPARAM
1071
        1
1071
        0
1071
        0
1040
1.0
1000

1000

1040
0.0
1040
0.0
1001
VD_TEMPHATCH
1000
VD_TEMPHATCH
  0
ENDBLK
  5
1C2D
330
1BDC
100
AcDbEntity
  8
0
100
AcDbBlockEnd
  0
BLOCK
  5
1C2E
330
1BDE
100
AcDbEntity
  8
0
100
AcDbBlockBegin
  2
VDDIM_NONE
 70
     0
 71
     0
 10
0.0
 20
0.0
 30
0.0
  3
VDDIM_NONE
  1

  0
ENDBLK
  5
1C2F
330
1BDE
100
AcDbEntity
  8
0
100
AcDbBlockEnd
  0
BLOCK
  5
1C3C
330
1C31
100
AcDbEntity
  8
0
100
AcDbBlockBegin
  2
*D5
 70
     1
 71
     0
 10
0.0
 20
0.0
 30
0.0
  3
*D5
  1

  0
LINE
  5
1C32
330
1C31
100
AcDbEntity
  8
V0-VYPLNE
 62
     0
100
AcDbLine
 10
28.641239
 20
-277.166006
 30
0.0
 11
28.64123899999999
 21
-335.7463759999955
 31
0.0
  0
LINE
  5
1C33
330
1C31
100
AcDbEntity
  8
V0-VYPLNE
 62
     0
100
AcDbLine
 10
383.641239
 20
-277.166006
 30
0.0
 11
383.641239
 21
-335.7463759999955
 31
0.0
  0
LINE
  5
1C34
330
1C31
100
AcDbEntity
  8
V0-VYPLNE
 62
     0
100
AcDbLine
 10
53.64123899999999
 20
-334.4963759999955
 30
0.0
 11
146.1172718571429
 21
-334.4963759999955
 31
0.0
  0
LINE
  5
1C35
330
1C31
100
AcDbEntity
  8
V0-VYPLNE
 62
     0
100
AcDbLine
 10
358.641239
 20
-334.4963759999955
 30
0.0
 11
258.4029861428571
 21
-334.4963759999955
 31
0.0
  0
INSERT
  5
1C36
330
1C31
100
AcDbEntity
  8
V0-VYPLNE
 62
     0
100
AcDbBlockReference
  2
_OPEN
 10
28.64123899999999
 20
-334.4963759999955
 30
0.0
 41
25.0
 42
25.0
 43
25.0
 50
180.0
  0
INSERT
  5
1C37
330
1C31
100
AcDbEntity
  8
V0-VYPLNE
 62
     0
100
AcDbBlockReference
  2
_OPEN
 10
383.641239
 20
-334.4963759999955
 30
0.0
 41
25.0
 42
25.0
 43
25.0
  0
MTEXT
  5
1C38
330
1C31
100
AcDbEntity
  8
V0-VYPLNE
 62
     0
100
AcDbMText
 10
202.260129
 20
-334.496376
 30
0.0
 40
30.0
 41
0.0
 71
     5
 72
     1
  1
%%c\A1;355
  7
ED30
  0
POINT
  5
1C39
330
1C31
100
AcDbEntity
  8
DEFPOINTS
 62
     0
100
AcDbPoint
 10
28.641239
 20
-276.166006
 30
0.0
  0
POINT
  5
1C3A
330
1C31
100
AcDbEntity
  8
DEFPOINTS
 62
     0
100
AcDbPoint
 10
383.641239
 20
-276.166006
 30
0.0
  0
POINT
  5
1C3B
330
1C31
100
AcDbEntity
  8
DEFPOINTS
 62
     0
100
AcDbPoint
 10
383.641239
 20
-334.4963759999955
 30
0.0
  0
ENDBLK
  5
1C3D
330
1C31
100
AcDbEntity
  8
0
100
AcDbBlockEnd
  0
BLOCK
  5
1C49
330
1C3E
100
AcDbEntity
  8
0
100
AcDbBlockBegin
  2
*D6
 70
     1
 71
     0
 10
0.0
 20
0.0
 30
0.0
  3
*D6
  1

  0
LINE
  5
1C3F
330
1C3E
100
AcDbEntity
  8
V0-VYPLNE
 62
     0
100
AcDbLine
 10
-18.858761
 20
-277.166006
 30
0.0
 11
-18.85876100000002
 21
-390.2473719999834
 31
0.0
  0
LINE
  5
1C40
330
1C3E
100
AcDbEntity
  8
V0-VYPLNE
 62
     0
100
AcDbLine
 10
431.141239
 20
-277.166006
 30
0.0
 11
431.141239
 21
-390.2473719999834
 31
0.0
  0
LINE
  5
1C41
330
1C3E
100
AcDbEntity
  8
V0-VYPLNE
 62
     0
100
AcDbLine
 10
6.141238999999985
 20
-388.9973719999834
 30
0.0
 11
155.7921814285714
 21
-388.9973719999834
 31
0.0
  0
LINE
  5
1C42
330
1C3E
100
AcDbEntity
  8
V0-VYPLNE
 62
     0
100
AcDbLine
 10
406.141239
 20
-388.9973719999834
 30
0.0
 11
240.9350385714286
 21
-388.9973719999834
 31
0.0
  0
INSERT
  5
1C43
330
1C3E
100
AcDbEntity
  8
V0-VYPLNE
 62
     0
100
AcDbBlockReference
  2
_OPEN
 10
-18.85876100000002
 20
-388.9973719999834
 30
0.0
 41
25.0
 42
25.0
 43
25.0
 50
180.0
  0
INSERT
  5
1C44
330
1C3E
100
AcDbEntity
  8
V0-VYPLNE
 62
     0
100
AcDbBlockReference
  2
_OPEN
 10
431.141239
 20
-388.9973719999834
 30
0.0
 41
25.0
 42
25.0
 43
25.0
  0
MTEXT
  5
1C45
330
1C3E
100
AcDbEntity
  8
V0-VYPLNE
 62
     0
100
AcDbMText
 10
198.36361
 20
-388.997372
 30
0.0
 40
30.0
 41
0.0
 71
     5
 72
     1
  1
\A1;450
  7
ED30
  0
POINT
  5
1C46
330
1C3E
100
AcDbEntity
  8
DEFPOINTS
 62
     0
100
AcDbPoint
 10
-18.858761
 20
-276.166006
 30
0.0
  0
POINT
  5
1C47
330
1C3E
100
AcDbEntity
  8
DEFPOINTS
 62
     0
100
AcDbPoint
 10
431.141239
 20
-276.166006
 30
0.0
  0
POINT
  5
1C48
330
1C3E
100
AcDbEntity
  8
DEFPOINTS
 62
     0
100
AcDbPoint
 10
431.141239
 20
-388.9973719999834
 30
0.0
  0
ENDBLK
  5
1C4A
330
1C3E
100
AcDbEntity
  8
0
100
AcDbBlockEnd
  0
BLOCK
  5
1C56
330
1C4B
100
AcDbEntity
  8
0
100
AcDbBlockBegin
  2
*D7
 70
     1
 71
     0
 10
0.0
 20
0.0
 30
0.0
  3
*D7
  1

  0
LINE
  5
1C4C
330
1C4B
100
AcDbEntity
  8
V0-VYPLNE
 62
     0
100
AcDbLine
 10
-73.858761
 20
-277.166006
 30
0.0
 11
-73.85876100000002
 21
-456.4271510000107
 31
0.0
  0
LINE
  5
1C4D
330
1C4B
100
AcDbEntity
  8
V0-VYPLNE
 62
     0
100
AcDbLine
 10
486.141239
 20
-277.166006
 30
0.0
 11
486.141239
 21
-456.4271510000108
 31
0.0
  0
LINE
  5
1C4E
330
1C4B
100
AcDbEntity
  8
V0-VYPLNE
 62
     0
100
AcDbLine
 10
-48.85876100000002
 20
-455.1771510000107
 30
0.0
 11
163.5698104285714
 21
-455.1771510000108
 31
0.0
  0
LINE
  5
1C4F
330
1C4B
100
AcDbEntity
  8
V0-VYPLNE
 62
     0
100
AcDbLine
 10
461.141239
 20
-455.1771510000108
 30
0.0
 11
248.7126675714286
 21
-455.1771510000108
 31
0.0
  0
INSERT
  5
1C50
330
1C4B
100
AcDbEntity
  8
V0-VYPLNE
 62
     0
100
AcDbBlockReference
  2
_OPEN
 10
-73.85876100000002
 20
-455.1771510000107
 30
0.0
 41
25.0
 42
25.0
 43
25.0
 50
180.0
  0
INSERT
  5
1C51
330
1C4B
100
AcDbEntity
  8
V0-VYPLNE
 62
     0
100
AcDbBlockReference
  2
_OPEN
 10
486.141239
 20
-455.1771510000108
 30
0.0
 41
25.0
 42
25.0
 43
25.0
 50
360.0
  0
MTEXT
  5
1C52
330
1C4B
100
AcDbEntity
  8
V0-VYPLNE
 62
     0
100
AcDbMText
 10
206.141239
 20
-455.177151
 30
0.0
 40
30.0
 41
0.0
 71
     5
 72
     1
  1
\A1;560
  7
ED30
  0
POINT
  5
1C53
330
1C4B
100
AcDbEntity
  8
DEFPOINTS
 62
     0
100
AcDbPoint
 10
-73.858761
 20
-276.166006
 30
0.0
  0
POINT
  5
1C54
330
1C4B
100
AcDbEntity
  8
DEFPOINTS
 62
     0
100
AcDbPoint
 10
486.141239
 20
-276.166006
 30
0.0
  0
POINT
  5
1C55
330
1C4B
100
AcDbEntity
  8
DEFPOINTS
 62
     0
100
AcDbPoint
 10
486.141239
 20
-455.1771510000108
 30
0.0
  0
ENDBLK
  5
1C57
330
1C4B
100
AcDbEntity
  8
0
100
AcDbBlockEnd
  0
BLOCK
  5
1C63
330
1C58
100
AcDbEntity
  8
0
100
AcDbBlockBegin
  2
*D8
 70
     1
 71
     0
 10
0.0
 20
0.0
 30
0.0
  3
*D8
  1

  0
LINE
  5
1C59
330
1C58
100
AcDbEntity
  8
V0-VYPLNE
 62
     0
100
AcDbLine
 10
487.141239
 20
-276.166006
 30
0.0
 11
655.5060910000032
 21
-276.1660059999999
 31
0.0
  0
LINE
  5
1C5A
330
1C58
100
AcDbEntity
  8
V0-VYPLNE
 62
     0
100
AcDbLine
 10
207.141239
 20
192.833994
 30
0.0
 11
655.5060910000033
 21
192.833994
 31
0.0
  0
LINE
  5
1C5B
330
1C58
100
AcDbEntity
  8
V0-VYPLNE
 62
     0
100
AcDbLine
 10
654.2560910000032
 20
-251.166006
 30
0.0
 11
654.2560910000033
 21
-71.52732885714289
 31
0.0
  0
LINE
  5
1C5C
330
1C58
100
AcDbEntity
  8
V0-VYPLNE
 62
     0
100
AcDbLine
 10
654.2560910000033
 20
167.833994
 30
0.0
 11
654.2560910000033
 21
12.18695685714289
 31
0.0
  0
INSERT
  5
1C5D
330
1C58
100
AcDbEntity
  8
V0-VYPLNE
 62
     0
100
AcDbBlockReference
  2
_OPEN
 10
654.2560910000032
 20
-276.166006
 30
0.0
 41
25.0
 42
25.0
 43
25.0
 50
269.9999999999999
  0
INSERT
  5
1C5E
330
1C58
100
AcDbEntity
  8
V0-VYPLNE
 62
     0
100
AcDbBlockReference
  2
_OPEN
 10
654.2560910000033
 20
192.833994
 30
0.0
 41
25.0
 42
25.0
 43
25.0
 50
89.99999999999997
  0
MTEXT
  5
1C5F
330
1C58
100
AcDbEntity
  8
V0-VYPLNE
 62
     0
100
AcDbMText
 10
654.256091
 20
-29.670186
 30
0.0
 40
30.0
 41
0.0
 71
     5
 72
     1
  1
\A1;469
  7
ED30
 11
2.424026390652794E-16
 21
1.0
 31
0.0
  0
POINT
  5
1C60
330
1C58
100
AcDbEntity
  8
DEFPOINTS
 62
     0
100
AcDbPoint
 10
486.141239
 20
-276.166006
 30
0.0
  0
POINT
  5
1C61
330
1C58
100
AcDbEntity
  8
DEFPOINTS
 62
     0
100
AcDbPoint
 10
206.141239
 20
192.833994
 30
0.0
  0
POINT
  5
1C62
330
1C58
100
AcDbEntity
  8
DEFPOINTS
 62
     0
100
AcDbPoint
 10
654.2560910000033
 20
192.833994
 30
0.0
  0
ENDBLK
  5
1C64
330
1C58
100
AcDbEntity
  8
0
100
AcDbBlockEnd
  0
BLOCK
  5
1C70
330
1C65
100
AcDbEntity
  8
0
100
AcDbBlockBegin
  2
*D9
 70
     1
 71
     0
 10
0.0
 20
0.0
 30
0.0
  3
*D9
  1

  0
LINE
  5
1C66
330
1C65
100
AcDbEntity
  8
V0-VYPLNE
 62
     0
100
AcDbLine
 10
-174.858761
 20
16.578324
 30
0.0
 11
-174.858761
 21
251.8706450000173
 31
0.0
  0
LINE
  5
1C67
330
1C65
100
AcDbEntity
  8
V0-VYPLNE
 62
     0
100
AcDbLine
 10
587.141239
 20
16.578324
 30
0.0
 11
587.141239
 21
251.8706450000173
 31
0.0
  0
LINE
  5
1C68
330
1C65
100
AcDbEntity
  8
V0-VYPLNE
 62
     0
100
AcDbLine
 10
-149.858761
 20
250.6206450000173
 30
0.0
 11
146.1172718571429
 21
250.6206450000173
 31
0.0
  0
LINE
  5
1C69
330
1C65
100
AcDbEntity
  8
V0-VYPLNE
 62
     0
100
AcDbLine
 10
562.141239
 20
250.6206450000173
 30
0.0
 11
258.4029861428571
 21
250.6206450000173
 31
0.0
  0
INSERT
  5
1C6A
330
1C65
100
AcDbEntity
  8
V0-VYPLNE
 62
     0
100
AcDbBlockReference
  2
_OPEN
 10
-174.858761
 20
250.6206450000173
 30
0.0
 41
25.0
 42
25.0
 43
25.0
 50
180.0
  0
INSERT
  5
1C6B
330
1C65
100
AcDbEntity
  8
V0-VYPLNE
 62
     0
100
AcDbBlockReference
  2
_OPEN
 10
587.141239
 20
250.6206450000173
 30
0.0
 41
25.0
 42
25.0
 43
25.0
 50
360.0
  0
MTEXT
  5
1C6C
330
1C65
100
AcDbEntity
  8
V0-VYPLNE
 62
     0
100
AcDbMText
 10
202.260129
 20
250.620645
 30
0.0
 40
30.0
 41
0.0
 71
     5
 72
     1
  1
%%c\A1;762
  7
ED30
  0
POINT
  5
1C6D
330
1C65
100
AcDbEntity
  8
DEFPOINTS
 62
     0
100
AcDbPoint
 10
-174.858761
 20
15.578324
 30
0.0
  0
POINT
  5
1C6E
330
1C65
100
AcDbEntity
  8
DEFPOINTS
 62
     0
100
AcDbPoint
 10
587.141239
 20
15.578324
 30
0.0
  0
POINT
  5
1C6F
330
1C65
100
AcDbEntity
  8
DEFPOINTS
 62
     0
100
AcDbPoint
 10
587.141239
 20
250.6206450000173
 30
0.0
  0
ENDBLK
  5
1C71
330
1C65
100
AcDbEntity
  8
0
100
AcDbBlockEnd
  0
ENDSEC
  0
SECTION
  2
ENTITIES
  0
LINE
  5
1127
330
1BFE
100
AcDbEntity
  8
V0-VYPLNE
  6
DASHDOT
 62
    63
100
AcDbLine
 10
206.141239
 20
-567.786784
 30
0.0
 11
206.141239
 21
-1228.701271
 31
0.0
  0
CIRCLE
  5
11B0
330
1BFE
100
AcDbEntity
  8
V0-VYPLNE
  6
DASHED
 62
    56
100
AcDbCircle
 10
430.801339
 20
-667.738143
 30
0.0
 40
6.41886
  0
LINE
  5
11B1
330
1BFE
100
AcDbEntity
  8
V0-VYPLNE
 62
    63
100
AcDbLine
 10
430.801339
 20
-695.247543
 30
0.0
 11
430.801339
 21
-640.228743
 31
0.0
  0
LINE
  5
11BB
330
1BFE
100
AcDbEntity
  8
V0-VYPLNE
100
AcDbLine
 10
206.141239
 20
192.833994
 30
0.0
 11
206.141239
 21
-272.319392
 31
0.0
  0
LINE
  5
11BE
330
1BFE
100
AcDbEntity
  8
V0-VYPLNE
100
AcDbLine
 10
-18.858761
 20
-286.166006
 30
0.0
 11
-18.858761
 21
-236.166006
 31
0.0
  0
LINE
  5
11BF
330
1BFE
100
AcDbEntity
  8
V0-VYPLNE
100
AcDbLine
 10
431.141239
 20
-286.166006
 30
0.0
 11
431.141239
 21
-236.166006
 31
0.0
  0
POINT
  5
12BC
330
1BFE
100
AcDbEntity
  8
V0-VYPLNE
  6
CONTINUOUS
 62
    41
100
AcDbPoint
 10
206.141239
 20
-892.398243
 30
0.0
  0
POINT
  5
12BD
330
1BFE
100
AcDbEntity
  8
V0-VYPLNE
  6
CONTINUOUS
 62
    41
100
AcDbPoint
 10
206.141239
 20
-276.166006
 30
0.0
  0
LINE
  5
13BB
330
1BFE
100
AcDbEntity
  8
V0-VYPLNE
  6
DASHDOT
 62
    63
100
AcDbLine
 10
-102.47022
 20
-892.398243
 30
0.0
 11
542.444268
 21
-892.398243
 31
0.0
  0
CIRCLE
  5
13BE
330
1BFE
100
AcDbEntity
  8
V0-OBRYS
  6
CONTINUOUS
 62
    90
100
AcDbCircle
 10
206.141239
 20
-892.398243
 30
0.0
 40
380.97
  0
CIRCLE
  5
13BF
330
1BFE
100
AcDbEntity
  8
V0-OBRYS
  6
CONTINUOUS
 62
    90
100
AcDbCircle
 10
206.141239
 20
-892.398243
 30
0.0
 40
355.980298
  0
CIRCLE
  5
13C0
330
1BFE
100
AcDbEntity
  8
V0-VYPLNE
  6
DASHED
 62
    52
100
AcDbCircle
 10
206.141239
 20
-892.398243
 30
0.0
 40
177.55395
  0
LINE
  5
13C2
330
1BFE
100
AcDbEntity
  8
V0-VYPLNE
 62
    63
100
AcDbLine
 10
458.310739
 20
-667.738143
 30
0.0
 11
403.291939
 21
-667.738143
 31
0.0
  0
LINE
  5
13C5
330
1BFE
100
AcDbEntity
  8
V0-VYPLNE
 62
    63
100
AcDbLine
 10
8.990539
 20
-667.738143
 30
0.0
 11
-46.028261
 21
-667.738143
 31
0.0
  0
LINE
  5
13C6
330
1BFE
100
AcDbEntity
  8
V0-VYPLNE
 62
    63
100
AcDbLine
 10
-18.518861
 20
-640.228743
 30
0.0
 11
-18.518861
 21
-695.247543
 31
0.0
  0
CIRCLE
  5
13C7
330
1BFE
100
AcDbEntity
  8
V0-VYPLNE
  6
DASHED
 62
    56
100
AcDbCircle
 10
-18.518861
 20
-667.738143
 30
0.0
 40
6.41886
  0
LINE
  5
13C8
330
1BFE
100
AcDbEntity
  8
V0-VYPLNE
 62
    63
100
AcDbLine
 10
-18.518861
 20
-1089.548943
 30
0.0
 11
-18.518861
 21
-1144.567743
 31
0.0
  0
LINE
  5
13C9
330
1BFE
100
AcDbEntity
  8
V0-VYPLNE
 62
    63
100
AcDbLine
 10
-46.028261
 20
-1117.058343
 30
0.0
 11
8.990538999999998
 21
-1117.058343
 31
0.0
  0
CIRCLE
  5
13CA
330
1BFE
100
AcDbEntity
  8
V0-VYPLNE
  6
DASHED
 62
    56
100
AcDbCircle
 10
-18.518861
 20
-1117.058343
 30
0.0
 40
6.41886
  0
LINE
  5
13CB
330
1BFE
100
AcDbEntity
  8
V0-VYPLNE
 62
    63
100
AcDbLine
 10
403.291939
 20
-1117.058343
 30
0.0
 11
458.310739
 21
-1117.058343
 31
0.0
  0
LINE
  5
13CC
330
1BFE
100
AcDbEntity
  8
V0-VYPLNE
 62
    63
100
AcDbLine
 10
430.801339
 20
-1144.567743
 30
0.0
 11
430.801339
 21
-1089.548943
 31
0.0
  0
CIRCLE
  5
13CD
330
1BFE
100
AcDbEntity
  8
V0-VYPLNE
  6
DASHED
 62
    56
100
AcDbCircle
 10
430.801339
 20
-1117.058343
 30
0.0
 40
6.41886
  0
LINE
  5
13CE
330
1BFE
100
AcDbEntity
  8
V0-VYPLNE
  6
DASHED
 62
    52
100
AcDbLine
 10
485.941239
 20
-613.598243
 30
0.0
 11
-73.65876100000003
 21
-613.598243
 31
0.0
  0
LINE
  5
13CF
330
1BFE
100
AcDbEntity
  8
V0-VYPLNE
  6
DASHED
 62
    52
100
AcDbLine
 10
-73.658761
 20
-613.598243
 30
0.0
 11
-73.658761
 21
-1172.198243
 31
0.0
  0
LINE
  5
13D0
330
1BFE
100
AcDbEntity
  8
V0-VYPLNE
  6
DASHED
 62
    52
100
AcDbLine
 10
-73.658761
 20
-1172.198243
 30
0.0
 11
485.941239
 21
-1172.198243
 31
0.0
  0
LINE
  5
13D1
330
1BFE
100
AcDbEntity
  8
V0-VYPLNE
  6
DASHED
 62
    52
100
AcDbLine
 10
485.941239
 20
-1172.198243
 30
0.0
 11
485.941239
 21
-613.598243
 31
0.0
  0
LINE
  5
13D2
330
1BFE
100
AcDbEntity
  8
V0-OBRYS
  6
CONTINUOUS
 62
    90
100
AcDbLine
 10
-73.858761
 20
-276.166006
 30
0.0
 11
486.141239
 21
-276.166006
 31
0.0
  0
LINE
  5
13D3
330
1BFE
100
AcDbEntity
  8
V0-OBRYS
  6
CONTINUOUS
 62
    90
100
AcDbLine
 10
486.141239
 20
-276.166006
 30
0.0
 11
486.141239
 21
-261.166006
 31
0.0
  0
LINE
  5
13D4
330
1BFE
100
AcDbEntity
  8
V0-OBRYS
  6
CONTINUOUS
 62
    90
100
AcDbLine
 10
486.141239
 20
-261.166006
 30
0.0
 11
-73.85876100000002
 21
-261.166006
 31
0.0
  0
LINE
  5
13D5
330
1BFE
100
AcDbEntity
  8
V0-OBRYS
  6
CONTINUOUS
 62
    90
100
AcDbLine
 10
-73.858761
 20
-261.166006
 30
0.0
 11
-73.858761
 21
-276.166006
 31
0.0
  0
LINE
  5
13D6
330
1BFE
100
AcDbEntity
  8
V0-OBRYS
  6
CONTINUOUS
 62
    90
100
AcDbLine
 10
-31.358761
 20
-261.166006
 30
0.0
 11
-31.358761
 21
-258.166006
 31
0.0
  0
LINE
  5
13D7
330
1BFE
100
AcDbEntity
  8
V0-OBRYS
  6
CONTINUOUS
 62
    90
100
AcDbLine
 10
-31.358761
 20
-258.166006
 30
0.0
 11
443.641239
 21
-258.166006
 31
0.0
  0
LINE
  5
13D8
330
1BFE
100
AcDbEntity
  8
V0-OBRYS
  6
CONTINUOUS
 62
    90
100
AcDbLine
 10
443.641239
 20
-258.166006
 30
0.0
 11
443.641239
 21
-261.166006
 31
0.0
  0
LINE
  5
13D9
330
1BFE
100
AcDbEntity
  8
V0-OBRYS
  6
CONTINUOUS
 62
    90
100
AcDbLine
 10
378.641239
 20
-258.166006
 30
0.0
 11
378.641239
 21
22.99578500000001
 31
0.0
  0
LINE
  5
13DE
330
1BFE
100
AcDbEntity
  8
V0-OBRYS
  6
CONTINUOUS
 62
    90
100
AcDbLine
 10
413.641239
 20
-258.166006
 30
0.0
 11
503.32732
 21
20.33532100000002
 31
0.0
  0
LINE
  5
13E8
330
1BFE
100
AcDbEntity
  8
V0-OBRYS
  6
CONTINUOUS
 62
    90
100
AcDbLine
 10
105.85734
 20
-226.166006
 30
0.0
 11
306.425138
 21
-226.166006
 31
0.0
  0
LINE
  5
13EA
330
1BFE
100
AcDbEntity
  8
V0-OBRYS
  6
CONTINUOUS
 62
    90
100
AcDbLine
 10
383.641239
 20
-256.166006
 30
0.0
 11
383.641239
 21
-276.166006
 31
0.0
  0
LINE
  5
13EF
330
1BFE
100
AcDbEntity
  8
V0-OBRYS
  6
CONTINUOUS
 62
    90
100
AcDbLine
 10
48.641239
 20
22.995785
 30
0.0
 11
48.641239
 21
-165.656762
 31
0.0
  0
LINE
  5
13F0
330
1BFE
100
AcDbEntity
  8
V0-OBRYS
  6
CONTINUOUS
 62
    90
100
AcDbLine
 10
33.641239
 20
-258.166006
 30
0.0
 11
33.641239
 21
22.99578500000001
 31
0.0
  0
LINE
  5
13F1
330
1BFE
100
AcDbEntity
  8
V0-OBRYS
  6
CONTINUOUS
 62
    90
100
AcDbLine
 10
-1.358761
 20
-258.166006
 30
0.0
 11
-91.044843
 21
20.33532100000002
 31
0.0
  0
LINE
  5
13F2
330
1BFE
100
AcDbEntity
  8
V0-OBRYS
  6
CONTINUOUS
 62
    90
100
AcDbLine
 10
86.69306899999999
 20
-180.971769
 30
0.0
 11
86.69306899999999
 21
22.99578500000001
 31
0.0
  0
LINE
  5
1414
330
1BFE
100
AcDbEntity
  8
V0-VYPLNE
  6
CONTINUOUS
 62
    52
100
AcDbLine
 10
33.641239
 20
22.995785
 30
0.0
 11
378.641239
 21
22.995785
 31
0.0
  0
LINE
  5
1415
330
1BFE
100
AcDbEntity
  8
V0-VYPLNE
  6
CONTINUOUS
 62
    52
100
AcDbLine
 10
378.641239
 20
22.995785
 30
0.0
 11
378.641239
 21
-258.166006
 31
0.0
  0
LINE
  5
1416
330
1BFE
100
AcDbEntity
  8
V0-VYPLNE
  6
CONTINUOUS
 62
    52
100
AcDbLine
 10
378.641239
 20
-258.166006
 30
0.0
 11
33.64123899999999
 21
-258.166006
 31
0.0
  0
LINE
  5
1417
330
1BFE
100
AcDbEntity
  8
V0-VYPLNE
  6
CONTINUOUS
 62
    52
100
AcDbLine
 10
33.641239
 20
-258.166006
 30
0.0
 11
33.641239
 21
22.99578500000001
 31
0.0
  0
HATCH
  5
142F
330
1BFE
100
AcDbEntity
  8
V0-VYPLNE
  6
CONTINUOUS
 62
    52
100
AcDbHatch
 10
0.0
 20
0.0
 30
0.0
210
0.0
220
0.0
230
1.0
  2
NET
 70
     0
 71
     0
 91
        1
 92
        3
 72
     0
 73
     1
 93
        4
 10
378.6412387300806
 20
-258.166005630735
 10
378.6412387300806
 20
22.99578467889705
 10
33.6412387300806
 20
22.99578467889705
 10
33.64123873008066
 20
-258.166005630735
 97
        0
 75
     0
 76
     2
 52
0.0
 41
5.0
 77
     0
 78
     2
 53
0.0
 43
206.141239
 44
-213.166006
 45
0.0
 46
15.875
 79
     0
 53
90.0
 43
206.141239
 44
-213.166006
 45
-15.875
 46
0.000000000000001
 79
     0
 98
        1
 10
0.0
 20
0.0
1001
VDEXTRAPARAM
1071
       76
1071
        0
1071
        0
1040
5.0
1000
NET
1000

1040
0.0
1040
0.0
  0
LINE
  5
1456
330
1BFE
100
AcDbEntity
  8
V0-OBRYS
  6
CONTINUOUS
 62
    90
100
AcDbLine
 10
28.641239
 20
-256.166006
 30
0.0
 11
28.641239
 21
-276.166006
 31
0.0
  0
INSERT
  5
145C
330
1BFE
100
AcDbEntity
  8
V0-VYPLNE
  6
CONTINUOUS
 62
    52
100
AcDbBlockReference
  2
A10_100
 10
1091.344077
 20
-456.786598
 30
0.0
  0
DIMENSION
  5
1469
330
1BFE
100
AcDbEntity
  8
V0-VYPLNE
  6
CONTINUOUS
 62
    41
100
AcDbDimension
  2
*D5
 10
383.641239
 20
-334.4963759999955
 30
0.0
 11
202.260129
 21
-334.496376
 31
0.0
 70
   160
  1
%%c<>
  3
ED30
100
AcDbAlignedDimension
 13
28.641239
 23
-276.166006
 33
0.0
 14
383.641239
 24
-276.166006
 34
0.0
100
AcDbRotatedDimension
  0
DIMENSION
  5
1476
330
1BFE
100
AcDbEntity
  8
V0-VYPLNE
  6
CONTINUOUS
 62
    41
100
AcDbDimension
  2
*D6
 10
431.141239
 20
-388.9973719999834
 30
0.0
 11
198.36361
 21
-388.997372
 31
0.0
 70
   160
  3
ED30
100
AcDbAlignedDimension
 13
-18.858761
 23
-276.166006
 33
0.0
 14
431.141239
 24
-276.166006
 34
0.0
100
AcDbRotatedDimension
  0
DIMENSION
  5
1483
330
1BFE
100
AcDbEntity
  8
V0-VYPLNE
  6
CONTINUOUS
 62
    41
100
AcDbDimension
  2
*D7
 10
486.141239
 20
-455.1771510000108
 30
0.0
 11
206.141239
 21
-455.177151
 31
0.0
 70
   160
  3
ED30
100
AcDbAlignedDimension
 13
-73.858761
 23
-276.166006
 33
0.0
 14
486.141239
 24
-276.166006
 34
0.0
100
AcDbRotatedDimension
  0
DIMENSION
  5
1490
330
1BFE
100
AcDbEntity
  8
V0-VYPLNE
  6
CONTINUOUS
 62
    41
100
AcDbDimension
  2
*D8
 10
654.2560910000033
 20
192.833994
 30
0.0
 11
654.256091
 21
-29.670186
 31
0.0
 70
   160
  3
ED30
100
AcDbAlignedDimension
 13
486.141239
 23
-276.166006
 33
0.0
 14
206.141239
 24
192.833994
 34
0.0
 50
90.0
100
AcDbRotatedDimension
  0
LINE
  5
14A6
330
1BFE
100
AcDbEntity
  8
V0-VYPLNE
  6
CONTINUOUS
 62
    41
100
AcDbLine
 10
133.186283
 20
-445.715613
 30
0.0
 11
143.647456
 21
-427.066785
 31
0.0
  0
LWPOLYLINE
  5
14A7
330
1BFE
100
AcDbEntity
  8
V0-VYPLNE
  6
CONTINUOUS
 62
    41
100
AcDbPolyline
 90
        4
 70
     1
 43
0.0
 10
133.264268
 20
-441.919618
 10
144.389106
 20
-441.919618
 10
144.389106
 20
-430.805026
 10
133.264268
 20
-430.805026
  0
LWPOLYLINE
  5
14A8
330
1BFE
100
AcDbEntity
  8
V0-VYPLNE
  6
CONTINUOUS
 62
    41
100
AcDbPolyline
 90
        4
 70
     1
 43
0.0
 10
133.264268
 20
-382.353044
 10
144.389106
 20
-382.353044
 10
144.389106
 20
-371.238451
 10
133.264268
 20
-371.238451
  0
LINE
  5
14A9
330
1BFE
100
AcDbEntity
  8
V0-VYPLNE
  6
CONTINUOUS
 62
    41
100
AcDbLine
 10
133.186283
 20
-386.149039
 30
0.0
 11
143.647456
 21
-367.500211
 31
0.0
  0
DIMENSION
  5
14E2
330
1BFE
100
AcDbEntity
  8
V0-VYPLNE
  6
CONTINUOUS
 62
    41
100
AcDbDimension
  2
*D9
 10
587.141239
 20
250.6206450000173
 30
0.0
 11
202.260129
 21
250.620645
 31
0.0
 70
   160
  1
%%c<>
  3
ED30
100
AcDbAlignedDimension
 13
-174.858761
 23
15.578324
 33
0.0
 14
587.141239
 24
15.578324
 34
0.0
100
AcDbRotatedDimension
  0
LINE
  5
176E
330
1BFE
100
AcDbEntity
  8
V0-OBRYS
  6
CONTINUOUS
 62
    90
100
AcDbLine
 10
-156.603756
 20
41.346169
 30
0.0
 11
568.8862339999999
 21
41.346169
 31
0.0
  0
LINE
  5
176F
330
1BFE
100
AcDbEntity
  8
V0-OBRYS
  6
CONTINUOUS
 62
    90
100
AcDbLine
 10
-148.659115
 20
48.602657
 30
0.0
 11
560.941592
 21
48.602657
 31
0.0
  0
ARC
  5
18B4
330
1BFE
100
AcDbEntity
  8
V0-OBRYS
  6
CONTINUOUS
 62
    90
100
AcDbCircle
 10
207.492981
 20
-317.166006
 30
0.0
 40
510.0
100
AcDbArc
 50
41.434797
 51
138.565203
  0
LINE
  5
18B8
330
1BFE
100
AcDbEntity
  8
V0-OBRYS
  6
CONTINUOUS
 62
    90
100
AcDbLine
 10
-174.858761
 20
20.335321
 30
0.0
 11
589.844723
 21
20.335321
 31
0.0
  0
LINE
  5
19B4
330
1BFE
100
AcDbEntity
  8
V0-OBRYS
  6
CONTINUOUS
 62
    90
100
AcDbLine
 10
-53.490618
 20
-613.598243
 30
0.0
 11
-73.658761
 21
-613.598243
 31
0.0
  0
LINE
  5
19B5
330
1BFE
100
AcDbEntity
  8
V0-OBRYS
  6
CONTINUOUS
 62
    90
100
AcDbLine
 10
-73.658761
 20
-613.598243
 30
0.0
 11
-73.658761
 21
-633.844378
 31
0.0
  0
LINE
  5
19B6
330
1BFE
100
AcDbEntity
  8
V0-OBRYS
  6
CONTINUOUS
 62
    90
100
AcDbLine
 10
465.773095
 20
-613.598243
 30
0.0
 11
485.941239
 21
-613.598243
 31
0.0
  0
LINE
  5
19B7
330
1BFE
100
AcDbEntity
  8
V0-OBRYS
  6
CONTINUOUS
 62
    90
100
AcDbLine
 10
485.941239
 20
-613.598243
 30
0.0
 11
485.941239
 21
-633.844378
 31
0.0
  0
LINE
  5
19B8
330
1BFE
100
AcDbEntity
  8
V0-OBRYS
  6
CONTINUOUS
 62
    90
100
AcDbLine
 10
464.695103
 20
-1172.198243
 30
0.0
 11
485.941239
 21
-1172.198243
 31
0.0
  0
LINE
  5
19B9
330
1BFE
100
AcDbEntity
  8
V0-OBRYS
  6
CONTINUOUS
 62
    90
100
AcDbLine
 10
485.941239
 20
-1172.198243
 30
0.0
 11
485.941239
 21
-1150.952107
 31
0.0
  0
LINE
  5
19BA
330
1BFE
100
AcDbEntity
  8
V0-OBRYS
  6
CONTINUOUS
 62
    90
100
AcDbLine
 10
-73.658761
 20
-1150.952107
 30
0.0
 11
-73.658761
 21
-1172.198243
 31
0.0
  0
LINE
  5
19BB
330
1BFE
100
AcDbEntity
  8
V0-OBRYS
  6
CONTINUOUS
 62
    90
100
AcDbLine
 10
-73.658761
 20
-1172.198243
 30
0.0
 11
-52.412626
 21
-1172.198243
 31
0.0
  0
ARC
  5
1AB8
330
1BFE
100
AcDbEntity
  8
V0-OBRYS
  6
CONTINUOUS
 62
    90
100
AcDbCircle
 10
47.097271
 20
-224.422415
 30
0.0
 40
58.785932
100
AcDbArc
 50
325.337689
 51
91.79903
  0
LINE
  5
1AB9
330
1BFE
100
AcDbEntity
  8
V0-OBRYS
  6
CONTINUOUS
 62
    90
100
AcDbLine
 10
325.589409
 20
-180.971769
 30
0.0
 11
325.589409
 21
22.99578500000001
 31
0.0
  0
ARC
  5
1ABA
330
1BFE
100
AcDbEntity
  8
V0-OBRYS
  6
CONTINUOUS
 62
    90
100
AcDbCircle
 10
365.185207
 20
-224.422415
 30
0.0
 40
58.785932
100
AcDbArc
 50
88.20097
 51
214.662311
  0
LINE
  5
1ABB
330
1BFE
100
AcDbEntity
  8
V0-OBRYS
  6
CONTINUOUS
 62
    90
100
AcDbLine
 10
363.641239
 20
22.995785
 30
0.0
 11
363.641239
 21
-165.656762
 31
0.0
  0
LINE
  5
1ABC
330
1BFE
100
AcDbEntity
  8
V0-OBRYS
  6
CONTINUOUS
 62
    90
100
AcDbLine
 10
713.6346630000001
 20
20.335321
 30
0.0
 11
1478.338147
 21
20.335321
 31
0.0
  0
ARC
  5
1ABD
330
1BFE
100
AcDbEntity
  8
V0-OBRYS
  6
CONTINUOUS
 62
    90
100
AcDbCircle
 10
1095.986405
 20
-317.166006
 30
0.0
 40
510.0
100
AcDbArc
 50
41.434797
 51
138.565203
  0
LINE
  5
1ABE
330
1BFE
100
AcDbEntity
  8
V0-OBRYS
  6
CONTINUOUS
 62
    90
100
AcDbLine
 10
731.889668
 20
41.346169
 30
0.0
 11
1457.379658
 21
41.346169
 31
0.0
  0
LINE
  5
1ABF
330
1BFE
100
AcDbEntity
  8
V0-OBRYS
  6
CONTINUOUS
 62
    90
100
AcDbLine
 10
739.834309
 20
48.602657
 30
0.0
 11
1449.435016
 21
48.602657
 31
0.0
  0
LINE
  5
1AC0
330
1BFE
100
AcDbEntity
  8
V0-OBRYS
  6
CONTINUOUS
 62
    90
100
AcDbLine
 10
887.1346630000001
 20
-258.166006
 30
0.0
 11
797.448581
 21
20.33532100000002
 31
0.0
  0
LINE
  5
1AC1
330
1BFE
100
AcDbEntity
  8
V0-OBRYS
  6
CONTINUOUS
 62
    90
100
AcDbLine
 10
857.1346630000001
 20
-258.166006
 30
0.0
 11
1332.134663
 21
-258.166006
 31
0.0
  0
LINE
  5
1AC2
330
1BFE
100
AcDbEntity
  8
V0-OBRYS
  6
CONTINUOUS
 62
    90
100
AcDbLine
 10
1374.634663
 20
-261.166006
 30
0.0
 11
814.6346630000001
 21
-261.166006
 31
0.0
  0
LINE
  5
1AC3
330
1BFE
100
AcDbEntity
  8
V0-OBRYS
  6
CONTINUOUS
 62
    90
100
AcDbLine
 10
814.6346630000001
 20
-276.166006
 30
0.0
 11
1374.634663
 21
-276.166006
 31
0.0
  0
LINE
  5
1AC4
330
1BFE
100
AcDbEntity
  8
V0-VYPLNE
100
AcDbLine
 10
869.6346630000001
 20
-286.166006
 30
0.0
 11
869.6346630000001
 21
-236.166006
 31
0.0
  0
LINE
  5
1AC5
330
1BFE
100
AcDbEntity
  8
V0-OBRYS
  6
CONTINUOUS
 62
    90
100
AcDbLine
 10
814.6346630000001
 20
-261.166006
 30
0.0
 11
814.6346630000001
 21
-276.166006
 31
0.0
  0
LINE
  5
1AC6
330
1BFE
100
AcDbEntity
  8
V0-OBRYS
  6
CONTINUOUS
 62
    90
100
AcDbLine
 10
857.1346630000001
 20
-261.166006
 30
0.0
 11
857.1346630000001
 21
-258.166006
 31
0.0
  0
LINE
  5
1AC7
330
1BFE
100
AcDbEntity
  8
V0-OBRYS
  6
CONTINUOUS
 62
    90
100
AcDbLine
 10
1252.134663
 20
22.995785
 30
0.0
 11
1252.134663
 21
-165.656762
 31
0.0
  0
LINE
  5
1AC8
330
1BFE
100
AcDbEntity
  8
V0-OBRYS
  6
CONTINUOUS
 62
    90
100
AcDbLine
 10
1214.082833
 20
-180.971769
 30
0.0
 11
1214.082833
 21
22.99578500000001
 31
0.0
  0
LINE
  5
1AC9
330
1BFE
100
AcDbEntity
  8
V0-OBRYS
  6
CONTINUOUS
 62
    90
100
AcDbLine
 10
937.1346630000001
 20
22.995785
 30
0.0
 11
937.1346630000001
 21
-165.656762
 31
0.0
  0
LINE
  5
1ACA
330
1BFE
100
AcDbEntity
  8
V0-OBRYS
  6
CONTINUOUS
 62
    90
100
AcDbLine
 10
975.186493
 20
-180.971769
 30
0.0
 11
975.186493
 21
22.99578500000001
 31
0.0
  0
HATCH
  5
1ACB
330
1BFE
100
AcDbEntity
  8
V0-VYPLNE
  6
CONTINUOUS
 62
    52
100
AcDbHatch
 10
0.0
 20
0.0
 30
0.0
210
0.0
220
0.0
230
1.0
  2
NET
 70
     0
 71
     0
 91
        1
 92
        3
 72
     0
 73
     1
 93
        4
 10
1267.134662683721
 20
-258.166005630735
 10
1267.134662683721
 20
22.99578467889705
 10
922.1346626837211
 20
22.99578467889705
 10
922.1346626837211
 20
-258.166005630735
 97
        0
 75
     0
 76
     2
 52
0.0
 41
5.0
 77
     0
 78
     2
 53
0.0
 43
206.141239
 44
-213.166006
 45
0.0
 46
15.875
 79
     0
 53
90.0
 43
206.141239
 44
-213.166006
 45
-15.875
 46
0.000000000000001
 79
     0
 98
        1
 10
0.0
 20
0.0
1001
VDEXTRAPARAM
1071
       76
1071
        0
1071
        0
1040
5.0
1000
NET
1000

1040
0.0
1040
0.0
  0
LINE
  5
1ACC
330
1BFE
100
AcDbEntity
  8
V0-VYPLNE
  6
CONTINUOUS
 62
    52
100
AcDbLine
 10
922.1346630000001
 20
-258.166006
 30
0.0
 11
922.1346630000001
 21
22.99578500000001
 31
0.0
  0
LINE
  5
1ACD
330
1BFE
100
AcDbEntity
  8
V0-VYPLNE
  6
CONTINUOUS
 62
    52
100
AcDbLine
 10
1267.134663
 20
22.995785
 30
0.0
 11
1267.134663
 21
-258.166006
 31
0.0
  0
LINE
  5
1ACE
330
1BFE
100
AcDbEntity
  8
V0-OBRYS
  6
CONTINUOUS
 62
    90
100
AcDbLine
 10
922.1346630000001
 20
-258.166006
 30
0.0
 11
922.1346630000001
 21
22.99578500000001
 31
0.0
  0
LINE
  5
1ACF
330
1BFE
100
AcDbEntity
  8
V0-OBRYS
  6
CONTINUOUS
 62
    90
100
AcDbLine
 10
1302.134663
 20
-258.166006
 30
0.0
 11
1391.820744
 21
20.33532100000002
 31
0.0
  0
LINE
  5
1AD0
330
1BFE
100
AcDbEntity
  8
V0-OBRYS
  6
CONTINUOUS
 62
    90
100
AcDbLine
 10
1267.134663
 20
-258.166006
 30
0.0
 11
1267.134663
 21
22.99578500000001
 31
0.0
  0
LINE
  5
1AD1
330
1BFE
100
AcDbEntity
  8
V0-VYPLNE
100
AcDbLine
 10
1094.634663
 20
192.833994
 30
0.0
 11
1094.634663
 21
-272.319392
 31
0.0
  0
LINE
  5
1AD2
330
1BFE
100
AcDbEntity
  8
V0-OBRYS
  6
CONTINUOUS
 62
    90
100
AcDbLine
 10
994.350763
 20
-226.166006
 30
0.0
 11
1194.918562
 21
-226.166006
 31
0.0
  0
LINE
  5
1AD3
330
1BFE
100
AcDbEntity
  8
V0-VYPLNE
  6
CONTINUOUS
 62
    52
100
AcDbLine
 10
1267.134663
 20
-258.166006
 30
0.0
 11
922.1346630000001
 21
-258.166006
 31
0.0
  0
ARC
  5
1AD4
330
1BFE
100
AcDbEntity
  8
V0-OBRYS
  6
CONTINUOUS
 62
    90
100
AcDbCircle
 10
935.590695
 20
-224.422415
 30
0.0
 40
58.785932
100
AcDbArc
 50
325.337689
 51
91.79903
  0
LINE
  5
1AD5
330
1BFE
100
AcDbEntity
  8
V0-OBRYS
  6
CONTINUOUS
 62
    90
100
AcDbLine
 10
917.1346630000001
 20
-256.166006
 30
0.0
 11
917.1346630000001
 21
-276.166006
 31
0.0
  0
POINT
  5
1AD6
330
1BFE
100
AcDbEntity
  8
V0-VYPLNE
  6
CONTINUOUS
 62
    41
100
AcDbPoint
 10
1094.634663
 20
-276.166006
 30
0.0
  0
ARC
  5
1AD7
330
1BFE
100
AcDbEntity
  8
V0-OBRYS
  6
CONTINUOUS
 62
    90
100
AcDbCircle
 10
1253.678631
 20
-224.422415
 30
0.0
 40
58.785932
100
AcDbArc
 50
88.20097
 51
214.662311
  0
LINE
  5
1AD8
330
1BFE
100
AcDbEntity
  8
V0-VYPLNE
100
AcDbLine
 10
1319.634663
 20
-286.166006
 30
0.0
 11
1319.634663
 21
-236.166006
 31
0.0
  0
LINE
  5
1AD9
330
1BFE
100
AcDbEntity
  8
V0-OBRYS
  6
CONTINUOUS
 62
    90
100
AcDbLine
 10
1272.134663
 20
-256.166006
 30
0.0
 11
1272.134663
 21
-276.166006
 31
0.0
  0
LINE
  5
1ADA
330
1BFE
100
AcDbEntity
  8
V0-OBRYS
  6
CONTINUOUS
 62
    90
100
AcDbLine
 10
1332.134663
 20
-258.166006
 30
0.0
 11
1332.134663
 21
-261.166006
 31
0.0
  0
LINE
  5
1ADB
330
1BFE
100
AcDbEntity
  8
V0-OBRYS
  6
CONTINUOUS
 62
    90
100
AcDbLine
 10
1374.634663
 20
-276.166006
 30
0.0
 11
1374.634663
 21
-261.166006
 31
0.0
  0
LINE
  5
1ADD
330
1BFE
100
AcDbEntity
  8
V0-VYPLNE
  6
CONTINUOUS
 62
    52
100
AcDbLine
 10
922.1346630000001
 20
22.995785
 30
0.0
 11
1267.134663
 21
22.995785
 31
0.0
  0
TEXT
  5
1BCE
330
1BFE
100
AcDbEntity
  8
V0-NAZVY
  6
CONTINUOUS
100
AcDbText
 10
736.2004118845798
 20
-757.7732509999769
 30
0.0
 40
60.0
  1
CTHB/CTHT 315
  7
ED40
100
AcDbText
  0
LWPOLYLINE
  5
1BD1
330
1BFE
100
AcDbEntity
  8
V0-VYPLNE
  6
CONTINUOUS
 62
    41
100
AcDbPolyline
 90
        4
 70
     1
 43
0.0
 10
-15.86858148525732
 20
-255.8520104670116
 10
-4.001179
 20
-265.360678
 10
-18.31099244269912
 20
-260.2148797883377
 10
-18.31099244269912
 20
-260.2148797883377
1001
VDEXTRAPARAM
1071
       65
1071
        0
1071
        0
1040
1.0
1000

1000

1040
0.0
1040
0.0
  0
HATCH
  5
1C72
330
1BFE
100
AcDbEntity
  8
V0-VYPLNE
  6
CONTINUOUS
 62
    41
100
AcDbHatch
 10
0.0
 20
0.0
 30
0.0
210
0.0
220
0.0
230
1.0
  2
SOLID
 70
     1
 71
     0
 91
        1
 92
        2
 72
     0
 73
     1
 93
        3
 10
-15.86858148525732
 20
-255.8520104670116
 10
-4.001179
 20
-265.360678
 10
-18.31099244269912
 20
-260.2148797883377
 97
        0
 75
     0
 76
     1
 98
        1
 10
0.0
 20
0.0
1001
VDEXTRAPARAM
1071
       65
1071
        0
1071
        0
1040
1.0
1000

1000

1040
0.0
1040
0.0
1001
VD_TEMPHATCH
1000
VD_TEMPHATCH
  0
LWPOLYLINE
  5
1BD2
330
1BFE
100
AcDbEntity
  8
V0-VYPLNE
  6
CONTINUOUS
 62
    41
100
AcDbPolyline
 90
        3
 70
     0
 43
0.0
 10
-17.08978696397823
 20
-258.0334451276746
 10
-72.16842699999999
 20
-227.199454
 10
-354.470199
 20
-227.199454
  0
TEXT
  5
1BD7
330
1BFE
100
AcDbEntity
  8
V0-VYPLNE
  6
CONTINUOUS
 62
    41
100
AcDbText
 10
-450.0969984285715
 20
-225.696501
 30
0.0
 40
30.0
  1
4 OTVORY %%c 12
  7
ED40
100
AcDbText
  0
VIEWPORT
  5
1C73
330
1BFA
100
AcDbEntity
 67
     1
  8
0
 60
     1
100
AcDbViewport
 10
261.517699
 20
148.5
 30
0.0
 40
297.0
 41
297.0
 68
     0
 69
     1
1001
VD_INVISIBLE_NOT_FOR_READ
1000
VD_INVISIBLE_NOT_FOR_READ
1001
ACAD
1000
MVIEW
1002
{
1070
    16
1010
0.0
1020
0.0
1030
0.0
1010
0.0
1020
0.0
1030
1.0
1040
6.2831853071796
1040
297.0
1040
261.517699
1040
148.5
1040
0.0
1040
0.0
1040
0.0
1070
     0
1070
   100
1070
     0
1070
     1
1070
     0
1070
     0
1070
     0
1070
     0
1040
0.0
1040
0.0
1040
0.0
1040
1.0
1040
1.0
1040
0.0
1040
0.0
1070
     0
1002
{
1002
}
1002
}
  0
VIEWPORT
  5
1C74
330
1BFA
100
AcDbEntity
 67
     1
  8
0
 60
     1
100
AcDbViewport
 10
261.517699
 20
148.5
 30
0.0
 40
297.0
 41
297.0
 68
     0
 69
     2
1001
VD_INVISIBLE_NOT_FOR_READ
1000
VD_INVISIBLE_NOT_FOR_READ
1001
ACAD
1000
MVIEW
1002
{
1070
    16
1010
0.0
1020
0.0
1030
0.0
1010
0.0
1020
0.0
1030
1.0
1040
6.2831853071796
1040
297.0
1040
261.517699
1040
148.5
1040
0.0
1040
0.0
1040
0.0
1070
     0
1070
   100
1070
     0
1070
     1
1070
     0
1070
     0
1070
     0
1070
     0
1040
0.0
1040
0.0
1040
0.0
1040
1.0
1040
1.0
1040
0.0
1040
0.0
1070
     0
1002
{
1002
}
1002
}
  0
ENDSEC
  0
SECTION
  2
OBJECTS
  0
DICTIONARY
  5
1BEB
330
0
100
AcDbDictionary
  3
ACAD_GROUP
350
1BEC
  3
ACAD_LAYOUT
350
1BF9
  3
ACAD_MLINESTYLE
350
1BF6
  3
ACAD_PLOTSETTINGS
350
1BF8
  3
ACDBHEADERROUNDTRIPXREC
350
1C75
  3
VECTORDRAW_OBJECTS
350
1C0E
  0
DICTIONARY
  5
1C95
330
1C08
100
AcDbDictionary
280
     1
  3
ACAD_XREC_ROUNDTRIP
360
1C96
  0
DICTIONARY
  5
1BEC
102
{ACAD_REACTORS
330
1BEB
102
}
330
1BEB
100
AcDbDictionary
  0
DICTIONARY
  5
1BF9
102
{ACAD_REACTORS
330
1BEB
102
}
330
1BEB
100
AcDbDictionary
  0
DICTIONARY
  5
1BF6
102
{ACAD_REACTORS
330
1BEB
102
}
330
1BEB
100
AcDbDictionary
  3
STANDARD
350
1BF7
  0
DICTIONARY
  5
1BF8
102
{ACAD_REACTORS
330
1BEB
102
}
330
1BEB
100
AcDbDictionary
  0
DICTIONARY
  5
1C75
102
{ACAD_REACTORS
330
1BEB
102
}
330
1BEB
100
AcDbDictionary
  3
CEPSNTYPE
350
1C7E
  3
DIMSTYLEDATA
350
1C94
  3
FINGERPRINTGUID
350
1C7F
  3
HYPERLINKBASE
350
1C78
  3
INSUNITS
350
1C7D
  3
LAYOUTDICT
350
1C7A
  3
LWETCUNION
350
1C7C
  3
PLOTSETDICT
350
1C7B
  3
PSVPSCALE
350
1C81
  3
PUCSBASE
350
1C84
  3
PUCSORGBACK
350
1C8A
  3
PUCSORGBOTTOM
350
1C86
  3
PUCSORGFRONT
350
1C89
  3
PUCSORGLEFT
350
1C87
  3
PUCSORGRIGHT
350
1C88
  3
PUCSORGTOP
350
1C85
  3
PUCSORTHOREF
350
1C82
  3
PUCSORTHOVIEW
350
1C83
  3
STYLESHEET
350
1C79
  3
TSTACKALIGN
350
1C76
  3
TSTACKSIZE
350
1C77
  3
UCSBASE
350
1C8D
  3
UCSORGBACK
350
1C93
  3
UCSORGBOTTOM
350
1C8F
  3
UCSORGFRONT
350
1C92
  3
UCSORGLEFT
350
1C90
  3
UCSORGRIGHT
350
1C91
  3
UCSORGTOP
350
1C8E
  3
UCSORTHOREF
350
1C8B
  3
UCSORTHOVIEW
350
1C8C
  3
VERSIONGUID
350
1C80
  0
DICTIONARY
  5
1C0E
102
{ACAD_REACTORS
330
1BEB
102
}
330
1BEB
100
AcDbDictionary
  3
SERIALNO
350
1C0F
  0
XRECORD
  5
1C96
102
{ACAD_REACTORS
330
1C95
102
}
330
1C95
100
AcDbXrecord
102
UCS
 74
     0
 71
     1
 10
0.0
 20
0.0
 30
0.0
 10
1.0
 20
0.0
 30
0.0
 10
0.0
 20
1.0
 30
0.0
146
0.0
 79
     0
102
VIEW
281
     0
  0
MLINESTYLE
  5
1BF7
102
{ACAD_REACTORS
330
1BF6
102
}
330
1BF6
100
AcDbMlineStyle
  2
Standard
 70
     0
  3

 62
   256
 51
90.0
 52
90.0
 71
     2
 49
0.5
 62
   256
  6
BYLAYER
 49
-0.5
 62
   256
  6
BYLAYER
  0
XRECORD
  5
1C7E
102
{ACAD_REACTORS
330
1C75
102
}
330
1C75
100
AcDbXrecord
 90
        0
  0
XRECORD
  5
1C94
102
{ACAD_REACTORS
330
1C75
102
}
330
1C75
100
AcDbXrecord
1000
DSTYLE
1002
{
1070
    41
 40
25.0
1070
   342
340
90
1070
   271
 70
     0
1070
    44
 40
1.25
1070
    42
 40
1.0
1070
   147
 40
4.0
1070
    77
 70
     1
1070
    73
 70
     0
1070
   174
 70
     1
1070
   172
 70
     1
1070
    74
 70
     0
1070
   340
340
F38
1070
   140
 40
30.0
1070
   288
 70
     1
1002
}
  0
XRECORD
  5
1C7F
102
{ACAD_REACTORS
330
1C75
102
}
330
1C75
100
AcDbXrecord
  1
{FAEB1C30-E019-11D5-929B-00C0DF256EC4}
  0
XRECORD
  5
1C78
102
{ACAD_REACTORS
330
1C75
102
}
330
1C75
100
AcDbXrecord
  1

  0
XRECORD
  5
1C7D
102
{ACAD_REACTORS
330
1C75
102
}
330
1C75
100
AcDbXrecord
 90
        1
  0
XRECORD
  5
1C7A
102
{ACAD_REACTORS
330
1C75
102
}
330
1C75
100
AcDbXrecord
340
1BF9
  0
XRECORD
  5
1C7C
102
{ACAD_REACTORS
330
1C75
102
}
330
1C75
100
AcDbXrecord
 90
     2560
  0
XRECORD
  5
1C7B
102
{ACAD_REACTORS
330
1C75
102
}
330
1C75
100
AcDbXrecord
340
1BF8
  0
XRECORD
  5
1C81
102
{ACAD_REACTORS
330
1C75
102
}
330
1C75
100
AcDbXrecord
 40
0.0
  0
XRECORD
  5
1C84
102
{ACAD_REACTORS
330
1C75
102
}
330
1C75
100
AcDbXrecord
340
0
  0
XRECORD
  5
1C8A
102
{ACAD_REACTORS
330
1C75
102
}
330
1C75
100
AcDbXrecord
 10
0.0
 20
0.0
 30
0.0
  0
XRECORD
  5
1C86
102
{ACAD_REACTORS
330
1C75
102
}
330
1C75
100
AcDbXrecord
 10
0.0
 20
0.0
 30
0.0
  0
XRECORD
  5
1C89
102
{ACAD_REACTORS
330
1C75
102
}
330
1C75
100
AcDbXrecord
 10
0.0
 20
0.0
 30
0.0
  0
XRECORD
  5
1C87
102
{ACAD_REACTORS
330
1C75
102
}
330
1C75
100
AcDbXrecord
 10
0.0
 20
0.0
 30
0.0
  0
XRECORD
  5
1C88
102
{ACAD_REACTORS
330
1C75
102
}
330
1C75
100
AcDbXrecord
 10
0.0
 20
0.0
 30
0.0
  0
XRECORD
  5
1C85
102
{ACAD_REACTORS
330
1C75
102
}
330
1C75
100
AcDbXrecord
 10
0.0
 20
0.0
 30
0.0
  0
XRECORD
  5
1C82
102
{ACAD_REACTORS
330
1C75
102
}
330
1C75
100
AcDbXrecord
340
0
  0
XRECORD
  5
1C83
102
{ACAD_REACTORS
330
1C75
102
}
330
1C75
100
AcDbXrecord
 70
     0
  0
XRECORD
  5
1C79
102
{ACAD_REACTORS
330
1C75
102
}
330
1C75
100
AcDbXrecord
  1

  0
XRECORD
  5
1C76
102
{ACAD_REACTORS
330
1C75
102
}
330
1C75
100
AcDbXrecord
 90
        1
  0
XRECORD
  5
1C77
102
{ACAD_REACTORS
330
1C75
102
}
330
1C75
100
AcDbXrecord
 90
       70
  0
XRECORD
  5
1C8D
102
{ACAD_REACTORS
330
1C75
102
}
330
1C75
100
AcDbXrecord
340
0
  0
XRECORD
  5
1C93
102
{ACAD_REACTORS
330
1C75
102
}
330
1C75
100
AcDbXrecord
 10
0.0
 20
0.0
 30
0.0
  0
XRECORD
  5
1C8F
102
{ACAD_REACTORS
330
1C75
102
}
330
1C75
100
AcDbXrecord
 10
0.0
 20
0.0
 30
0.0
  0
XRECORD
  5
1C92
102
{ACAD_REACTORS
330
1C75
102
}
330
1C75
100
AcDbXrecord
 10
0.0
 20
0.0
 30
0.0
  0
XRECORD
  5
1C90
102
{ACAD_REACTORS
330
1C75
102
}
330
1C75
100
AcDbXrecord
 10
0.0
 20
0.0
 30
0.0
  0
XRECORD
  5
1C91
102
{ACAD_REACTORS
330
1C75
102
}
330
1C75
100
AcDbXrecord
 10
0.0
 20
0.0
 30
0.0
  0
XRECORD
  5
1C8E
102
{ACAD_REACTORS
330
1C75
102
}
330
1C75
100
AcDbXrecord
 10
0.0
 20
0.0
 30
0.0
  0
XRECORD
  5
1C8B
102
{ACAD_REACTORS
330
1C75
102
}
330
1C75
100
AcDbXrecord
340
0
  0
XRECORD
  5
1C8C
102
{ACAD_REACTORS
330
1C75
102
}
330
1C75
100
AcDbXrecord
 70
     0
  0
XRECORD
  5
1C80
102
{ACAD_REACTORS
330
1C75
102
}
330
1C75
100
AcDbXrecord
  1
{FAEB1C32-E019-11D5-929B-00C0DF256EC4}
  0
XRECORD
  5
1C0F
102
{ACAD_REACTORS
330
1C0E
102
}
330
1C0E
100
AcDbXrecord
1000
rInJVR9YY4Q8hfPWdUq5j5319
1070
     4
1070
     6
  0
ENDSEC
  0
EOF
