  0
SECTION
  2
HEADER
  9
$ACADVER
  1
AC1014
  9
$ACADMAINTVER
 70
     9
  9
$DWGCODEPAGE
  3
ANSI_1250
  9
$INSBASE
 10
0.0
 20
0.0
 30
0.0
  9
$EXTMIN
 10
-450.0969984285716
 20
-1273.368243
 30
0.0
  9
$EXTMAX
 10
1483.827970984058
 20
225.9475680769231
 30
0.0
  9
$LIMMIN
 10
0.0
 20
0.0
  9
$LIMMAX
 10
0.0
 20
0.0
  9
$ORTHOMODE
 70
     1
  9
$REGENMODE
 70
     1
  9
$FILLMODE
 70
     1
  9
$QTEXTMODE
 70
     0
  9
$MIRRTEXT
 70
     1
  9
$DRAGMODE
 70
     2
  9
$LTSCALE
 40
1.0
  9
$OSMODE
 70
    37
  9
$ATTMODE
 70
     1
  9
$TEXTSIZE
 40
0.2
  9
$TRACEWID
 40
0.05
  9
$TEXTSTYLE
  7
ED30
  9
$CLAYER
  8
V0-OBRYS
  9
$CELTYPE
  6
CONTINUOUS
  9
$CECOLOR
 62
    90
  9
$CELTSCALE
 40
1.0
  9
$DELOBJ
 70
     1
  9
$DISPSILH
 70
     0
  9
$DIMSCALE
 40
1.0
  9
$DIMASZ
 40
25.0
  9
$DIMEXO
 40
1.0
  9
$DIMDLI
 40
0.38
  9
$DIMRND
 40
0.0
  9
$DIMDLE
 40
0.0
  9
$DIMEXE
 40
1.25
  9
$DIMTP
 40
0.0
  9
$DIMTM
 40
0.0
  9
$DIMTXT
 40
30.0
  9
$DIMCEN
 40
0.09
  9
$DIMTSZ
 40
0.0
  9
$DIMTOL
 70
     0
  9
$DIMLIM
 70
     0
  9
$DIMTIH
 70
     0
  9
$DIMTOH
 70
     0
  9
$DIMSE1
 70
     0
  9
$DIMSE2
 70
     0
  9
$DIMTAD
 70
     1
  9
$DIMZIN
 70
     0
  9
$DIMBLK
  1
OPEN
  9
$DIMASO
 70
     1
  9
$DIMSHO
 70
     1
  9
$DIMPOST
  1

  9
$DIMAPOST
  1

  9
$DIMALT
 70
     0
  9
$DIMALTD
 70
     2
  9
$DIMALTF
 40
25.4
  9
$DIMLFAC
 40
1.0
  9
$DIMTOFL
 70
     1
  9
$DIMTVP
 40
0.0
  9
$DIMTIX
 70
     1
  9
$DIMSOXD
 70
     0
  9
$DIMSAH
 70
     0
  9
$DIMBLK1
  1

  9
$DIMBLK2
  1

  9
$DIMSTYLE
  2
ED30
  9
$DIMCLRD
 70
     0
  9
$DIMCLRE
 70
     0
  9
$DIMCLRT
 70
     0
  9
$DIMTFAC
 40
1.0
  9
$DIMGAP
 40
4.0
  9
$DIMJUST
 70
     0
  9
$DIMSD1
 70
     0
  9
$DIMSD2
 70
     0
  9
$DIMTOLJ
 70
     1
  9
$DIMTZIN
 70
     0
  9
$DIMALTZ
 70
     0
  9
$DIMALTTZ
 70
     0
  9
$DIMFIT
 70
     3
  9
$DIMUPT
 70
     1
  9
$DIMUNIT
 70
     2
  9
$DIMDEC
 70
     0
  9
$DIMTDEC
 70
     4
  9
$DIMALTU
 70
     2
  9
$DIMALTTD
 70
     2
  9
$DIMTXSTY
  7
ED30
  9
$DIMAUNIT
 70
     0
  9
$LUNITS
 70
     2
  9
$LUPREC
 70
     4
  9
$SKETCHINC
 40
0.1
  9
$FILLETRAD
 40
0.5
  9
$AUNITS
 70
     0
  9
$AUPREC
 70
     0
  9
$MENU
  1
.
  9
$ELEVATION
 40
0.0
  9
$PELEVATION
 40
0.0
  9
$THICKNESS
 40
0.0
  9
$LIMCHECK
 70
     0
  9
$BLIPMODE
 70
     0
  9
$CHAMFERA
 40
0.5
  9
$CHAMFERB
 40
0.5
  9
$CHAMFERC
 40
1.0
  9
$CHAMFERD
 40
0.0
  9
$SKPOLY
 70
     0
  9
$TDCREATE
 40
2455644.645052986
  9
$TDUPDATE
 40
2455644.645052998
  9
$TDINDWG
 40
0.0000000116
  9
$TDUSRTIMER
 40
0.0000000116
  9
$USRTIMER
 70
     1
  9
$ANGBASE
 50
0.0
  9
$ANGDIR
 70
     0
  9
$PDMODE
 70
     3
  9
$PDSIZE
 40
20.0
  9
$PLINEWID
 40
0.0
  9
$COORDS
 70
     1
  9
$SPLFRAME
 70
     0
  9
$SPLINETYPE
 70
     6
  9
$SPLINESEGS
 70
     8
  9
$ATTDIA
 70
     0
  9
$ATTREQ
 70
     1
  9
$HANDLING
 70
     1
  9
$HANDSEED
  5
1C57
  9
$SURFTAB1
 70
     6
  9
$SURFTAB2
 70
     6
  9
$SURFTYPE
 70
     6
  9
$SURFU
 70
     6
  9
$SURFV
 70
     6
  9
$UCSNAME
  2

  9
$UCSORG
 10
0.0
 20
0.0
 30
0.0
  9
$UCSXDIR
 10
1.0
 20
0.0
 30
0.0
  9
$UCSYDIR
 10
0.0
 20
1.0
 30
0.0
  9
$PUCSNAME
  2

  9
$PUCSORG
 10
0.0
 20
0.0
 30
0.0
  9
$PUCSXDIR
 10
1.0
 20
0.0
 30
0.0
  9
$PUCSYDIR
 10
0.0
 20
1.0
 30
0.0
  9
$USERI1
 70
     0
  9
$USERI2
 70
     0
  9
$USERI3
 70
     0
  9
$USERI4
 70
     0
  9
$USERI5
 70
     0
  9
$USERR1
 40
0.0
  9
$USERR2
 40
0.0
  9
$USERR3
 40
0.0
  9
$USERR4
 40
0.0
  9
$USERR5
 40
0.0
  9
$WORLDVIEW
 70
     1
  9
$SHADEDGE
 70
     3
  9
$SHADEDIF
 70
    70
  9
$TILEMODE
 70
     1
  9
$MAXACTVP
 70
    64
  9
$PINSBASE
 10
0.0
 20
0.0
 30
0.0
  9
$PLIMCHECK
 70
     0
  9
$PEXTMIN
 10
1.000000000000000E+20
 20
1.000000000000000E+20
 30
1.000000000000000E+20
  9
$PEXTMAX
 10
-1.000000000000000E+20
 20
-1.000000000000000E+20
 30
-1.000000000000000E+20
  9
$PLIMMIN
 10
0.0
 20
0.0
  9
$PLIMMAX
 10
0.0
 20
0.0
  9
$UNITMODE
 70
     0
  9
$VISRETAIN
 70
     1
  9
$PLINEGEN
 70
     0
  9
$PSLTSCALE
 70
     1
  9
$TREEDEPTH
 70
  3020
  9
$PICKSTYLE
 70
     1
  9
$CMLSTYLE
  2
STANDARD
  9
$CMLJUST
 70
     0
  9
$CMLSCALE
 40
1.0
  9
$PROXYGRAPHICS
 70
     1
  9
$MEASUREMENT
 70
     0
  0
ENDSEC
  0
SECTION
  2
CLASSES
  0
CLASS
  1
ACDBDICTIONARYWDFLT
  2
AcDbDictionaryWithDefault
  3
ObjectDBX Classes
 90
        0
280
     0
281
     0
  0
CLASS
  1
XRECORD
  2
AcDbXrecord
  3
AutoCAD 2000
 90
        0
280
     0
281
     0
  0
CLASS
  1
LWPOLYLINE
  2
AcDbPolyline
  3
AutoCAD 2000
 90
        0
280
     0
281
     1
  0
CLASS
  1
HATCH
  2
AcDbHatch
  3
AutoCAD 2000
 90
        0
280
     0
281
     1
  0
CLASS
  1
ACDBPLACEHOLDER
  2
AcDbPlaceHolder
  3
ObjectDBX Classes
 90
        0
280
     0
281
     0
  0
CLASS
  1
LAYOUT
  2
AcDbLayout
  3
ObjectDBX Classes
 90
        0
280
     0
281
     0
  0
ENDSEC
  0
SECTION
  2
TABLES
  0
TABLE
  2
VPORT
  5
1BA7
330
0
100
AcDbSymbolTable
 70
     2
  0
VPORT
  5
1BC8
102
{ACAD_XDICTIONARY
360
1C55
102
}
330
1BA7
100
AcDbSymbolTableRecord
100
AcDbViewportTableRecord
  2
*ACTIVE
 70
     0
 10
0.0
 20
0.0
 11
1.0
 21
1.0
 12
556.484189
 22
-461.51772
 13
0.0
 23
0.0
 14
10.0
 24
10.0
 15
10.0
 25
10.0
 16
0.0
 26
0.0
 36
1.0
 17
0.0
 27
0.0
 37
0.0
 40
1614.562858
 41
0.0109978726858914
 42
50.0
 43
0.0
 44
0.0
 50
0.0
 51
0.0000000000007958
 71
     0
 72
   100
 73
     1
 74
     3
 75
     0
 76
     0
 77
     0
 78
     0
  0
ENDTAB
  0
TABLE
  2
LTYPE
  5
1BA4
330
0
100
AcDbSymbolTable
 70
    25
  0
LTYPE
  5
1BB3
330
1BA4
100
AcDbSymbolTableRecord
100
AcDbLinetypeTableRecord
  2
BYBLOCK
 70
     0
  3

 72
    65
 73
     0
 40
0.0
  0
LTYPE
  5
1BB4
330
1BA4
100
AcDbSymbolTableRecord
100
AcDbLinetypeTableRecord
  2
BYLAYER
 70
     0
  3

 72
    65
 73
     0
 40
0.0
  0
LTYPE
  5
1BB5
330
1BA4
100
AcDbSymbolTableRecord
100
AcDbLinetypeTableRecord
  2
CONTINUOUS
 70
     0
  3
Solid line
 72
    65
 73
     0
 40
0.0
  0
LTYPE
  5
1BD0
330
1BA4
100
AcDbSymbolTableRecord
100
AcDbLinetypeTableRecord
  2
CENTER
 70
     0
  3
Center ____ _ ____ _ ____ _ ____ _ ____ _ ____
 72
    65
 73
     4
 40
2.0
 49
1.25
 74
     0
 49
-0.25
 74
     0
 49
0.25
 74
     0
 49
-0.25
 74
     0
  0
LTYPE
  5
1BD1
330
1BA4
100
AcDbSymbolTableRecord
100
AcDbLinetypeTableRecord
  2
DASHDOT
 70
     0
  3
Dashdot __ . __ . __ . __ . __ . __ . __ . __
 72
    65
 73
     4
 40
1.0
 49
0.5
 74
     0
 49
-0.25
 74
     0
 49
0.0
 74
     0
 49
-0.25
 74
     0
  0
LTYPE
  5
1BD2
330
1BA4
100
AcDbSymbolTableRecord
100
AcDbLinetypeTableRecord
  2
DASHED
 70
     0
  3
Dashed __ __ __ __ __ __ __ __ __ __ __ __ __ _
 72
    65
 73
     2
 40
0.75
 49
0.5
 74
     0
 49
-0.25
 74
     0
  0
LTYPE
  5
1BD3
330
1BA4
100
AcDbSymbolTableRecord
100
AcDbLinetypeTableRecord
  2
HIDDEN
 70
     0
  3
Hidden __ __ __ __ __ __ __ __ __ __ __ __ __ __
 72
    65
 73
     2
 40
0.375
 49
0.25
 74
     0
 49
-0.125
 74
     0
  0
LTYPE
  5
1BD4
330
1BA4
100
AcDbSymbolTableRecord
100
AcDbLinetypeTableRecord
  2
HIDDEN2
 70
     0
  3
Hidden2 _ _ _ _ _ _ _ _ _ _ _ _ _ _ _ _ _ 
 72
    65
 73
     2
 40
0.1875
 49
0.125
 74
     0
 49
-0.0625
 74
     0
  0
LTYPE
  5
1BD5
330
1BA4
100
AcDbSymbolTableRecord
100
AcDbLinetypeTableRecord
  2
BORDER
 70
     0
  3
Border __ __ . __ __ . __ __ . __ __ . __ __ .
 72
    65
 73
     6
 40
1.75
 49
0.5
 74
     0
 49
-0.25
 74
     0
 49
0.5
 74
     0
 49
-0.25
 74
     0
 49
0.0
 74
     0
 49
-0.25
 74
     0
  0
LTYPE
  5
1BD6
330
1BA4
100
AcDbSymbolTableRecord
100
AcDbLinetypeTableRecord
  2
BORDER2
 70
     0
  3
Border2 __.__.__.__.__.__.__.__.__.__.__.
 72
    65
 73
     6
 40
0.875
 49
0.25
 74
     0
 49
-0.125
 74
     0
 49
0.25
 74
     0
 49
-0.125
 74
     0
 49
0.0
 74
     0
 49
-0.125
 74
     0
  0
LTYPE
  5
1BD7
330
1BA4
100
AcDbSymbolTableRecord
100
AcDbLinetypeTableRecord
  2
BORDERX2
 70
     0
  3
Borderx2  ____  ____  .  ____  ____  .  ___
 72
    65
 73
     6
 40
3.5
 49
1.0
 74
     0
 49
-0.5
 74
     0
 49
1.0
 74
     0
 49
-0.5
 74
     0
 49
0.0
 74
     0
 49
-0.5
 74
     0
  0
LTYPE
  5
1BD8
330
1BA4
100
AcDbSymbolTableRecord
100
AcDbLinetypeTableRecord
  2
CENTER2
 70
     0
  3
Center2  ___ _ ___ _ ___ _ ___ _ ___ _ ___
 72
    65
 73
     4
 40
1.125
 49
0.75
 74
     0
 49
-0.125
 74
     0
 49
0.125
 74
     0
 49
-0.125
 74
     0
  0
LTYPE
  5
1BD9
330
1BA4
100
AcDbSymbolTableRecord
100
AcDbLinetypeTableRecord
  2
CENTERX2
 70
     0
  3
Centerx2  ________  __  ________  __  _____
 72
    65
 73
     4
 40
4.0
 49
2.5
 74
     0
 49
-0.5
 74
     0
 49
0.5
 74
     0
 49
-0.5
 74
     0
  0
LTYPE
  5
1BDA
330
1BA4
100
AcDbSymbolTableRecord
100
AcDbLinetypeTableRecord
  2
DASHDOT2
 70
     0
  3
Dashdot2  _._._._._._._._._._._._._._._.
 72
    65
 73
     4
 40
0.5
 49
0.25
 74
     0
 49
-0.125
 74
     0
 49
0.0
 74
     0
 49
-0.125
 74
     0
  0
LTYPE
  5
1BDB
330
1BA4
100
AcDbSymbolTableRecord
100
AcDbLinetypeTableRecord
  2
DASHDOTX2
 70
     0
  3
Dashdotx2 ____  .  ____  .  ____  .  ___
 72
    65
 73
     4
 40
2.0
 49
1.0
 74
     0
 49
-0.5
 74
     0
 49
0.0
 74
     0
 49
-0.5
 74
     0
  0
LTYPE
  5
1BDC
330
1BA4
100
AcDbSymbolTableRecord
100
AcDbLinetypeTableRecord
  2
DASHED2
 70
     0
  3
Dashed2 _ _ _ _ _ _ _ _ _ _ _ _ _ _ _ _ _ 
 72
    65
 73
     2
 40
0.375
 49
0.25
 74
     0
 49
-0.125
 74
     0
  0
LTYPE
  5
1BDD
330
1BA4
100
AcDbSymbolTableRecord
100
AcDbLinetypeTableRecord
  2
DASHEDX2
 70
     0
  3
Dashedx2 ____  ____  ____  ____  ____  ___
 72
    65
 73
     2
 40
1.5
 49
1.0
 74
     0
 49
-0.5
 74
     0
  0
LTYPE
  5
1BDE
330
1BA4
100
AcDbSymbolTableRecord
100
AcDbLinetypeTableRecord
  2
DIVIDE
 70
     0
  3
Divide ____ . . ____ . . ____ . . ____ . . ____
 72
    65
 73
     6
 40
1.25
 49
0.5
 74
     0
 49
-0.25
 74
     0
 49
0.0
 74
     0
 49
-0.25
 74
     0
 49
0.0
 74
     0
 49
-0.25
 74
     0
  0
LTYPE
  5
1BDF
330
1BA4
100
AcDbSymbolTableRecord
100
AcDbLinetypeTableRecord
  2
DIVIDE2
 70
     0
  3
Divide2 __..__..__..__..__..__..__..__.._
 72
    65
 73
     6
 40
0.625
 49
0.25
 74
     0
 49
-0.125
 74
     0
 49
0.0
 74
     0
 49
-0.125
 74
     0
 49
0.0
 74
     0
 49
-0.125
 74
     0
  0
LTYPE
  5
1BE0
330
1BA4
100
AcDbSymbolTableRecord
100
AcDbLinetypeTableRecord
  2
DIVIDEX2
 70
     0
  3
Dividex2 ________  .  .  ________  .  .  _
 72
    65
 73
     6
 40
2.5
 49
1.0
 74
     0
 49
-0.5
 74
     0
 49
0.0
 74
     0
 49
-0.5
 74
     0
 49
0.0
 74
     0
 49
-0.5
 74
     0
  0
LTYPE
  5
1BE1
330
1BA4
100
AcDbSymbolTableRecord
100
AcDbLinetypeTableRecord
  2
DOT
 70
     0
  3
Dot . . . . . . . . . . . . . . . . . . . . . . . .
 72
    65
 73
     2
 40
0.25
 49
0.0
 74
     0
 49
-0.25
 74
     0
  0
LTYPE
  5
1BE2
330
1BA4
100
AcDbSymbolTableRecord
100
AcDbLinetypeTableRecord
  2
DOT2
 70
     0
  3
Dot2 ........................................
 72
    65
 73
     2
 40
0.125
 49
0.0
 74
     0
 49
-0.125
 74
     0
  0
LTYPE
  5
1BE3
330
1BA4
100
AcDbSymbolTableRecord
100
AcDbLinetypeTableRecord
  2
DOTX2
 70
     0
  3
Dotx2 .  .  .  .  .  .  .  .  .  .  .  .  .  .
 72
    65
 73
     2
 40
0.5
 49
0.0
 74
     0
 49
-0.5
 74
     0
  0
LTYPE
  5
1BE4
330
1BA4
100
AcDbSymbolTableRecord
100
AcDbLinetypeTableRecord
  2
HIDDENX2
 70
     0
  3
Hiddenx2 ____ ____ ____ ____ ____ ____ ____ 
 72
    65
 73
     2
 40
0.75
 49
0.5
 74
     0
 49
-0.25
 74
     0
  0
LTYPE
  5
1BE5
330
1BA4
100
AcDbSymbolTableRecord
100
AcDbLinetypeTableRecord
  2
PHANTOM
 70
     0
  3
Phantom ______  __  __  ______  __  __  ______ 
 72
    65
 73
     6
 40
2.5
 49
1.25
 74
     0
 49
-0.25
 74
     0
 49
0.25
 74
     0
 49
-0.25
 74
     0
 49
0.25
 74
     0
 49
-0.25
 74
     0
  0
LTYPE
  5
1BE6
330
1BA4
100
AcDbSymbolTableRecord
100
AcDbLinetypeTableRecord
  2
PHANTOM2
 70
     0
  3
Phantom2 ___ _ _ ___ _ _ ___ _ _ ___ _ _
 72
    65
 73
     6
 40
1.25
 49
0.625
 74
     0
 49
-0.125
 74
     0
 49
0.125
 74
     0
 49
-0.125
 74
     0
 49
0.125
 74
     0
 49
-0.125
 74
     0
  0
LTYPE
  5
1BE7
330
1BA4
100
AcDbSymbolTableRecord
100
AcDbLinetypeTableRecord
  2
PHANTOMX2
 70
     0
  3
Phantomx2 ____________    ____    ____   _
 72
    65
 73
     6
 40
5.0
 49
2.5
 74
     0
 49
-0.5
 74
     0
 49
0.5
 74
     0
 49
-0.5
 74
     0
 49
0.5
 74
     0
 49
-0.5
 74
     0
  0
ENDTAB
  0
TABLE
  2
LAYER
  5
1BA1
330
0
100
AcDbSymbolTable
 70
     6
  0
LAYER
  5
1BAF
330
1BA1
100
AcDbSymbolTableRecord
100
AcDbLayerTableRecord
  2
0
 70
     0
 62
     7
  6
CONTINUOUS
  0
LAYER
  5
9E
330
1BA1
100
AcDbSymbolTableRecord
100
AcDbLayerTableRecord
  2
DEFPOINTS
 70
     0
 62
     7
  6
CONTINUOUS
  0
LAYER
  5
377
330
1BA1
100
AcDbSymbolTableRecord
100
AcDbLayerTableRecord
  2
V0-OBRYS
 70
     0
 62
    90
  6
CONTINUOUS
  0
LAYER
  5
378
330
1BA1
100
AcDbSymbolTableRecord
100
AcDbLayerTableRecord
  2
V0-VYPLNE
 70
     0
 62
    63
  6
DASHDOT
  0
LAYER
  5
37A
330
1BA1
100
AcDbSymbolTableRecord
100
AcDbLayerTableRecord
  2
V0-NAZVY
 70
     0
 62
   210
  6
CONTINUOUS
  0
LAYER
  5
559
330
1BA1
100
AcDbSymbolTableRecord
100
AcDbLayerTableRecord
  2
V0-ZBYTEK
 70
     0
 62
    51
  6
CONTINUOUS
  0
ENDTAB
  0
TABLE
  2
STYLE
  5
1BA2
330
0
100
AcDbSymbolTable
 70
     5
  0
STYLE
  5
1BB0
330
1BA2
100
AcDbSymbolTableRecord
100
AcDbTextStyleTableRecord
  2
STANDARD
 70
     0
 40
0.0
 41
1.0
 50
0.0
 71
     0
 42
0.2
  3
ISOCP.shx
  4

1001
ACAD
1000
ISOCP.shx
1071
        0
  0
STYLE
  5
331
330
1BA2
100
AcDbSymbolTableRecord
100
AcDbTextStyleTableRecord
  2
ED20
 70
     0
 40
25.0
 41
1.0
 50
0.0
 71
     0
 42
0.2
  3
ISOCP.shx
  4

1001
ACAD
1000
ISOCP.shx
1071
        0
  0
STYLE
  5
648
330
1BA2
100
AcDbSymbolTableRecord
100
AcDbTextStyleTableRecord
  2
ED10
 70
     0
 40
10.0
 41
1.0
 50
0.0
 71
     0
 42
0.2
  3
ISOCP.shx
  4

1001
ACAD
1000
ISOCP.shx
1071
        0
  0
STYLE
  5
F38
330
1BA2
100
AcDbSymbolTableRecord
100
AcDbTextStyleTableRecord
  2
ED30
 70
     0
 40
30.0
 41
1.0
 50
0.0
 71
     0
 42
0.2
  3
ISOCP.shx
  4

1001
ACAD
1000
ISOCP.shx
1071
        0
  0
STYLE
  5
F39
330
1BA2
100
AcDbSymbolTableRecord
100
AcDbTextStyleTableRecord
  2
ED40
 70
     0
 40
40.0
 41
1.0
 50
0.0
 71
     0
 42
0.2
  3
ISOCP.shx
  4

1001
ACAD
1000
ISOCP.shx
1071
        0
  0
ENDTAB
  0
TABLE
  2
VIEW
  5
1BA5
330
0
100
AcDbSymbolTable
 70
     0
  0
ENDTAB
  0
TABLE
  2
UCS
  5
1BA6
330
0
100
AcDbSymbolTable
 70
     0
  0
ENDTAB
  0
TABLE
  2
APPID
  5
1BA8
330
0
100
AcDbSymbolTable
 70
     6
  0
APPID
  5
1BB1
330
1BA8
100
AcDbSymbolTableRecord
100
AcDbRegAppTableRecord
  2
ACAD
 70
     0
  0
APPID
  5
1BC9
330
1BA8
100
AcDbSymbolTableRecord
100
AcDbRegAppTableRecord
  2
VD_INVISIBLE_NOT_FOR_READ
 70
     0
  0
APPID
  5
1BCA
330
1BA8
100
AcDbSymbolTableRecord
100
AcDbRegAppTableRecord
  2
VD_TEMPHATCH
 70
     0
  0
APPID
  5
1BCB
330
1BA8
100
AcDbSymbolTableRecord
100
AcDbRegAppTableRecord
  2
VDEXTRAPARAM
 70
     0
  0
APPID
  5
1BCC
330
1BA8
100
AcDbSymbolTableRecord
100
AcDbRegAppTableRecord
  2
PE_URL
 70
     0
  0
APPID
  5
1BCD
330
1BA8
100
AcDbSymbolTableRecord
100
AcDbRegAppTableRecord
  2
VD_UNKNOWN
 70
     0
  0
ENDTAB
  0
TABLE
  2
DIMSTYLE
  5
1BA9
330
0
100
AcDbSymbolTable
 70
     5
  0
DIMSTYLE
105
1BC6
330
1BA9
100
AcDbSymbolTableRecord
100
AcDbDimStyleTableRecord
  2
STANDARD
 70
     0
  3

  4

  5
OPEN
  6

  7

 40
1.0
 41
15.0
 42
0.625
 43
0.38
 44
1.25
 45
0.0
 46
0.0
 47
0.0
 48
0.0
140
15.0
141
0.09
142
0.0
143
25.4
144
1.0
145
0.0
146
1.0
147
3.0
 71
     0
 72
     0
 73
     0
 74
     0
 75
     0
 76
     0
 77
     1
 78
     0
170
     0
171
     2
172
     1
173
     0
174
     1
175
     0
176
     0
177
     0
178
     0
270
     2
271
     0
272
     4
273
     2
274
     2
340
331
275
     0
280
     0
281
     0
282
     0
283
     1
284
     0
285
     0
286
     0
287
     3
288
     1
  0
DIMSTYLE
105
397
330
1BA9
100
AcDbSymbolTableRecord
100
AcDbDimStyleTableRecord
  2
ED40
 70
     0
  3

  4

  5
OPEN
  6

  7

 40
1.0
 41
35.0
 42
1.0
 43
0.38
 44
1.25
 45
0.0
 46
0.0
 47
0.0
 48
0.0
140
40.0
141
0.09
142
0.0
143
25.4
144
1.0
145
0.0
146
1.0
147
4.0
 71
     0
 72
     0
 73
     0
 74
     0
 75
     0
 76
     0
 77
     1
 78
     0
170
     0
171
     2
172
     1
173
     0
174
     1
175
     0
176
     0
177
     0
178
     0
270
     2
271
     0
272
     4
273
     2
274
     2
340
F39
275
     0
280
     0
281
     0
282
     0
283
     1
284
     0
285
     0
286
     0
287
     3
288
     1
  0
DIMSTYLE
105
FEA
102
{ACAD_REACTORS
330
1469
330
1476
330
1483
330
1490
330
14E2
102
}
330
1BA9
100
AcDbSymbolTableRecord
100
AcDbDimStyleTableRecord
  2
ED30
 70
     0
  3

  4

  5
OPEN
  6

  7

 40
1.0
 41
25.0
 42
1.0
 43
0.38
 44
1.25
 45
0.0
 46
0.0
 47
0.0
 48
0.0
140
30.0
141
0.09
142
0.0
143
25.4
144
1.0
145
0.0
146
1.0
147
4.0
 71
     0
 72
     0
 73
     0
 74
     0
 75
     0
 76
     0
 77
     1
 78
     0
170
     0
171
     2
172
     1
173
     0
174
     1
175
     0
176
     0
177
     0
178
     0
270
     2
271
     0
272
     4
273
     2
274
     2
340
F38
275
     0
280
     0
281
     0
282
     0
283
     1
284
     0
285
     0
286
     0
287
     3
288
     1
  0
DIMSTYLE
105
1457
330
1BA9
100
AcDbSymbolTableRecord
100
AcDbDimStyleTableRecord
  2
ED20
 70
     0
  3

  4

  5
OPEN
  6

  7

 40
1.0
 41
20.0
 42
1.0
 43
0.38
 44
1.25
 45
0.0
 46
0.0
 47
0.0
 48
0.0
140
20.0
141
0.09
142
0.0
143
25.4
144
1.0
145
0.0
146
1.0
147
1.5
 71
     0
 72
     0
 73
     0
 74
     0
 75
     0
 76
     0
 77
     1
 78
     0
170
     0
171
     2
172
     1
173
     0
174
     1
175
     0
176
     0
177
     0
178
     0
270
     2
271
     0
272
     4
273
     2
274
     2
340
331
275
     0
280
     0
281
     0
282
     0
283
     1
284
     0
285
     0
286
     0
287
     3
288
     1
  0
DIMSTYLE
105
1458
330
1BA9
100
AcDbSymbolTableRecord
100
AcDbDimStyleTableRecord
  2
ED10
 70
     0
  3

  4

  5
OPEN
  6

  7

 40
1.0
 41
15.0
 42
1.0
 43
0.38
 44
1.25
 45
0.0
 46
0.0
 47
0.0
 48
0.0
140
10.0
141
0.09
142
0.0
143
25.4
144
1.0
145
0.0
146
1.0
147
1.5
 71
     0
 72
     0
 73
     0
 74
     0
 75
     0
 76
     0
 77
     1
 78
     0
170
     0
171
     2
172
     1
173
     0
174
     1
175
     0
176
     0
177
     0
178
     0
270
     2
271
     0
272
     4
273
     2
274
     2
340
331
275
     0
280
     0
281
     0
282
     0
283
     1
284
     0
285
     0
286
     0
287
     3
288
     1
  0
ENDTAB
  0
TABLE
  2
BLOCK_RECORD
  5
1BA0
330
0
100
AcDbSymbolTable
 70
    10
  0
BLOCK_RECORD
  5
1BBE
330
1BA0
100
AcDbSymbolTableRecord
100
AcDbBlockTableRecord
  2
*MODEL_SPACE
  0
BLOCK_RECORD
  5
1BBA
330
1BA0
100
AcDbSymbolTableRecord
100
AcDbBlockTableRecord
  2
*PAPER_SPACE
  0
BLOCK_RECORD
  5
90
330
1BA0
100
AcDbSymbolTableRecord
100
AcDbBlockTableRecord
  2
_OPEN
  0
BLOCK_RECORD
  5
1459
330
1BA0
100
AcDbSymbolTableRecord
100
AcDbBlockTableRecord
  2
A10_100
  0
BLOCK_RECORD
  5
1B9C
330
1BA0
100
AcDbSymbolTableRecord
100
AcDbBlockTableRecord
  2
VDDIM_DEFAULT
  0
BLOCK_RECORD
  5
1B9E
330
1BA0
100
AcDbSymbolTableRecord
100
AcDbBlockTableRecord
  2
VDDIM_NONE
  0
BLOCK_RECORD
  5
1BF1
330
1BA0
100
AcDbSymbolTableRecord
100
AcDbBlockTableRecord
  2
*D5
  0
BLOCK_RECORD
  5
1BFE
330
1BA0
100
AcDbSymbolTableRecord
100
AcDbBlockTableRecord
  2
*D6
  0
BLOCK_RECORD
  5
1C0B
330
1BA0
100
AcDbSymbolTableRecord
100
AcDbBlockTableRecord
  2
*D7
  0
BLOCK_RECORD
  5
1C18
330
1BA0
100
AcDbSymbolTableRecord
100
AcDbBlockTableRecord
  2
*D8
  0
BLOCK_RECORD
  5
1C25
330
1BA0
100
AcDbSymbolTableRecord
100
AcDbBlockTableRecord
  2
*D9
  0
ENDTAB
  0
ENDSEC
  0
SECTION
  2
BLOCKS
  0
BLOCK
  5
1BBF
330
1BBE
100
AcDbEntity
  8
0
100
AcDbBlockBegin
  2
*MODEL_SPACE
 70
     0
 71
     0
 10
0.0
 20
0.0
 30
0.0
  3
*MODEL_SPACE
  1

  0
ENDBLK
  5
1BC0
330
1BBE
100
AcDbEntity
  8
0
100
AcDbBlockEnd
  0
BLOCK
  5
1BBB
330
1BBA
100
AcDbEntity
 67
     1
  8
0
100
AcDbBlockBegin
  2
*PAPER_SPACE
 70
     0
 71
     0
 10
0.0
 20
0.0
 30
0.0
  3
*PAPER_SPACE
  1

  0
ENDBLK
  5
1BBC
330
1BBA
100
AcDbEntity
 67
     1
  8
0
100
AcDbBlockEnd
  0
BLOCK
  5
1BE8
330
90
100
AcDbEntity
  8
0
100
AcDbBlockBegin
  2
_OPEN
 70
     0
 71
     0
 10
0.0
 20
0.0
 30
0.0
  3
_OPEN
  1

  0
LINE
  5
92
330
90
100
AcDbEntity
  8
0
  6
BYBLOCK
 62
     0
100
AcDbLine
 10
-1.0
 20
0.166667
 30
0.0
 11
0.0
 21
0.0
 31
0.0
  0
LINE
  5
93
330
90
100
AcDbEntity
  8
0
  6
BYBLOCK
 62
     0
100
AcDbLine
 10
0.0
 20
0.0
 30
0.0
 11
-1.0
 21
-0.166667
 31
0.0
  0
LINE
  5
94
330
90
100
AcDbEntity
  8
0
  6
BYBLOCK
 62
     0
100
AcDbLine
 10
0.0
 20
0.0
 30
0.0
 11
-1.0
 21
0.0
 31
0.0
  0
ENDBLK
  5
1BE9
330
90
100
AcDbEntity
  8
0
100
AcDbBlockEnd
  0
BLOCK
  5
1BEA
330
1459
100
AcDbEntity
  8
0
100
AcDbBlockBegin
  2
A10_100
 70
     0
 71
     0
 10
0.0
 20
0.0
 30
0.0
  3
A10_100
  1

  0
ENDBLK
  5
1BEB
330
1459
100
AcDbEntity
  8
0
100
AcDbBlockEnd
  0
BLOCK
  5
1BEC
330
1B9C
100
AcDbEntity
  8
0
100
AcDbBlockBegin
  2
VDDIM_DEFAULT
 70
     0
 71
     0
 10
0.0
 20
0.0
 30
0.0
  3
VDDIM_DEFAULT
  1

  0
LWPOLYLINE
  5
1B9D
330
1B9C
100
AcDbEntity
  8
0
  6
CONTINUOUS
 62
     0
100
AcDbPolyline
 90
        4
 70
     0
 43
0.0
 10
0.0
 20
0.0
 10
-1.0
 20
-0.1665
 10
-1.0
 20
0.1665
 10
0.0
 20
0.0
1001
VDEXTRAPARAM
1071
        1
1071
        0
1071
        0
1040
1.0
1000

1000

1040
0.0
1040
0.0
  0
HATCH
  5
1BF0
330
1B9C
100
AcDbEntity
  8
0
  6
CONTINUOUS
 62
     0
100
AcDbHatch
 10
0.0
 20
0.0
 30
0.0
210
0.0
220
0.0
230
1.0
  2
SOLID
 70
     1
 71
     0
 91
        1
 92
        2
 72
     0
 73
     1
 93
        3
 10
0.0
 20
0.0
 10
-1.0
 20
-0.1665
 10
-1.0
 20
0.1665
 97
        0
 75
     0
 76
     1
 98
        1
 10
0.0
 20
0.0
1001
VDEXTRAPARAM
1071
        1
1071
        0
1071
        0
1040
1.0
1000

1000

1040
0.0
1040
0.0
1001
VD_TEMPHATCH
1000
VD_TEMPHATCH
  0
ENDBLK
  5
1BED
330
1B9C
100
AcDbEntity
  8
0
100
AcDbBlockEnd
  0
BLOCK
  5
1BEE
330
1B9E
100
AcDbEntity
  8
0
100
AcDbBlockBegin
  2
VDDIM_NONE
 70
     0
 71
     0
 10
0.0
 20
0.0
 30
0.0
  3
VDDIM_NONE
  1

  0
ENDBLK
  5
1BEF
330
1B9E
100
AcDbEntity
  8
0
100
AcDbBlockEnd
  0
BLOCK
  5
1BFC
330
1BF1
100
AcDbEntity
  8
0
100
AcDbBlockBegin
  2
*D5
 70
     1
 71
     0
 10
0.0
 20
0.0
 30
0.0
  3
*D5
  1

  0
LINE
  5
1BF2
330
1BF1
100
AcDbEntity
  8
V0-VYPLNE
 62
     0
100
AcDbLine
 10
28.641239
 20
-277.166006
 30
0.0
 11
28.64123899999999
 21
-335.7463759999955
 31
0.0
  0
LINE
  5
1BF3
330
1BF1
100
AcDbEntity
  8
V0-VYPLNE
 62
     0
100
AcDbLine
 10
383.641239
 20
-277.166006
 30
0.0
 11
383.641239
 21
-335.7463759999955
 31
0.0
  0
LINE
  5
1BF4
330
1BF1
100
AcDbEntity
  8
V0-VYPLNE
 62
     0
100
AcDbLine
 10
53.64123899999999
 20
-334.4963759999955
 30
0.0
 11
146.1172718571429
 21
-334.4963759999955
 31
0.0
  0
LINE
  5
1BF5
330
1BF1
100
AcDbEntity
  8
V0-VYPLNE
 62
     0
100
AcDbLine
 10
358.641239
 20
-334.4963759999955
 30
0.0
 11
258.4029861428571
 21
-334.4963759999955
 31
0.0
  0
INSERT
  5
1BF6
330
1BF1
100
AcDbEntity
  8
V0-VYPLNE
 62
     0
100
AcDbBlockReference
  2
_OPEN
 10
28.64123899999999
 20
-334.4963759999955
 30
0.0
 41
25.0
 42
25.0
 43
25.0
 50
180.0
  0
INSERT
  5
1BF7
330
1BF1
100
AcDbEntity
  8
V0-VYPLNE
 62
     0
100
AcDbBlockReference
  2
_OPEN
 10
383.641239
 20
-334.4963759999955
 30
0.0
 41
25.0
 42
25.0
 43
25.0
  0
MTEXT
  5
1BF8
330
1BF1
100
AcDbEntity
  8
V0-VYPLNE
 62
     0
100
AcDbMText
 10
202.260129
 20
-334.496376
 30
0.0
 40
30.0
 41
0.0
 71
     5
 72
     1
  1
%%c\A1;355
  7
ED30
  0
POINT
  5
1BF9
330
1BF1
100
AcDbEntity
  8
DEFPOINTS
 62
     0
100
AcDbPoint
 10
28.641239
 20
-276.166006
 30
0.0
  0
POINT
  5
1BFA
330
1BF1
100
AcDbEntity
  8
DEFPOINTS
 62
     0
100
AcDbPoint
 10
383.641239
 20
-276.166006
 30
0.0
  0
POINT
  5
1BFB
330
1BF1
100
AcDbEntity
  8
DEFPOINTS
 62
     0
100
AcDbPoint
 10
383.641239
 20
-334.4963759999955
 30
0.0
  0
ENDBLK
  5
1BFD
330
1BF1
100
AcDbEntity
  8
0
100
AcDbBlockEnd
  0
BLOCK
  5
1C09
330
1BFE
100
AcDbEntity
  8
0
100
AcDbBlockBegin
  2
*D6
 70
     1
 71
     0
 10
0.0
 20
0.0
 30
0.0
  3
*D6
  1

  0
LINE
  5
1BFF
330
1BFE
100
AcDbEntity
  8
V0-VYPLNE
 62
     0
100
AcDbLine
 10
-18.858761
 20
-277.166006
 30
0.0
 11
-18.85876100000002
 21
-390.2473719999834
 31
0.0
  0
LINE
  5
1C00
330
1BFE
100
AcDbEntity
  8
V0-VYPLNE
 62
     0
100
AcDbLine
 10
431.141239
 20
-277.166006
 30
0.0
 11
431.141239
 21
-390.2473719999834
 31
0.0
  0
LINE
  5
1C01
330
1BFE
100
AcDbEntity
  8
V0-VYPLNE
 62
     0
100
AcDbLine
 10
6.141238999999985
 20
-388.9973719999834
 30
0.0
 11
155.7921814285714
 21
-388.9973719999834
 31
0.0
  0
LINE
  5
1C02
330
1BFE
100
AcDbEntity
  8
V0-VYPLNE
 62
     0
100
AcDbLine
 10
406.141239
 20
-388.9973719999834
 30
0.0
 11
240.9350385714286
 21
-388.9973719999834
 31
0.0
  0
INSERT
  5
1C03
330
1BFE
100
AcDbEntity
  8
V0-VYPLNE
 62
     0
100
AcDbBlockReference
  2
_OPEN
 10
-18.85876100000002
 20
-388.9973719999834
 30
0.0
 41
25.0
 42
25.0
 43
25.0
 50
180.0
  0
INSERT
  5
1C04
330
1BFE
100
AcDbEntity
  8
V0-VYPLNE
 62
     0
100
AcDbBlockReference
  2
_OPEN
 10
431.141239
 20
-388.9973719999834
 30
0.0
 41
25.0
 42
25.0
 43
25.0
  0
MTEXT
  5
1C05
330
1BFE
100
AcDbEntity
  8
V0-VYPLNE
 62
     0
100
AcDbMText
 10
198.36361
 20
-388.997372
 30
0.0
 40
30.0
 41
0.0
 71
     5
 72
     1
  1
\A1;450
  7
ED30
  0
POINT
  5
1C06
330
1BFE
100
AcDbEntity
  8
DEFPOINTS
 62
     0
100
AcDbPoint
 10
-18.858761
 20
-276.166006
 30
0.0
  0
POINT
  5
1C07
330
1BFE
100
AcDbEntity
  8
DEFPOINTS
 62
     0
100
AcDbPoint
 10
431.141239
 20
-276.166006
 30
0.0
  0
POINT
  5
1C08
330
1BFE
100
AcDbEntity
  8
DEFPOINTS
 62
     0
100
AcDbPoint
 10
431.141239
 20
-388.9973719999834
 30
0.0
  0
ENDBLK
  5
1C0A
330
1BFE
100
AcDbEntity
  8
0
100
AcDbBlockEnd
  0
BLOCK
  5
1C16
330
1C0B
100
AcDbEntity
  8
0
100
AcDbBlockBegin
  2
*D7
 70
     1
 71
     0
 10
0.0
 20
0.0
 30
0.0
  3
*D7
  1

  0
LINE
  5
1C0C
330
1C0B
100
AcDbEntity
  8
V0-VYPLNE
 62
     0
100
AcDbLine
 10
-73.858761
 20
-277.166006
 30
0.0
 11
-73.85876100000002
 21
-456.4271510000107
 31
0.0
  0
LINE
  5
1C0D
330
1C0B
100
AcDbEntity
  8
V0-VYPLNE
 62
     0
100
AcDbLine
 10
486.141239
 20
-277.166006
 30
0.0
 11
486.141239
 21
-456.4271510000108
 31
0.0
  0
LINE
  5
1C0E
330
1C0B
100
AcDbEntity
  8
V0-VYPLNE
 62
     0
100
AcDbLine
 10
-48.85876100000002
 20
-455.1771510000107
 30
0.0
 11
163.5698104285714
 21
-455.1771510000108
 31
0.0
  0
LINE
  5
1C0F
330
1C0B
100
AcDbEntity
  8
V0-VYPLNE
 62
     0
100
AcDbLine
 10
461.141239
 20
-455.1771510000108
 30
0.0
 11
248.7126675714286
 21
-455.1771510000108
 31
0.0
  0
INSERT
  5
1C10
330
1C0B
100
AcDbEntity
  8
V0-VYPLNE
 62
     0
100
AcDbBlockReference
  2
_OPEN
 10
-73.85876100000002
 20
-455.1771510000107
 30
0.0
 41
25.0
 42
25.0
 43
25.0
 50
180.0
  0
INSERT
  5
1C11
330
1C0B
100
AcDbEntity
  8
V0-VYPLNE
 62
     0
100
AcDbBlockReference
  2
_OPEN
 10
486.141239
 20
-455.1771510000108
 30
0.0
 41
25.0
 42
25.0
 43
25.0
 50
360.0
  0
MTEXT
  5
1C12
330
1C0B
100
AcDbEntity
  8
V0-VYPLNE
 62
     0
100
AcDbMText
 10
206.141239
 20
-455.177151
 30
0.0
 40
30.0
 41
0.0
 71
     5
 72
     1
  1
\A1;560
  7
ED30
  0
POINT
  5
1C13
330
1C0B
100
AcDbEntity
  8
DEFPOINTS
 62
     0
100
AcDbPoint
 10
-73.858761
 20
-276.166006
 30
0.0
  0
POINT
  5
1C14
330
1C0B
100
AcDbEntity
  8
DEFPOINTS
 62
     0
100
AcDbPoint
 10
486.141239
 20
-276.166006
 30
0.0
  0
POINT
  5
1C15
330
1C0B
100
AcDbEntity
  8
DEFPOINTS
 62
     0
100
AcDbPoint
 10
486.141239
 20
-455.1771510000108
 30
0.0
  0
ENDBLK
  5
1C17
330
1C0B
100
AcDbEntity
  8
0
100
AcDbBlockEnd
  0
BLOCK
  5
1C23
330
1C18
100
AcDbEntity
  8
0
100
AcDbBlockBegin
  2
*D8
 70
     1
 71
     0
 10
0.0
 20
0.0
 30
0.0
  3
*D8
  1

  0
LINE
  5
1C19
330
1C18
100
AcDbEntity
  8
V0-VYPLNE
 62
     0
100
AcDbLine
 10
487.141239
 20
-276.166006
 30
0.0
 11
655.5060910000033
 21
-276.1660059999999
 31
0.0
  0
LINE
  5
1C1A
330
1C18
100
AcDbEntity
  8
V0-VYPLNE
 62
     0
100
AcDbLine
 10
207.141239
 20
148.833994
 30
0.0
 11
655.5060910000033
 21
148.833994
 31
0.0
  0
LINE
  5
1C1B
330
1C18
100
AcDbEntity
  8
V0-VYPLNE
 62
     0
100
AcDbLine
 10
654.2560910000033
 20
-251.1660059999999
 30
0.0
 11
654.2560910000033
 21
-116.2416145714286
 31
0.0
  0
LINE
  5
1C1C
330
1C18
100
AcDbEntity
  8
V0-VYPLNE
 62
     0
100
AcDbLine
 10
654.2560910000034
 20
123.833994
 30
0.0
 11
654.2560910000033
 21
-31.09875742857145
 31
0.0
  0
INSERT
  5
1C1D
330
1C18
100
AcDbEntity
  8
V0-VYPLNE
 62
     0
100
AcDbBlockReference
  2
_OPEN
 10
654.2560910000033
 20
-276.1660059999999
 30
0.0
 41
25.0
 42
25.0
 43
25.0
 50
270.0
  0
INSERT
  5
1C1E
330
1C18
100
AcDbEntity
  8
V0-VYPLNE
 62
     0
100
AcDbBlockReference
  2
_OPEN
 10
654.2560910000034
 20
148.833994
 30
0.0
 41
25.0
 42
25.0
 43
25.0
 50
90.0
  0
MTEXT
  5
1C1F
330
1C18
100
AcDbEntity
  8
V0-VYPLNE
 62
     0
100
AcDbMText
 10
654.256091
 20
-73.670186
 30
0.0
 40
30.0
 41
0.0
 71
     5
 72
     1
  1
\A1;425
  7
ED30
 11
0.0
 21
-1.0
 31
0.0
  0
POINT
  5
1C20
330
1C18
100
AcDbEntity
  8
DEFPOINTS
 62
     0
100
AcDbPoint
 10
486.141239
 20
-276.166006
 30
0.0
  0
POINT
  5
1C21
330
1C18
100
AcDbEntity
  8
DEFPOINTS
 62
     0
100
AcDbPoint
 10
206.141239
 20
148.833994
 30
0.0
  0
POINT
  5
1C22
330
1C18
100
AcDbEntity
  8
DEFPOINTS
 62
     0
100
AcDbPoint
 10
654.2560910000033
 20
148.833994
 30
0.0
  0
ENDBLK
  5
1C24
330
1C18
100
AcDbEntity
  8
0
100
AcDbBlockEnd
  0
BLOCK
  5
1C30
330
1C25
100
AcDbEntity
  8
0
100
AcDbBlockBegin
  2
*D9
 70
     1
 71
     0
 10
0.0
 20
0.0
 30
0.0
  3
*D9
  1

  0
LINE
  5
1C26
330
1C25
100
AcDbEntity
  8
V0-VYPLNE
 62
     0
100
AcDbLine
 10
-174.858761
 20
-27.421676
 30
0.0
 11
-174.858761
 21
207.8706450000028
 31
0.0
  0
LINE
  5
1C27
330
1C25
100
AcDbEntity
  8
V0-VYPLNE
 62
     0
100
AcDbLine
 10
587.141239
 20
-27.421676
 30
0.0
 11
587.141239
 21
207.8706450000027
 31
0.0
  0
LINE
  5
1C28
330
1C25
100
AcDbEntity
  8
V0-VYPLNE
 62
     0
100
AcDbLine
 10
-149.858761
 20
206.6206450000028
 30
0.0
 11
146.1172718571429
 21
206.6206450000027
 31
0.0
  0
LINE
  5
1C29
330
1C25
100
AcDbEntity
  8
V0-VYPLNE
 62
     0
100
AcDbLine
 10
562.141239
 20
206.6206450000027
 30
0.0
 11
258.4029861428571
 21
206.6206450000027
 31
0.0
  0
INSERT
  5
1C2A
330
1C25
100
AcDbEntity
  8
V0-VYPLNE
 62
     0
100
AcDbBlockReference
  2
_OPEN
 10
-174.858761
 20
206.6206450000028
 30
0.0
 41
25.0
 42
25.0
 43
25.0
 50
180.0
  0
INSERT
  5
1C2B
330
1C25
100
AcDbEntity
  8
V0-VYPLNE
 62
     0
100
AcDbBlockReference
  2
_OPEN
 10
587.141239
 20
206.6206450000027
 30
0.0
 41
25.0
 42
25.0
 43
25.0
 50
360.0
  0
MTEXT
  5
1C2C
330
1C25
100
AcDbEntity
  8
V0-VYPLNE
 62
     0
100
AcDbMText
 10
202.260129
 20
206.620645
 30
0.0
 40
30.0
 41
0.0
 71
     5
 72
     1
  1
%%c\A1;762
  7
ED30
  0
POINT
  5
1C2D
330
1C25
100
AcDbEntity
  8
DEFPOINTS
 62
     0
100
AcDbPoint
 10
-174.858761
 20
-28.421676
 30
0.0
  0
POINT
  5
1C2E
330
1C25
100
AcDbEntity
  8
DEFPOINTS
 62
     0
100
AcDbPoint
 10
587.141239
 20
-28.421676
 30
0.0
  0
POINT
  5
1C2F
330
1C25
100
AcDbEntity
  8
DEFPOINTS
 62
     0
100
AcDbPoint
 10
587.141239
 20
206.6206450000027
 30
0.0
  0
ENDBLK
  5
1C31
330
1C25
100
AcDbEntity
  8
0
100
AcDbBlockEnd
  0
ENDSEC
  0
SECTION
  2
ENTITIES
  0
LINE
  5
1127
330
1BBE
100
AcDbEntity
  8
V0-VYPLNE
  6
DASHDOT
 62
    63
100
AcDbLine
 10
206.141239
 20
-567.786784
 30
0.0
 11
206.141239
 21
-1228.701271
 31
0.0
  0
CIRCLE
  5
11B0
330
1BBE
100
AcDbEntity
  8
V0-VYPLNE
  6
DASHED
 62
    56
100
AcDbCircle
 10
430.801339
 20
-667.738143
 30
0.0
 40
6.41886
  0
LINE
  5
11B1
330
1BBE
100
AcDbEntity
  8
V0-VYPLNE
 62
    63
100
AcDbLine
 10
430.801339
 20
-695.247543
 30
0.0
 11
430.801339
 21
-640.228743
 31
0.0
  0
LINE
  5
11BB
330
1BBE
100
AcDbEntity
  8
V0-VYPLNE
100
AcDbLine
 10
206.141239
 20
148.833994
 30
0.0
 11
206.141239
 21
-272.319392
 31
0.0
  0
LINE
  5
11BE
330
1BBE
100
AcDbEntity
  8
V0-VYPLNE
100
AcDbLine
 10
-18.858761
 20
-286.166006
 30
0.0
 11
-18.858761
 21
-236.166006
 31
0.0
  0
LINE
  5
11BF
330
1BBE
100
AcDbEntity
  8
V0-VYPLNE
100
AcDbLine
 10
431.141239
 20
-286.166006
 30
0.0
 11
431.141239
 21
-236.166006
 31
0.0
  0
POINT
  5
12BC
330
1BBE
100
AcDbEntity
  8
V0-VYPLNE
  6
CONTINUOUS
 62
    41
100
AcDbPoint
 10
206.141239
 20
-892.398243
 30
0.0
  0
POINT
  5
12BD
330
1BBE
100
AcDbEntity
  8
V0-VYPLNE
  6
CONTINUOUS
 62
    41
100
AcDbPoint
 10
206.141239
 20
-276.166006
 30
0.0
  0
LINE
  5
13BB
330
1BBE
100
AcDbEntity
  8
V0-VYPLNE
  6
DASHDOT
 62
    63
100
AcDbLine
 10
-102.47022
 20
-892.398243
 30
0.0
 11
542.444268
 21
-892.398243
 31
0.0
  0
CIRCLE
  5
13BE
330
1BBE
100
AcDbEntity
  8
V0-OBRYS
  6
CONTINUOUS
 62
    90
100
AcDbCircle
 10
206.141239
 20
-892.398243
 30
0.0
 40
380.97
  0
CIRCLE
  5
13BF
330
1BBE
100
AcDbEntity
  8
V0-OBRYS
  6
CONTINUOUS
 62
    90
100
AcDbCircle
 10
206.141239
 20
-892.398243
 30
0.0
 40
355.980298
  0
CIRCLE
  5
13C0
330
1BBE
100
AcDbEntity
  8
V0-VYPLNE
  6
DASHED
 62
    52
100
AcDbCircle
 10
206.141239
 20
-892.398243
 30
0.0
 40
177.55395
  0
LINE
  5
13C2
330
1BBE
100
AcDbEntity
  8
V0-VYPLNE
 62
    63
100
AcDbLine
 10
458.310739
 20
-667.738143
 30
0.0
 11
403.291939
 21
-667.738143
 31
0.0
  0
LINE
  5
13C5
330
1BBE
100
AcDbEntity
  8
V0-VYPLNE
 62
    63
100
AcDbLine
 10
8.990539
 20
-667.738143
 30
0.0
 11
-46.028261
 21
-667.738143
 31
0.0
  0
LINE
  5
13C6
330
1BBE
100
AcDbEntity
  8
V0-VYPLNE
 62
    63
100
AcDbLine
 10
-18.518861
 20
-640.228743
 30
0.0
 11
-18.518861
 21
-695.247543
 31
0.0
  0
CIRCLE
  5
13C7
330
1BBE
100
AcDbEntity
  8
V0-VYPLNE
  6
DASHED
 62
    56
100
AcDbCircle
 10
-18.518861
 20
-667.738143
 30
0.0
 40
6.41886
  0
LINE
  5
13C8
330
1BBE
100
AcDbEntity
  8
V0-VYPLNE
 62
    63
100
AcDbLine
 10
-18.518861
 20
-1089.548943
 30
0.0
 11
-18.518861
 21
-1144.567743
 31
0.0
  0
LINE
  5
13C9
330
1BBE
100
AcDbEntity
  8
V0-VYPLNE
 62
    63
100
AcDbLine
 10
-46.028261
 20
-1117.058343
 30
0.0
 11
8.990538999999998
 21
-1117.058343
 31
0.0
  0
CIRCLE
  5
13CA
330
1BBE
100
AcDbEntity
  8
V0-VYPLNE
  6
DASHED
 62
    56
100
AcDbCircle
 10
-18.518861
 20
-1117.058343
 30
0.0
 40
6.41886
  0
LINE
  5
13CB
330
1BBE
100
AcDbEntity
  8
V0-VYPLNE
 62
    63
100
AcDbLine
 10
403.291939
 20
-1117.058343
 30
0.0
 11
458.310739
 21
-1117.058343
 31
0.0
  0
LINE
  5
13CC
330
1BBE
100
AcDbEntity
  8
V0-VYPLNE
 62
    63
100
AcDbLine
 10
430.801339
 20
-1144.567743
 30
0.0
 11
430.801339
 21
-1089.548943
 31
0.0
  0
CIRCLE
  5
13CD
330
1BBE
100
AcDbEntity
  8
V0-VYPLNE
  6
DASHED
 62
    56
100
AcDbCircle
 10
430.801339
 20
-1117.058343
 30
0.0
 40
6.41886
  0
LINE
  5
13CE
330
1BBE
100
AcDbEntity
  8
V0-VYPLNE
  6
DASHED
 62
    52
100
AcDbLine
 10
485.941239
 20
-613.598243
 30
0.0
 11
-73.65876100000003
 21
-613.598243
 31
0.0
  0
LINE
  5
13CF
330
1BBE
100
AcDbEntity
  8
V0-VYPLNE
  6
DASHED
 62
    52
100
AcDbLine
 10
-73.658761
 20
-613.598243
 30
0.0
 11
-73.658761
 21
-1172.198243
 31
0.0
  0
LINE
  5
13D0
330
1BBE
100
AcDbEntity
  8
V0-VYPLNE
  6
DASHED
 62
    52
100
AcDbLine
 10
-73.658761
 20
-1172.198243
 30
0.0
 11
485.941239
 21
-1172.198243
 31
0.0
  0
LINE
  5
13D1
330
1BBE
100
AcDbEntity
  8
V0-VYPLNE
  6
DASHED
 62
    52
100
AcDbLine
 10
485.941239
 20
-1172.198243
 30
0.0
 11
485.941239
 21
-613.598243
 31
0.0
  0
LINE
  5
13D2
330
1BBE
100
AcDbEntity
  8
V0-OBRYS
  6
CONTINUOUS
 62
    90
100
AcDbLine
 10
-73.858761
 20
-276.166006
 30
0.0
 11
486.141239
 21
-276.166006
 31
0.0
  0
LINE
  5
13D3
330
1BBE
100
AcDbEntity
  8
V0-OBRYS
  6
CONTINUOUS
 62
    90
100
AcDbLine
 10
486.141239
 20
-276.166006
 30
0.0
 11
486.141239
 21
-261.166006
 31
0.0
  0
LINE
  5
13D4
330
1BBE
100
AcDbEntity
  8
V0-OBRYS
  6
CONTINUOUS
 62
    90
100
AcDbLine
 10
486.141239
 20
-261.166006
 30
0.0
 11
-73.85876100000002
 21
-261.166006
 31
0.0
  0
LINE
  5
13D5
330
1BBE
100
AcDbEntity
  8
V0-OBRYS
  6
CONTINUOUS
 62
    90
100
AcDbLine
 10
-73.858761
 20
-261.166006
 30
0.0
 11
-73.858761
 21
-276.166006
 31
0.0
  0
LINE
  5
13D6
330
1BBE
100
AcDbEntity
  8
V0-OBRYS
  6
CONTINUOUS
 62
    90
100
AcDbLine
 10
-31.358761
 20
-261.166006
 30
0.0
 11
-31.358761
 21
-258.166006
 31
0.0
  0
LINE
  5
13D7
330
1BBE
100
AcDbEntity
  8
V0-OBRYS
  6
CONTINUOUS
 62
    90
100
AcDbLine
 10
-31.358761
 20
-258.166006
 30
0.0
 11
443.641239
 21
-258.166006
 31
0.0
  0
LINE
  5
13D8
330
1BBE
100
AcDbEntity
  8
V0-OBRYS
  6
CONTINUOUS
 62
    90
100
AcDbLine
 10
443.641239
 20
-258.166006
 30
0.0
 11
443.641239
 21
-261.166006
 31
0.0
  0
LINE
  5
13D9
330
1BBE
100
AcDbEntity
  8
V0-OBRYS
  6
CONTINUOUS
 62
    90
100
AcDbLine
 10
378.641239
 20
-258.166006
 30
0.0
 11
378.641239
 21
-21.00421499999999
 31
0.0
  0
LINE
  5
13DE
330
1BBE
100
AcDbEntity
  8
V0-OBRYS
  6
CONTINUOUS
 62
    90
100
AcDbLine
 10
413.641239
 20
-258.166006
 30
0.0
 11
503.32732
 21
-23.66467900000001
 31
0.0
  0
LINE
  5
13E8
330
1BBE
100
AcDbEntity
  8
V0-OBRYS
  6
CONTINUOUS
 62
    90
100
AcDbLine
 10
67.371072
 20
-226.166006
 30
0.0
 11
344.9114050000001
 21
-226.166006
 31
0.0
  0
LINE
  5
13EA
330
1BBE
100
AcDbEntity
  8
V0-OBRYS
  6
CONTINUOUS
 62
    90
100
AcDbLine
 10
383.641239
 20
-256.166006
 30
0.0
 11
383.641239
 21
-276.166006
 31
0.0
  0
LINE
  5
13EC
330
1BBE
100
AcDbEntity
  8
V0-OBRYS
  6
CONTINUOUS
 62
    90
100
AcDbLine
 10
363.641239
 20
-21.004215
 30
0.0
 11
363.641239
 21
-201.524989
 31
0.0
  0
ARC
  5
13ED
330
1BBE
100
AcDbEntity
  8
V0-OBRYS
  6
CONTINUOUS
 62
    90
100
AcDbCircle
 10
383.641239
 20
-236.166006
 30
0.0
 40
40.0
100
AcDbArc
 50
120.0
 51
213.367013
  0
ARC
  5
13EE
330
1BBE
100
AcDbEntity
  8
V0-OBRYS
  6
CONTINUOUS
 62
    90
100
AcDbCircle
 10
28.641239
 20
-236.166006
 30
0.0
 40
40.0
100
AcDbArc
 50
326.632987
 51
59.99999999999999
  0
LINE
  5
13EF
330
1BBE
100
AcDbEntity
  8
V0-OBRYS
  6
CONTINUOUS
 62
    90
100
AcDbLine
 10
48.641239
 20
-21.004215
 30
0.0
 11
48.641239
 21
-201.524989
 31
0.0
  0
LINE
  5
13F0
330
1BBE
100
AcDbEntity
  8
V0-OBRYS
  6
CONTINUOUS
 62
    90
100
AcDbLine
 10
33.641239
 20
-258.166006
 30
0.0
 11
33.641239
 21
-21.00421499999999
 31
0.0
  0
LINE
  5
13F1
330
1BBE
100
AcDbEntity
  8
V0-OBRYS
  6
CONTINUOUS
 62
    90
100
AcDbLine
 10
-1.358761
 20
-258.166006
 30
0.0
 11
-91.044843
 21
-23.66467900000001
 31
0.0
  0
LINE
  5
13F2
330
1BBE
100
AcDbEntity
  8
V0-OBRYS
  6
CONTINUOUS
 62
    90
100
AcDbLine
 10
58.641239
 20
-209.708493
 30
0.0
 11
58.641239
 21
-21.00421499999999
 31
0.0
  0
LINE
  5
13F3
330
1BBE
100
AcDbEntity
  8
V0-OBRYS
  6
CONTINUOUS
 62
    90
100
AcDbLine
 10
353.641239
 20
-209.708493
 30
0.0
 11
353.641239
 21
-21.00421499999999
 31
0.0
  0
LINE
  5
1414
330
1BBE
100
AcDbEntity
  8
V0-VYPLNE
  6
CONTINUOUS
 62
    52
100
AcDbLine
 10
33.641239
 20
-21.004215
 30
0.0
 11
378.641239
 21
-21.004215
 31
0.0
  0
LINE
  5
1415
330
1BBE
100
AcDbEntity
  8
V0-VYPLNE
  6
CONTINUOUS
 62
    52
100
AcDbLine
 10
378.641239
 20
-21.004215
 30
0.0
 11
378.641239
 21
-258.166006
 31
0.0
  0
LINE
  5
1416
330
1BBE
100
AcDbEntity
  8
V0-VYPLNE
  6
CONTINUOUS
 62
    52
100
AcDbLine
 10
378.641239
 20
-258.166006
 30
0.0
 11
33.64123899999999
 21
-258.166006
 31
0.0
  0
LINE
  5
1417
330
1BBE
100
AcDbEntity
  8
V0-VYPLNE
  6
CONTINUOUS
 62
    52
100
AcDbLine
 10
33.641239
 20
-258.166006
 30
0.0
 11
33.641239
 21
-21.00421499999999
 31
0.0
  0
HATCH
  5
142F
330
1BBE
100
AcDbEntity
  8
V0-VYPLNE
  6
CONTINUOUS
 62
    52
100
AcDbHatch
 10
0.0
 20
0.0
 30
0.0
210
0.0
220
0.0
230
1.0
  2
NET
 70
     0
 71
     0
 91
        1
 92
        3
 72
     0
 73
     1
 93
        4
 10
378.6412387300806
 20
-258.166005630735
 10
378.6412387300806
 20
-21.00421532110297
 10
33.6412387300806
 20
-21.004215321103
 10
33.64123873008068
 20
-258.166005630735
 97
        0
 75
     0
 76
     2
 52
0.0
 41
5.0
 77
     0
 78
     2
 53
0.0
 43
206.141239
 44
-213.166006
 45
0.0
 46
15.875
 79
     0
 53
90.0
 43
206.141239
 44
-213.166006
 45
-15.875
 46
0.000000000000001
 79
     0
 98
        1
 10
0.0
 20
0.0
1001
VDEXTRAPARAM
1071
       76
1071
        0
1071
        0
1040
5.0
1000
NET
1000

1040
0.0
1040
0.0
  0
LINE
  5
1456
330
1BBE
100
AcDbEntity
  8
V0-OBRYS
  6
CONTINUOUS
 62
    90
100
AcDbLine
 10
28.641239
 20
-256.166006
 30
0.0
 11
28.641239
 21
-276.166006
 31
0.0
  0
INSERT
  5
145C
330
1BBE
100
AcDbEntity
  8
V0-VYPLNE
  6
CONTINUOUS
 62
    52
100
AcDbBlockReference
  2
A10_100
 10
1091.344077
 20
-456.786598
 30
0.0
  0
DIMENSION
  5
1469
330
1BBE
100
AcDbEntity
  8
V0-VYPLNE
  6
CONTINUOUS
 62
    41
100
AcDbDimension
  2
*D5
 10
383.641239
 20
-334.4963759999955
 30
0.0
 11
202.260129
 21
-334.496376
 31
0.0
 70
   160
  1
%%c<>
  3
ED30
100
AcDbAlignedDimension
 13
28.641239
 23
-276.166006
 33
0.0
 14
383.641239
 24
-276.166006
 34
0.0
100
AcDbRotatedDimension
  0
DIMENSION
  5
1476
330
1BBE
100
AcDbEntity
  8
V0-VYPLNE
  6
CONTINUOUS
 62
    41
100
AcDbDimension
  2
*D6
 10
431.141239
 20
-388.9973719999834
 30
0.0
 11
198.36361
 21
-388.997372
 31
0.0
 70
   160
  3
ED30
100
AcDbAlignedDimension
 13
-18.858761
 23
-276.166006
 33
0.0
 14
431.141239
 24
-276.166006
 34
0.0
100
AcDbRotatedDimension
  0
DIMENSION
  5
1483
330
1BBE
100
AcDbEntity
  8
V0-VYPLNE
  6
CONTINUOUS
 62
    41
100
AcDbDimension
  2
*D7
 10
486.141239
 20
-455.1771510000108
 30
0.0
 11
206.141239
 21
-455.177151
 31
0.0
 70
   160
  3
ED30
100
AcDbAlignedDimension
 13
-73.858761
 23
-276.166006
 33
0.0
 14
486.141239
 24
-276.166006
 34
0.0
100
AcDbRotatedDimension
  0
DIMENSION
  5
1490
330
1BBE
100
AcDbEntity
  8
V0-VYPLNE
  6
CONTINUOUS
 62
    41
100
AcDbDimension
  2
*D8
 10
654.2560910000033
 20
148.833994
 30
0.0
 11
654.256091
 21
-73.670186
 31
0.0
 70
   160
  3
ED30
100
AcDbAlignedDimension
 13
486.141239
 23
-276.166006
 33
0.0
 14
206.141239
 24
148.833994
 34
0.0
 50
90.0
100
AcDbRotatedDimension
  0
LINE
  5
14A6
330
1BBE
100
AcDbEntity
  8
V0-VYPLNE
  6
CONTINUOUS
 62
    41
100
AcDbLine
 10
133.186283
 20
-445.715613
 30
0.0
 11
143.647456
 21
-427.066785
 31
0.0
  0
LWPOLYLINE
  5
14A7
330
1BBE
100
AcDbEntity
  8
V0-VYPLNE
  6
CONTINUOUS
 62
    41
100
AcDbPolyline
 90
        4
 70
     1
 43
0.0
 10
133.264268
 20
-441.919618
 10
144.389106
 20
-441.919618
 10
144.389106
 20
-430.805026
 10
133.264268
 20
-430.805026
  0
LWPOLYLINE
  5
14A8
330
1BBE
100
AcDbEntity
  8
V0-VYPLNE
  6
CONTINUOUS
 62
    41
100
AcDbPolyline
 90
        4
 70
     1
 43
0.0
 10
133.264268
 20
-382.353044
 10
144.389106
 20
-382.353044
 10
144.389106
 20
-371.238451
 10
133.264268
 20
-371.238451
  0
LINE
  5
14A9
330
1BBE
100
AcDbEntity
  8
V0-VYPLNE
  6
CONTINUOUS
 62
    41
100
AcDbLine
 10
133.186283
 20
-386.149039
 30
0.0
 11
143.647456
 21
-367.500211
 31
0.0
  0
DIMENSION
  5
14E2
330
1BBE
100
AcDbEntity
  8
V0-VYPLNE
  6
CONTINUOUS
 62
    41
100
AcDbDimension
  2
*D9
 10
587.141239
 20
206.6206450000027
 30
0.0
 11
202.260129
 21
206.620645
 31
0.0
 70
   160
  1
%%c<>
  3
ED30
100
AcDbAlignedDimension
 13
-174.858761
 23
-28.421676
 33
0.0
 14
587.141239
 24
-28.421676
 34
0.0
100
AcDbRotatedDimension
  0
LINE
  5
176E
330
1BBE
100
AcDbEntity
  8
V0-OBRYS
  6
CONTINUOUS
 62
    90
100
AcDbLine
 10
-156.603756
 20
-2.653831
 30
0.0
 11
568.8862339999999
 21
-2.653831
 31
0.0
  0
LINE
  5
176F
330
1BBE
100
AcDbEntity
  8
V0-OBRYS
  6
CONTINUOUS
 62
    90
100
AcDbLine
 10
-148.659115
 20
4.602657
 30
0.0
 11
560.941592
 21
4.602657
 31
0.0
  0
ARC
  5
18B4
330
1BBE
100
AcDbEntity
  8
V0-OBRYS
  6
CONTINUOUS
 62
    90
100
AcDbCircle
 10
207.492981
 20
-361.166006
 30
0.0
 40
510.0
100
AcDbArc
 50
41.434797
 51
138.565203
  0
LINE
  5
18B8
330
1BBE
100
AcDbEntity
  8
V0-OBRYS
  6
CONTINUOUS
 62
    90
100
AcDbLine
 10
-174.858761
 20
-23.664679
 30
0.0
 11
589.844723
 21
-23.664679
 31
0.0
  0
ARC
  5
18DA
330
1BBE
100
AcDbEntity
  8
V0-OBRYS
  6
CONTINUOUS
 62
    90
100
AcDbCircle
 10
1101.476227
 20
-361.166006
 30
0.0
 40
510.0
100
AcDbArc
 50
41.434797
 51
138.565203
  0
LINE
  5
18DB
330
1BBE
100
AcDbEntity
  8
V0-OBRYS
  6
CONTINUOUS
 62
    90
100
AcDbLine
 10
719.1244850000001
 20
-23.664679
 30
0.0
 11
1483.827969
 21
-23.664679
 31
0.0
  0
LINE
  5
18DC
330
1BBE
100
AcDbEntity
  8
V0-OBRYS
  6
CONTINUOUS
 62
    90
100
AcDbLine
 10
1307.624485
 20
-258.166006
 30
0.0
 11
1397.310566
 21
-23.66467900000001
 31
0.0
  0
LINE
  5
18DD
330
1BBE
100
AcDbEntity
  8
V0-OBRYS
  6
CONTINUOUS
 62
    90
100
AcDbLine
 10
737.37949
 20
-2.653831
 30
0.0
 11
1462.86948
 21
-2.653831
 31
0.0
  0
LINE
  5
18DE
330
1BBE
100
AcDbEntity
  8
V0-OBRYS
  6
CONTINUOUS
 62
    90
100
AcDbLine
 10
745.324131
 20
4.602657
 30
0.0
 11
1454.924838
 21
4.602657
 31
0.0
  0
LINE
  5
18DF
330
1BBE
100
AcDbEntity
  8
V0-OBRYS
  6
CONTINUOUS
 62
    90
100
AcDbLine
 10
1380.124485
 20
-261.166006
 30
0.0
 11
820.1244850000001
 21
-261.166006
 31
0.0
  0
LINE
  5
18E0
330
1BBE
100
AcDbEntity
  8
V0-OBRYS
  6
CONTINUOUS
 62
    90
100
AcDbLine
 10
820.1244850000001
 20
-276.166006
 30
0.0
 11
1380.124485
 21
-276.166006
 31
0.0
  0
LINE
  5
18E1
330
1BBE
100
AcDbEntity
  8
V0-OBRYS
  6
CONTINUOUS
 62
    90
100
AcDbLine
 10
862.6244850000001
 20
-258.166006
 30
0.0
 11
1337.624485
 21
-258.166006
 31
0.0
  0
LINE
  5
18E2
330
1BBE
100
AcDbEntity
  8
V0-OBRYS
  6
CONTINUOUS
 62
    90
100
AcDbLine
 10
892.6244850000001
 20
-258.166006
 30
0.0
 11
802.938403
 21
-23.66467900000001
 31
0.0
  0
LINE
  5
18E3
330
1BBE
100
AcDbEntity
  8
V0-VYPLNE
100
AcDbLine
 10
875.1244850000001
 20
-286.166006
 30
0.0
 11
875.1244850000001
 21
-236.166006
 31
0.0
  0
LINE
  5
18E4
330
1BBE
100
AcDbEntity
  8
V0-OBRYS
  6
CONTINUOUS
 62
    90
100
AcDbLine
 10
820.1244850000001
 20
-261.166006
 30
0.0
 11
820.1244850000001
 21
-276.166006
 31
0.0
  0
LINE
  5
18E5
330
1BBE
100
AcDbEntity
  8
V0-OBRYS
  6
CONTINUOUS
 62
    90
100
AcDbLine
 10
862.6244850000001
 20
-261.166006
 30
0.0
 11
862.6244850000001
 21
-258.166006
 31
0.0
  0
LINE
  5
18E6
330
1BBE
100
AcDbEntity
  8
V0-VYPLNE
100
AcDbLine
 10
1100.124485
 20
148.833994
 30
0.0
 11
1100.124485
 21
-272.319392
 31
0.0
  0
HATCH
  5
18E7
330
1BBE
100
AcDbEntity
  8
V0-VYPLNE
  6
CONTINUOUS
 62
    52
100
AcDbHatch
 10
0.0
 20
0.0
 30
0.0
210
0.0
220
0.0
230
1.0
  2
NET
 70
     0
 71
     0
 91
        1
 92
        3
 72
     0
 73
     1
 93
        4
 10
1272.624484684473
 20
-258.166005630735
 10
1272.624484684473
 20
-21.00421532110297
 10
927.6244846844738
 20
-21.00421532110297
 10
927.6244846844738
 20
-258.166005630735
 97
        0
 75
     0
 76
     2
 52
0.0
 41
5.0
 77
     0
 78
     2
 53
0.0
 43
206.141239
 44
-213.166006
 45
0.0
 46
15.875
 79
     0
 53
90.0
 43
206.141239
 44
-213.166006
 45
-15.875
 46
0.000000000000001
 79
     0
 98
        1
 10
0.0
 20
0.0
1001
VDEXTRAPARAM
1071
       76
1071
        0
1071
        0
1040
5.0
1000
NET
1000

1040
0.0
1040
0.0
  0
LINE
  5
18E8
330
1BBE
100
AcDbEntity
  8
V0-VYPLNE
  6
CONTINUOUS
 62
    52
100
AcDbLine
 10
927.6244850000001
 20
-21.004215
 30
0.0
 11
1272.624485
 21
-21.004215
 31
0.0
  0
LINE
  5
18E9
330
1BBE
100
AcDbEntity
  8
V0-VYPLNE
  6
CONTINUOUS
 62
    52
100
AcDbLine
 10
1272.624485
 20
-258.166006
 30
0.0
 11
927.6244850000001
 21
-258.166006
 31
0.0
  0
LINE
  5
18EA
330
1BBE
100
AcDbEntity
  8
V0-OBRYS
  6
CONTINUOUS
 62
    90
100
AcDbLine
 10
961.354318
 20
-226.166006
 30
0.0
 11
1238.894651
 21
-226.166006
 31
0.0
  0
LINE
  5
18EB
330
1BBE
100
AcDbEntity
  8
V0-OBRYS
  6
CONTINUOUS
 62
    90
100
AcDbLine
 10
942.6244850000001
 20
-21.004215
 30
0.0
 11
942.6244850000001
 21
-201.524989
 31
0.0
  0
LINE
  5
18EC
330
1BBE
100
AcDbEntity
  8
V0-OBRYS
  6
CONTINUOUS
 62
    90
100
AcDbLine
 10
927.6244850000001
 20
-258.166006
 30
0.0
 11
927.6244850000001
 21
-21.00421499999999
 31
0.0
  0
LINE
  5
18ED
330
1BBE
100
AcDbEntity
  8
V0-OBRYS
  6
CONTINUOUS
 62
    90
100
AcDbLine
 10
952.6244850000001
 20
-209.708493
 30
0.0
 11
952.6244850000001
 21
-21.00421499999999
 31
0.0
  0
LINE
  5
18EE
330
1BBE
100
AcDbEntity
  8
V0-VYPLNE
  6
CONTINUOUS
 62
    52
100
AcDbLine
 10
927.6244850000001
 20
-258.166006
 30
0.0
 11
927.6244850000001
 21
-21.00421499999999
 31
0.0
  0
ARC
  5
18EF
330
1BBE
100
AcDbEntity
  8
V0-OBRYS
  6
CONTINUOUS
 62
    90
100
AcDbCircle
 10
922.6244850000001
 20
-236.166006
 30
0.0
 40
40.0
100
AcDbArc
 50
326.632987
 51
59.99999999999999
  0
LINE
  5
18F0
330
1BBE
100
AcDbEntity
  8
V0-OBRYS
  6
CONTINUOUS
 62
    90
100
AcDbLine
 10
922.6244850000001
 20
-256.166006
 30
0.0
 11
922.6244850000001
 21
-276.166006
 31
0.0
  0
POINT
  5
18F1
330
1BBE
100
AcDbEntity
  8
V0-VYPLNE
  6
CONTINUOUS
 62
    41
100
AcDbPoint
 10
1100.124485
 20
-276.166006
 30
0.0
  0
LINE
  5
18F2
330
1BBE
100
AcDbEntity
  8
V0-OBRYS
  6
CONTINUOUS
 62
    90
100
AcDbLine
 10
1272.624485
 20
-258.166006
 30
0.0
 11
1272.624485
 21
-21.00421499999999
 31
0.0
  0
LINE
  5
18F3
330
1BBE
100
AcDbEntity
  8
V0-OBRYS
  6
CONTINUOUS
 62
    90
100
AcDbLine
 10
1257.624485
 20
-21.004215
 30
0.0
 11
1257.624485
 21
-201.524989
 31
0.0
  0
LINE
  5
18F4
330
1BBE
100
AcDbEntity
  8
V0-OBRYS
  6
CONTINUOUS
 62
    90
100
AcDbLine
 10
1247.624485
 20
-209.708493
 30
0.0
 11
1247.624485
 21
-21.00421499999999
 31
0.0
  0
LINE
  5
18F5
330
1BBE
100
AcDbEntity
  8
V0-VYPLNE
  6
CONTINUOUS
 62
    52
100
AcDbLine
 10
1272.624485
 20
-21.004215
 30
0.0
 11
1272.624485
 21
-258.166006
 31
0.0
  0
ARC
  5
18F6
330
1BBE
100
AcDbEntity
  8
V0-OBRYS
  6
CONTINUOUS
 62
    90
100
AcDbCircle
 10
1277.624485
 20
-236.166006
 30
0.0
 40
40.0
100
AcDbArc
 50
120.0
 51
213.367013
  0
LINE
  5
18F7
330
1BBE
100
AcDbEntity
  8
V0-VYPLNE
100
AcDbLine
 10
1325.124485
 20
-286.166006
 30
0.0
 11
1325.124485
 21
-236.166006
 31
0.0
  0
LINE
  5
18F8
330
1BBE
100
AcDbEntity
  8
V0-OBRYS
  6
CONTINUOUS
 62
    90
100
AcDbLine
 10
1277.624485
 20
-256.166006
 30
0.0
 11
1277.624485
 21
-276.166006
 31
0.0
  0
LINE
  5
18F9
330
1BBE
100
AcDbEntity
  8
V0-OBRYS
  6
CONTINUOUS
 62
    90
100
AcDbLine
 10
1337.624485
 20
-258.166006
 30
0.0
 11
1337.624485
 21
-261.166006
 31
0.0
  0
LINE
  5
18FB
330
1BBE
100
AcDbEntity
  8
V0-OBRYS
  6
CONTINUOUS
 62
    90
100
AcDbLine
 10
1380.124485
 20
-276.166006
 30
0.0
 11
1380.124485
 21
-261.166006
 31
0.0
  0
LINE
  5
19B4
330
1BBE
100
AcDbEntity
  8
V0-OBRYS
  6
CONTINUOUS
 62
    90
100
AcDbLine
 10
-53.490618
 20
-613.598243
 30
0.0
 11
-73.658761
 21
-613.598243
 31
0.0
  0
LINE
  5
19B5
330
1BBE
100
AcDbEntity
  8
V0-OBRYS
  6
CONTINUOUS
 62
    90
100
AcDbLine
 10
-73.658761
 20
-613.598243
 30
0.0
 11
-73.658761
 21
-633.844378
 31
0.0
  0
LINE
  5
19B6
330
1BBE
100
AcDbEntity
  8
V0-OBRYS
  6
CONTINUOUS
 62
    90
100
AcDbLine
 10
465.773095
 20
-613.598243
 30
0.0
 11
485.941239
 21
-613.598243
 31
0.0
  0
LINE
  5
19B7
330
1BBE
100
AcDbEntity
  8
V0-OBRYS
  6
CONTINUOUS
 62
    90
100
AcDbLine
 10
485.941239
 20
-613.598243
 30
0.0
 11
485.941239
 21
-633.844378
 31
0.0
  0
LINE
  5
19B8
330
1BBE
100
AcDbEntity
  8
V0-OBRYS
  6
CONTINUOUS
 62
    90
100
AcDbLine
 10
464.695103
 20
-1172.198243
 30
0.0
 11
485.941239
 21
-1172.198243
 31
0.0
  0
LINE
  5
19B9
330
1BBE
100
AcDbEntity
  8
V0-OBRYS
  6
CONTINUOUS
 62
    90
100
AcDbLine
 10
485.941239
 20
-1172.198243
 30
0.0
 11
485.941239
 21
-1150.952107
 31
0.0
  0
LINE
  5
19BA
330
1BBE
100
AcDbEntity
  8
V0-OBRYS
  6
CONTINUOUS
 62
    90
100
AcDbLine
 10
-73.658761
 20
-1150.952107
 30
0.0
 11
-73.658761
 21
-1172.198243
 31
0.0
  0
LINE
  5
19BB
330
1BBE
100
AcDbEntity
  8
V0-OBRYS
  6
CONTINUOUS
 62
    90
100
AcDbLine
 10
-73.658761
 20
-1172.198243
 30
0.0
 11
-52.412626
 21
-1172.198243
 31
0.0
  0
TEXT
  5
1B8E
330
1BBE
100
AcDbEntity
  8
V0-NAZVY
  6
CONTINUOUS
100
AcDbText
 10
720.8236227607122
 20
-757.7732509999769
 30
0.0
 40
60.0
  1
CTHB/CTHT 250
  7
ED40
100
AcDbText
  0
LWPOLYLINE
  5
1B91
330
1BBE
100
AcDbEntity
  8
V0-VYPLNE
  6
CONTINUOUS
 62
    41
100
AcDbPolyline
 90
        4
 70
     1
 43
0.0
 10
-15.86858148525732
 20
-255.8520104670116
 10
-4.001179
 20
-265.360678
 10
-18.31099244269912
 20
-260.2148797883377
 10
-18.31099244269912
 20
-260.2148797883377
1001
VDEXTRAPARAM
1071
       65
1071
        0
1071
        0
1040
1.0
1000

1000

1040
0.0
1040
0.0
  0
HATCH
  5
1C32
330
1BBE
100
AcDbEntity
  8
V0-VYPLNE
  6
CONTINUOUS
 62
    41
100
AcDbHatch
 10
0.0
 20
0.0
 30
0.0
210
0.0
220
0.0
230
1.0
  2
SOLID
 70
     1
 71
     0
 91
        1
 92
        2
 72
     0
 73
     1
 93
        3
 10
-15.86858148525732
 20
-255.8520104670116
 10
-4.001179
 20
-265.360678
 10
-18.31099244269912
 20
-260.2148797883377
 97
        0
 75
     0
 76
     1
 98
        1
 10
0.0
 20
0.0
1001
VDEXTRAPARAM
1071
       65
1071
        0
1071
        0
1040
1.0
1000

1000

1040
0.0
1040
0.0
1001
VD_TEMPHATCH
1000
VD_TEMPHATCH
  0
LWPOLYLINE
  5
1B92
330
1BBE
100
AcDbEntity
  8
V0-VYPLNE
  6
CONTINUOUS
 62
    41
100
AcDbPolyline
 90
        3
 70
     0
 43
0.0
 10
-17.08978696397823
 20
-258.0334451276746
 10
-72.16842699999999
 20
-227.199454
 10
-354.470199
 20
-227.199454
  0
TEXT
  5
1B97
330
1BBE
100
AcDbEntity
  8
V0-VYPLNE
  6
CONTINUOUS
 62
    41
100
AcDbText
 10
-450.0969984285715
 20
-225.696501
 30
0.0
 40
30.0
  1
4 OTVORY %%c 12
  7
ED40
100
AcDbText
  0
VIEWPORT
  5
1C33
330
1BBA
100
AcDbEntity
 67
     1
  8
0
 60
     1
100
AcDbViewport
 10
261.517699
 20
148.5
 30
0.0
 40
297.0
 41
297.0
 68
     0
 69
     1
1001
VD_INVISIBLE_NOT_FOR_READ
1000
VD_INVISIBLE_NOT_FOR_READ
1001
ACAD
1000
MVIEW
1002
{
1070
    16
1010
0.0
1020
0.0
1030
0.0
1010
0.0
1020
0.0
1030
1.0
1040
6.2831853071796
1040
297.0
1040
261.517699
1040
148.5
1040
0.0
1040
0.0
1040
0.0
1070
     0
1070
   100
1070
     0
1070
     1
1070
     0
1070
     0
1070
     0
1070
     0
1040
0.0
1040
0.0
1040
0.0
1040
1.0
1040
1.0
1040
0.0
1040
0.0
1070
     0
1002
{
1002
}
1002
}
  0
VIEWPORT
  5
1C34
330
1BBA
100
AcDbEntity
 67
     1
  8
0
 60
     1
100
AcDbViewport
 10
261.517699
 20
148.5
 30
0.0
 40
297.0
 41
297.0
 68
     0
 69
     2
1001
VD_INVISIBLE_NOT_FOR_READ
1000
VD_INVISIBLE_NOT_FOR_READ
1001
ACAD
1000
MVIEW
1002
{
1070
    16
1010
0.0
1020
0.0
1030
0.0
1010
0.0
1020
0.0
1030
1.0
1040
6.2831853071796
1040
297.0
1040
261.517699
1040
148.5
1040
0.0
1040
0.0
1040
0.0
1070
     0
1070
   100
1070
     0
1070
     1
1070
     0
1070
     0
1070
     0
1070
     0
1040
0.0
1040
0.0
1040
0.0
1040
1.0
1040
1.0
1040
0.0
1040
0.0
1070
     0
1002
{
1002
}
1002
}
  0
ENDSEC
  0
SECTION
  2
OBJECTS
  0
DICTIONARY
  5
1BAB
330
0
100
AcDbDictionary
  3
ACAD_GROUP
350
1BAC
  3
ACAD_LAYOUT
350
1BB9
  3
ACAD_MLINESTYLE
350
1BB6
  3
ACAD_PLOTSETTINGS
350
1BB8
  3
ACDBHEADERROUNDTRIPXREC
350
1C35
  3
VECTORDRAW_OBJECTS
350
1BCE
  0
DICTIONARY
  5
1C55
330
1BC8
100
AcDbDictionary
280
     1
  3
ACAD_XREC_ROUNDTRIP
360
1C56
  0
DICTIONARY
  5
1BAC
102
{ACAD_REACTORS
330
1BAB
102
}
330
1BAB
100
AcDbDictionary
  0
DICTIONARY
  5
1BB9
102
{ACAD_REACTORS
330
1BAB
102
}
330
1BAB
100
AcDbDictionary
  0
DICTIONARY
  5
1BB6
102
{ACAD_REACTORS
330
1BAB
102
}
330
1BAB
100
AcDbDictionary
  3
STANDARD
350
1BB7
  0
DICTIONARY
  5
1BB8
102
{ACAD_REACTORS
330
1BAB
102
}
330
1BAB
100
AcDbDictionary
  0
DICTIONARY
  5
1C35
102
{ACAD_REACTORS
330
1BAB
102
}
330
1BAB
100
AcDbDictionary
  3
CEPSNTYPE
350
1C3E
  3
DIMSTYLEDATA
350
1C54
  3
FINGERPRINTGUID
350
1C3F
  3
HYPERLINKBASE
350
1C38
  3
INSUNITS
350
1C3D
  3
LAYOUTDICT
350
1C3A
  3
LWETCUNION
350
1C3C
  3
PLOTSETDICT
350
1C3B
  3
PSVPSCALE
350
1C41
  3
PUCSBASE
350
1C44
  3
PUCSORGBACK
350
1C4A
  3
PUCSORGBOTTOM
350
1C46
  3
PUCSORGFRONT
350
1C49
  3
PUCSORGLEFT
350
1C47
  3
PUCSORGRIGHT
350
1C48
  3
PUCSORGTOP
350
1C45
  3
PUCSORTHOREF
350
1C42
  3
PUCSORTHOVIEW
350
1C43
  3
STYLESHEET
350
1C39
  3
TSTACKALIGN
350
1C36
  3
TSTACKSIZE
350
1C37
  3
UCSBASE
350
1C4D
  3
UCSORGBACK
350
1C53
  3
UCSORGBOTTOM
350
1C4F
  3
UCSORGFRONT
350
1C52
  3
UCSORGLEFT
350
1C50
  3
UCSORGRIGHT
350
1C51
  3
UCSORGTOP
350
1C4E
  3
UCSORTHOREF
350
1C4B
  3
UCSORTHOVIEW
350
1C4C
  3
VERSIONGUID
350
1C40
  0
DICTIONARY
  5
1BCE
102
{ACAD_REACTORS
330
1BAB
102
}
330
1BAB
100
AcDbDictionary
  3
SERIALNO
350
1BCF
  0
XRECORD
  5
1C56
102
{ACAD_REACTORS
330
1C55
102
}
330
1C55
100
AcDbXrecord
102
UCS
 74
     0
 71
     1
 10
0.0
 20
0.0
 30
0.0
 10
1.0
 20
0.0
 30
0.0
 10
0.0
 20
1.0
 30
0.0
146
0.0
 79
     0
102
VIEW
281
     0
  0
MLINESTYLE
  5
1BB7
102
{ACAD_REACTORS
330
1BB6
102
}
330
1BB6
100
AcDbMlineStyle
  2
Standard
 70
     0
  3

 62
   256
 51
90.0
 52
90.0
 71
     2
 49
0.5
 62
   256
  6
BYLAYER
 49
-0.5
 62
   256
  6
BYLAYER
  0
XRECORD
  5
1C3E
102
{ACAD_REACTORS
330
1C35
102
}
330
1C35
100
AcDbXrecord
 90
        0
  0
XRECORD
  5
1C54
102
{ACAD_REACTORS
330
1C35
102
}
330
1C35
100
AcDbXrecord
1000
DSTYLE
1002
{
1070
    41
 40
25.0
1070
   342
340
90
1070
   271
 70
     0
1070
    44
 40
1.25
1070
    42
 40
1.0
1070
   147
 40
4.0
1070
    77
 70
     1
1070
    73
 70
     0
1070
   174
 70
     1
1070
   172
 70
     1
1070
    74
 70
     0
1070
   340
340
F38
1070
   140
 40
30.0
1070
   288
 70
     1
1002
}
  0
XRECORD
  5
1C3F
102
{ACAD_REACTORS
330
1C35
102
}
330
1C35
100
AcDbXrecord
  1
{FAEB1C30-E019-11D5-929B-00C0DF256EC4}
  0
XRECORD
  5
1C38
102
{ACAD_REACTORS
330
1C35
102
}
330
1C35
100
AcDbXrecord
  1

  0
XRECORD
  5
1C3D
102
{ACAD_REACTORS
330
1C35
102
}
330
1C35
100
AcDbXrecord
 90
        1
  0
XRECORD
  5
1C3A
102
{ACAD_REACTORS
330
1C35
102
}
330
1C35
100
AcDbXrecord
340
1BB9
  0
XRECORD
  5
1C3C
102
{ACAD_REACTORS
330
1C35
102
}
330
1C35
100
AcDbXrecord
 90
     2560
  0
XRECORD
  5
1C3B
102
{ACAD_REACTORS
330
1C35
102
}
330
1C35
100
AcDbXrecord
340
1BB8
  0
XRECORD
  5
1C41
102
{ACAD_REACTORS
330
1C35
102
}
330
1C35
100
AcDbXrecord
 40
0.0
  0
XRECORD
  5
1C44
102
{ACAD_REACTORS
330
1C35
102
}
330
1C35
100
AcDbXrecord
340
0
  0
XRECORD
  5
1C4A
102
{ACAD_REACTORS
330
1C35
102
}
330
1C35
100
AcDbXrecord
 10
0.0
 20
0.0
 30
0.0
  0
XRECORD
  5
1C46
102
{ACAD_REACTORS
330
1C35
102
}
330
1C35
100
AcDbXrecord
 10
0.0
 20
0.0
 30
0.0
  0
XRECORD
  5
1C49
102
{ACAD_REACTORS
330
1C35
102
}
330
1C35
100
AcDbXrecord
 10
0.0
 20
0.0
 30
0.0
  0
XRECORD
  5
1C47
102
{ACAD_REACTORS
330
1C35
102
}
330
1C35
100
AcDbXrecord
 10
0.0
 20
0.0
 30
0.0
  0
XRECORD
  5
1C48
102
{ACAD_REACTORS
330
1C35
102
}
330
1C35
100
AcDbXrecord
 10
0.0
 20
0.0
 30
0.0
  0
XRECORD
  5
1C45
102
{ACAD_REACTORS
330
1C35
102
}
330
1C35
100
AcDbXrecord
 10
0.0
 20
0.0
 30
0.0
  0
XRECORD
  5
1C42
102
{ACAD_REACTORS
330
1C35
102
}
330
1C35
100
AcDbXrecord
340
0
  0
XRECORD
  5
1C43
102
{ACAD_REACTORS
330
1C35
102
}
330
1C35
100
AcDbXrecord
 70
     0
  0
XRECORD
  5
1C39
102
{ACAD_REACTORS
330
1C35
102
}
330
1C35
100
AcDbXrecord
  1

  0
XRECORD
  5
1C36
102
{ACAD_REACTORS
330
1C35
102
}
330
1C35
100
AcDbXrecord
 90
        1
  0
XRECORD
  5
1C37
102
{ACAD_REACTORS
330
1C35
102
}
330
1C35
100
AcDbXrecord
 90
       70
  0
XRECORD
  5
1C4D
102
{ACAD_REACTORS
330
1C35
102
}
330
1C35
100
AcDbXrecord
340
0
  0
XRECORD
  5
1C53
102
{ACAD_REACTORS
330
1C35
102
}
330
1C35
100
AcDbXrecord
 10
0.0
 20
0.0
 30
0.0
  0
XRECORD
  5
1C4F
102
{ACAD_REACTORS
330
1C35
102
}
330
1C35
100
AcDbXrecord
 10
0.0
 20
0.0
 30
0.0
  0
XRECORD
  5
1C52
102
{ACAD_REACTORS
330
1C35
102
}
330
1C35
100
AcDbXrecord
 10
0.0
 20
0.0
 30
0.0
  0
XRECORD
  5
1C50
102
{ACAD_REACTORS
330
1C35
102
}
330
1C35
100
AcDbXrecord
 10
0.0
 20
0.0
 30
0.0
  0
XRECORD
  5
1C51
102
{ACAD_REACTORS
330
1C35
102
}
330
1C35
100
AcDbXrecord
 10
0.0
 20
0.0
 30
0.0
  0
XRECORD
  5
1C4E
102
{ACAD_REACTORS
330
1C35
102
}
330
1C35
100
AcDbXrecord
 10
0.0
 20
0.0
 30
0.0
  0
XRECORD
  5
1C4B
102
{ACAD_REACTORS
330
1C35
102
}
330
1C35
100
AcDbXrecord
340
0
  0
XRECORD
  5
1C4C
102
{ACAD_REACTORS
330
1C35
102
}
330
1C35
100
AcDbXrecord
 70
     0
  0
XRECORD
  5
1C40
102
{ACAD_REACTORS
330
1C35
102
}
330
1C35
100
AcDbXrecord
  1
{FAEB1C32-E019-11D5-929B-00C0DF256EC4}
  0
XRECORD
  5
1BCF
102
{ACAD_REACTORS
330
1BCE
102
}
330
1BCE
100
AcDbXrecord
1000
rInJVR9YY4Q8hfPWdUq5j5319
1070
     4
1070
     6
  0
ENDSEC
  0
EOF
