  0
SECTION
  2
HEADER
  9
$ACADVER
  1
AC1014
  9
$ACADMAINTVER
 70
     9
  9
$DWGCODEPAGE
  3
ANSI_1250
  9
$INSBASE
 10
0.0
 20
0.0
 30
0.0
  9
$EXTMIN
 10
-194.2449399523811
 20
-901.724889
 30
0.0
  9
$EXTMAX
 10
969.6695853430175
 20
53.41659738461654
 30
0.0
  9
$LIMMIN
 10
0.0
 20
0.0
  9
$LIMMAX
 10
0.0
 20
0.0
  9
$ORTHOMODE
 70
     0
  9
$REGENMODE
 70
     1
  9
$FILLMODE
 70
     1
  9
$QTEXTMODE
 70
     0
  9
$MIRRTEXT
 70
     1
  9
$DRAGMODE
 70
     2
  9
$LTSCALE
 40
1.0
  9
$OSMODE
 70
    37
  9
$ATTMODE
 70
     1
  9
$TEXTSIZE
 40
0.2
  9
$TRACEWID
 40
0.05
  9
$TEXTSTYLE
  7
ED40
  9
$CLAYER
  8
V0-VYPLNE
  9
$CELTYPE
  6
CONTINUOUS
  9
$CECOLOR
 62
    41
  9
$CELTSCALE
 40
1.0
  9
$DELOBJ
 70
     1
  9
$DISPSILH
 70
     0
  9
$DIMSCALE
 40
1.0
  9
$DIMASZ
 40
15.0
  9
$DIMEXO
 40
1.0
  9
$DIMDLI
 40
0.38
  9
$DIMRND
 40
0.0
  9
$DIMDLE
 40
0.0
  9
$DIMEXE
 40
1.25
  9
$DIMTP
 40
0.0
  9
$DIMTM
 40
0.0
  9
$DIMTXT
 40
10.0
  9
$DIMCEN
 40
0.09
  9
$DIMTSZ
 40
0.0
  9
$DIMTOL
 70
     0
  9
$DIMLIM
 70
     0
  9
$DIMTIH
 70
     0
  9
$DIMTOH
 70
     0
  9
$DIMSE1
 70
     0
  9
$DIMSE2
 70
     0
  9
$DIMTAD
 70
     1
  9
$DIMZIN
 70
     0
  9
$DIMBLK
  1
OPEN
  9
$DIMASO
 70
     1
  9
$DIMSHO
 70
     1
  9
$DIMPOST
  1

  9
$DIMAPOST
  1

  9
$DIMALT
 70
     0
  9
$DIMALTD
 70
     2
  9
$DIMALTF
 40
25.4
  9
$DIMLFAC
 40
1.0
  9
$DIMTOFL
 70
     1
  9
$DIMTVP
 40
0.0
  9
$DIMTIX
 70
     1
  9
$DIMSOXD
 70
     0
  9
$DIMSAH
 70
     0
  9
$DIMBLK1
  1

  9
$DIMBLK2
  1

  9
$DIMSTYLE
  2
ED10
  9
$DIMCLRD
 70
     0
  9
$DIMCLRE
 70
     0
  9
$DIMCLRT
 70
     0
  9
$DIMTFAC
 40
1.0
  9
$DIMGAP
 40
1.5
  9
$DIMJUST
 70
     0
  9
$DIMSD1
 70
     0
  9
$DIMSD2
 70
     0
  9
$DIMTOLJ
 70
     1
  9
$DIMTZIN
 70
     0
  9
$DIMALTZ
 70
     0
  9
$DIMALTTZ
 70
     0
  9
$DIMFIT
 70
     3
  9
$DIMUPT
 70
     1
  9
$DIMUNIT
 70
     2
  9
$DIMDEC
 70
     0
  9
$DIMTDEC
 70
     4
  9
$DIMALTU
 70
     2
  9
$DIMALTTD
 70
     2
  9
$DIMTXSTY
  7
ED20
  9
$DIMAUNIT
 70
     0
  9
$LUNITS
 70
     2
  9
$LUPREC
 70
     4
  9
$SKETCHINC
 40
0.1
  9
$FILLETRAD
 40
0.5
  9
$AUNITS
 70
     0
  9
$AUPREC
 70
     0
  9
$MENU
  1
.
  9
$ELEVATION
 40
0.0
  9
$PELEVATION
 40
0.0
  9
$THICKNESS
 40
0.0
  9
$LIMCHECK
 70
     0
  9
$BLIPMODE
 70
     0
  9
$CHAMFERA
 40
0.5
  9
$CHAMFERB
 40
0.5
  9
$CHAMFERC
 40
1.0
  9
$CHAMFERD
 40
0.0
  9
$SKPOLY
 70
     0
  9
$TDCREATE
 40
2455644.613321574
  9
$TDUPDATE
 40
2455644.613321586
  9
$TDINDWG
 40
0.0000000116
  9
$TDUSRTIMER
 40
0.0000000116
  9
$USRTIMER
 70
     1
  9
$ANGBASE
 50
0.0
  9
$ANGDIR
 70
     0
  9
$PDMODE
 70
     3
  9
$PDSIZE
 40
20.0
  9
$PLINEWID
 40
0.0
  9
$COORDS
 70
     1
  9
$SPLFRAME
 70
     0
  9
$SPLINETYPE
 70
     6
  9
$SPLINESEGS
 70
     8
  9
$ATTDIA
 70
     0
  9
$ATTREQ
 70
     1
  9
$HANDLING
 70
     1
  9
$HANDSEED
  5
16A5
  9
$SURFTAB1
 70
     6
  9
$SURFTAB2
 70
     6
  9
$SURFTYPE
 70
     6
  9
$SURFU
 70
     6
  9
$SURFV
 70
     6
  9
$UCSNAME
  2

  9
$UCSORG
 10
0.0
 20
0.0
 30
0.0
  9
$UCSXDIR
 10
1.0
 20
0.0
 30
0.0
  9
$UCSYDIR
 10
0.0
 20
1.0
 30
0.0
  9
$PUCSNAME
  2

  9
$PUCSORG
 10
0.0
 20
0.0
 30
0.0
  9
$PUCSXDIR
 10
1.0
 20
0.0
 30
0.0
  9
$PUCSYDIR
 10
0.0
 20
1.0
 30
0.0
  9
$USERI1
 70
     0
  9
$USERI2
 70
     0
  9
$USERI3
 70
     0
  9
$USERI4
 70
     0
  9
$USERI5
 70
     0
  9
$USERR1
 40
0.0
  9
$USERR2
 40
0.0
  9
$USERR3
 40
0.0
  9
$USERR4
 40
0.0
  9
$USERR5
 40
0.0
  9
$WORLDVIEW
 70
     1
  9
$SHADEDGE
 70
     3
  9
$SHADEDIF
 70
    70
  9
$TILEMODE
 70
     1
  9
$MAXACTVP
 70
    64
  9
$PINSBASE
 10
0.0
 20
0.0
 30
0.0
  9
$PLIMCHECK
 70
     0
  9
$PEXTMIN
 10
1.000000000000000E+20
 20
1.000000000000000E+20
 30
1.000000000000000E+20
  9
$PEXTMAX
 10
-1.000000000000000E+20
 20
-1.000000000000000E+20
 30
-1.000000000000000E+20
  9
$PLIMMIN
 10
0.0
 20
0.0
  9
$PLIMMAX
 10
0.0
 20
0.0
  9
$UNITMODE
 70
     0
  9
$VISRETAIN
 70
     1
  9
$PLINEGEN
 70
     0
  9
$PSLTSCALE
 70
     1
  9
$TREEDEPTH
 70
  3020
  9
$PICKSTYLE
 70
     1
  9
$CMLSTYLE
  2
STANDARD
  9
$CMLJUST
 70
     0
  9
$CMLSCALE
 40
1.0
  9
$PROXYGRAPHICS
 70
     1
  9
$MEASUREMENT
 70
     0
  0
ENDSEC
  0
SECTION
  2
CLASSES
  0
CLASS
  1
ACDBDICTIONARYWDFLT
  2
AcDbDictionaryWithDefault
  3
ObjectDBX Classes
 90
        0
280
     0
281
     0
  0
CLASS
  1
XRECORD
  2
AcDbXrecord
  3
AutoCAD 2000
 90
        0
280
     0
281
     0
  0
CLASS
  1
LWPOLYLINE
  2
AcDbPolyline
  3
AutoCAD 2000
 90
        0
280
     0
281
     1
  0
CLASS
  1
HATCH
  2
AcDbHatch
  3
AutoCAD 2000
 90
        0
280
     0
281
     1
  0
CLASS
  1
ACDBPLACEHOLDER
  2
AcDbPlaceHolder
  3
ObjectDBX Classes
 90
        0
280
     0
281
     0
  0
CLASS
  1
LAYOUT
  2
AcDbLayout
  3
ObjectDBX Classes
 90
        0
280
     0
281
     0
  0
ENDSEC
  0
SECTION
  2
TABLES
  0
TABLE
  2
VPORT
  5
15FA
330
0
100
AcDbSymbolTable
 70
     2
  0
VPORT
  5
161B
102
{ACAD_XDICTIONARY
360
16A3
102
}
330
15FA
100
AcDbSymbolTableRecord
100
AcDbViewportTableRecord
  2
*ACTIVE
 70
     0
 10
0.0
 20
0.0
 11
1.0
 21
1.0
 12
481.679926
 22
-414.529415
 13
0.0
 23
0.0
 14
10.0
 24
10.0
 15
10.0
 25
10.0
 16
0.0
 26
0.0
 36
1.0
 17
0.0
 27
0.0
 37
0.0
 40
1037.536946
 41
0.0171143368186649
 42
50.0
 43
0.0
 44
0.0
 50
0.0
 51
0.0000000000007958
 71
     0
 72
   100
 73
     1
 74
     3
 75
     0
 76
     0
 77
     0
 78
     0
  0
ENDTAB
  0
TABLE
  2
LTYPE
  5
15F7
330
0
100
AcDbSymbolTable
 70
    25
  0
LTYPE
  5
1606
330
15F7
100
AcDbSymbolTableRecord
100
AcDbLinetypeTableRecord
  2
BYBLOCK
 70
     0
  3

 72
    65
 73
     0
 40
0.0
  0
LTYPE
  5
1607
330
15F7
100
AcDbSymbolTableRecord
100
AcDbLinetypeTableRecord
  2
BYLAYER
 70
     0
  3

 72
    65
 73
     0
 40
0.0
  0
LTYPE
  5
1608
330
15F7
100
AcDbSymbolTableRecord
100
AcDbLinetypeTableRecord
  2
CONTINUOUS
 70
     0
  3
Solid line
 72
    65
 73
     0
 40
0.0
  0
LTYPE
  5
1623
330
15F7
100
AcDbSymbolTableRecord
100
AcDbLinetypeTableRecord
  2
CENTER
 70
     0
  3
Center ____ _ ____ _ ____ _ ____ _ ____ _ ____
 72
    65
 73
     4
 40
2.0
 49
1.25
 74
     0
 49
-0.25
 74
     0
 49
0.25
 74
     0
 49
-0.25
 74
     0
  0
LTYPE
  5
1624
330
15F7
100
AcDbSymbolTableRecord
100
AcDbLinetypeTableRecord
  2
DASHDOT
 70
     0
  3
Dashdot __ . __ . __ . __ . __ . __ . __ . __
 72
    65
 73
     4
 40
1.0
 49
0.5
 74
     0
 49
-0.25
 74
     0
 49
0.0
 74
     0
 49
-0.25
 74
     0
  0
LTYPE
  5
1625
330
15F7
100
AcDbSymbolTableRecord
100
AcDbLinetypeTableRecord
  2
DASHED
 70
     0
  3
Dashed __ __ __ __ __ __ __ __ __ __ __ __ __ _
 72
    65
 73
     2
 40
0.75
 49
0.5
 74
     0
 49
-0.25
 74
     0
  0
LTYPE
  5
1626
330
15F7
100
AcDbSymbolTableRecord
100
AcDbLinetypeTableRecord
  2
HIDDEN
 70
     0
  3
Hidden __ __ __ __ __ __ __ __ __ __ __ __ __ __
 72
    65
 73
     2
 40
0.375
 49
0.25
 74
     0
 49
-0.125
 74
     0
  0
LTYPE
  5
1627
330
15F7
100
AcDbSymbolTableRecord
100
AcDbLinetypeTableRecord
  2
HIDDEN2
 70
     0
  3
Hidden2 _ _ _ _ _ _ _ _ _ _ _ _ _ _ _ _ _ 
 72
    65
 73
     2
 40
0.1875
 49
0.125
 74
     0
 49
-0.0625
 74
     0
  0
LTYPE
  5
1628
330
15F7
100
AcDbSymbolTableRecord
100
AcDbLinetypeTableRecord
  2
BORDER
 70
     0
  3
Border __ __ . __ __ . __ __ . __ __ . __ __ .
 72
    65
 73
     6
 40
1.75
 49
0.5
 74
     0
 49
-0.25
 74
     0
 49
0.5
 74
     0
 49
-0.25
 74
     0
 49
0.0
 74
     0
 49
-0.25
 74
     0
  0
LTYPE
  5
1629
330
15F7
100
AcDbSymbolTableRecord
100
AcDbLinetypeTableRecord
  2
BORDER2
 70
     0
  3
Border2 __.__.__.__.__.__.__.__.__.__.__.
 72
    65
 73
     6
 40
0.875
 49
0.25
 74
     0
 49
-0.125
 74
     0
 49
0.25
 74
     0
 49
-0.125
 74
     0
 49
0.0
 74
     0
 49
-0.125
 74
     0
  0
LTYPE
  5
162A
330
15F7
100
AcDbSymbolTableRecord
100
AcDbLinetypeTableRecord
  2
BORDERX2
 70
     0
  3
Borderx2  ____  ____  .  ____  ____  .  ___
 72
    65
 73
     6
 40
3.5
 49
1.0
 74
     0
 49
-0.5
 74
     0
 49
1.0
 74
     0
 49
-0.5
 74
     0
 49
0.0
 74
     0
 49
-0.5
 74
     0
  0
LTYPE
  5
162B
330
15F7
100
AcDbSymbolTableRecord
100
AcDbLinetypeTableRecord
  2
CENTER2
 70
     0
  3
Center2  ___ _ ___ _ ___ _ ___ _ ___ _ ___
 72
    65
 73
     4
 40
1.125
 49
0.75
 74
     0
 49
-0.125
 74
     0
 49
0.125
 74
     0
 49
-0.125
 74
     0
  0
LTYPE
  5
162C
330
15F7
100
AcDbSymbolTableRecord
100
AcDbLinetypeTableRecord
  2
CENTERX2
 70
     0
  3
Centerx2  ________  __  ________  __  _____
 72
    65
 73
     4
 40
4.0
 49
2.5
 74
     0
 49
-0.5
 74
     0
 49
0.5
 74
     0
 49
-0.5
 74
     0
  0
LTYPE
  5
162D
330
15F7
100
AcDbSymbolTableRecord
100
AcDbLinetypeTableRecord
  2
DASHDOT2
 70
     0
  3
Dashdot2  _._._._._._._._._._._._._._._.
 72
    65
 73
     4
 40
0.5
 49
0.25
 74
     0
 49
-0.125
 74
     0
 49
0.0
 74
     0
 49
-0.125
 74
     0
  0
LTYPE
  5
162E
330
15F7
100
AcDbSymbolTableRecord
100
AcDbLinetypeTableRecord
  2
DASHDOTX2
 70
     0
  3
Dashdotx2 ____  .  ____  .  ____  .  ___
 72
    65
 73
     4
 40
2.0
 49
1.0
 74
     0
 49
-0.5
 74
     0
 49
0.0
 74
     0
 49
-0.5
 74
     0
  0
LTYPE
  5
162F
330
15F7
100
AcDbSymbolTableRecord
100
AcDbLinetypeTableRecord
  2
DASHED2
 70
     0
  3
Dashed2 _ _ _ _ _ _ _ _ _ _ _ _ _ _ _ _ _ 
 72
    65
 73
     2
 40
0.375
 49
0.25
 74
     0
 49
-0.125
 74
     0
  0
LTYPE
  5
1630
330
15F7
100
AcDbSymbolTableRecord
100
AcDbLinetypeTableRecord
  2
DASHEDX2
 70
     0
  3
Dashedx2 ____  ____  ____  ____  ____  ___
 72
    65
 73
     2
 40
1.5
 49
1.0
 74
     0
 49
-0.5
 74
     0
  0
LTYPE
  5
1631
330
15F7
100
AcDbSymbolTableRecord
100
AcDbLinetypeTableRecord
  2
DIVIDE
 70
     0
  3
Divide ____ . . ____ . . ____ . . ____ . . ____
 72
    65
 73
     6
 40
1.25
 49
0.5
 74
     0
 49
-0.25
 74
     0
 49
0.0
 74
     0
 49
-0.25
 74
     0
 49
0.0
 74
     0
 49
-0.25
 74
     0
  0
LTYPE
  5
1632
330
15F7
100
AcDbSymbolTableRecord
100
AcDbLinetypeTableRecord
  2
DIVIDE2
 70
     0
  3
Divide2 __..__..__..__..__..__..__..__.._
 72
    65
 73
     6
 40
0.625
 49
0.25
 74
     0
 49
-0.125
 74
     0
 49
0.0
 74
     0
 49
-0.125
 74
     0
 49
0.0
 74
     0
 49
-0.125
 74
     0
  0
LTYPE
  5
1633
330
15F7
100
AcDbSymbolTableRecord
100
AcDbLinetypeTableRecord
  2
DIVIDEX2
 70
     0
  3
Dividex2 ________  .  .  ________  .  .  _
 72
    65
 73
     6
 40
2.5
 49
1.0
 74
     0
 49
-0.5
 74
     0
 49
0.0
 74
     0
 49
-0.5
 74
     0
 49
0.0
 74
     0
 49
-0.5
 74
     0
  0
LTYPE
  5
1634
330
15F7
100
AcDbSymbolTableRecord
100
AcDbLinetypeTableRecord
  2
DOT
 70
     0
  3
Dot . . . . . . . . . . . . . . . . . . . . . . . .
 72
    65
 73
     2
 40
0.25
 49
0.0
 74
     0
 49
-0.25
 74
     0
  0
LTYPE
  5
1635
330
15F7
100
AcDbSymbolTableRecord
100
AcDbLinetypeTableRecord
  2
DOT2
 70
     0
  3
Dot2 ........................................
 72
    65
 73
     2
 40
0.125
 49
0.0
 74
     0
 49
-0.125
 74
     0
  0
LTYPE
  5
1636
330
15F7
100
AcDbSymbolTableRecord
100
AcDbLinetypeTableRecord
  2
DOTX2
 70
     0
  3
Dotx2 .  .  .  .  .  .  .  .  .  .  .  .  .  .
 72
    65
 73
     2
 40
0.5
 49
0.0
 74
     0
 49
-0.5
 74
     0
  0
LTYPE
  5
1637
330
15F7
100
AcDbSymbolTableRecord
100
AcDbLinetypeTableRecord
  2
HIDDENX2
 70
     0
  3
Hiddenx2 ____ ____ ____ ____ ____ ____ ____ 
 72
    65
 73
     2
 40
0.75
 49
0.5
 74
     0
 49
-0.25
 74
     0
  0
LTYPE
  5
1638
330
15F7
100
AcDbSymbolTableRecord
100
AcDbLinetypeTableRecord
  2
PHANTOM
 70
     0
  3
Phantom ______  __  __  ______  __  __  ______ 
 72
    65
 73
     6
 40
2.5
 49
1.25
 74
     0
 49
-0.25
 74
     0
 49
0.25
 74
     0
 49
-0.25
 74
     0
 49
0.25
 74
     0
 49
-0.25
 74
     0
  0
LTYPE
  5
1639
330
15F7
100
AcDbSymbolTableRecord
100
AcDbLinetypeTableRecord
  2
PHANTOM2
 70
     0
  3
Phantom2 ___ _ _ ___ _ _ ___ _ _ ___ _ _
 72
    65
 73
     6
 40
1.25
 49
0.625
 74
     0
 49
-0.125
 74
     0
 49
0.125
 74
     0
 49
-0.125
 74
     0
 49
0.125
 74
     0
 49
-0.125
 74
     0
  0
LTYPE
  5
163A
330
15F7
100
AcDbSymbolTableRecord
100
AcDbLinetypeTableRecord
  2
PHANTOMX2
 70
     0
  3
Phantomx2 ____________    ____    ____   _
 72
    65
 73
     6
 40
5.0
 49
2.5
 74
     0
 49
-0.5
 74
     0
 49
0.5
 74
     0
 49
-0.5
 74
     0
 49
0.5
 74
     0
 49
-0.5
 74
     0
  0
ENDTAB
  0
TABLE
  2
LAYER
  5
15F4
330
0
100
AcDbSymbolTable
 70
     6
  0
LAYER
  5
1602
330
15F4
100
AcDbSymbolTableRecord
100
AcDbLayerTableRecord
  2
0
 70
     0
 62
     7
  6
CONTINUOUS
  0
LAYER
  5
9E
330
15F4
100
AcDbSymbolTableRecord
100
AcDbLayerTableRecord
  2
DEFPOINTS
 70
     0
 62
     7
  6
CONTINUOUS
  0
LAYER
  5
377
330
15F4
100
AcDbSymbolTableRecord
100
AcDbLayerTableRecord
  2
V0-OBRYS
 70
     0
 62
    90
  6
CONTINUOUS
  0
LAYER
  5
378
330
15F4
100
AcDbSymbolTableRecord
100
AcDbLayerTableRecord
  2
V0-VYPLNE
 70
     0
 62
    63
  6
DASHDOT
  0
LAYER
  5
37A
330
15F4
100
AcDbSymbolTableRecord
100
AcDbLayerTableRecord
  2
V0-NAZVY
 70
     0
 62
   210
  6
CONTINUOUS
  0
LAYER
  5
559
330
15F4
100
AcDbSymbolTableRecord
100
AcDbLayerTableRecord
  2
V0-ZBYTEK
 70
     0
 62
    51
  6
CONTINUOUS
  0
ENDTAB
  0
TABLE
  2
STYLE
  5
15F5
330
0
100
AcDbSymbolTable
 70
     5
  0
STYLE
  5
1603
330
15F5
100
AcDbSymbolTableRecord
100
AcDbTextStyleTableRecord
  2
STANDARD
 70
     0
 40
0.0
 41
1.0
 50
0.0
 71
     0
 42
0.2
  3
ISOCP.shx
  4

1001
ACAD
1000
ISOCP.shx
1071
        0
  0
STYLE
  5
331
330
15F5
100
AcDbSymbolTableRecord
100
AcDbTextStyleTableRecord
  2
ED20
 70
     0
 40
20.0
 41
1.0
 50
0.0
 71
     0
 42
0.2
  3
ISOCP.shx
  4

1001
ACAD
1000
ISOCP.shx
1071
        0
  0
STYLE
  5
648
330
15F5
100
AcDbSymbolTableRecord
100
AcDbTextStyleTableRecord
  2
ED10
 70
     0
 40
10.0
 41
1.0
 50
0.0
 71
     0
 42
0.2
  3
ISOCP.shx
  4

1001
ACAD
1000
ISOCP.shx
1071
        0
  0
STYLE
  5
F38
330
15F5
100
AcDbSymbolTableRecord
100
AcDbTextStyleTableRecord
  2
ED30
 70
     0
 40
30.0
 41
1.0
 50
0.0
 71
     0
 42
0.2
  3
ISOCP.shx
  4

1001
ACAD
1000
ISOCP.shx
1071
        0
  0
STYLE
  5
F39
330
15F5
100
AcDbSymbolTableRecord
100
AcDbTextStyleTableRecord
  2
ED40
 70
     0
 40
40.0
 41
1.0
 50
0.0
 71
     0
 42
0.2
  3
ISOCP.shx
  4

1001
ACAD
1000
ISOCP.shx
1071
        0
  0
ENDTAB
  0
TABLE
  2
VIEW
  5
15F8
330
0
100
AcDbSymbolTable
 70
     0
  0
ENDTAB
  0
TABLE
  2
UCS
  5
15F9
330
0
100
AcDbSymbolTable
 70
     0
  0
ENDTAB
  0
TABLE
  2
APPID
  5
15FB
330
0
100
AcDbSymbolTable
 70
     6
  0
APPID
  5
1604
330
15FB
100
AcDbSymbolTableRecord
100
AcDbRegAppTableRecord
  2
ACAD
 70
     0
  0
APPID
  5
161C
330
15FB
100
AcDbSymbolTableRecord
100
AcDbRegAppTableRecord
  2
VD_INVISIBLE_NOT_FOR_READ
 70
     0
  0
APPID
  5
161D
330
15FB
100
AcDbSymbolTableRecord
100
AcDbRegAppTableRecord
  2
VD_TEMPHATCH
 70
     0
  0
APPID
  5
161E
330
15FB
100
AcDbSymbolTableRecord
100
AcDbRegAppTableRecord
  2
VDEXTRAPARAM
 70
     0
  0
APPID
  5
161F
330
15FB
100
AcDbSymbolTableRecord
100
AcDbRegAppTableRecord
  2
PE_URL
 70
     0
  0
APPID
  5
1620
330
15FB
100
AcDbSymbolTableRecord
100
AcDbRegAppTableRecord
  2
VD_UNKNOWN
 70
     0
  0
ENDTAB
  0
TABLE
  2
DIMSTYLE
  5
15FC
330
0
100
AcDbSymbolTable
 70
     5
  0
DIMSTYLE
105
1619
330
15FC
100
AcDbSymbolTableRecord
100
AcDbDimStyleTableRecord
  2
STANDARD
 70
     0
  3

  4

  5
OPEN
  6

  7

 40
1.0
 41
15.0
 42
0.625
 43
0.38
 44
1.25
 45
0.0
 46
0.0
 47
0.0
 48
0.0
140
15.0
141
0.09
142
0.0
143
25.4
144
1.0
145
0.0
146
1.0
147
3.0
 71
     0
 72
     0
 73
     0
 74
     0
 75
     0
 76
     0
 77
     1
 78
     0
170
     0
171
     2
172
     1
173
     0
174
     1
175
     0
176
     0
177
     0
178
     0
270
     2
271
     0
272
     4
273
     2
274
     2
340
331
275
     0
280
     0
281
     0
282
     0
283
     1
284
     0
285
     0
286
     0
287
     3
288
     1
  0
DIMSTYLE
105
397
330
15FC
100
AcDbSymbolTableRecord
100
AcDbDimStyleTableRecord
  2
ED40
 70
     0
  3

  4

  5
OPEN
  6

  7

 40
1.0
 41
35.0
 42
1.0
 43
0.38
 44
1.25
 45
0.0
 46
0.0
 47
0.0
 48
0.0
140
40.0
141
0.09
142
0.0
143
25.4
144
1.0
145
0.0
146
1.0
147
4.0
 71
     0
 72
     0
 73
     0
 74
     0
 75
     0
 76
     0
 77
     1
 78
     0
170
     0
171
     2
172
     1
173
     0
174
     1
175
     0
176
     0
177
     0
178
     0
270
     2
271
     0
272
     4
273
     2
274
     2
340
F39
275
     0
280
     0
281
     0
282
     0
283
     1
284
     0
285
     0
286
     0
287
     3
288
     1
  0
DIMSTYLE
105
FEA
330
15FC
100
AcDbSymbolTableRecord
100
AcDbDimStyleTableRecord
  2
ED30
 70
     0
  3

  4

  5
OPEN
  6

  7

 40
1.0
 41
25.0
 42
1.0
 43
0.38
 44
1.25
 45
0.0
 46
0.0
 47
0.0
 48
0.0
140
30.0
141
0.09
142
0.0
143
25.4
144
1.0
145
0.0
146
1.0
147
4.0
 71
     0
 72
     0
 73
     0
 74
     0
 75
     0
 76
     0
 77
     1
 78
     0
170
     0
171
     2
172
     1
173
     0
174
     1
175
     0
176
     0
177
     0
178
     0
270
     2
271
     0
272
     4
273
     2
274
     2
340
F38
275
     0
280
     0
281
     0
282
     0
283
     1
284
     0
285
     0
286
     0
287
     3
288
     1
  0
DIMSTYLE
105
1457
330
15FC
100
AcDbSymbolTableRecord
100
AcDbDimStyleTableRecord
  2
ED20
 70
     0
  3

  4

  5
OPEN
  6

  7

 40
1.0
 41
20.0
 42
1.0
 43
0.38
 44
1.25
 45
0.0
 46
0.0
 47
0.0
 48
0.0
140
20.0
141
0.09
142
0.0
143
25.4
144
1.0
145
0.0
146
1.0
147
1.5
 71
     0
 72
     0
 73
     0
 74
     0
 75
     0
 76
     0
 77
     1
 78
     0
170
     0
171
     2
172
     1
173
     0
174
     1
175
     0
176
     0
177
     0
178
     0
270
     2
271
     0
272
     4
273
     2
274
     2
340
331
275
     0
280
     0
281
     0
282
     0
283
     1
284
     0
285
     0
286
     0
287
     3
288
     1
  0
DIMSTYLE
105
1458
102
{ACAD_REACTORS
330
1469
330
1476
330
1483
330
1490
330
14E2
102
}
330
15FC
100
AcDbSymbolTableRecord
100
AcDbDimStyleTableRecord
  2
ED10
 70
     0
  3

  4

  5
OPEN
  6

  7

 40
1.0
 41
15.0
 42
1.0
 43
0.38
 44
1.25
 45
0.0
 46
0.0
 47
0.0
 48
0.0
140
10.0
141
0.09
142
0.0
143
25.4
144
1.0
145
0.0
146
1.0
147
1.5
 71
     0
 72
     0
 73
     0
 74
     0
 75
     0
 76
     0
 77
     1
 78
     0
170
     0
171
     2
172
     1
173
     0
174
     1
175
     0
176
     0
177
     0
178
     0
270
     2
271
     0
272
     4
273
     2
274
     2
340
331
275
     0
280
     0
281
     0
282
     0
283
     1
284
     0
285
     0
286
     0
287
     3
288
     1
  0
ENDTAB
  0
TABLE
  2
BLOCK_RECORD
  5
15F3
330
0
100
AcDbSymbolTable
 70
    10
  0
BLOCK_RECORD
  5
1611
330
15F3
100
AcDbSymbolTableRecord
100
AcDbBlockTableRecord
  2
*MODEL_SPACE
  0
BLOCK_RECORD
  5
160D
330
15F3
100
AcDbSymbolTableRecord
100
AcDbBlockTableRecord
  2
*PAPER_SPACE
  0
BLOCK_RECORD
  5
90
330
15F3
100
AcDbSymbolTableRecord
100
AcDbBlockTableRecord
  2
_OPEN
  0
BLOCK_RECORD
  5
1459
330
15F3
100
AcDbSymbolTableRecord
100
AcDbBlockTableRecord
  2
A10_100
  0
BLOCK_RECORD
  5
15EF
330
15F3
100
AcDbSymbolTableRecord
100
AcDbBlockTableRecord
  2
VDDIM_DEFAULT
  0
BLOCK_RECORD
  5
15F1
330
15F3
100
AcDbSymbolTableRecord
100
AcDbBlockTableRecord
  2
VDDIM_NONE
  0
BLOCK_RECORD
  5
1644
330
15F3
100
AcDbSymbolTableRecord
100
AcDbBlockTableRecord
  2
*D5
  0
BLOCK_RECORD
  5
1650
330
15F3
100
AcDbSymbolTableRecord
100
AcDbBlockTableRecord
  2
*D6
  0
BLOCK_RECORD
  5
165C
330
15F3
100
AcDbSymbolTableRecord
100
AcDbBlockTableRecord
  2
*D7
  0
BLOCK_RECORD
  5
1668
330
15F3
100
AcDbSymbolTableRecord
100
AcDbBlockTableRecord
  2
*D8
  0
BLOCK_RECORD
  5
1674
330
15F3
100
AcDbSymbolTableRecord
100
AcDbBlockTableRecord
  2
*D9
  0
ENDTAB
  0
ENDSEC
  0
SECTION
  2
BLOCKS
  0
BLOCK
  5
1612
330
1611
100
AcDbEntity
  8
0
100
AcDbBlockBegin
  2
*MODEL_SPACE
 70
     0
 71
     0
 10
0.0
 20
0.0
 30
0.0
  3
*MODEL_SPACE
  1

  0
ENDBLK
  5
1613
330
1611
100
AcDbEntity
  8
0
100
AcDbBlockEnd
  0
BLOCK
  5
160E
330
160D
100
AcDbEntity
 67
     1
  8
0
100
AcDbBlockBegin
  2
*PAPER_SPACE
 70
     0
 71
     0
 10
0.0
 20
0.0
 30
0.0
  3
*PAPER_SPACE
  1

  0
ENDBLK
  5
160F
330
160D
100
AcDbEntity
 67
     1
  8
0
100
AcDbBlockEnd
  0
BLOCK
  5
163B
330
90
100
AcDbEntity
  8
0
100
AcDbBlockBegin
  2
_OPEN
 70
     0
 71
     0
 10
0.0
 20
0.0
 30
0.0
  3
_OPEN
  1

  0
LINE
  5
92
330
90
100
AcDbEntity
  8
0
  6
BYBLOCK
 62
     0
100
AcDbLine
 10
-1.0
 20
0.166667
 30
0.0
 11
0.0
 21
0.0
 31
0.0
  0
LINE
  5
93
330
90
100
AcDbEntity
  8
0
  6
BYBLOCK
 62
     0
100
AcDbLine
 10
0.0
 20
0.0
 30
0.0
 11
-1.0
 21
-0.166667
 31
0.0
  0
LINE
  5
94
330
90
100
AcDbEntity
  8
0
  6
BYBLOCK
 62
     0
100
AcDbLine
 10
0.0
 20
0.0
 30
0.0
 11
-1.0
 21
0.0
 31
0.0
  0
ENDBLK
  5
163C
330
90
100
AcDbEntity
  8
0
100
AcDbBlockEnd
  0
BLOCK
  5
163D
330
1459
100
AcDbEntity
  8
0
100
AcDbBlockBegin
  2
A10_100
 70
     0
 71
     0
 10
0.0
 20
0.0
 30
0.0
  3
A10_100
  1

  0
ENDBLK
  5
163E
330
1459
100
AcDbEntity
  8
0
100
AcDbBlockEnd
  0
BLOCK
  5
163F
330
15EF
100
AcDbEntity
  8
0
100
AcDbBlockBegin
  2
VDDIM_DEFAULT
 70
     0
 71
     0
 10
0.0
 20
0.0
 30
0.0
  3
VDDIM_DEFAULT
  1

  0
LWPOLYLINE
  5
15F0
330
15EF
100
AcDbEntity
  8
0
  6
CONTINUOUS
 62
     0
100
AcDbPolyline
 90
        4
 70
     0
 43
0.0
 10
0.0
 20
0.0
 10
-1.0
 20
-0.1665
 10
-1.0
 20
0.1665
 10
0.0
 20
0.0
1001
VDEXTRAPARAM
1071
        1
1071
        0
1071
        0
1040
1.0
1000

1000

1040
0.0
1040
0.0
  0
HATCH
  5
1643
330
15EF
100
AcDbEntity
  8
0
  6
CONTINUOUS
 62
     0
100
AcDbHatch
 10
0.0
 20
0.0
 30
0.0
210
0.0
220
0.0
230
1.0
  2
SOLID
 70
     1
 71
     0
 91
        1
 92
        2
 72
     0
 73
     1
 93
        3
 10
0.0
 20
0.0
 10
-1.0
 20
-0.1665
 10
-1.0
 20
0.1665
 97
        0
 75
     0
 76
     1
 98
        1
 10
0.0
 20
0.0
1001
VDEXTRAPARAM
1071
        1
1071
        0
1071
        0
1040
1.0
1000

1000

1040
0.0
1040
0.0
1001
VD_TEMPHATCH
1000
VD_TEMPHATCH
  0
ENDBLK
  5
1640
330
15EF
100
AcDbEntity
  8
0
100
AcDbBlockEnd
  0
BLOCK
  5
1641
330
15F1
100
AcDbEntity
  8
0
100
AcDbBlockBegin
  2
VDDIM_NONE
 70
     0
 71
     0
 10
0.0
 20
0.0
 30
0.0
  3
VDDIM_NONE
  1

  0
ENDBLK
  5
1642
330
15F1
100
AcDbEntity
  8
0
100
AcDbBlockEnd
  0
BLOCK
  5
164E
330
1644
100
AcDbEntity
  8
0
100
AcDbBlockBegin
  2
*D5
 70
     1
 71
     0
 10
0.0
 20
0.0
 30
0.0
  3
*D5
  1

  0
LINE
  5
1645
330
1644
100
AcDbEntity
  8
V0-VYPLNE
 62
     0
100
AcDbLine
 10
116.141239
 20
-277.166006
 30
0.0
 11
116.141239
 21
-317.3058190000011
 31
0.0
  0
LINE
  5
1646
330
1644
100
AcDbEntity
  8
V0-VYPLNE
 62
     0
100
AcDbLine
 10
296.141239
 20
-277.166006
 30
0.0
 11
296.141239
 21
-317.3058190000011
 31
0.0
  0
LINE
  5
1647
330
1644
100
AcDbEntity
  8
V0-VYPLNE
 62
     0
100
AcDbLine
 10
131.141239
 20
-316.0558190000011
 30
0.0
 11
281.141239
 21
-316.0558190000011
 31
0.0
  0
INSERT
  5
1648
330
1644
100
AcDbEntity
  8
V0-VYPLNE
 62
     0
100
AcDbBlockReference
  2
_OPEN
 10
116.141239
 20
-316.0558190000011
 30
0.0
 41
15.0
 42
15.0
 43
15.0
 50
180.0
  0
INSERT
  5
1649
330
1644
100
AcDbEntity
  8
V0-VYPLNE
 62
     0
100
AcDbBlockReference
  2
_OPEN
 10
296.141239
 20
-316.0558190000011
 30
0.0
 41
15.0
 42
15.0
 43
15.0
  0
MTEXT
  5
164A
330
1644
100
AcDbEntity
  8
V0-VYPLNE
 62
     0
100
AcDbMText
 10
206.141239
 20
-309.5558190000011
 30
0.0
 40
10.0
 41
0.0
 71
     5
 72
     1
  1
%%c\A1;180
  7
ED20
  0
POINT
  5
164B
330
1644
100
AcDbEntity
  8
DEFPOINTS
 62
     0
100
AcDbPoint
 10
116.141239
 20
-276.166006
 30
0.0
  0
POINT
  5
164C
330
1644
100
AcDbEntity
  8
DEFPOINTS
 62
     0
100
AcDbPoint
 10
296.141239
 20
-276.166006
 30
0.0
  0
POINT
  5
164D
330
1644
100
AcDbEntity
  8
DEFPOINTS
 62
     0
100
AcDbPoint
 10
296.141239
 20
-316.0558190000011
 30
0.0
  0
ENDBLK
  5
164F
330
1644
100
AcDbEntity
  8
0
100
AcDbBlockEnd
  0
BLOCK
  5
165A
330
1650
100
AcDbEntity
  8
0
100
AcDbBlockBegin
  2
*D6
 70
     1
 71
     0
 10
0.0
 20
0.0
 30
0.0
  3
*D6
  1

  0
LINE
  5
1651
330
1650
100
AcDbEntity
  8
V0-VYPLNE
 62
     0
100
AcDbLine
 10
83.641239
 20
-277.166006
 30
0.0
 11
83.64123899999996
 21
-350.6367929999979
 31
0.0
  0
LINE
  5
1652
330
1650
100
AcDbEntity
  8
V0-VYPLNE
 62
     0
100
AcDbLine
 10
328.641239
 20
-277.166006
 30
0.0
 11
328.641239
 21
-350.6367929999979
 31
0.0
  0
LINE
  5
1653
330
1650
100
AcDbEntity
  8
V0-VYPLNE
 62
     0
100
AcDbLine
 10
98.64123899999996
 20
-349.3867929999979
 30
0.0
 11
313.641239
 21
-349.3867929999979
 31
0.0
  0
INSERT
  5
1654
330
1650
100
AcDbEntity
  8
V0-VYPLNE
 62
     0
100
AcDbBlockReference
  2
_OPEN
 10
83.64123899999996
 20
-349.3867929999979
 30
0.0
 41
15.0
 42
15.0
 43
15.0
 50
180.0
  0
INSERT
  5
1655
330
1650
100
AcDbEntity
  8
V0-VYPLNE
 62
     0
100
AcDbBlockReference
  2
_OPEN
 10
328.641239
 20
-349.3867929999979
 30
0.0
 41
15.0
 42
15.0
 43
15.0
  0
MTEXT
  5
1656
330
1650
100
AcDbEntity
  8
V0-VYPLNE
 62
     0
100
AcDbMText
 10
206.141239
 20
-342.8867929999979
 30
0.0
 40
10.0
 41
0.0
 71
     5
 72
     1
  1
\A1;245
  7
ED20
  0
POINT
  5
1657
330
1650
100
AcDbEntity
  8
DEFPOINTS
 62
     0
100
AcDbPoint
 10
83.641239
 20
-276.166006
 30
0.0
  0
POINT
  5
1658
330
1650
100
AcDbEntity
  8
DEFPOINTS
 62
     0
100
AcDbPoint
 10
328.641239
 20
-276.166006
 30
0.0
  0
POINT
  5
1659
330
1650
100
AcDbEntity
  8
DEFPOINTS
 62
     0
100
AcDbPoint
 10
328.641239
 20
-349.3867929999979
 30
0.0
  0
ENDBLK
  5
165B
330
1650
100
AcDbEntity
  8
0
100
AcDbBlockEnd
  0
BLOCK
  5
1666
330
165C
100
AcDbEntity
  8
0
100
AcDbBlockBegin
  2
*D7
 70
     1
 71
     0
 10
0.0
 20
0.0
 30
0.0
  3
*D7
  1

  0
LINE
  5
165D
330
165C
100
AcDbEntity
  8
V0-VYPLNE
 62
     0
100
AcDbLine
 10
56.141239
 20
-277.166006
 30
0.0
 11
56.14123899999999
 21
-383.9677679999732
 31
0.0
  0
LINE
  5
165E
330
165C
100
AcDbEntity
  8
V0-VYPLNE
 62
     0
100
AcDbLine
 10
356.141239
 20
-277.166006
 30
0.0
 11
356.141239
 21
-383.9677679999732
 31
0.0
  0
LINE
  5
165F
330
165C
100
AcDbEntity
  8
V0-VYPLNE
 62
     0
100
AcDbLine
 10
71.14123899999999
 20
-382.7177679999732
 30
0.0
 11
341.141239
 21
-382.7177679999732
 31
0.0
  0
INSERT
  5
1660
330
165C
100
AcDbEntity
  8
V0-VYPLNE
 62
     0
100
AcDbBlockReference
  2
_OPEN
 10
56.14123899999999
 20
-382.7177679999732
 30
0.0
 41
15.0
 42
15.0
 43
15.0
 50
180.0
  0
INSERT
  5
1661
330
165C
100
AcDbEntity
  8
V0-VYPLNE
 62
     0
100
AcDbBlockReference
  2
_OPEN
 10
356.141239
 20
-382.7177679999732
 30
0.0
 41
15.0
 42
15.0
 43
15.0
  0
MTEXT
  5
1662
330
165C
100
AcDbEntity
  8
V0-VYPLNE
 62
     0
100
AcDbMText
 10
206.141239
 20
-376.2177679999732
 30
0.0
 40
10.0
 41
0.0
 71
     5
 72
     1
  1
\A1;300
  7
ED20
  0
POINT
  5
1663
330
165C
100
AcDbEntity
  8
DEFPOINTS
 62
     0
100
AcDbPoint
 10
56.141239
 20
-276.166006
 30
0.0
  0
POINT
  5
1664
330
165C
100
AcDbEntity
  8
DEFPOINTS
 62
     0
100
AcDbPoint
 10
356.141239
 20
-276.166006
 30
0.0
  0
POINT
  5
1665
330
165C
100
AcDbEntity
  8
DEFPOINTS
 62
     0
100
AcDbPoint
 10
356.141239
 20
-382.7177679999732
 30
0.0
  0
ENDBLK
  5
1667
330
165C
100
AcDbEntity
  8
0
100
AcDbBlockEnd
  0
BLOCK
  5
1672
330
1668
100
AcDbEntity
  8
0
100
AcDbBlockBegin
  2
*D8
 70
     1
 71
     0
 10
0.0
 20
0.0
 30
0.0
  3
*D8
  1

  0
LINE
  5
1669
330
1668
100
AcDbEntity
  8
V0-VYPLNE
 62
     0
100
AcDbLine
 10
357.141239
 20
-276.166006
 30
0.0
 11
456.8683350000004
 21
-276.166006
 31
0.0
  0
LINE
  5
166A
330
1668
100
AcDbEntity
  8
V0-VYPLNE
 62
     0
100
AcDbLine
 10
207.141239
 20
0.8339939999999999
 30
0.0
 11
456.8683350000005
 21
0.8339939999999846
 31
0.0
  0
LINE
  5
166B
330
1668
100
AcDbEntity
  8
V0-VYPLNE
 62
     0
100
AcDbLine
 10
455.6183350000003
 20
-261.166006
 30
0.0
 11
455.6183350000005
 21
-14.16600600000004
 31
0.0
  0
INSERT
  5
166C
330
1668
100
AcDbEntity
  8
V0-VYPLNE
 62
     0
100
AcDbBlockReference
  2
_OPEN
 10
455.6183350000003
 20
-276.166006
 30
0.0
 41
15.0
 42
15.0
 43
15.0
 50
270.0
  0
INSERT
  5
166D
330
1668
100
AcDbEntity
  8
V0-VYPLNE
 62
     0
100
AcDbBlockReference
  2
_OPEN
 10
455.6183350000005
 20
0.8339939999999615
 30
0.0
 41
15.0
 42
15.0
 43
15.0
 50
89.99999999999997
  0
MTEXT
  5
166E
330
1668
100
AcDbEntity
  8
V0-VYPLNE
 62
     0
100
AcDbMText
 10
449.1183350000005
 20
-137.666006
 30
0.0
 40
10.0
 41
0.0
 71
     5
 72
     1
  1
\A1;277
  7
ED20
 11
2.052108984144694E-16
 21
1.0
 31
0.0
  0
POINT
  5
166F
330
1668
100
AcDbEntity
  8
DEFPOINTS
 62
     0
100
AcDbPoint
 10
356.141239
 20
-276.166006
 30
0.0
  0
POINT
  5
1670
330
1668
100
AcDbEntity
  8
DEFPOINTS
 62
     0
100
AcDbPoint
 10
206.141239
 20
0.833994
 30
0.0
  0
POINT
  5
1671
330
1668
100
AcDbEntity
  8
DEFPOINTS
 62
     0
100
AcDbPoint
 10
455.6183350000005
 20
0.8339939999999847
 30
0.0
  0
ENDBLK
  5
1673
330
1668
100
AcDbEntity
  8
0
100
AcDbBlockEnd
  0
BLOCK
  5
167E
330
1674
100
AcDbEntity
  8
0
100
AcDbBlockBegin
  2
*D9
 70
     1
 71
     0
 10
0.0
 20
0.0
 30
0.0
  3
*D9
  1

  0
LINE
  5
1675
330
1674
100
AcDbEntity
  8
V0-VYPLNE
 62
     0
100
AcDbLine
 10
-1.358761
 20
-91.664643
 30
0.0
 11
-1.358761000000016
 21
26.98198200000118
 31
0.0
  0
LINE
  5
1676
330
1674
100
AcDbEntity
  8
V0-VYPLNE
 62
     0
100
AcDbLine
 10
413.641239
 20
-91.664643
 30
0.0
 11
413.641239
 21
26.98198200000115
 31
0.0
  0
LINE
  5
1677
330
1674
100
AcDbEntity
  8
V0-VYPLNE
 62
     0
100
AcDbLine
 10
13.64123899999999
 20
25.73198200000118
 30
0.0
 11
398.641239
 21
25.73198200000115
 31
0.0
  0
INSERT
  5
1678
330
1674
100
AcDbEntity
  8
V0-VYPLNE
 62
     0
100
AcDbBlockReference
  2
_OPEN
 10
-1.358761000000015
 20
25.73198200000118
 30
0.0
 41
15.0
 42
15.0
 43
15.0
 50
180.0
  0
INSERT
  5
1679
330
1674
100
AcDbEntity
  8
V0-VYPLNE
 62
     0
100
AcDbBlockReference
  2
_OPEN
 10
413.641239
 20
25.73198200000115
 30
0.0
 41
15.0
 42
15.0
 43
15.0
 50
360.0
  0
MTEXT
  5
167A
330
1674
100
AcDbEntity
  8
V0-VYPLNE
 62
     0
100
AcDbMText
 10
206.141239
 20
32.23198200000115
 30
0.0
 40
10.0
 41
0.0
 71
     5
 72
     1
  1
%%c\A1;415
  7
ED20
  0
POINT
  5
167B
330
1674
100
AcDbEntity
  8
DEFPOINTS
 62
     0
100
AcDbPoint
 10
-1.358761
 20
-92.664643
 30
0.0
  0
POINT
  5
167C
330
1674
100
AcDbEntity
  8
DEFPOINTS
 62
     0
100
AcDbPoint
 10
413.641239
 20
-92.664643
 30
0.0
  0
POINT
  5
167D
330
1674
100
AcDbEntity
  8
DEFPOINTS
 62
     0
100
AcDbPoint
 10
413.641239
 20
25.73198200000115
 30
0.0
  0
ENDBLK
  5
167F
330
1674
100
AcDbEntity
  8
0
100
AcDbBlockEnd
  0
ENDSEC
  0
SECTION
  2
ENTITIES
  0
LINE
  5
1127
330
1611
100
AcDbEntity
  8
V0-VYPLNE
  6
DASHDOT
 62
    63
100
AcDbLine
 10
210.886013
 20
-415.758355
 30
0.0
 11
210.886013
 21
-901.724889
 31
0.0
  0
CIRCLE
  5
11B0
330
1611
100
AcDbEntity
  8
V0-VYPLNE
  6
DASHED
 62
    56
100
AcDbCircle
 10
333.386013
 20
-531.943251
 30
0.0
 40
3.5
  0
LINE
  5
11B1
330
1611
100
AcDbEntity
  8
V0-VYPLNE
 62
    63
100
AcDbLine
 10
333.386013
 20
-546.943251
 30
0.0
 11
333.386013
 21
-516.943251
 31
0.0
  0
LINE
  5
11BB
330
1611
100
AcDbEntity
  8
V0-VYPLNE
100
AcDbLine
 10
206.141239
 20
0.833994
 30
0.0
 11
206.141239
 21
-272.319392
 31
0.0
  0
LINE
  5
11BE
330
1611
100
AcDbEntity
  8
V0-VYPLNE
100
AcDbLine
 10
83.641239
 20
-286.166006
 30
0.0
 11
83.641239
 21
-236.166006
 31
0.0
  0
LINE
  5
11BF
330
1611
100
AcDbEntity
  8
V0-VYPLNE
100
AcDbLine
 10
328.641239
 20
-286.166006
 30
0.0
 11
328.641239
 21
-236.166006
 31
0.0
  0
POINT
  5
12BC
330
1611
100
AcDbEntity
  8
V0-VYPLNE
  6
CONTINUOUS
 62
    41
100
AcDbPoint
 10
210.886013
 20
-654.443251
 30
0.0
  0
POINT
  5
12BD
330
1611
100
AcDbEntity
  8
V0-VYPLNE
  6
CONTINUOUS
 62
    41
100
AcDbPoint
 10
206.141239
 20
-276.166006
 30
0.0
  0
LINE
  5
13BB
330
1611
100
AcDbEntity
  8
V0-VYPLNE
  6
DASHDOT
 62
    63
100
AcDbLine
 10
-27.798883
 20
-654.443251
 30
0.0
 11
458.167652
 21
-654.443251
 31
0.0
  0
CIRCLE
  5
13BE
330
1611
100
AcDbEntity
  8
V0-OBRYS
  6
CONTINUOUS
 62
    90
100
AcDbCircle
 10
210.886013
 20
-654.443251
 30
0.0
 40
207.5
  0
CIRCLE
  5
13BF
330
1611
100
AcDbEntity
  8
V0-OBRYS
  6
CONTINUOUS
 62
    90
100
AcDbCircle
 10
210.886013
 20
-654.443251
 30
0.0
 40
193.889051
  0
CIRCLE
  5
13C0
330
1611
100
AcDbEntity
  8
V0-VYPLNE
  6
DASHED
 62
    52
100
AcDbCircle
 10
210.886013
 20
-654.443251
 30
0.0
 40
122.5
  0
LINE
  5
13C2
330
1611
100
AcDbEntity
  8
V0-VYPLNE
 62
    63
100
AcDbLine
 10
348.386013
 20
-531.943251
 30
0.0
 11
318.386013
 21
-531.943251
 31
0.0
  0
LINE
  5
13C5
330
1611
100
AcDbEntity
  8
V0-VYPLNE
 62
    63
100
AcDbLine
 10
103.386013
 20
-531.943251
 30
0.0
 11
73.38601300000001
 21
-531.943251
 31
0.0
  0
LINE
  5
13C6
330
1611
100
AcDbEntity
  8
V0-VYPLNE
 62
    63
100
AcDbLine
 10
88.38601300000001
 20
-516.943251
 30
0.0
 11
88.38601300000001
 21
-546.943251
 31
0.0
  0
CIRCLE
  5
13C7
330
1611
100
AcDbEntity
  8
V0-VYPLNE
  6
DASHED
 62
    56
100
AcDbCircle
 10
88.38601300000001
 20
-531.943251
 30
0.0
 40
3.5
  0
LINE
  5
13C8
330
1611
100
AcDbEntity
  8
V0-VYPLNE
 62
    63
100
AcDbLine
 10
88.38601300000001
 20
-761.943251
 30
0.0
 11
88.38601300000001
 21
-791.943251
 31
0.0
  0
LINE
  5
13C9
330
1611
100
AcDbEntity
  8
V0-VYPLNE
 62
    63
100
AcDbLine
 10
73.38601300000001
 20
-776.943251
 30
0.0
 11
103.386013
 21
-776.943251
 31
0.0
  0
CIRCLE
  5
13CA
330
1611
100
AcDbEntity
  8
V0-VYPLNE
  6
DASHED
 62
    56
100
AcDbCircle
 10
88.38601300000001
 20
-776.943251
 30
0.0
 40
3.5
  0
LINE
  5
13CB
330
1611
100
AcDbEntity
  8
V0-VYPLNE
 62
    63
100
AcDbLine
 10
318.386013
 20
-776.943251
 30
0.0
 11
348.386013
 21
-776.943251
 31
0.0
  0
LINE
  5
13CC
330
1611
100
AcDbEntity
  8
V0-VYPLNE
 62
    63
100
AcDbLine
 10
333.386013
 20
-791.943251
 30
0.0
 11
333.386013
 21
-761.943251
 31
0.0
  0
CIRCLE
  5
13CD
330
1611
100
AcDbEntity
  8
V0-VYPLNE
  6
DASHED
 62
    56
100
AcDbCircle
 10
333.386013
 20
-776.943251
 30
0.0
 40
3.5
  0
LINE
  5
13CE
330
1611
100
AcDbEntity
  8
V0-VYPLNE
  6
DASHED
 62
    52
100
AcDbLine
 10
360.886013
 20
-504.443251
 30
0.0
 11
60.88601299999999
 21
-504.443251
 31
0.0
  0
LINE
  5
13CF
330
1611
100
AcDbEntity
  8
V0-VYPLNE
  6
DASHED
 62
    52
100
AcDbLine
 10
60.886013
 20
-504.443251
 30
0.0
 11
60.886013
 21
-804.443251
 31
0.0
  0
LINE
  5
13D0
330
1611
100
AcDbEntity
  8
V0-VYPLNE
  6
DASHED
 62
    52
100
AcDbLine
 10
60.886013
 20
-804.443251
 30
0.0
 11
360.886013
 21
-804.443251
 31
0.0
  0
LINE
  5
13D1
330
1611
100
AcDbEntity
  8
V0-VYPLNE
  6
DASHED
 62
    52
100
AcDbLine
 10
360.886013
 20
-804.443251
 30
0.0
 11
360.886013
 21
-504.443251
 31
0.0
  0
LINE
  5
13D2
330
1611
100
AcDbEntity
  8
V0-OBRYS
  6
CONTINUOUS
 62
    90
100
AcDbLine
 10
56.141239
 20
-276.166006
 30
0.0
 11
356.141239
 21
-276.166006
 31
0.0
  0
LINE
  5
13D3
330
1611
100
AcDbEntity
  8
V0-OBRYS
  6
CONTINUOUS
 62
    90
100
AcDbLine
 10
356.141239
 20
-276.166006
 30
0.0
 11
356.141239
 21
-261.166006
 31
0.0
  0
LINE
  5
13D4
330
1611
100
AcDbEntity
  8
V0-OBRYS
  6
CONTINUOUS
 62
    90
100
AcDbLine
 10
356.141239
 20
-261.166006
 30
0.0
 11
56.14123899999999
 21
-261.166006
 31
0.0
  0
LINE
  5
13D5
330
1611
100
AcDbEntity
  8
V0-OBRYS
  6
CONTINUOUS
 62
    90
100
AcDbLine
 10
56.141239
 20
-261.166006
 30
0.0
 11
56.141239
 21
-276.166006
 31
0.0
  0
LINE
  5
13D6
330
1611
100
AcDbEntity
  8
V0-OBRYS
  6
CONTINUOUS
 62
    90
100
AcDbLine
 10
71.141239
 20
-261.166006
 30
0.0
 11
71.141239
 21
-258.166006
 31
0.0
  0
LINE
  5
13D7
330
1611
100
AcDbEntity
  8
V0-OBRYS
  6
CONTINUOUS
 62
    90
100
AcDbLine
 10
71.141239
 20
-258.166006
 30
0.0
 11
341.141239
 21
-258.166006
 31
0.0
  0
LINE
  5
13D8
330
1611
100
AcDbEntity
  8
V0-OBRYS
  6
CONTINUOUS
 62
    90
100
AcDbLine
 10
341.141239
 20
-258.166006
 30
0.0
 11
341.141239
 21
-261.166006
 31
0.0
  0
LINE
  5
13D9
330
1611
100
AcDbEntity
  8
V0-OBRYS
  6
CONTINUOUS
 62
    90
100
AcDbLine
 10
291.141239
 20
-258.166006
 30
0.0
 11
291.141239
 21
-92.66464300000001
 31
0.0
  0
ARC
  5
13DB
330
1611
100
AcDbEntity
  8
V0-OBRYS
  6
CONTINUOUS
 62
    90
100
AcDbCircle
 10
206.141239
 20
-276.166006
 30
0.0
 40
277.0
100
AcDbArc
 50
41.487741
 51
45.576167
  0
LINE
  5
13DD
330
1611
100
AcDbEntity
  8
V0-OBRYS
  6
CONTINUOUS
 62
    90
100
AcDbLine
 10
-1.358761
 20
-92.664643
 30
0.0
 11
413.641239
 21
-92.664643
 31
0.0
  0
LINE
  5
13DE
330
1611
100
AcDbEntity
  8
V0-OBRYS
  6
CONTINUOUS
 62
    90
100
AcDbLine
 10
311.141239
 20
-258.166006
 30
0.0
 11
345.827153
 21
-92.66464300000001
 31
0.0
  0
LINE
  5
13E1
330
1611
100
AcDbEntity
  8
V0-OBRYS
  6
CONTINUOUS
 62
    90
100
AcDbLine
 10
12.252187
 20
-78.337707
 30
0.0
 11
400.03029
 21
-78.337707
 31
0.0
  0
LINE
  5
13E2
330
1611
100
AcDbEntity
  8
V0-OBRYS
  6
CONTINUOUS
 62
    90
100
AcDbLine
 10
18.277449
 20
-72.60717699999999
 30
0.0
 11
394.005028
 21
-72.60717699999999
 31
0.0
  0
ARC
  5
13E3
330
1611
100
AcDbEntity
  8
V0-OBRYS
  6
CONTINUOUS
 62
    90
100
AcDbCircle
 10
206.141239
 20
-276.166006
 30
0.0
 40
277.0
100
AcDbArc
 50
134.423833
 51
138.512259
  0
LINE
  5
13E4
330
1611
100
AcDbEntity
  8
V0-OBRYS
  6
CONTINUOUS
 62
    90
100
AcDbLine
 10
18.277449
 20
-72.60717699999999
 30
0.0
 11
18.277449
 21
-78.310434
 31
0.0
  0
ARC
  5
13E6
330
1611
100
AcDbEntity
  8
V0-OBRYS
  6
CONTINUOUS
 62
    90
100
AcDbCircle
 10
206.141239
 20
-276.166006
 30
0.0
 40
277.0
100
AcDbArc
 50
47.296183
 51
132.703817
  0
LINE
  5
13E7
330
1611
100
AcDbEntity
  8
V0-OBRYS
  6
CONTINUOUS
 62
    90
100
AcDbLine
 10
394.005028
 20
-72.60717699999999
 30
0.0
 11
394.005028
 21
-78.296768
 31
0.0
  0
LINE
  5
13E8
330
1611
100
AcDbEntity
  8
V0-OBRYS
  6
CONTINUOUS
 62
    90
100
AcDbLine
 10
154.871072
 20
-226.166006
 30
0.0
 11
257.411405
 21
-226.166006
 31
0.0
  0
LINE
  5
13EA
330
1611
100
AcDbEntity
  8
V0-OBRYS
  6
CONTINUOUS
 62
    90
100
AcDbLine
 10
296.141239
 20
-256.166006
 30
0.0
 11
296.141239
 21
-276.166006
 31
0.0
  0
LINE
  5
13EC
330
1611
100
AcDbEntity
  8
V0-OBRYS
  6
CONTINUOUS
 62
    90
100
AcDbLine
 10
276.141239
 20
-92.664643
 30
0.0
 11
276.141239
 21
-201.524989
 31
0.0
  0
ARC
  5
13ED
330
1611
100
AcDbEntity
  8
V0-OBRYS
  6
CONTINUOUS
 62
    90
100
AcDbCircle
 10
296.141239
 20
-236.166006
 30
0.0
 40
40.0
100
AcDbArc
 50
120.0
 51
213.367013
  0
ARC
  5
13EE
330
1611
100
AcDbEntity
  8
V0-OBRYS
  6
CONTINUOUS
 62
    90
100
AcDbCircle
 10
116.141239
 20
-236.166006
 30
0.0
 40
40.0
100
AcDbArc
 50
326.632987
 51
59.99999999999999
  0
LINE
  5
13EF
330
1611
100
AcDbEntity
  8
V0-OBRYS
  6
CONTINUOUS
 62
    90
100
AcDbLine
 10
136.141239
 20
-92.664643
 30
0.0
 11
136.141239
 21
-201.524989
 31
0.0
  0
LINE
  5
13F0
330
1611
100
AcDbEntity
  8
V0-OBRYS
  6
CONTINUOUS
 62
    90
100
AcDbLine
 10
121.141239
 20
-258.166006
 30
0.0
 11
121.141239
 21
-92.66464300000001
 31
0.0
  0
LINE
  5
13F1
330
1611
100
AcDbEntity
  8
V0-OBRYS
  6
CONTINUOUS
 62
    90
100
AcDbLine
 10
101.141239
 20
-258.166006
 30
0.0
 11
66.45532400000001
 21
-92.66464300000001
 31
0.0
  0
LINE
  5
13F2
330
1611
100
AcDbEntity
  8
V0-OBRYS
  6
CONTINUOUS
 62
    90
100
AcDbLine
 10
146.141239
 20
-209.708493
 30
0.0
 11
146.141239
 21
-92.664643
 31
0.0
  0
LINE
  5
13F3
330
1611
100
AcDbEntity
  8
V0-OBRYS
  6
CONTINUOUS
 62
    90
100
AcDbLine
 10
266.141239
 20
-209.708493
 30
0.0
 11
266.141239
 21
-92.664643
 31
0.0
  0
LINE
  5
1414
330
1611
100
AcDbEntity
  8
V0-VYPLNE
  6
CONTINUOUS
 62
    52
100
AcDbLine
 10
121.141239
 20
-92.664643
 30
0.0
 11
291.141239
 21
-92.664643
 31
0.0
  0
LINE
  5
1415
330
1611
100
AcDbEntity
  8
V0-VYPLNE
  6
CONTINUOUS
 62
    52
100
AcDbLine
 10
291.141239
 20
-92.664643
 30
0.0
 11
291.141239
 21
-258.166006
 31
0.0
  0
LINE
  5
1416
330
1611
100
AcDbEntity
  8
V0-VYPLNE
  6
CONTINUOUS
 62
    52
100
AcDbLine
 10
291.141239
 20
-258.166006
 30
0.0
 11
121.141239
 21
-258.166006
 31
0.0
  0
LINE
  5
1417
330
1611
100
AcDbEntity
  8
V0-VYPLNE
  6
CONTINUOUS
 62
    52
100
AcDbLine
 10
121.141239
 20
-258.166006
 30
0.0
 11
121.141239
 21
-92.66464300000001
 31
0.0
  0
HATCH
  5
142F
330
1611
100
AcDbEntity
  8
V0-VYPLNE
  6
CONTINUOUS
 62
    52
100
AcDbHatch
 10
0.0
 20
0.0
 30
0.0
210
0.0
220
0.0
230
1.0
  2
NET
 70
     0
 71
     0
 91
        1
 92
        3
 72
     0
 73
     1
 93
        4
 10
291.1412387300806
 20
-258.166005630735
 10
291.1412387300806
 20
-92.6646432379724
 10
121.1412387300806
 20
-92.6646432379724
 10
121.1412387300806
 20
-258.166005630735
 97
        0
 75
     0
 76
     2
 52
0.0
 41
5.0
 77
     0
 78
     2
 53
0.0
 43
206.141239
 44
-276.166006
 45
0.0
 46
15.875
 79
     0
 53
90.0
 43
206.141239
 44
-276.166006
 45
-15.875
 46
0.000000000000001
 79
     0
 98
        1
 10
0.0
 20
0.0
1001
VDEXTRAPARAM
1071
       76
1071
        0
1071
        0
1040
5.0
1000
NET
1000

1040
0.0
1040
0.0
  0
LINE
  5
1430
330
1611
100
AcDbEntity
  8
V0-VYPLNE
100
AcDbLine
 10
762.169584
 20
0.833994
 30
0.0
 11
762.169584
 21
-329.929383
 31
0.0
  0
ARC
  5
1431
330
1611
100
AcDbEntity
  8
V0-OBRYS
  6
CONTINUOUS
 62
    90
100
AcDbCircle
 10
762.169584
 20
-276.166006
 30
0.0
 40
277.0
100
AcDbArc
 50
47.296183
 51
132.703817
  0
LINE
  5
1432
330
1611
100
AcDbEntity
  8
V0-OBRYS
  6
CONTINUOUS
 62
    90
100
AcDbLine
 10
574.305795
 20
-72.60717699999999
 30
0.0
 11
950.033374
 21
-72.60717699999999
 31
0.0
  0
LINE
  5
1433
330
1611
100
AcDbEntity
  8
V0-OBRYS
  6
CONTINUOUS
 62
    90
100
AcDbLine
 10
568.280533
 20
-78.337707
 30
0.0
 11
956.058636
 21
-78.337707
 31
0.0
  0
LINE
  5
1434
330
1611
100
AcDbEntity
  8
V0-OBRYS
  6
CONTINUOUS
 62
    90
100
AcDbLine
 10
554.669584
 20
-92.664643
 30
0.0
 11
969.669584
 21
-92.664643
 31
0.0
  0
LINE
  5
1435
330
1611
100
AcDbEntity
  8
V0-OBRYS
  6
CONTINUOUS
 62
    90
100
AcDbLine
 10
627.169584
 20
-258.166006
 30
0.0
 11
897.169584
 21
-258.166006
 31
0.0
  0
LINE
  5
1436
330
1611
100
AcDbEntity
  8
V0-OBRYS
  6
CONTINUOUS
 62
    90
100
AcDbLine
 10
912.169584
 20
-261.166006
 30
0.0
 11
612.169584
 21
-261.166006
 31
0.0
  0
LINE
  5
1437
330
1611
100
AcDbEntity
  8
V0-OBRYS
  6
CONTINUOUS
 62
    90
100
AcDbLine
 10
612.169584
 20
-276.166006
 30
0.0
 11
912.169584
 21
-276.166006
 31
0.0
  0
LINE
  5
1438
330
1611
100
AcDbEntity
  8
V0-OBRYS
  6
CONTINUOUS
 62
    90
100
AcDbLine
 10
657.169584
 20
-258.166006
 30
0.0
 11
622.48367
 21
-92.66464300000001
 31
0.0
  0
LINE
  5
1439
330
1611
100
AcDbEntity
  8
V0-OBRYS
  6
CONTINUOUS
 62
    90
100
AcDbLine
 10
612.169584
 20
-261.166006
 30
0.0
 11
612.169584
 21
-276.166006
 31
0.0
  0
LINE
  5
143A
330
1611
100
AcDbEntity
  8
V0-OBRYS
  6
CONTINUOUS
 62
    90
100
AcDbLine
 10
627.169584
 20
-261.166006
 30
0.0
 11
627.169584
 21
-258.166006
 31
0.0
  0
LINE
  5
143B
330
1611
100
AcDbEntity
  8
V0-VYPLNE
100
AcDbLine
 10
639.669584
 20
-286.166006
 30
0.0
 11
639.669584
 21
-236.166006
 31
0.0
  0
ARC
  5
143C
330
1611
100
AcDbEntity
  8
V0-OBRYS
  6
CONTINUOUS
 62
    90
100
AcDbCircle
 10
762.169584
 20
-276.166006
 30
0.0
 40
277.0
100
AcDbArc
 50
134.423833
 51
138.512259
  0
LINE
  5
143D
330
1611
100
AcDbEntity
  8
V0-OBRYS
  6
CONTINUOUS
 62
    90
100
AcDbLine
 10
574.305795
 20
-72.60717699999999
 30
0.0
 11
574.305795
 21
-78.310434
 31
0.0
  0
HATCH
  5
143E
330
1611
100
AcDbEntity
  8
V0-VYPLNE
  6
CONTINUOUS
 62
    52
100
AcDbHatch
 10
0.0
 20
0.0
 30
0.0
210
0.0
220
0.0
230
1.0
  2
NET
 70
     0
 71
     0
 91
        1
 92
        3
 72
     0
 73
     1
 93
        4
 10
847.169584437378
 20
-258.166005630735
 10
847.169584437378
 20
-92.6646432379724
 10
677.169584437378
 20
-92.6646432379724
 10
677.169584437378
 20
-258.166005630735
 97
        0
 75
     0
 76
     2
 52
0.0
 41
5.0
 77
     0
 78
     2
 53
0.0
 43
206.141239
 44
-276.166006
 45
0.0
 46
15.875
 79
     0
 53
90.0
 43
206.141239
 44
-276.166006
 45
-15.875
 46
0.000000000000001
 79
     0
 98
        1
 10
0.0
 20
0.0
1001
VDEXTRAPARAM
1071
       76
1071
        0
1071
        0
1040
5.0
1000
NET
1000

1040
0.0
1040
0.0
  0
LINE
  5
143F
330
1611
100
AcDbEntity
  8
V0-VYPLNE
  6
CONTINUOUS
 62
    52
100
AcDbLine
 10
677.169584
 20
-92.664643
 30
0.0
 11
847.169584
 21
-92.664643
 31
0.0
  0
LINE
  5
1440
330
1611
100
AcDbEntity
  8
V0-VYPLNE
  6
CONTINUOUS
 62
    52
100
AcDbLine
 10
847.169584
 20
-258.166006
 30
0.0
 11
677.169584
 21
-258.166006
 31
0.0
  0
ARC
  5
1441
330
1611
100
AcDbEntity
  8
V0-OBRYS
  6
CONTINUOUS
 62
    90
100
AcDbCircle
 10
852.169584
 20
-236.166006
 30
0.0
 40
40.0
100
AcDbArc
 50
120.0
 51
213.367013
  0
LINE
  5
1442
330
1611
100
AcDbEntity
  8
V0-VYPLNE
  6
CONTINUOUS
 62
    52
100
AcDbLine
 10
677.169584
 20
-258.166006
 30
0.0
 11
677.169584
 21
-92.66464300000001
 31
0.0
  0
LINE
  5
1443
330
1611
100
AcDbEntity
  8
V0-OBRYS
  6
CONTINUOUS
 62
    90
100
AcDbLine
 10
822.169584
 20
-209.708493
 30
0.0
 11
822.169584
 21
-92.664643
 31
0.0
  0
LINE
  5
1444
330
1611
100
AcDbEntity
  8
V0-OBRYS
  6
CONTINUOUS
 62
    90
100
AcDbLine
 10
702.169584
 20
-209.708493
 30
0.0
 11
702.169584
 21
-92.664643
 31
0.0
  0
LINE
  5
1445
330
1611
100
AcDbEntity
  8
V0-OBRYS
  6
CONTINUOUS
 62
    90
100
AcDbLine
 10
692.169584
 20
-92.664643
 30
0.0
 11
692.169584
 21
-201.524989
 31
0.0
  0
LINE
  5
1446
330
1611
100
AcDbEntity
  8
V0-OBRYS
  6
CONTINUOUS
 62
    90
100
AcDbLine
 10
677.169584
 20
-258.166006
 30
0.0
 11
677.169584
 21
-92.66464300000001
 31
0.0
  0
LINE
  5
1447
330
1611
100
AcDbEntity
  8
V0-OBRYS
  6
CONTINUOUS
 62
    90
100
AcDbLine
 10
710.899418
 20
-226.166006
 30
0.0
 11
813.439751
 21
-226.166006
 31
0.0
  0
POINT
  5
1448
330
1611
100
AcDbEntity
  8
V0-VYPLNE
  6
CONTINUOUS
 62
    41
100
AcDbPoint
 10
762.169584
 20
-276.166006
 30
0.0
  0
ARC
  5
1449
330
1611
100
AcDbEntity
  8
V0-OBRYS
  6
CONTINUOUS
 62
    90
100
AcDbCircle
 10
672.169584
 20
-236.166006
 30
0.0
 40
40.0
100
AcDbArc
 50
326.632987
 51
59.99999999999999
  0
LINE
  5
144A
330
1611
100
AcDbEntity
  8
V0-VYPLNE
  6
CONTINUOUS
 62
    52
100
AcDbLine
 10
847.169584
 20
-92.664643
 30
0.0
 11
847.169584
 21
-258.166006
 31
0.0
  0
LINE
  5
144B
330
1611
100
AcDbEntity
  8
V0-OBRYS
  6
CONTINUOUS
 62
    90
100
AcDbLine
 10
832.169584
 20
-92.664643
 30
0.0
 11
832.169584
 21
-201.524989
 31
0.0
  0
LINE
  5
144C
330
1611
100
AcDbEntity
  8
V0-OBRYS
  6
CONTINUOUS
 62
    90
100
AcDbLine
 10
867.169584
 20
-258.166006
 30
0.0
 11
901.855499
 21
-92.66464300000001
 31
0.0
  0
LINE
  5
144D
330
1611
100
AcDbEntity
  8
V0-OBRYS
  6
CONTINUOUS
 62
    90
100
AcDbLine
 10
847.169584
 20
-258.166006
 30
0.0
 11
847.169584
 21
-92.66464300000001
 31
0.0
  0
LINE
  5
144E
330
1611
100
AcDbEntity
  8
V0-OBRYS
  6
CONTINUOUS
 62
    90
100
AcDbLine
 10
852.169584
 20
-256.166006
 30
0.0
 11
852.169584
 21
-276.166006
 31
0.0
  0
LINE
  5
144F
330
1611
100
AcDbEntity
  8
V0-OBRYS
  6
CONTINUOUS
 62
    90
100
AcDbLine
 10
852.169584
 20
-276.166006
 30
0.0
 11
852.169584
 21
-296.166006
 31
0.0
  0
LINE
  5
1450
330
1611
100
AcDbEntity
  8
V0-VYPLNE
100
AcDbLine
 10
884.669584
 20
-286.166006
 30
0.0
 11
884.669584
 21
-236.166006
 31
0.0
  0
LINE
  5
1451
330
1611
100
AcDbEntity
  8
V0-OBRYS
  6
CONTINUOUS
 62
    90
100
AcDbLine
 10
897.169584
 20
-258.166006
 30
0.0
 11
897.169584
 21
-261.166006
 31
0.0
  0
LINE
  5
1452
330
1611
100
AcDbEntity
  8
V0-OBRYS
  6
CONTINUOUS
 62
    90
100
AcDbLine
 10
912.169584
 20
-276.166006
 30
0.0
 11
912.169584
 21
-261.166006
 31
0.0
  0
ARC
  5
1453
330
1611
100
AcDbEntity
  8
V0-OBRYS
  6
CONTINUOUS
 62
    90
100
AcDbCircle
 10
762.169584
 20
-276.166006
 30
0.0
 40
277.0
100
AcDbArc
 50
41.487741
 51
45.576167
  0
LINE
  5
1454
330
1611
100
AcDbEntity
  8
V0-OBRYS
  6
CONTINUOUS
 62
    90
100
AcDbLine
 10
950.033374
 20
-72.60717699999999
 30
0.0
 11
950.033374
 21
-78.296768
 31
0.0
  0
LINE
  5
1456
330
1611
100
AcDbEntity
  8
V0-OBRYS
  6
CONTINUOUS
 62
    90
100
AcDbLine
 10
116.141239
 20
-256.166006
 30
0.0
 11
116.141239
 21
-276.166006
 31
0.0
  0
INSERT
  5
145C
330
1611
100
AcDbEntity
  8
V0-VYPLNE
  6
CONTINUOUS
 62
    52
100
AcDbBlockReference
  2
A10_100
 10
1091.344077
 20
-456.786598
 30
0.0
  0
DIMENSION
  5
1469
330
1611
100
AcDbEntity
  8
V0-VYPLNE
  6
CONTINUOUS
 62
    41
100
AcDbDimension
  2
*D5
 10
296.141239
 20
-316.0558190000011
 30
0.0
 11
206.141239
 21
-309.5558190000011
 31
0.0
 70
    32
  1
%%c<>
  3
ED10
100
AcDbAlignedDimension
 13
116.141239
 23
-276.166006
 33
0.0
 14
296.141239
 24
-276.166006
 34
0.0
100
AcDbRotatedDimension
1001
ACAD
1000
DSTYLE
1002
{
1070
    40
1040
1.0
1002
}
  0
DIMENSION
  5
1476
330
1611
100
AcDbEntity
  8
V0-VYPLNE
  6
CONTINUOUS
 62
    41
100
AcDbDimension
  2
*D6
 10
328.641239
 20
-349.3867929999979
 30
0.0
 11
206.141239
 21
-342.8867929999979
 31
0.0
 70
    32
  3
ED10
100
AcDbAlignedDimension
 13
83.641239
 23
-276.166006
 33
0.0
 14
328.641239
 24
-276.166006
 34
0.0
100
AcDbRotatedDimension
1001
ACAD
1000
DSTYLE
1002
{
1070
    40
1040
1.0
1002
}
  0
DIMENSION
  5
1483
330
1611
100
AcDbEntity
  8
V0-VYPLNE
  6
CONTINUOUS
 62
    41
100
AcDbDimension
  2
*D7
 10
356.141239
 20
-382.7177679999732
 30
0.0
 11
206.141239
 21
-376.2177679999732
 31
0.0
 70
    32
  3
ED10
100
AcDbAlignedDimension
 13
56.141239
 23
-276.166006
 33
0.0
 14
356.141239
 24
-276.166006
 34
0.0
100
AcDbRotatedDimension
1001
ACAD
1000
DSTYLE
1002
{
1070
    40
1040
1.0
1002
}
  0
DIMENSION
  5
1490
330
1611
100
AcDbEntity
  8
V0-VYPLNE
  6
CONTINUOUS
 62
    41
100
AcDbDimension
  2
*D8
 10
455.6183350000005
 20
0.8339939999999847
 30
0.0
 11
449.1183350000005
 21
-137.666006
 31
0.0
 70
    32
  3
ED10
100
AcDbAlignedDimension
 13
356.141239
 23
-276.166006
 33
0.0
 14
206.141239
 24
0.833994
 34
0.0
 50
90.0
100
AcDbRotatedDimension
1001
ACAD
1000
DSTYLE
1002
{
1070
    40
1040
1.0
1002
}
  0
LINE
  5
14A6
330
1611
100
AcDbEntity
  8
V0-VYPLNE
  6
CONTINUOUS
 62
    41
100
AcDbLine
 10
169.128239
 20
-379.006444
 30
0.0
 11
179.589412
 21
-360.357616
 31
0.0
  0
LWPOLYLINE
  5
14A7
330
1611
100
AcDbEntity
  8
V0-VYPLNE
  6
CONTINUOUS
 62
    41
100
AcDbPolyline
 90
        4
 70
     1
 43
0.0
 10
169.206224
 20
-375.210449
 10
180.331062
 20
-375.210449
 10
180.331062
 20
-364.095856
 10
169.206224
 20
-364.095856
  0
LWPOLYLINE
  5
14A8
330
1611
100
AcDbEntity
  8
V0-VYPLNE
  6
CONTINUOUS
 62
    41
100
AcDbPolyline
 90
        4
 70
     1
 43
0.0
 10
169.206224
 20
-343.159068
 10
180.331062
 20
-343.159068
 10
180.331062
 20
-332.044475
 10
169.206224
 20
-332.044475
  0
LINE
  5
14A9
330
1611
100
AcDbEntity
  8
V0-VYPLNE
  6
CONTINUOUS
 62
    41
100
AcDbLine
 10
169.128239
 20
-346.955063
 30
0.0
 11
179.589412
 21
-328.306235
 31
0.0
  0
DIMENSION
  5
14E2
330
1611
100
AcDbEntity
  8
V0-VYPLNE
  6
CONTINUOUS
 62
    41
100
AcDbDimension
  2
*D9
 10
413.641239
 20
25.73198200000115
 30
0.0
 11
206.141239
 21
32.23198200000115
 31
0.0
 70
    32
  1
%%c<>
  3
ED10
100
AcDbAlignedDimension
 13
-1.358761
 23
-92.664643
 33
0.0
 14
413.641239
 24
-92.664643
 34
0.0
100
AcDbRotatedDimension
1001
ACAD
1000
DSTYLE
1002
{
1070
    40
1040
1.0
1002
}
  0
TEXT
  5
15E1
330
1611
100
AcDbEntity
  8
V0-NAZVY
  6
CONTINUOUS
100
AcDbText
 10
546.525985125
 20
-647.97522785
 30
0.0
 40
40.0
  1
CTHB/CTHT 140
  7
ED40
100
AcDbText
  0
LWPOLYLINE
  5
15E5
330
1611
100
AcDbEntity
  8
V0-VYPLNE
  6
CONTINUOUS
 62
    41
100
AcDbPolyline
 90
        4
 70
     1
 43
0.0
 10
77.24855475612901
 20
-244.3680500586961
 10
83.641239
 20
-258.166006
 10
73.11909251807754
 20
-247.187188512995
 10
73.11909251807754
 20
-247.187188512995
1001
VDEXTRAPARAM
1071
       65
1071
        0
1071
        0
1040
1.0
1000

1000

1040
0.0
1040
0.0
  0
HATCH
  5
1680
330
1611
100
AcDbEntity
  8
V0-VYPLNE
  6
CONTINUOUS
 62
    41
100
AcDbHatch
 10
0.0
 20
0.0
 30
0.0
210
0.0
220
0.0
230
1.0
  2
SOLID
 70
     1
 71
     0
 91
        1
 92
        2
 72
     0
 73
     1
 93
        3
 10
77.24855475612901
 20
-244.3680500586961
 10
83.641239
 20
-258.166006
 10
73.11909251807754
 20
-247.187188512995
 97
        0
 75
     0
 76
     1
 98
        1
 10
0.0
 20
0.0
1001
VDEXTRAPARAM
1071
       65
1071
        0
1071
        0
1040
1.0
1000

1000

1040
0.0
1040
0.0
1001
VD_TEMPHATCH
1000
VD_TEMPHATCH
  0
LWPOLYLINE
  5
15E6
330
1611
100
AcDbEntity
  8
V0-VYPLNE
  6
CONTINUOUS
 62
    41
100
AcDbPolyline
 90
        3
 70
     0
 43
0.0
 10
75.18382363710327
 20
-245.7776192858455
 10
63.207441
 20
-228.234664
 10
-129.308307
 20
-228.234664
  0
TEXT
  5
15EB
330
1611
100
AcDbEntity
  8
V0-VYPLNE
  6
CONTINUOUS
 62
    41
100
AcDbText
 10
-194.244939952381
 20
-226.734664
 30
0.0
 40
20.0
  1
4 OTVORY %%c 10
  7
ED40
100
AcDbText
  0
VIEWPORT
  5
1681
330
160D
100
AcDbEntity
 67
     1
  8
0
 60
     1
100
AcDbViewport
 10
261.517699
 20
148.5
 30
0.0
 40
297.0
 41
297.0
 68
     0
 69
     1
1001
VD_INVISIBLE_NOT_FOR_READ
1000
VD_INVISIBLE_NOT_FOR_READ
1001
ACAD
1000
MVIEW
1002
{
1070
    16
1010
0.0
1020
0.0
1030
0.0
1010
0.0
1020
0.0
1030
1.0
1040
6.2831853071796
1040
297.0
1040
261.517699
1040
148.5
1040
0.0
1040
0.0
1040
0.0
1070
     0
1070
   100
1070
     0
1070
     1
1070
     0
1070
     0
1070
     0
1070
     0
1040
0.0
1040
0.0
1040
0.0
1040
1.0
1040
1.0
1040
0.0
1040
0.0
1070
     0
1002
{
1002
}
1002
}
  0
VIEWPORT
  5
1682
330
160D
100
AcDbEntity
 67
     1
  8
0
 60
     1
100
AcDbViewport
 10
261.517699
 20
148.5
 30
0.0
 40
297.0
 41
297.0
 68
     0
 69
     2
1001
VD_INVISIBLE_NOT_FOR_READ
1000
VD_INVISIBLE_NOT_FOR_READ
1001
ACAD
1000
MVIEW
1002
{
1070
    16
1010
0.0
1020
0.0
1030
0.0
1010
0.0
1020
0.0
1030
1.0
1040
6.2831853071796
1040
297.0
1040
261.517699
1040
148.5
1040
0.0
1040
0.0
1040
0.0
1070
     0
1070
   100
1070
     0
1070
     1
1070
     0
1070
     0
1070
     0
1070
     0
1040
0.0
1040
0.0
1040
0.0
1040
1.0
1040
1.0
1040
0.0
1040
0.0
1070
     0
1002
{
1002
}
1002
}
  0
ENDSEC
  0
SECTION
  2
OBJECTS
  0
DICTIONARY
  5
15FE
330
0
100
AcDbDictionary
  3
ACAD_GROUP
350
15FF
  3
ACAD_LAYOUT
350
160C
  3
ACAD_MLINESTYLE
350
1609
  3
ACAD_PLOTSETTINGS
350
160B
  3
ACDBHEADERROUNDTRIPXREC
350
1683
  3
VECTORDRAW_OBJECTS
350
1621
  0
DICTIONARY
  5
16A3
330
161B
100
AcDbDictionary
280
     1
  3
ACAD_XREC_ROUNDTRIP
360
16A4
  0
DICTIONARY
  5
15FF
102
{ACAD_REACTORS
330
15FE
102
}
330
15FE
100
AcDbDictionary
  0
DICTIONARY
  5
160C
102
{ACAD_REACTORS
330
15FE
102
}
330
15FE
100
AcDbDictionary
  0
DICTIONARY
  5
1609
102
{ACAD_REACTORS
330
15FE
102
}
330
15FE
100
AcDbDictionary
  3
STANDARD
350
160A
  0
DICTIONARY
  5
160B
102
{ACAD_REACTORS
330
15FE
102
}
330
15FE
100
AcDbDictionary
  0
DICTIONARY
  5
1683
102
{ACAD_REACTORS
330
15FE
102
}
330
15FE
100
AcDbDictionary
  3
CEPSNTYPE
350
168C
  3
DIMSTYLEDATA
350
16A2
  3
FINGERPRINTGUID
350
168D
  3
HYPERLINKBASE
350
1686
  3
INSUNITS
350
168B
  3
LAYOUTDICT
350
1688
  3
LWETCUNION
350
168A
  3
PLOTSETDICT
350
1689
  3
PSVPSCALE
350
168F
  3
PUCSBASE
350
1692
  3
PUCSORGBACK
350
1698
  3
PUCSORGBOTTOM
350
1694
  3
PUCSORGFRONT
350
1697
  3
PUCSORGLEFT
350
1695
  3
PUCSORGRIGHT
350
1696
  3
PUCSORGTOP
350
1693
  3
PUCSORTHOREF
350
1690
  3
PUCSORTHOVIEW
350
1691
  3
STYLESHEET
350
1687
  3
TSTACKALIGN
350
1684
  3
TSTACKSIZE
350
1685
  3
UCSBASE
350
169B
  3
UCSORGBACK
350
16A1
  3
UCSORGBOTTOM
350
169D
  3
UCSORGFRONT
350
16A0
  3
UCSORGLEFT
350
169E
  3
UCSORGRIGHT
350
169F
  3
UCSORGTOP
350
169C
  3
UCSORTHOREF
350
1699
  3
UCSORTHOVIEW
350
169A
  3
VERSIONGUID
350
168E
  0
DICTIONARY
  5
1621
102
{ACAD_REACTORS
330
15FE
102
}
330
15FE
100
AcDbDictionary
  3
SERIALNO
350
1622
  0
XRECORD
  5
16A4
102
{ACAD_REACTORS
330
16A3
102
}
330
16A3
100
AcDbXrecord
102
UCS
 74
     0
 71
     1
 10
0.0
 20
0.0
 30
0.0
 10
1.0
 20
0.0
 30
0.0
 10
0.0
 20
1.0
 30
0.0
146
0.0
 79
     0
102
VIEW
281
     0
  0
MLINESTYLE
  5
160A
102
{ACAD_REACTORS
330
1609
102
}
330
1609
100
AcDbMlineStyle
  2
Standard
 70
     0
  3

 62
   256
 51
90.0
 52
90.0
 71
     2
 49
0.5
 62
   256
  6
BYLAYER
 49
-0.5
 62
   256
  6
BYLAYER
  0
XRECORD
  5
168C
102
{ACAD_REACTORS
330
1683
102
}
330
1683
100
AcDbXrecord
 90
        0
  0
XRECORD
  5
16A2
102
{ACAD_REACTORS
330
1683
102
}
330
1683
100
AcDbXrecord
1000
DSTYLE
1002
{
1070
    41
 40
15.0
1070
   342
340
90
1070
   271
 70
     0
1070
    44
 40
1.25
1070
    42
 40
1.0
1070
   147
 40
1.5
1070
    77
 70
     1
1070
    73
 70
     0
1070
   174
 70
     1
1070
   172
 70
     1
1070
    74
 70
     0
1070
   340
340
331
1070
   140
 40
10.0
1070
   288
 70
     1
1002
}
  0
XRECORD
  5
168D
102
{ACAD_REACTORS
330
1683
102
}
330
1683
100
AcDbXrecord
  1
{FAEB1C30-E019-11D5-929B-00C0DF256EC4}
  0
XRECORD
  5
1686
102
{ACAD_REACTORS
330
1683
102
}
330
1683
100
AcDbXrecord
  1

  0
XRECORD
  5
168B
102
{ACAD_REACTORS
330
1683
102
}
330
1683
100
AcDbXrecord
 90
        1
  0
XRECORD
  5
1688
102
{ACAD_REACTORS
330
1683
102
}
330
1683
100
AcDbXrecord
340
160C
  0
XRECORD
  5
168A
102
{ACAD_REACTORS
330
1683
102
}
330
1683
100
AcDbXrecord
 90
     2560
  0
XRECORD
  5
1689
102
{ACAD_REACTORS
330
1683
102
}
330
1683
100
AcDbXrecord
340
160B
  0
XRECORD
  5
168F
102
{ACAD_REACTORS
330
1683
102
}
330
1683
100
AcDbXrecord
 40
0.0
  0
XRECORD
  5
1692
102
{ACAD_REACTORS
330
1683
102
}
330
1683
100
AcDbXrecord
340
0
  0
XRECORD
  5
1698
102
{ACAD_REACTORS
330
1683
102
}
330
1683
100
AcDbXrecord
 10
0.0
 20
0.0
 30
0.0
  0
XRECORD
  5
1694
102
{ACAD_REACTORS
330
1683
102
}
330
1683
100
AcDbXrecord
 10
0.0
 20
0.0
 30
0.0
  0
XRECORD
  5
1697
102
{ACAD_REACTORS
330
1683
102
}
330
1683
100
AcDbXrecord
 10
0.0
 20
0.0
 30
0.0
  0
XRECORD
  5
1695
102
{ACAD_REACTORS
330
1683
102
}
330
1683
100
AcDbXrecord
 10
0.0
 20
0.0
 30
0.0
  0
XRECORD
  5
1696
102
{ACAD_REACTORS
330
1683
102
}
330
1683
100
AcDbXrecord
 10
0.0
 20
0.0
 30
0.0
  0
XRECORD
  5
1693
102
{ACAD_REACTORS
330
1683
102
}
330
1683
100
AcDbXrecord
 10
0.0
 20
0.0
 30
0.0
  0
XRECORD
  5
1690
102
{ACAD_REACTORS
330
1683
102
}
330
1683
100
AcDbXrecord
340
0
  0
XRECORD
  5
1691
102
{ACAD_REACTORS
330
1683
102
}
330
1683
100
AcDbXrecord
 70
     0
  0
XRECORD
  5
1687
102
{ACAD_REACTORS
330
1683
102
}
330
1683
100
AcDbXrecord
  1

  0
XRECORD
  5
1684
102
{ACAD_REACTORS
330
1683
102
}
330
1683
100
AcDbXrecord
 90
        1
  0
XRECORD
  5
1685
102
{ACAD_REACTORS
330
1683
102
}
330
1683
100
AcDbXrecord
 90
       70
  0
XRECORD
  5
169B
102
{ACAD_REACTORS
330
1683
102
}
330
1683
100
AcDbXrecord
340
0
  0
XRECORD
  5
16A1
102
{ACAD_REACTORS
330
1683
102
}
330
1683
100
AcDbXrecord
 10
0.0
 20
0.0
 30
0.0
  0
XRECORD
  5
169D
102
{ACAD_REACTORS
330
1683
102
}
330
1683
100
AcDbXrecord
 10
0.0
 20
0.0
 30
0.0
  0
XRECORD
  5
16A0
102
{ACAD_REACTORS
330
1683
102
}
330
1683
100
AcDbXrecord
 10
0.0
 20
0.0
 30
0.0
  0
XRECORD
  5
169E
102
{ACAD_REACTORS
330
1683
102
}
330
1683
100
AcDbXrecord
 10
0.0
 20
0.0
 30
0.0
  0
XRECORD
  5
169F
102
{ACAD_REACTORS
330
1683
102
}
330
1683
100
AcDbXrecord
 10
0.0
 20
0.0
 30
0.0
  0
XRECORD
  5
169C
102
{ACAD_REACTORS
330
1683
102
}
330
1683
100
AcDbXrecord
 10
0.0
 20
0.0
 30
0.0
  0
XRECORD
  5
1699
102
{ACAD_REACTORS
330
1683
102
}
330
1683
100
AcDbXrecord
340
0
  0
XRECORD
  5
169A
102
{ACAD_REACTORS
330
1683
102
}
330
1683
100
AcDbXrecord
 70
     0
  0
XRECORD
  5
168E
102
{ACAD_REACTORS
330
1683
102
}
330
1683
100
AcDbXrecord
  1
{FAEB1C32-E019-11D5-929B-00C0DF256EC4}
  0
XRECORD
  5
1622
102
{ACAD_REACTORS
330
1621
102
}
330
1621
100
AcDbXrecord
1000
rInJVR9YY4Q8hfPWdUq5j5319
1070
     4
1070
     6
  0
ENDSEC
  0
EOF
