  0
SECTION
  2
HEADER
  9
$ACADVER
  1
AC1014
  9
$ACADMAINTVER
 70
     0
  9
$DWGCODEPAGE
  3
ANSI_1250
  9
$INSBASE
 10
0.0
 20
0.0
 30
0.0
  9
$EXTMIN
 10
52.97897
 20
-624.59932
 30
0.0
  9
$EXTMAX
 10
787.505136
 20
231.423179
 30
0.0
  9
$LIMMIN
 10
0.0
 20
0.0
  9
$LIMMAX
 10
420.0
 20
297.0
  9
$ORTHOMODE
 70
     0
  9
$REGENMODE
 70
     1
  9
$FILLMODE
 70
     1
  9
$QTEXTMODE
 70
     0
  9
$MIRRTEXT
 70
     1
  9
$DRAGMODE
 70
     2
  9
$LTSCALE
 40
1.0
  9
$OSMODE
 70
    15
  9
$ATTMODE
 70
     1
  9
$TEXTSIZE
 40
25.0
  9
$TRACEWID
 40
1.0
  9
$TEXTSTYLE
  7
ED
  9
$CLAYER
  8
V0-VYPLNE
  9
$CELTYPE
  6
CONTINUOUS
  9
$CECOLOR
 62
    41
  9
$CELTSCALE
 40
3.0
  9
$DELOBJ
 70
     1
  9
$DISPSILH
 70
     0
  9
$DIMSCALE
 40
1.0
  9
$DIMASZ
 40
30.0
  9
$DIMEXO
 40
0.625
  9
$DIMDLI
 40
3.75
  9
$DIMRND
 40
0.0
  9
$DIMDLE
 40
0.0
  9
$DIMEXE
 40
1.25
  9
$DIMTP
 40
0.0
  9
$DIMTM
 40
0.0
  9
$DIMTXT
 40
30.0
  9
$DIMCEN
 40
50.0
  9
$DIMTSZ
 40
0.0
  9
$DIMTOL
 70
     0
  9
$DIMLIM
 70
     0
  9
$DIMTIH
 70
     0
  9
$DIMTOH
 70
     0
  9
$DIMSE1
 70
     0
  9
$DIMSE2
 70
     0
  9
$DIMTAD
 70
     1
  9
$DIMZIN
 70
     8
  9
$DIMBLK
  1

  9
$DIMASO
 70
     1
  9
$DIMSHO
 70
     1
  9
$DIMPOST
  1

  9
$DIMAPOST
  1

  9
$DIMALT
 70
     0
  9
$DIMALTD
 70
     4
  9
$DIMALTF
 40
0.0394
  9
$DIMLFAC
 40
1.0
  9
$DIMTOFL
 70
     1
  9
$DIMTVP
 40
0.0
  9
$DIMTIX
 70
     0
  9
$DIMSOXD
 70
     0
  9
$DIMSAH
 70
     1
  9
$DIMBLK1
  1
_OPEN
  9
$DIMBLK2
  1
_OPEN
  9
$DIMSTYLE
  2
ED20
  9
$DIMCLRD
 70
     0
  9
$DIMCLRE
 70
     0
  9
$DIMCLRT
 70
     0
  9
$DIMTFAC
 40
1.0
  9
$DIMGAP
 40
3.0
  9
$DIMJUST
 70
     0
  9
$DIMSD1
 70
     0
  9
$DIMSD2
 70
     0
  9
$DIMTOLJ
 70
     1
  9
$DIMTZIN
 70
     8
  9
$DIMALTZ
 70
     0
  9
$DIMALTTZ
 70
     0
  9
$DIMFIT
 70
     3
  9
$DIMUPT
 70
     0
  9
$DIMUNIT
 70
     2
  9
$DIMDEC
 70
     0
  9
$DIMTDEC
 70
     1
  9
$DIMALTU
 70
     8
  9
$DIMALTTD
 70
     4
  9
$DIMTXSTY
  7
ED
  9
$DIMAUNIT
 70
     0
  9
$LUNITS
 70
     2
  9
$LUPREC
 70
     4
  9
$SKETCHINC
 40
1.0
  9
$FILLETRAD
 40
5.0
  9
$AUNITS
 70
     0
  9
$AUPREC
 70
     0
  9
$MENU
  1
.
  9
$ELEVATION
 40
0.0
  9
$PELEVATION
 40
0.0
  9
$THICKNESS
 40
0.0
  9
$LIMCHECK
 70
     0
  9
$BLIPMODE
 70
     0
  9
$CHAMFERA
 40
10.0
  9
$CHAMFERB
 40
10.0
  9
$CHAMFERC
 40
20.0
  9
$CHAMFERD
 40
0.0
  9
$SKPOLY
 70
     1
  9
$TDCREATE
 40
2451196.643769328
  9
$TDUPDATE
 40
2453306.859773437
  9
$TDINDWG
 40
0.3592528819
  9
$TDUSRTIMER
 40
0.3592528819
  9
$USRTIMER
 70
     1
  9
$ANGBASE
 50
0.0
  9
$ANGDIR
 70
     0
  9
$PDMODE
 70
     3
  9
$PDSIZE
 40
15.0
  9
$PLINEWID
 40
0.0
  9
$COORDS
 70
     1
  9
$SPLFRAME
 70
     0
  9
$SPLINETYPE
 70
     6
  9
$SPLINESEGS
 70
     8
  9
$ATTDIA
 70
     0
  9
$ATTREQ
 70
     1
  9
$HANDLING
 70
     1
  9
$HANDSEED
  5
4F1
  9
$SURFTAB1
 70
     6
  9
$SURFTAB2
 70
     6
  9
$SURFTYPE
 70
     6
  9
$SURFU
 70
     6
  9
$SURFV
 70
     6
  9
$UCSNAME
  2

  9
$UCSORG
 10
714.2644724051949
 20
-1.205727925487281
 30
0.0
  9
$UCSXDIR
 10
1.0
 20
0.0
 30
0.0
  9
$UCSYDIR
 10
0.0
 20
1.0
 30
0.0
  9
$PUCSNAME
  2

  9
$PUCSORG
 10
0.0
 20
0.0
 30
0.0
  9
$PUCSXDIR
 10
1.0
 20
0.0
 30
0.0
  9
$PUCSYDIR
 10
0.0
 20
1.0
 30
0.0
  9
$USERI1
 70
     0
  9
$USERI2
 70
     0
  9
$USERI3
 70
     0
  9
$USERI4
 70
     0
  9
$USERI5
 70
     0
  9
$USERR1
 40
0.0
  9
$USERR2
 40
0.0
  9
$USERR3
 40
0.0
  9
$USERR4
 40
0.0
  9
$USERR5
 40
0.0
  9
$WORLDVIEW
 70
     1
  9
$SHADEDGE
 70
     3
  9
$SHADEDIF
 70
    70
  9
$TILEMODE
 70
     1
  9
$MAXACTVP
 70
    48
  9
$PINSBASE
 10
0.0
 20
0.0
 30
0.0
  9
$PLIMCHECK
 70
     0
  9
$PEXTMIN
 10
1.000000E+20
 20
1.000000E+20
 30
1.000000E+20
  9
$PEXTMAX
 10
-1.000000E+20
 20
-1.000000E+20
 30
-1.000000E+20
  9
$PLIMMIN
 10
0.0
 20
0.0
  9
$PLIMMAX
 10
420.0
 20
297.0
  9
$UNITMODE
 70
     0
  9
$VISRETAIN
 70
     1
  9
$PLINEGEN
 70
     0
  9
$PSLTSCALE
 70
     0
  9
$TREEDEPTH
 70
  3020
  9
$PICKSTYLE
 70
     1
  9
$CMLSTYLE
  2
STANDARD
  9
$CMLJUST
 70
     0
  9
$CMLSCALE
 40
1.0
  9
$PROXYGRAPHICS
 70
     1
  9
$MEASUREMENT
 70
     0
  0
ENDSEC
  0
SECTION
  2
CLASSES
  0
CLASS
  1
DICTIONARYVAR
  2
AcDbDictionaryVar
  3
"AutoCAD"
 90
        0
280
     0
281
     0
  0
CLASS
  1
LWPOLYLINE
  2
AcDbPolyline
  3
"AutoCAD"
 90
        0
280
     0
281
     1
  0
CLASS
  1
HATCH
  2
AcDbHatch
  3
"ACAD_SEDONA"
 90
        0
280
     0
281
     1
  0
ENDSEC
  0
SECTION
  2
TABLES
  0
TABLE
  2
VPORT
  5
12
100
AcDbSymbolTable
 70
     2
  0
VPORT
  5
4F0
100
AcDbSymbolTableRecord
100
AcDbViewportTableRecord
  2
*ACTIVE
 70
     0
 10
0.0
 20
0.0
 11
1.0
 21
1.0
 12
426.628232
 22
-103.958256
 13
0.0
 23
0.0
 14
10.0
 24
10.0
 15
10.0
 25
10.0
 16
0.0
 26
0.0
 36
1.0
 17
0.0
 27
0.0
 37
0.0
 40
957.874662
 41
1.650104
 42
50.0
 43
0.0
 44
0.0
 50
0.0
 51
0.0
 71
     0
 72
   100
 73
     1
 74
     1
 75
     0
 76
     0
 77
     0
 78
     0
  0
ENDTAB
  0
TABLE
  2
LTYPE
  5
D
100
AcDbSymbolTable
 70
     2
  0
LTYPE
  5
E
100
AcDbSymbolTableRecord
100
AcDbLinetypeTableRecord
  2
BYBLOCK
 70
     0
  3

 72
    65
 73
     0
 40
0.0
  0
LTYPE
  5
F
100
AcDbSymbolTableRecord
100
AcDbLinetypeTableRecord
  2
BYLAYER
 70
     0
  3

 72
    65
 73
     0
 40
0.0
  0
LTYPE
  5
5
100
AcDbSymbolTableRecord
100
AcDbLinetypeTableRecord
  2
CONTINUOUS
 70
     0
  3
Solid line
 72
    65
 73
     0
 40
0.0
  0
LTYPE
  5
2E
100
AcDbSymbolTableRecord
100
AcDbLinetypeTableRecord
  2
DASHDOT
 70
     0
  3
Dash dot __ . __ . __ . __ . __ . __ . __ . __
 72
    65
 73
     4
 40
25.4
 49
12.7
 74
     0
 49
-6.35
 74
     0
 49
0.0
 74
     0
 49
-6.35
 74
     0
  0
ENDTAB
  0
TABLE
  2
LAYER
  5
A
100
AcDbSymbolTable
 70
     6
  0
LAYER
  5
4
100
AcDbSymbolTableRecord
100
AcDbLayerTableRecord
  2
0
 70
     0
 62
     7
  6
CONTINUOUS
  0
LAYER
  5
27
100
AcDbSymbolTableRecord
100
AcDbLayerTableRecord
  2
V0-OBRYS
 70
     0
 62
    90
  6
CONTINUOUS
  0
LAYER
  5
2D
100
AcDbSymbolTableRecord
100
AcDbLayerTableRecord
  2
V0-VYPLNE
 70
     0
 62
    52
  6
CONTINUOUS
  0
LAYER
  5
31
100
AcDbSymbolTableRecord
100
AcDbLayerTableRecord
  2
V0-NAZVY
 70
     0
 62
   210
  6
CONTINUOUS
  0
LAYER
  5
1B
100
AcDbSymbolTableRecord
100
AcDbLayerTableRecord
  2
V0-ZBYTEK
 70
     0
 62
    51
  6
CONTINUOUS
  0
LAYER
  5
193
100
AcDbSymbolTableRecord
100
AcDbLayerTableRecord
  2
DEFPOINTS
 70
     0
 62
     7
  6
CONTINUOUS
  0
ENDTAB
  0
TABLE
  2
STYLE
  5
B
100
AcDbSymbolTable
 70
     4
  0
STYLE
  5
C
100
AcDbSymbolTableRecord
100
AcDbTextStyleTableRecord
  2
STANDARD
 70
     0
 40
0.0
 41
1.0
 50
0.0
 71
     0
 42
2.5
  3
ISOCP
  4

  0
STYLE
  5
1F
100
AcDbSymbolTableRecord
100
AcDbTextStyleTableRecord
  2
ED
 70
     0
 40
20.0
 41
1.0
 50
0.0
 71
     0
 42
2.5
  3
ISOCP.shx
  4

  0
STYLE
  5
1C
100
AcDbSymbolTableRecord
100
AcDbTextStyleTableRecord
  2
ED40
 70
     0
 40
50.0
 41
1.0
 50
0.0
 71
     0
 42
25.0
  3
ISOCP.shx
  4

  0
STYLE
  5
31F
100
AcDbSymbolTableRecord
100
AcDbTextStyleTableRecord
  2
ED10
 70
     0
 40
10.0
 41
1.0
 50
0.0
 71
     0
 42
10.0
  3
ISOCP.shx
  4

  0
ENDTAB
  0
TABLE
  2
VIEW
  5
10
100
AcDbSymbolTable
 70
     0
  0
ENDTAB
  0
TABLE
  2
UCS
  5
11
100
AcDbSymbolTable
 70
     0
  0
ENDTAB
  0
TABLE
  2
APPID
  5
14
100
AcDbSymbolTable
 70
     3
  0
APPID
  5
15
100
AcDbSymbolTableRecord
100
AcDbRegAppTableRecord
  2
ACAD
 70
     0
  0
APPID
  5
3C3
100
AcDbSymbolTableRecord
100
AcDbRegAppTableRecord
  2
CONTENTBLOCKICON
 70
     0
  0
APPID
  5
3C4
100
AcDbSymbolTableRecord
100
AcDbRegAppTableRecord
  2
CONTENTBLOCKDESCRIPTION
 70
     0
  0
ENDTAB
  0
TABLE
  2
DIMSTYLE
  5
16
100
AcDbSymbolTable
 70
     3
  0
DIMSTYLE
105
1E
100
AcDbSymbolTableRecord
100
AcDbDimStyleTableRecord
  2
ED40
 70
     0
  3

  4

  5

  6
_OPEN
  7
_OPEN
 40
1.0
 41
50.0
 42
0.625
 43
3.75
 44
1.25
 45
0.0
 46
0.0
 47
0.0
 48
0.0
140
50.0
141
50.0
142
0.0
143
0.0394
144
1.0
145
0.0
146
1.0
147
3.0
 71
     0
 72
     0
 73
     0
 74
     0
 75
     0
 76
     0
 77
     1
 78
     8
170
     0
171
     4
172
     1
173
     1
174
     0
175
     0
176
     0
177
     0
178
     0
270
     2
271
     0
272
     1
273
     8
274
     4
340
1F
275
     0
280
     0
281
     0
282
     0
283
     1
284
     8
285
     0
286
     0
287
     3
288
     0
  0
DIMSTYLE
105
284
102
{ACAD_REACTORS
330
2AB
330
2B8
330
2C4
330
2D1
330
307
330
349
102
}
100
AcDbSymbolTableRecord
100
AcDbDimStyleTableRecord
  2
ED20
 70
     0
  3

  4

  5

  6
_OPEN
  7
_OPEN
 40
1.0
 41
50.0
 42
0.625
 43
3.75
 44
1.25
 45
0.0
 46
0.0
 47
0.0
 48
0.0
140
50.0
141
50.0
142
0.0
143
0.0394
144
1.0
145
0.0
146
1.0
147
3.0
 71
     0
 72
     0
 73
     0
 74
     0
 75
     0
 76
     0
 77
     1
 78
     8
170
     0
171
     4
172
     1
173
     1
174
     0
175
     0
176
     0
177
     0
178
     0
270
     2
271
     0
272
     1
273
     8
274
     4
340
1C
275
     0
280
     0
281
     0
282
     0
283
     1
284
     8
285
     0
286
     0
287
     3
288
     0
  0
DIMSTYLE
105
320
100
AcDbSymbolTableRecord
100
AcDbDimStyleTableRecord
  2
ED10
 70
     0
  3

  4

  5

  6
_OPEN
  7
_OPEN
 40
1.0
 41
10.0
 42
1.0
 43
3.75
 44
1.25
 45
0.0
 46
0.0
 47
0.0
 48
0.0
140
10.0
141
2.0
142
0.0
143
0.0394
144
1.0
145
0.0
146
1.0
147
1.5
 71
     0
 72
     0
 73
     0
 74
     0
 75
     0
 76
     0
 77
     1
 78
     8
170
     0
171
     4
172
     1
173
     1
174
     0
175
     0
176
     0
177
     0
178
     0
270
     2
271
     0
272
     1
273
     8
274
     4
340
31F
275
     0
280
     0
281
     0
282
     0
283
     1
284
     8
285
     0
286
     0
287
     3
288
     0
  0
ENDTAB
  0
TABLE
  2
BLOCK_RECORD
  5
1
100
AcDbSymbolTable
 70
     7
  0
BLOCK_RECORD
  5
2
100
AcDbSymbolTableRecord
100
AcDbBlockTableRecord
  2
*MODEL_SPACE
  0
BLOCK_RECORD
  5
7
100
AcDbSymbolTableRecord
100
AcDbBlockTableRecord
  2
*PAPER_SPACE
  0
BLOCK_RECORD
  5
20
100
AcDbSymbolTableRecord
100
AcDbBlockTableRecord
  2
_OPEN
  0
BLOCK_RECORD
  5
29F
100
AcDbSymbolTableRecord
100
AcDbBlockTableRecord
  2
*D1
  0
BLOCK_RECORD
  5
2AC
100
AcDbSymbolTableRecord
100
AcDbBlockTableRecord
  2
*D2
  0
BLOCK_RECORD
  5
2B9
100
AcDbSymbolTableRecord
100
AcDbBlockTableRecord
  2
*D3
  0
BLOCK_RECORD
  5
2C5
100
AcDbSymbolTableRecord
100
AcDbBlockTableRecord
  2
*D4
  0
BLOCK_RECORD
  5
2FB
100
AcDbSymbolTableRecord
100
AcDbBlockTableRecord
  2
*D5
  0
BLOCK_RECORD
  5
33D
100
AcDbSymbolTableRecord
100
AcDbBlockTableRecord
  2
*D6
  0
ENDTAB
  0
ENDSEC
  0
SECTION
  2
BLOCKS
  0
BLOCK
  5
3
100
AcDbEntity
  8
0
100
AcDbBlockBegin
  2
*MODEL_SPACE
 70
     0
 10
0.0
 20
0.0
 30
0.0
  3
*MODEL_SPACE
  1

  0
ENDBLK
  5
6
100
AcDbEntity
  8
0
100
AcDbBlockEnd
  0
BLOCK
  5
8
100
AcDbEntity
 67
     1
  8
0
100
AcDbBlockBegin
  2
*PAPER_SPACE
 70
     0
 10
0.0
 20
0.0
 30
0.0
  3
*PAPER_SPACE
  1

  0
ENDBLK
  5
9
100
AcDbEntity
 67
     1
  8
0
100
AcDbBlockEnd
  0
BLOCK
  5
24
100
AcDbEntity
  8
0
100
AcDbBlockBegin
  2
_OPEN
 70
     0
 10
0.0
 20
0.0
 30
0.0
  3
_OPEN
  1

  0
LINE
  5
21
100
AcDbEntity
  8
0
  6
BYBLOCK
 62
     0
100
AcDbLine
 10
-1.0
 20
0.166667
 30
0.0
 11
0.0
 21
0.0
 31
0.0
  0
LINE
  5
22
100
AcDbEntity
  8
0
  6
BYBLOCK
 62
     0
100
AcDbLine
 10
0.0
 20
0.0
 30
0.0
 11
-1.0
 21
-0.166667
 31
0.0
  0
LINE
  5
23
100
AcDbEntity
  8
0
  6
BYBLOCK
 62
     0
100
AcDbLine
 10
0.0
 20
0.0
 30
0.0
 11
-1.0
 21
0.0
 31
0.0
  0
ENDBLK
  5
25
100
AcDbEntity
  8
0
100
AcDbBlockEnd
  0
BLOCK
  5
2A0
100
AcDbEntity
  8
0
 48
3.0
100
AcDbBlockBegin
  2
*D1
 70
     1
 10
0.0
 20
0.0
 30
0.0
  3
*D1
  1

  0
LINE
  5
2A1
100
AcDbEntity
  8
0
  6
BYBLOCK
 62
     0
 48
3.0
100
AcDbLine
 10
263.592319
 20
152.206688
 30
0.0
 11
74.734876
 21
152.206688
 31
0.0
  0
LINE
  5
2A2
100
AcDbEntity
  8
0
  6
BYBLOCK
 62
     0
 48
3.0
100
AcDbLine
 10
109.219721
 20
-220.028615
 30
0.0
 11
74.734876
 21
-220.028615
 31
0.0
  0
LINE
  5
2A3
100
AcDbEntity
  8
0
  6
BYBLOCK
 62
     0
 48
3.0
100
AcDbLine
 10
75.984876
 20
122.206688
 30
0.0
 11
75.984876
 21
-190.028615
 31
0.0
  0
INSERT
  5
2A4
100
AcDbEntity
  8
0
  6
BYBLOCK
 62
     0
 48
3.0
100
AcDbBlockReference
  2
_OPEN
 10
75.984876
 20
152.206688
 30
0.0
 41
30.0
 42
30.0
 43
30.0
 50
90.0
  0
INSERT
  5
2A5
100
AcDbEntity
  8
0
  6
BYBLOCK
 62
     0
 48
3.0
100
AcDbBlockReference
  2
_OPEN
 10
75.984876
 20
-220.028615
 30
0.0
 41
30.0
 42
30.0
 43
30.0
 50
270.0
  0
MTEXT
  5
2A6
100
AcDbEntity
  8
0
  6
BYBLOCK
 62
     0
 48
3.0
100
AcDbMText
 10
62.982907
 20
-33.910964
 30
0.0
 40
20.0
 41
0.0
 71
     5
 72
     1
  1
\A1;372
  7
ED
 11
0.0
 21
1.0
 31
0.0
  0
POINT
  5
2A7
100
AcDbEntity
  8
DEFPOINTS
  6
BYBLOCK
 62
     0
 48
3.0
100
AcDbPoint
 10
264.217319
 20
152.206688
 30
0.0
  0
POINT
  5
2A8
100
AcDbEntity
  8
DEFPOINTS
  6
BYBLOCK
 62
     0
 48
3.0
100
AcDbPoint
 10
109.844721
 20
-220.028615
 30
0.0
  0
POINT
  5
2A9
100
AcDbEntity
  8
DEFPOINTS
  6
BYBLOCK
 62
     0
 48
3.0
100
AcDbPoint
 10
75.984876
 20
-220.028615
 30
0.0
  0
ENDBLK
  5
2AA
100
AcDbEntity
  8
0
 48
3.0
100
AcDbBlockEnd
  0
BLOCK
  5
2AD
100
AcDbEntity
  8
0
 48
3.0
100
AcDbBlockBegin
  2
*D2
 70
     1
 10
0.0
 20
0.0
 30
0.0
  3
*D2
  1

  0
LINE
  5
2AE
100
AcDbEntity
  8
0
  6
BYBLOCK
 62
     0
 48
3.0
100
AcDbLine
 10
501.264472
 20
-0.580724
 30
0.0
 11
501.264472
 21
209.667273
 31
0.0
  0
LINE
  5
2AF
100
AcDbEntity
  8
0
  6
BYBLOCK
 62
     0
 48
3.0
100
AcDbLine
 10
714.264472
 20
-0.580728
 30
0.0
 11
714.264472
 21
209.667273
 31
0.0
  0
LINE
  5
2B0
100
AcDbEntity
  8
0
  6
BYBLOCK
 62
     0
 48
3.0
100
AcDbLine
 10
531.264472
 20
208.417273
 30
0.0
 11
684.264472
 21
208.417273
 31
0.0
  0
INSERT
  5
2B1
100
AcDbEntity
  8
0
  6
BYBLOCK
 62
     0
 48
3.0
100
AcDbBlockReference
  2
_OPEN
 10
501.264472
 20
208.417273
 30
0.0
 41
30.0
 42
30.0
 43
30.0
 50
180.0
  0
INSERT
  5
2B2
100
AcDbEntity
  8
0
  6
BYBLOCK
 62
     0
 48
3.0
100
AcDbBlockReference
  2
_OPEN
 10
714.264472
 20
208.417273
 30
0.0
 41
30.0
 42
30.0
 43
30.0
  0
MTEXT
  5
2B3
100
AcDbEntity
  8
0
  6
BYBLOCK
 62
     0
 48
3.0
100
AcDbMText
 10
607.764472
 20
221.419242
 30
0.0
 40
20.0
 41
0.0
 71
     5
 72
     1
  1
\A1;213
  7
ED
  0
POINT
  5
2B4
100
AcDbEntity
  8
DEFPOINTS
  6
BYBLOCK
 62
     0
 48
3.0
100
AcDbPoint
 10
501.264472
 20
-1.205724
 30
0.0
  0
POINT
  5
2B5
100
AcDbEntity
  8
DEFPOINTS
  6
BYBLOCK
 62
     0
 48
3.0
100
AcDbPoint
 10
714.264472
 20
-1.205728
 30
0.0
  0
POINT
  5
2B6
100
AcDbEntity
  8
DEFPOINTS
  6
BYBLOCK
 62
     0
 48
3.0
100
AcDbPoint
 10
714.264472
 20
208.417273
 30
0.0
  0
ENDBLK
  5
2B7
100
AcDbEntity
  8
0
 48
3.0
100
AcDbBlockEnd
  0
BLOCK
  5
2BA
100
AcDbEntity
  8
0
 48
3.0
100
AcDbBlockBegin
  2
*D3
 70
     1
 10
0.0
 20
0.0
 30
0.0
  3
*D3
  1

  0
LINE
  5
2BB
100
AcDbEntity
  8
0
  6
BYBLOCK
 62
     0
 48
3.0
100
AcDbLine
 10
541.360689
 20
-155.171978
 30
0.0
 11
616.754988
 21
-164.872162
 31
0.0
  0
LINE
  5
2BC
100
AcDbEntity
  8
0
  6
BYBLOCK
 62
     0
 48
3.0
100
AcDbLine
 10
735.773957
 20
-180.185068
 30
0.0
 11
765.528699
 21
-184.013295
 31
0.0
  0
MTEXT
  5
2BD
100
AcDbEntity
  8
0
  6
BYBLOCK
 62
     0
 48
3.0
100
AcDbMText
 10
565.839366
 20
-145.214235
 30
0.0
 40
20.0
 41
0.0
 71
     5
 72
     1
  1
\A1;\U+220560
  7
ED
 11
0.991825
 21
-0.127608
 31
0.0
  0
LINE
  5
2BE
100
AcDbEntity
  8
0
  6
BYBLOCK
 62
     0
 48
3.0
100
AcDbLine
 10
706.019215
 20
-176.356842
 30
0.0
 11
646.50973
 21
-168.700388
 31
0.0
  0
INSERT
  5
2BF
100
AcDbEntity
  8
0
  6
BYBLOCK
 62
     0
 48
3.0
100
AcDbBlockReference
  2
_OPEN
 10
706.019215
 20
-176.356842
 30
0.0
 41
30.0
 42
30.0
 43
30.0
 50
172.668636
  0
INSERT
  5
2C0
100
AcDbEntity
  8
0
  6
BYBLOCK
 62
     0
 48
3.0
100
AcDbBlockReference
  2
_OPEN
 10
646.50973
 20
-168.700388
 30
0.0
 41
30.0
 42
30.0
 43
30.0
 50
352.668636
  0
POINT
  5
2C1
100
AcDbEntity
  8
DEFPOINTS
  6
BYBLOCK
 62
     0
 48
3.0
100
AcDbPoint
 10
646.50973
 20
-168.700388
 30
0.0
  0
POINT
  5
2C2
100
AcDbEntity
  8
DEFPOINTS
  6
BYBLOCK
 62
     0
 48
3.0
100
AcDbPoint
 10
706.019215
 20
-176.356842
 30
0.0
  0
ENDBLK
  5
2C3
100
AcDbEntity
  8
0
 48
3.0
100
AcDbBlockEnd
  0
BLOCK
  5
2DD
100
AcDbEntity
  8
0
 48
3.0
100
AcDbBlockBegin
  2
*D4
 70
     1
 10
0.0
 20
0.0
 30
0.0
  3
*D4
  1

  0
LINE
  5
2DE
100
AcDbEntity
  8
0
  6
BYBLOCK
 62
     0
 48
3.0
100
AcDbLine
 10
723.764472
 20
-224.950647
 30
0.0
 11
723.764472
 21
-265.285127
 31
0.0
  0
LINE
  5
2DF
100
AcDbEntity
  8
0
  6
BYBLOCK
 62
     0
 48
3.0
100
AcDbLine
 10
576.164472
 20
-224.950647
 30
0.0
 11
576.164472
 21
-265.285127
 31
0.0
  0
LINE
  5
2E0
100
AcDbEntity
  8
0
  6
BYBLOCK
 62
     0
 48
3.0
100
AcDbLine
 10
693.764472
 20
-264.035127
 30
0.0
 11
606.164472
 21
-264.035127
 31
0.0
  0
INSERT
  5
2E1
100
AcDbEntity
  8
0
  6
BYBLOCK
 62
     0
 48
3.0
100
AcDbBlockReference
  2
_OPEN
 10
723.764472
 20
-264.035127
 30
0.0
 41
30.0
 42
30.0
 43
30.0
  0
INSERT
  5
2E2
100
AcDbEntity
  8
0
  6
BYBLOCK
 62
     0
 48
3.0
100
AcDbBlockReference
  2
_OPEN
 10
576.164472
 20
-264.035127
 30
0.0
 41
30.0
 42
30.0
 43
30.0
 50
180.0
  0
MTEXT
  5
2E3
100
AcDbEntity
  8
0
  6
BYBLOCK
 62
     0
 48
3.0
100
AcDbMText
 10
649.964472
 20
-251.035127
 30
0.0
 40
20.0
 41
0.0
 71
     5
 72
     1
  1
\A1;148
  7
ED
  0
POINT
  5
2E4
100
AcDbEntity
  8
DEFPOINTS
  6
BYBLOCK
 62
     0
 48
3.0
100
AcDbPoint
 10
723.764472
 20
-224.325647
 30
0.0
  0
POINT
  5
2E5
100
AcDbEntity
  8
DEFPOINTS
  6
BYBLOCK
 62
     0
 48
3.0
100
AcDbPoint
 10
576.164472
 20
-224.325647
 30
0.0
  0
POINT
  5
2E6
100
AcDbEntity
  8
DEFPOINTS
  6
BYBLOCK
 62
     0
 48
3.0
100
AcDbPoint
 10
576.164472
 20
-264.035127
 30
0.0
  0
ENDBLK
  5
2E7
100
AcDbEntity
  8
0
 48
3.0
100
AcDbBlockEnd
  0
BLOCK
  5
313
100
AcDbEntity
  8
0
 48
3.0
100
AcDbBlockBegin
  2
*D5
 70
     1
 10
0.0
 20
0.0
 30
0.0
  3
*D5
  1

  0
LINE
  5
314
100
AcDbEntity
  8
0
  6
BYBLOCK
 62
     0
 48
3.0
100
AcDbLine
 10
213.465037
 20
-21.813234
 30
0.0
 11
213.708072
 21
-22.436318
 31
0.0
  0
LINE
  5
315
100
AcDbEntity
  8
0
  6
BYBLOCK
 62
     0
 48
3.0
100
AcDbLine
 10
315.711486
 20
18.068304
 30
0.0
 11
315.954521
 21
17.44522
 31
0.0
  0
LINE
  5
316
100
AcDbEntity
  8
0
  6
BYBLOCK
 62
     0
 48
3.0
100
AcDbLine
 10
241.202972
 20
-10.370126
 30
0.0
 11
287.551151
 21
7.708123
 31
0.0
  0
INSERT
  5
317
100
AcDbEntity
  8
0
  6
BYBLOCK
 62
     0
 48
3.0
100
AcDbBlockReference
  2
_OPEN
 10
213.253837
 20
-21.271771
 30
0.0
 41
30.0
 42
30.0
 43
30.0
 50
201.308421
  0
INSERT
  5
318
100
AcDbEntity
  8
0
  6
BYBLOCK
 62
     0
 48
3.0
100
AcDbBlockReference
  2
_OPEN
 10
315.500286
 20
18.609768
 30
0.0
 41
30.0
 42
30.0
 43
30.0
 50
21.308421
  0
MTEXT
  5
319
100
AcDbEntity
  8
0
  6
BYBLOCK
 62
     0
 48
3.0
100
AcDbMText
 10
259.653015
 20
10.78029
 30
0.0
 40
20.0
 41
0.0
 71
     5
 72
     1
  1
\A1;\U+2205110
  7
ED
 11
0.931638
 21
0.363388
 31
0.0
  0
POINT
  5
31A
100
AcDbEntity
  8
DEFPOINTS
  6
BYBLOCK
 62
     0
 48
3.0
100
AcDbPoint
 10
213.237919
 20
-21.230961
 30
0.0
  0
POINT
  5
31B
100
AcDbEntity
  8
DEFPOINTS
  6
BYBLOCK
 62
     0
 48
3.0
100
AcDbPoint
 10
315.484368
 20
18.650577
 30
0.0
  0
POINT
  5
31C
100
AcDbEntity
  8
DEFPOINTS
  6
BYBLOCK
 62
     0
 48
3.0
100
AcDbPoint
 10
315.500286
 20
18.609768
 30
0.0
  0
ENDBLK
  5
31D
100
AcDbEntity
  8
0
 48
3.0
100
AcDbBlockEnd
  0
BLOCK
  5
355
100
AcDbEntity
  8
0
 48
3.0
100
AcDbBlockBegin
  2
*D6
 70
     1
 10
0.0
 20
0.0
 30
0.0
  3
*D6
  1

  0
LINE
  5
356
100
AcDbEntity
  8
0
  6
BYBLOCK
 62
     0
 48
3.0
100
AcDbLine
 10
107.402099
 20
0.213987
 30
0.0
 11
107.402099
 21
180.021003
 31
0.0
  0
LINE
  5
357
100
AcDbEntity
  8
0
  6
BYBLOCK
 62
     0
 48
3.0
100
AcDbLine
 10
439.722172
 20
6.392676
 30
0.0
 11
439.722172
 21
180.021003
 31
0.0
  0
LINE
  5
358
100
AcDbEntity
  8
0
  6
BYBLOCK
 62
     0
 48
3.0
100
AcDbLine
 10
137.402099
 20
178.771003
 30
0.0
 11
409.722172
 21
178.771003
 31
0.0
  0
INSERT
  5
359
100
AcDbEntity
  8
0
  6
BYBLOCK
 62
     0
 48
3.0
100
AcDbBlockReference
  2
_OPEN
 10
107.402099
 20
178.771003
 30
0.0
 41
30.0
 42
30.0
 43
30.0
 50
180.0
  0
INSERT
  5
35A
100
AcDbEntity
  8
0
  6
BYBLOCK
 62
     0
 48
3.0
100
AcDbBlockReference
  2
_OPEN
 10
439.722172
 20
178.771003
 30
0.0
 41
30.0
 42
30.0
 43
30.0
  0
MTEXT
  5
35B
100
AcDbEntity
  8
0
  6
BYBLOCK
 62
     0
 48
3.0
100
AcDbMText
 10
273.562136
 20
191.772972
 30
0.0
 40
20.0
 41
0.0
 71
     5
 72
     1
  1
\A1;332
  7
ED
  0
POINT
  5
35C
100
AcDbEntity
  8
DEFPOINTS
  6
BYBLOCK
 62
     0
 48
3.0
100
AcDbPoint
 10
107.402099
 20
-0.411013
 30
0.0
  0
POINT
  5
35D
100
AcDbEntity
  8
DEFPOINTS
  6
BYBLOCK
 62
     0
 48
3.0
100
AcDbPoint
 10
439.722172
 20
5.767676
 30
0.0
  0
POINT
  5
35E
100
AcDbEntity
  8
DEFPOINTS
  6
BYBLOCK
 62
     0
 48
3.0
100
AcDbPoint
 10
439.722172
 20
178.771003
 30
0.0
  0
ENDBLK
  5
35F
100
AcDbEntity
  8
0
 48
3.0
100
AcDbBlockEnd
  0
ENDSEC
  0
SECTION
  2
ENTITIES
  0
ARC
  5
84
100
AcDbEntity
  8
V0-OBRYS
  6
CONTINUOUS
 62
    90
 48
3.0
100
AcDbCircle
 10
266.182863
 20
-20.935604
 30
0.0
 40
173.169921
100
AcDbArc
 50
3.541812
 51
92.552168
  0
ARC
  5
85
100
AcDbEntity
  8
V0-OBRYS
  6
CONTINUOUS
 62
    90
 48
3.0
100
AcDbCircle
 10
265.157336
 20
-5.59974
 30
0.0
 40
157.790232
100
AcDbArc
 50
92.428344
 51
181.684349
  0
ARC
  5
87
100
AcDbEntity
  8
V0-OBRYS
  6
CONTINUOUS
 62
    90
 48
3.0
100
AcDbCircle
 10
255.803124
 20
-4.516507
 30
0.0
 40
148.461586
100
AcDbArc
 50
182.208527
 51
229.497032
  0
LINE
  5
88
100
AcDbEntity
  8
V0-OBRYS
  6
CONTINUOUS
 62
    90
 48
3.0
100
AcDbLine
 10
263.677899
 20
-201.049568
 30
0.0
 11
119.344721
 21
-201.049568
 31
0.0
  0
LINE
  5
89
100
AcDbEntity
  8
V0-OBRYS
  6
CONTINUOUS
 62
    90
 48
3.0
100
AcDbLine
 10
187.149336
 20
-144.007662
 30
0.0
 11
119.344721
 21
-144.007662
 31
0.0
  0
LINE
  5
8D
100
AcDbEntity
  8
V0-OBRYS
  6
CONTINUOUS
 62
    90
 48
3.0
100
AcDbLine
 10
109.844721
 20
-125.028615
 30
0.0
 11
109.844721
 21
-220.028615
 31
0.0
  0
CIRCLE
  5
8E
100
AcDbEntity
  8
V0-OBRYS
  6
CONTINUOUS
 62
    90
 48
3.0
100
AcDbCircle
 10
264.217319
 20
-1.205728
 30
0.0
 40
138.122845
  0
CIRCLE
  5
8F
100
AcDbEntity
  8
V0-OBRYS
  6
CONTINUOUS
 62
    90
 48
3.0
100
AcDbCircle
 10
264.217319
 20
-1.205728
 30
0.0
 40
129.997969
  0
CIRCLE
  5
90
100
AcDbEntity
  8
V0-OBRYS
  6
CONTINUOUS
 62
    90
 48
3.0
100
AcDbCircle
 10
264.217319
 20
-1.205728
 30
0.0
 40
76.897056
  0
CIRCLE
  5
91
100
AcDbEntity
  8
V0-OBRYS
  6
CONTINUOUS
 62
    90
 48
3.0
100
AcDbCircle
 10
264.217319
 20
-1.205728
 30
0.0
 40
55.018603
  0
LINE
  5
92
100
AcDbEntity
  8
V0-VYPLNE
  6
DASHDOT
 62
    63
 48
3.0
100
AcDbLine
 10
107.283484
 20
-1.205728
 30
0.0
 11
458.571493
 21
-1.205728
 31
0.0
  0
LINE
  5
93
100
AcDbEntity
  8
V0-VYPLNE
  6
DASHDOT
 62
    63
 48
3.0
100
AcDbLine
 10
264.217319
 20
-200.736581
 30
0.0
 11
264.217319
 21
164.610072
 31
0.0
  0
CIRCLE
  5
94
100
AcDbEntity
  8
V0-VYPLNE
  6
DASHDOT
 62
    63
 48
3.0
100
AcDbCircle
 10
264.217319
 20
-1.205728
 30
0.0
 40
67.132355
  0
ARC
  5
95
100
AcDbEntity
  8
V0-OBRYS
  6
CONTINUOUS
 62
    90
 48
3.0
100
AcDbCircle
 10
251.914327
 20
-13.988357
 30
0.0
 40
187.156903
100
AcDbArc
 50
273.49102
 51
1.148294
  0
LINE
  5
9A
100
AcDbEntity
  8
V0-OBRYS
  6
CONTINUOUS
 62
    90
 48
3.0
100
AcDbLine
 10
119.344721
 20
-125.028615
 30
0.0
 11
119.344721
 21
-220.028615
 31
0.0
  0
LINE
  5
9E
100
AcDbEntity
  8
V0-VYPLNE
  6
DASHDOT
 62
    63
 48
3.0
100
AcDbLine
 10
264.217319
 20
-172.528615
 30
0.0
 11
87.478524
 21
-172.528615
 31
0.0
  0
LINE
  5
9F
100
AcDbEntity
  8
V0-OBRYS
  6
CONTINUOUS
 62
    90
 48
3.0
100
AcDbLine
 10
119.344721
 20
-125.028615
 30
0.0
 11
109.844721
 21
-125.028615
 31
0.0
  0
LINE
  5
A0
100
AcDbEntity
  8
V0-OBRYS
  6
CONTINUOUS
 62
    90
 48
3.0
100
AcDbLine
 10
119.344721
 20
-220.028615
 30
0.0
 11
109.844721
 21
-220.028615
 31
0.0
  0
LINE
  5
A1
100
AcDbEntity
  8
V0-OBRYS
  6
CONTINUOUS
 62
    90
 48
3.0
100
AcDbLine
 10
151.453263
 20
-141.057535
 30
0.0
 11
160.65174
 21
-127.994003
 31
0.0
  0
ARC
  5
A2
100
AcDbEntity
  8
V0-OBRYS
  6
CONTINUOUS
 62
    90
 48
3.0
100
AcDbCircle
 10
154.640195
 20
-123.34413
 30
0.0
 40
7.6
100
AcDbArc
 50
322.278394
 51
51.424018
  0
ARC
  5
A3
100
AcDbEntity
  8
V0-OBRYS
  6
CONTINUOUS
 62
    90
 48
3.0
100
AcDbCircle
 10
145.441717
 20
-136.407662
 30
0.0
 40
7.6
100
AcDbArc
 50
270.0
 51
322.278394
  0
LINE
  5
A5
100
AcDbEntity
  8
V0-OBRYS
  6
CONTINUOUS
 62
    90
 48
3.0
100
AcDbLine
 10
171.36162
 20
-219.201327
 30
0.0
 11
306.00238
 21
-219.201327
 31
0.0
  0
LINE
  5
A7
100
AcDbEntity
  8
V0-OBRYS
  6
CONTINUOUS
 62
    90
 48
3.0
100
AcDbLine
 10
306.00238
 20
-219.201327
 30
0.0
 11
354.751622
 21
-168.181081
 31
0.0
  0
LINE
  5
A8
100
AcDbEntity
  8
V0-OBRYS
  6
CONTINUOUS
 62
    90
 48
3.0
100
AcDbLine
 10
171.36162
 20
-219.201327
 30
0.0
 11
171.36162
 21
-201.808062
 31
0.0
  0
LINE
  5
A9
100
AcDbEntity
  8
V0-OBRYS
  6
CONTINUOUS
 62
    90
 48
3.0
100
AcDbLine
 10
171.36162
 20
-219.201327
 30
0.0
 11
171.36162
 21
-224.325647
 31
0.0
  0
LINE
  5
AA
100
AcDbEntity
  8
V0-OBRYS
  6
CONTINUOUS
 62
    90
 48
3.0
100
AcDbLine
 10
171.36162
 20
-224.325647
 30
0.0
 11
197.321677
 21
-224.325647
 31
0.0
  0
LINE
  5
AB
100
AcDbEntity
  8
V0-OBRYS
  6
CONTINUOUS
 62
    90
 48
3.0
100
AcDbLine
 10
306.391261
 20
-224.325647
 30
0.0
 11
306.391261
 21
-219.238924
 31
0.0
  0
LINE
  5
AC
100
AcDbEntity
  8
V0-OBRYS
  6
CONTINUOUS
 62
    90
 48
3.0
100
AcDbLine
 10
197.236959
 20
-224.007727
 30
0.0
 11
197.236959
 21
-221.464365
 31
0.0
  0
LINE
  5
AD
100
AcDbEntity
  8
V0-OBRYS
  6
CONTINUOUS
 62
    90
 48
3.0
100
AcDbLine
 10
197.236959
 20
-221.464365
 30
0.0
 11
219.831581
 21
-221.464365
 31
0.0
  0
LINE
  5
AE
100
AcDbEntity
  8
V0-OBRYS
  6
CONTINUOUS
 62
    90
 48
3.0
100
AcDbLine
 10
219.831581
 20
-221.464365
 30
0.0
 11
219.831581
 21
-224.325647
 31
0.0
  0
LINE
  5
AF
100
AcDbEntity
  8
V0-OBRYS
  6
CONTINUOUS
 62
    90
 48
3.0
100
AcDbLine
 10
280.127042
 20
-221.464365
 30
0.0
 11
257.53242
 21
-221.464365
 31
0.0
  0
LINE
  5
B0
100
AcDbEntity
  8
V0-OBRYS
  6
CONTINUOUS
 62
    90
 48
3.0
100
AcDbLine
 10
280.127042
 20
-224.007727
 30
0.0
 11
280.127042
 21
-221.464365
 31
0.0
  0
LINE
  5
B1
100
AcDbEntity
  8
V0-OBRYS
  6
CONTINUOUS
 62
    90
 48
3.0
100
AcDbLine
 10
257.53242
 20
-221.464365
 30
0.0
 11
257.53242
 21
-224.325647
 31
0.0
  0
LINE
  5
B2
100
AcDbEntity
  8
V0-OBRYS
  6
CONTINUOUS
 62
    90
 48
3.0
100
AcDbLine
 10
219.831581
 20
-224.325647
 30
0.0
 11
257.53242
 21
-224.325647
 31
0.0
  0
LINE
  5
B3
100
AcDbEntity
  8
V0-OBRYS
  6
CONTINUOUS
 62
    90
 48
3.0
100
AcDbLine
 10
280.02562
 20
-224.325647
 30
0.0
 11
306.391261
 21
-224.325647
 31
0.0
  0
CIRCLE
  5
B4
100
AcDbEntity
  8
V0-OBRYS
  6
CONTINUOUS
 62
    90
 48
3.0
100
AcDbCircle
 10
216.747576
 20
46.264015
 30
0.0
 40
4.9951
  0
CIRCLE
  5
B5
100
AcDbEntity
  8
V0-OBRYS
  6
CONTINUOUS
 62
    90
 48
3.0
100
AcDbCircle
 10
216.747576
 20
-48.675471
 30
0.0
 40
4.9951
  0
CIRCLE
  5
B6
100
AcDbEntity
  8
V0-OBRYS
  6
CONTINUOUS
 62
    90
 48
3.0
100
AcDbCircle
 10
311.687062
 20
-48.675471
 30
0.0
 40
4.9951
  0
CIRCLE
  5
B7
100
AcDbEntity
  8
V0-OBRYS
  6
CONTINUOUS
 62
    90
 48
3.0
100
AcDbCircle
 10
311.687062
 20
46.264015
 30
0.0
 40
4.9951
  0
LINE
  5
B9
100
AcDbEntity
  8
V0-VYPLNE
  6
DASHDOT
 62
    63
 48
3.0
100
AcDbLine
 10
676.264472
 20
-224.325647
 30
0.0
 11
676.264472
 21
164.610072
 31
0.0
  0
LINE
  5
BA
100
AcDbEntity
  8
V0-VYPLNE
  6
DASHDOT
 62
    63
 48
3.0
100
AcDbLine
 10
489.830638
 20
-1.205723
 30
0.0
 11
730.339323
 21
-1.205728
 31
0.0
  0
LINE
  5
BB
100
AcDbEntity
  8
V0-VYPLNE
  6
DASHDOT
 62
    63
 48
3.0
100
AcDbLine
 10
757.513205
 20
-172.528615
 30
0.0
 11
580.77441
 21
-172.528615
 31
0.0
  0
CIRCLE
  5
BD
100
AcDbEntity
  8
V0-OBRYS
  6
CONTINUOUS
 62
    90
 48
3.0
100
AcDbCircle
 10
676.264472
 20
-172.528615
 30
0.0
 40
47.5
  0
LINE
  5
C0
100
AcDbEntity
  8
V0-OBRYS
  6
CONTINUOUS
 62
    90
 48
3.0
100
AcDbLine
 10
511.950485
 20
68.700691
 30
0.0
 11
638.26447
 21
68.700687
 31
0.0
  0
LINE
  5
C2
100
AcDbEntity
  8
V0-OBRYS
  6
CONTINUOUS
 62
    90
 48
3.0
100
AcDbLine
 10
541.004398
 20
68.700687
 30
0.0
 11
541.004398
 21
-1.20573
 31
0.0
  0
ARC
  5
C4
100
AcDbEntity
  8
V0-OBRYS
  6
CONTINUOUS
 62
    90
 48
3.0
100
AcDbCircle
 10
854.295537
 20
-0.086802
 30
0.0
 40
353.032837
100
AcDbArc
 50
169.404955
 51
180.181597
  0
ARC
  5
C5
100
AcDbEntity
  8
V0-OBRYS
  6
CONTINUOUS
 62
    90
 48
3.0
100
AcDbCircle
 10
511.950485
 20
63.950691
 30
0.0
 40
4.75
100
AcDbArc
 50
90.0
 51
169.404955
  0
ARC
  5
C6
100
AcDbEntity
  8
V0-OBRYS
  6
CONTINUOUS
 62
    90
 48
3.0
100
AcDbCircle
 10
854.295537
 20
-2.32464
 30
0.0
 40
353.032837
100
AcDbArc
 50
179.818405
 51
190.595047
  0
LINE
  5
C7
100
AcDbEntity
  8
V0-OBRYS
  6
CONTINUOUS
 62
    90
 48
3.0
100
AcDbLine
 10
541.0044
 20
-71.112146
 30
0.0
 11
541.004398
 21
-1.205729
 31
0.0
  0
LINE
  5
C8
100
AcDbEntity
  8
V0-VYPLNE
  6
DASHDOT
 62
    63
 48
3.0
100
AcDbLine
 10
489.830638
 20
-1.205728
 30
0.0
 11
638.264472
 21
-1.20573
 31
0.0
  0
LINE
  5
C9
100
AcDbEntity
  8
V0-OBRYS
  6
CONTINUOUS
 62
    90
 48
3.0
100
AcDbLine
 10
511.950487
 20
-71.112142
 30
0.0
 11
638.264474
 21
-71.112144
 31
0.0
  0
ARC
  5
CA
100
AcDbEntity
  8
V0-OBRYS
  6
CONTINUOUS
 62
    90
 48
3.0
100
AcDbCircle
 10
511.950487
 20
-66.362142
 30
0.0
 40
4.75
100
AcDbArc
 50
190.595047
 51
270.000002
  0
LINE
  5
CB
100
AcDbEntity
  8
V0-OBRYS
  6
CONTINUOUS
 62
    90
 48
3.0
100
AcDbLine
 10
643.014468
 20
139.280107
 30
0.0
 11
643.014476
 21
-138.606826
 31
0.0
  0
LINE
  5
CE
100
AcDbEntity
  8
V0-OBRYS
  6
CONTINUOUS
 62
    90
 48
3.0
100
AcDbLine
 10
709.514476
 20
139.280107
 30
0.0
 11
709.514469
 21
-138.606826
 31
0.0
  0
ARC
  5
D4
100
AcDbEntity
  8
V0-OBRYS
  6
CONTINUOUS
 62
    90
 48
3.0
100
AcDbCircle
 10
676.264472
 20
82.281946
 30
0.0
 40
70.103704
100
AcDbArc
 50
65.771559
 51
114.228441
  0
ARC
  5
D7
100
AcDbEntity
  8
V0-OBRYS
  6
CONTINUOUS
 62
    90
 48
3.0
100
AcDbCircle
 10
650.614468
 20
139.280107
 30
0.0
 40
7.6
100
AcDbArc
 50
114.228441
 51
180.000002
  0
ARC
  5
D8
100
AcDbEntity
  8
V0-OBRYS
  6
CONTINUOUS
 62
    90
 48
3.0
100
AcDbCircle
 10
701.914476
 20
139.280107
 30
0.0
 40
7.6
100
AcDbArc
 50
359.999998
 51
65.771559
  0
LINE
  5
E5
100
AcDbEntity
  8
V0-OBRYS
  6
CONTINUOUS
 62
    90
 48
3.0
100
AcDbLine
 10
541.004398
 20
64.020863
 30
0.0
 11
638.264471
 21
64.020863
 31
0.0
  0
LINE
  5
E6
100
AcDbEntity
  8
V0-OBRYS
  6
CONTINUOUS
 62
    90
 48
3.0
100
AcDbLine
 10
541.004398
 20
59.34104
 30
0.0
 11
638.264471
 21
59.34104
 31
0.0
  0
LINE
  5
E7
100
AcDbEntity
  8
V0-OBRYS
  6
CONTINUOUS
 62
    90
 48
3.0
100
AcDbLine
 10
541.004398
 20
49.981393
 30
0.0
 11
638.264471
 21
49.981393
 31
0.0
  0
LINE
  5
E8
100
AcDbEntity
  8
V0-OBRYS
  6
CONTINUOUS
 62
    90
 48
3.0
100
AcDbLine
 10
541.004398
 20
54.661217
 30
0.0
 11
638.264471
 21
54.661217
 31
0.0
  0
LINE
  5
E9
100
AcDbEntity
  8
V0-OBRYS
  6
CONTINUOUS
 62
    90
 48
3.0
100
AcDbLine
 10
541.004398
 20
35.941923
 30
0.0
 11
638.264471
 21
35.941923
 31
0.0
  0
LINE
  5
EA
100
AcDbEntity
  8
V0-OBRYS
  6
CONTINUOUS
 62
    90
 48
3.0
100
AcDbLine
 10
541.004398
 20
31.2621
 30
0.0
 11
638.264471
 21
31.2621
 31
0.0
  0
LINE
  5
EB
100
AcDbEntity
  8
V0-OBRYS
  6
CONTINUOUS
 62
    90
 48
3.0
100
AcDbLine
 10
541.004398
 20
40.621746
 30
0.0
 11
638.264471
 21
40.621746
 31
0.0
  0
LINE
  5
EC
100
AcDbEntity
  8
V0-OBRYS
  6
CONTINUOUS
 62
    90
 48
3.0
100
AcDbLine
 10
541.004398
 20
45.30157
 30
0.0
 11
638.264471
 21
45.30157
 31
0.0
  0
LINE
  5
ED
100
AcDbEntity
  8
V0-OBRYS
  6
CONTINUOUS
 62
    90
 48
3.0
100
AcDbLine
 10
541.004398
 20
7.862983
 30
0.0
 11
638.264472
 21
7.862983
 31
0.0
  0
LINE
  5
EE
100
AcDbEntity
  8
V0-OBRYS
  6
CONTINUOUS
 62
    90
 48
3.0
100
AcDbLine
 10
541.004398
 20
3.183159
 30
0.0
 11
638.264472
 21
3.183159
 31
0.0
  0
LINE
  5
F0
100
AcDbEntity
  8
V0-OBRYS
  6
CONTINUOUS
 62
    90
 48
3.0
100
AcDbLine
 10
541.004398
 20
-1.496664
 30
0.0
 11
642.778018
 21
-1.496664
 31
0.0
  0
LINE
  5
F1
100
AcDbEntity
  8
V0-OBRYS
  6
CONTINUOUS
 62
    90
 48
3.0
100
AcDbLine
 10
541.004398
 20
17.222629
 30
0.0
 11
638.264472
 21
17.222629
 31
0.0
  0
LINE
  5
F2
100
AcDbEntity
  8
V0-OBRYS
  6
CONTINUOUS
 62
    90
 48
3.0
100
AcDbLine
 10
541.004398
 20
12.542806
 30
0.0
 11
638.264472
 21
12.542806
 31
0.0
  0
LINE
  5
F3
100
AcDbEntity
  8
V0-OBRYS
  6
CONTINUOUS
 62
    90
 48
3.0
100
AcDbLine
 10
541.004398
 20
21.902453
 30
0.0
 11
638.264472
 21
21.902453
 31
0.0
  0
LINE
  5
F4
100
AcDbEntity
  8
V0-OBRYS
  6
CONTINUOUS
 62
    90
 48
3.0
100
AcDbLine
 10
541.004398
 20
26.582276
 30
0.0
 11
638.264472
 21
26.582276
 31
0.0
  0
LINE
  5
F5
100
AcDbEntity
  8
V0-OBRYS
  6
CONTINUOUS
 62
    90
 48
3.0
100
AcDbLine
 10
541.004398
 20
-43.615075
 30
0.0
 11
631.373129
 21
-43.615075
 31
0.0
  0
LINE
  5
F6
100
AcDbEntity
  8
V0-OBRYS
  6
CONTINUOUS
 62
    90
 48
3.0
100
AcDbLine
 10
541.004398
 20
-48.294898
 30
0.0
 11
630.08852
 21
-48.294898
 31
0.0
  0
LINE
  5
F7
100
AcDbEntity
  8
V0-OBRYS
  6
CONTINUOUS
 62
    90
 48
3.0
100
AcDbLine
 10
541.004398
 20
-57.654545
 30
0.0
 11
627.519302
 21
-57.654545
 31
0.0
  0
LINE
  5
F8
100
AcDbEntity
  8
V0-OBRYS
  6
CONTINUOUS
 62
    90
 48
3.0
100
AcDbLine
 10
541.004398
 20
-52.974722
 30
0.0
 11
628.803911
 21
-52.974722
 31
0.0
  0
LINE
  5
F9
100
AcDbEntity
  8
V0-OBRYS
  6
CONTINUOUS
 62
    90
 48
3.0
100
AcDbLine
 10
541.004398
 20
-67.014192
 30
0.0
 11
624.950083
 21
-67.014192
 31
0.0
  0
LINE
  5
FA
100
AcDbEntity
  8
V0-OBRYS
  6
CONTINUOUS
 62
    90
 48
3.0
100
AcDbLine
 10
541.004398
 20
-62.334368
 30
0.0
 11
626.234692
 21
-62.334368
 31
0.0
  0
LINE
  5
FB
100
AcDbEntity
  8
V0-OBRYS
  6
CONTINUOUS
 62
    90
 48
3.0
100
AcDbLine
 10
541.004398
 20
-24.895781
 30
0.0
 11
636.511565
 21
-24.895781
 31
0.0
  0
LINE
  5
FC
100
AcDbEntity
  8
V0-OBRYS
  6
CONTINUOUS
 62
    90
 48
3.0
100
AcDbLine
 10
541.004398
 20
-29.575605
 30
0.0
 11
635.226956
 21
-29.575605
 31
0.0
  0
LINE
  5
FD
100
AcDbEntity
  8
V0-OBRYS
  6
CONTINUOUS
 62
    90
 48
3.0
100
AcDbLine
 10
541.004398
 20
-38.935251
 30
0.0
 11
632.657738
 21
-38.935251
 31
0.0
  0
LINE
  5
FE
100
AcDbEntity
  8
V0-OBRYS
  6
CONTINUOUS
 62
    90
 48
3.0
100
AcDbLine
 10
541.004398
 20
-34.255428
 30
0.0
 11
633.942347
 21
-34.255428
 31
0.0
  0
LINE
  5
FF
100
AcDbEntity
  8
V0-OBRYS
  6
CONTINUOUS
 62
    90
 48
3.0
100
AcDbLine
 10
541.004398
 20
-15.536134
 30
0.0
 11
638.264473
 21
-15.536134
 31
0.0
  0
LINE
  5
100
100
AcDbEntity
  8
V0-OBRYS
  6
CONTINUOUS
 62
    90
 48
3.0
100
AcDbLine
 10
541.004398
 20
-20.215958
 30
0.0
 11
637.796174
 21
-20.215958
 31
0.0
  0
LINE
  5
101
100
AcDbEntity
  8
V0-OBRYS
  6
CONTINUOUS
 62
    90
 48
3.0
100
AcDbLine
 10
541.004398
 20
-10.856311
 30
0.0
 11
638.264473
 21
-10.856311
 31
0.0
  0
LINE
  5
102
100
AcDbEntity
  8
V0-OBRYS
  6
CONTINUOUS
 62
    90
 48
3.0
100
AcDbLine
 10
541.004398
 20
-6.176488
 30
0.0
 11
638.264473
 21
-6.176488
 31
0.0
  0
CIRCLE
  5
103
100
AcDbEntity
  8
V0-OBRYS
  6
CONTINUOUS
 62
    90
 48
3.0
100
AcDbCircle
 10
649.412434
 20
-145.67658
 30
0.0
 40
4.75
  0
CIRCLE
  5
104
100
AcDbEntity
  8
V0-OBRYS
  6
CONTINUOUS
 62
    90
 48
3.0
100
AcDbCircle
 10
649.412437
 20
-199.380653
 30
0.0
 40
4.75
  0
CIRCLE
  5
105
100
AcDbEntity
  8
V0-OBRYS
  6
CONTINUOUS
 62
    90
 48
3.0
100
AcDbCircle
 10
703.11651
 20
-199.380651
 30
0.0
 40
4.75
  0
CIRCLE
  5
106
100
AcDbEntity
  8
V0-OBRYS
  6
CONTINUOUS
 62
    90
 48
3.0
100
AcDbCircle
 10
703.116508
 20
-145.676577
 30
0.0
 40
4.75
  0
CIRCLE
  5
107
100
AcDbEntity
  8
V0-VYPLNE
  6
DASHDOT
 62
    63
 48
3.0
100
AcDbCircle
 10
676.264472
 20
-172.528615
 30
0.0
 40
37.974515
  0
LINE
  5
10C
100
AcDbEntity
  8
V0-OBRYS
  6
CONTINUOUS
 62
    90
 48
3.0
100
AcDbLine
 10
576.164472
 20
-219.238924
 30
0.0
 11
667.6391
 21
-219.238924
 31
0.0
  0
LINE
  5
10D
100
AcDbEntity
  8
V0-OBRYS
  6
CONTINUOUS
 62
    90
 48
3.0
100
AcDbLine
 10
576.164472
 20
-224.325647
 30
0.0
 11
723.764472
 21
-224.325647
 31
0.0
  0
LINE
  5
10F
100
AcDbEntity
  8
V0-OBRYS
  6
CONTINUOUS
 62
    90
 48
3.0
100
AcDbLine
 10
711.365408
 20
-204.531339
 30
0.0
 11
721.017886
 21
-219.088385
 31
0.0
  0
LINE
  5
110
100
AcDbEntity
  8
V0-OBRYS
  6
CONTINUOUS
 62
    90
 48
3.0
100
AcDbLine
 10
723.764472
 20
-219.238924
 30
0.0
 11
723.764472
 21
-224.325647
 31
0.0
  0
LINE
  5
111
100
AcDbEntity
  8
V0-OBRYS
  6
CONTINUOUS
 62
    90
 48
3.0
100
AcDbLine
 10
576.164472
 20
-219.238924
 30
0.0
 11
576.164472
 21
-224.325647
 31
0.0
  0
LINE
  5
112
100
AcDbEntity
  8
V0-OBRYS
  6
CONTINUOUS
 62
    90
 48
3.0
100
AcDbLine
 10
723.764472
 20
-219.238924
 30
0.0
 11
684.516046
 21
-219.238924
 31
0.0
  0
LINE
  5
113
100
AcDbEntity
  8
V0-OBRYS
  6
CONTINUOUS
 62
    90
 48
3.0
100
AcDbLine
 10
576.164472
 20
-219.238924
 30
0.0
 11
638.264473
 21
-18.509949
 31
0.0
  0
LINE
  5
114
100
AcDbEntity
  8
V0-OBRYS
  6
CONTINUOUS
 62
    90
 48
3.0
100
AcDbLine
 10
638.264469
 20
132.450177
 30
0.0
 11
638.264476
 21
-134.861638
 31
0.0
  0
LINE
  5
116
100
AcDbEntity
  8
V0-OBRYS
  6
CONTINUOUS
 62
    90
 48
3.0
100
AcDbLine
 10
638.264469
 20
132.450177
 30
0.0
 11
643.229292
 21
132.450177
 31
0.0
  0
LINE
  5
117
100
AcDbEntity
  8
V0-OBRYS
  6
CONTINUOUS
 62
    90
 48
3.0
100
AcDbLine
 10
638.264476
 20
-134.861638
 30
0.0
 11
643.229295
 21
-134.861638
 31
0.0
  0
LINE
  5
125
100
AcDbEntity
  8
V0-OBRYS
  6
CONTINUOUS
 62
    90
 48
3.0
100
AcDbLine
 10
421.803153
 20
-446.469565
 30
0.0
 11
126.81622
 21
-446.469573
 31
0.0
  0
LINE
  5
126
100
AcDbEntity
  8
V0-OBRYS
  6
CONTINUOUS
 62
    90
 48
3.0
100
AcDbLine
 10
414.973224
 20
-441.719565
 30
0.0
 11
130.561409
 21
-441.719573
 31
0.0
  0
LINE
  5
127
100
AcDbEntity
  8
V0-VYPLNE
  6
DASHDOT
 62
    63
 48
3.0
100
AcDbLine
 10
86.773903
 20
-479.719569
 30
0.0
 11
447.133119
 21
-479.719569
 31
0.0
  0
LINE
  5
128
100
AcDbEntity
  8
V0-OBRYS
  6
CONTINUOUS
 62
    90
 48
3.0
100
AcDbLine
 10
421.803153
 20
-512.969573
 30
0.0
 11
126.81622
 21
-512.969565
 31
0.0
  0
ARC
  5
129
100
AcDbEntity
  8
V0-OBRYS
  6
CONTINUOUS
 62
    90
 48
3.0
100
AcDbCircle
 10
265.336241
 20
-695.000633
 30
0.0
 40
353.032837
100
AcDbArc
 50
79.404955
 51
90.181597
  0
LINE
  5
12A
100
AcDbEntity
  8
V0-OBRYS
  6
CONTINUOUS
 62
    90
 48
3.0
100
AcDbLine
 10
334.123734
 20
-382.221086
 30
0.0
 11
264.217317
 21
-382.221086
 31
0.0
  0
LINE
  5
133
100
AcDbEntity
  8
V0-VYPLNE
  6
DASHDOT
 62
    63
 48
3.0
100
AcDbLine
 10
264.217319
 20
-330.535734
 30
0.0
 11
264.217319
 21
-534.03359
 31
0.0
  0
LINE
  5
13A
100
AcDbEntity
  8
V0-OBRYS
  6
CONTINUOUS
 62
    90
 48
3.0
100
AcDbLine
 10
130.561409
 20
-441.719573
 30
0.0
 11
130.561409
 21
-446.684392
 31
0.0
  0
LINE
  5
13B
100
AcDbEntity
  8
V0-VYPLNE
  6
DASHDOT
 62
    63
 48
3.0
100
AcDbLine
 10
264.217314
 20
-330.535734
 30
0.0
 11
264.217317
 21
-441.719569
 31
0.0
  0
LINE
  5
13C
100
AcDbEntity
  8
V0-OBRYS
  6
CONTINUOUS
 62
    90
 48
3.0
100
AcDbLine
 10
194.3109
 20
-352.655584
 30
0.0
 11
194.310902
 21
-441.719571
 31
0.0
  0
ARC
  5
13D
100
AcDbEntity
  8
V0-OBRYS
  6
CONTINUOUS
 62
    90
 48
3.0
100
AcDbCircle
 10
263.098403
 20
-695.000633
 30
0.0
 40
353.032837
100
AcDbArc
 50
89.818405
 51
100.595047
  0
ARC
  5
13E
100
AcDbEntity
  8
V0-OBRYS
  6
CONTINUOUS
 62
    90
 48
3.0
100
AcDbCircle
 10
199.0609
 20
-352.655583
 30
0.0
 40
4.75
100
AcDbArc
 50
100.595047
 51
180.000002
  0
LINE
  5
13F
100
AcDbEntity
  8
V0-OBRYS
  6
CONTINUOUS
 62
    90
 48
3.0
100
AcDbLine
 10
194.310901
 20
-382.221088
 30
0.0
 11
264.217318
 21
-382.221086
 31
0.0
  0
LINE
  5
140
100
AcDbEntity
  8
V0-OBRYS
  6
CONTINUOUS
 62
    90
 48
3.0
100
AcDbLine
 10
207.768502
 20
-382.221086
 30
0.0
 11
207.768502
 21
-441.719571
 31
0.0
  0
LINE
  5
141
100
AcDbEntity
  8
V0-OBRYS
  6
CONTINUOUS
 62
    90
 48
3.0
100
AcDbLine
 10
203.088678
 20
-382.221086
 30
0.0
 11
203.088678
 21
-441.719571
 31
0.0
  0
LINE
  5
142
100
AcDbEntity
  8
V0-OBRYS
  6
CONTINUOUS
 62
    90
 48
3.0
100
AcDbLine
 10
198.408855
 20
-382.221086
 30
0.0
 11
198.408855
 21
-441.719571
 31
0.0
  0
LINE
  5
143
100
AcDbEntity
  8
V0-OBRYS
  6
CONTINUOUS
 62
    90
 48
3.0
100
AcDbLine
 10
249.886912
 20
-382.221086
 30
0.0
 11
249.886912
 21
-441.719569
 31
0.0
  0
LINE
  5
144
100
AcDbEntity
  8
V0-OBRYS
  6
CONTINUOUS
 62
    90
 48
3.0
100
AcDbLine
 10
254.566736
 20
-382.221086
 30
0.0
 11
254.566736
 21
-441.719569
 31
0.0
  0
LINE
  5
145
100
AcDbEntity
  8
V0-OBRYS
  6
CONTINUOUS
 62
    90
 48
3.0
100
AcDbLine
 10
259.246559
 20
-382.221086
 30
0.0
 11
259.246559
 21
-441.719569
 31
0.0
  0
LINE
  5
146
100
AcDbEntity
  8
V0-OBRYS
  6
CONTINUOUS
 62
    90
 48
3.0
100
AcDbLine
 10
268.606206
 20
-382.221086
 30
0.0
 11
268.606206
 21
-441.719569
 31
0.0
  0
LINE
  5
147
100
AcDbEntity
  8
V0-OBRYS
  6
CONTINUOUS
 62
    90
 48
3.0
100
AcDbLine
 10
273.286029
 20
-382.221086
 30
0.0
 11
273.286029
 21
-441.719569
 31
0.0
  0
LINE
  5
148
100
AcDbEntity
  8
V0-OBRYS
  6
CONTINUOUS
 62
    90
 48
3.0
100
AcDbLine
 10
277.965853
 20
-382.221086
 30
0.0
 11
277.965853
 21
-441.719569
 31
0.0
  0
LINE
  5
149
100
AcDbEntity
  8
V0-OBRYS
  6
CONTINUOUS
 62
    90
 48
3.0
100
AcDbLine
 10
282.645676
 20
-382.221086
 30
0.0
 11
282.645676
 21
-441.719568
 31
0.0
  0
LINE
  5
14A
100
AcDbEntity
  8
V0-OBRYS
  6
CONTINUOUS
 62
    90
 48
3.0
100
AcDbLine
 10
287.3255
 20
-382.221086
 30
0.0
 11
287.3255
 21
-441.719568
 31
0.0
  0
LINE
  5
14B
100
AcDbEntity
  8
V0-OBRYS
  6
CONTINUOUS
 62
    90
 48
3.0
100
AcDbLine
 10
245.207089
 20
-382.221086
 30
0.0
 11
245.207089
 21
-441.251271
 31
0.0
  0
LINE
  5
14C
100
AcDbEntity
  8
V0-OBRYS
  6
CONTINUOUS
 62
    90
 48
3.0
100
AcDbLine
 10
240.527266
 20
-382.221086
 30
0.0
 11
240.527266
 21
-441.71957
 31
0.0
  0
LINE
  5
14D
100
AcDbEntity
  8
V0-OBRYS
  6
CONTINUOUS
 62
    90
 48
3.0
100
AcDbLine
 10
235.847442
 20
-382.221086
 30
0.0
 11
235.847442
 21
-441.71957
 31
0.0
  0
LINE
  5
14E
100
AcDbEntity
  8
V0-OBRYS
  6
CONTINUOUS
 62
    90
 48
3.0
100
AcDbLine
 10
263.926383
 20
-382.221086
 30
0.0
 11
263.926383
 21
-446.233115
 31
0.0
  0
LINE
  5
14F
100
AcDbEntity
  8
V0-OBRYS
  6
CONTINUOUS
 62
    90
 48
3.0
100
AcDbLine
 10
231.167619
 20
-382.221086
 30
0.0
 11
231.167619
 21
-441.71957
 31
0.0
  0
LINE
  5
150
100
AcDbEntity
  8
V0-OBRYS
  6
CONTINUOUS
 62
    90
 48
3.0
100
AcDbLine
 10
226.487795
 20
-382.221086
 30
0.0
 11
226.487795
 21
-441.71957
 31
0.0
  0
LINE
  5
151
100
AcDbEntity
  8
V0-OBRYS
  6
CONTINUOUS
 62
    90
 48
3.0
100
AcDbLine
 10
221.807972
 20
-382.221086
 30
0.0
 11
221.807972
 21
-441.71957
 31
0.0
  0
LINE
  5
152
100
AcDbEntity
  8
V0-OBRYS
  6
CONTINUOUS
 62
    90
 48
3.0
100
AcDbLine
 10
217.128149
 20
-382.221086
 30
0.0
 11
217.128149
 21
-441.71957
 31
0.0
  0
LINE
  5
153
100
AcDbEntity
  8
V0-OBRYS
  6
CONTINUOUS
 62
    90
 48
3.0
100
AcDbLine
 10
212.448325
 20
-382.221086
 30
0.0
 11
212.448325
 21
-441.719571
 31
0.0
  0
ARC
  5
156
100
AcDbEntity
  8
V0-OBRYS
  6
CONTINUOUS
 62
    90
 48
3.0
100
AcDbCircle
 10
364.804993
 20
-479.719569
 30
0.0
 40
70.103704
100
AcDbArc
 50
335.771559
 51
24.228441
  0
LINE
  5
157
100
AcDbEntity
  8
V0-OBRYS
  6
CONTINUOUS
 62
    90
 48
3.0
100
AcDbLine
 10
334.123734
 20
-352.655582
 30
0.0
 11
334.123734
 21
-441.719567
 31
0.0
  0
ARC
  5
158
100
AcDbEntity
  8
V0-OBRYS
  6
CONTINUOUS
 62
    90
 48
3.0
100
AcDbCircle
 10
329.373734
 20
-352.655582
 30
0.0
 40
4.75
100
AcDbArc
 50
0.0
 51
79.404955
  0
LINE
  5
159
100
AcDbEntity
  8
V0-OBRYS
  6
CONTINUOUS
 62
    90
 48
3.0
100
AcDbLine
 10
292.005323
 20
-382.221086
 30
0.0
 11
292.005323
 21
-441.719568
 31
0.0
  0
LINE
  5
15A
100
AcDbEntity
  8
V0-OBRYS
  6
CONTINUOUS
 62
    90
 48
3.0
100
AcDbLine
 10
296.685146
 20
-382.221086
 30
0.0
 11
296.685146
 21
-441.719568
 31
0.0
  0
LINE
  5
15B
100
AcDbEntity
  8
V0-OBRYS
  6
CONTINUOUS
 62
    90
 48
3.0
100
AcDbLine
 10
301.36497
 20
-382.221086
 30
0.0
 11
301.36497
 21
-441.719568
 31
0.0
  0
LINE
  5
15C
100
AcDbEntity
  8
V0-OBRYS
  6
CONTINUOUS
 62
    90
 48
3.0
100
AcDbLine
 10
306.044793
 20
-382.221086
 30
0.0
 11
306.044793
 21
-441.719568
 31
0.0
  0
LINE
  5
15D
100
AcDbEntity
  8
V0-OBRYS
  6
CONTINUOUS
 62
    90
 48
3.0
100
AcDbLine
 10
310.724617
 20
-382.221086
 30
0.0
 11
310.724617
 21
-441.719568
 31
0.0
  0
LINE
  5
15E
100
AcDbEntity
  8
V0-OBRYS
  6
CONTINUOUS
 62
    90
 48
3.0
100
AcDbLine
 10
315.40444
 20
-382.221086
 30
0.0
 11
315.40444
 21
-441.719567
 31
0.0
  0
LINE
  5
15F
100
AcDbEntity
  8
V0-OBRYS
  6
CONTINUOUS
 62
    90
 48
3.0
100
AcDbLine
 10
320.084263
 20
-382.221086
 30
0.0
 11
320.084263
 21
-441.719567
 31
0.0
  0
LINE
  5
160
100
AcDbEntity
  8
V0-OBRYS
  6
CONTINUOUS
 62
    90
 48
3.0
100
AcDbLine
 10
324.764087
 20
-382.221086
 30
0.0
 11
324.764087
 21
-441.719567
 31
0.0
  0
LINE
  5
161
100
AcDbEntity
  8
V0-OBRYS
  6
CONTINUOUS
 62
    90
 48
3.0
100
AcDbLine
 10
329.44391
 20
-382.221086
 30
0.0
 11
329.44391
 21
-441.719567
 31
0.0
  0
ARC
  5
162
100
AcDbEntity
  8
V0-OBRYS
  6
CONTINUOUS
 62
    90
 48
3.0
100
AcDbCircle
 10
421.803154
 20
-454.069565
 30
0.0
 40
7.6
100
AcDbArc
 50
24.228441
 51
90.000002
  0
LINE
  5
163
100
AcDbEntity
  8
V0-OBRYS
  6
CONTINUOUS
 62
    90
 48
3.0
100
AcDbLine
 10
414.973224
 20
-441.719565
 30
0.0
 11
414.973224
 21
-446.684389
 31
0.0
  0
ARC
  5
164
100
AcDbEntity
  8
V0-OBRYS
  6
CONTINUOUS
 62
    90
 48
3.0
100
AcDbCircle
 10
421.803154
 20
-505.369573
 30
0.0
 40
7.6
100
AcDbArc
 50
269.999998
 51
335.771559
  0
LINE
  5
165
100
AcDbEntity
  8
V0-OBRYS
  6
CONTINUOUS
 62
    90
 48
3.0
100
AcDbLine
 10
119.344721
 20
-431.945648
 30
0.0
 11
119.344721
 21
-450.950709
 31
0.0
  0
LINE
  5
166
100
AcDbEntity
  8
V0-OBRYS
  6
CONTINUOUS
 62
    90
 48
3.0
100
AcDbLine
 10
109.844721
 20
-431.945648
 30
0.0
 11
109.844721
 21
-526.945648
 31
0.0
  0
LINE
  5
167
100
AcDbEntity
  8
V0-OBRYS
  6
CONTINUOUS
 62
    90
 48
3.0
100
AcDbLine
 10
119.344721
 20
-526.945648
 30
0.0
 11
109.844721
 21
-526.945648
 31
0.0
  0
LINE
  5
16A
100
AcDbEntity
  8
V0-OBRYS
  6
CONTINUOUS
 62
    90
 48
3.0
100
AcDbLine
 10
119.344721
 20
-431.945648
 30
0.0
 11
109.844721
 21
-431.945648
 31
0.0
  0
ARC
  5
16D
100
AcDbEntity
  8
V0-OBRYS
  6
CONTINUOUS
 62
    90
 48
3.0
100
AcDbCircle
 10
126.81622
 20
-505.369573
 30
0.0
 40
7.6
100
AcDbArc
 50
204.228441
 51
270.000002
  0
ARC
  5
16E
100
AcDbEntity
  8
V0-OBRYS
  6
CONTINUOUS
 62
    90
 48
3.0
100
AcDbCircle
 10
183.814381
 20
-479.719569
 30
0.0
 40
70.103704
100
AcDbArc
 50
155.771559
 51
204.228441
  0
ARC
  5
16F
100
AcDbEntity
  8
V0-OBRYS
  6
CONTINUOUS
 62
    90
 48
3.0
100
AcDbCircle
 10
126.81622
 20
-454.069565
 30
0.0
 40
7.6
100
AcDbArc
 50
89.999998
 51
155.771559
  0
LINE
  5
171
100
AcDbEntity
  8
V0-OBRYS
  6
CONTINUOUS
 62
    90
 48
3.0
100
AcDbLine
 10
119.344721
 20
-507.254859
 30
0.0
 11
119.344721
 21
-526.945648
 31
0.0
  0
LINE
  5
172
100
AcDbEntity
  8
V0-OBRYS
  6
CONTINUOUS
 62
    90
 48
3.0
100
AcDbLine
 10
171.992918
 20
-389.684595
 30
0.0
 11
171.992918
 21
-441.155352
 31
0.0
  0
LINE
  5
173
100
AcDbEntity
  8
V0-OBRYS
  6
CONTINUOUS
 62
    90
 48
3.0
100
AcDbLine
 10
351.690837
 20
-389.684595
 30
0.0
 11
351.690837
 21
-441.719567
 31
0.0
  0
LINE
  5
174
100
AcDbEntity
  8
V0-OBRYS
  6
CONTINUOUS
 62
    90
 48
3.0
100
AcDbLine
 10
348.840837
 20
-386.834595
 30
0.0
 11
334.123734
 21
-386.834595
 31
0.0
  0
LINE
  5
175
100
AcDbEntity
  8
V0-OBRYS
  6
CONTINUOUS
 62
    90
 48
3.0
100
AcDbLine
 10
176.742918
 20
-386.834595
 30
0.0
 11
176.742918
 21
-441.155352
 31
0.0
  0
LINE
  5
176
100
AcDbEntity
  8
V0-OBRYS
  6
CONTINUOUS
 62
    90
 48
3.0
100
AcDbLine
 10
346.940837
 20
-386.834595
 30
0.0
 11
346.940837
 21
-441.719567
 31
0.0
  0
LINE
  5
177
100
AcDbEntity
  8
V0-OBRYS
  6
CONTINUOUS
 62
    90
 48
3.0
100
AcDbLine
 10
194.310901
 20
-386.834595
 30
0.0
 11
174.842918
 21
-386.834595
 31
0.0
  0
ARC
  5
17A
100
AcDbEntity
  8
V0-OBRYS
  6
CONTINUOUS
 62
    90
 48
3.0
100
AcDbCircle
 10
174.842918
 20
-389.684595
 30
0.0
 40
2.85
100
AcDbArc
 50
90.0
 51
180.0
  0
ARC
  5
17B
100
AcDbEntity
  8
V0-OBRYS
  6
CONTINUOUS
 62
    90
 48
3.0
100
AcDbCircle
 10
348.840837
 20
-389.684595
 30
0.0
 40
2.85
100
AcDbArc
 50
0.0
 51
90.0
  0
LINE
  5
17C
100
AcDbEntity
  8
V0-OBRYS
  6
CONTINUOUS
 62
    90
 48
3.0
100
AcDbLine
 10
334.123734
 20
-517.719571
 30
0.0
 11
194.310905
 21
-517.719567
 31
0.0
  0
LINE
  5
180
100
AcDbEntity
  8
V0-OBRYS
  6
CONTINUOUS
 62
    90
 48
3.0
100
AcDbLine
 10
194.310905
 20
-512.969567
 30
0.0
 11
194.310905
 21
-517.719567
 31
0.0
  0
LINE
  5
181
100
AcDbEntity
  8
V0-OBRYS
  6
CONTINUOUS
 62
    90
 48
3.0
100
AcDbLine
 10
334.123734
 20
-512.969571
 30
0.0
 11
334.123734
 21
-517.719571
 31
0.0
  0
LINE
  5
182
100
AcDbEntity
  8
V0-OBRYS
  6
CONTINUOUS
 62
    90
 48
3.0
100
AcDbLine
 10
638.264469
 20
132.450177
 30
0.0
 11
638.264476
 21
-134.861638
 31
0.0
  0
LINE
  5
183
100
AcDbEntity
  8
V0-OBRYS
  6
CONTINUOUS
 62
    90
 48
3.0
100
AcDbLine
 10
714.264474
 20
68.700687
 30
0.0
 11
714.26447
 21
-71.112142
 31
0.0
  0
LINE
  5
184
100
AcDbEntity
  8
V0-OBRYS
  6
CONTINUOUS
 62
    90
 48
3.0
100
AcDbLine
 10
709.514474
 20
68.700687
 30
0.0
 11
714.264474
 21
68.700687
 31
0.0
  0
LINE
  5
185
100
AcDbEntity
  8
V0-OBRYS
  6
CONTINUOUS
 62
    90
 48
3.0
100
AcDbLine
 10
709.51447
 20
-71.112142
 30
0.0
 11
714.26447
 21
-71.112142
 31
0.0
  0
LINE
  5
186
100
AcDbEntity
  8
V0-VYPLNE
  6
DASHDOT
 62
    63
 48
3.0
100
AcDbLine
 10
256.047938
 20
-573.015404
 30
0.0
 11
256.047938
 21
-624.59932
 31
0.0
  0
ARC
  5
188
100
AcDbEntity
  8
V0-OBRYS
  6
CONTINUOUS
 62
    90
 48
3.0
100
AcDbCircle
 10
187.149336
 20
-139.257662
 30
0.0
 40
4.75
100
AcDbArc
 50
270.0
 51
0.0
  0
CIRCLE
  5
277
100
AcDbEntity
  8
V0-OBRYS
  6
CONTINUOUS
 62
    90
 48
3.0
100
AcDbCircle
 10
676.264472
 20
-172.528615
 30
0.0
 40
30.0
  0
DIMENSION
  5
2AB
100
AcDbEntity
  8
V0-VYPLNE
  6
CONTINUOUS
 62
    41
 48
3.0
100
AcDbDimension
  2
*D1
 10
75.984876
 20
-220.028615
 30
0.0
 11
62.982907
 21
-33.910964
 31
0.0
 70
    32
  3
ED20
100
AcDbAlignedDimension
 13
264.217319
 23
152.206688
 33
0.0
 14
109.844721
 24
-220.028615
 34
0.0
 50
90.0
100
AcDbRotatedDimension
1001
ACAD
1000
DSTYLE
1002
{
1070
   140
1040
30.0
1070
   340
1005
1F
1070
    41
1040
30.0
1002
}
  0
DIMENSION
  5
2B8
100
AcDbEntity
  8
V0-VYPLNE
  6
CONTINUOUS
 62
    41
 48
3.0
100
AcDbDimension
  2
*D2
 10
714.264472
 20
208.417273
 30
0.0
 11
607.764472
 21
221.419242
 31
0.0
 70
    32
  3
ED20
100
AcDbAlignedDimension
 13
501.264472
 23
-1.205724
 33
0.0
 14
714.264472
 24
-1.205728
 34
0.0
100
AcDbRotatedDimension
1001
ACAD
1000
DSTYLE
1002
{
1070
   140
1040
30.0
1070
   340
1005
1F
1070
    41
1040
30.0
1002
}
  0
DIMENSION
  5
2C4
100
AcDbEntity
  8
V0-VYPLNE
  6
CONTINUOUS
 62
    41
 48
3.0
100
AcDbDimension
  2
*D3
 10
706.019215
 20
-176.356842
 30
0.0
 11
564.180467
 21
-158.107957
 31
0.0
 70
   163
  3
ED20
100
AcDbDiametricDimension
 15
646.50973
 25
-168.700388
 35
0.0
 40
0.0
1001
ACAD
1000
DSTYLE
1002
{
1070
   288
1070
     1
1070
   140
1040
30.0
1070
   340
1005
1F
1070
    41
1040
30.0
1002
}
  0
DIMENSION
  5
2D1
100
AcDbEntity
  8
V0-VYPLNE
  6
CONTINUOUS
 62
    41
 48
3.0
100
AcDbDimension
  2
*D4
 10
576.164472
 20
-264.035127
 30
0.0
 11
649.964472
 21
-251.035127
 31
0.0
 70
    32
  3
ED20
100
AcDbAlignedDimension
 13
723.764472
 23
-224.325647
 33
0.0
 14
576.164472
 24
-224.325647
 34
0.0
100
AcDbRotatedDimension
1001
ACAD
1000
DSTYLE
1002
{
1070
   140
1040
30.0
1070
   340
1005
1F
1070
    41
1040
30.0
1002
}
  0
DIMENSION
  5
307
100
AcDbEntity
  8
V0-VYPLNE
  6
CONTINUOUS
 62
    41
 48
3.0
100
AcDbDimension
  2
*D5
 10
315.500286
 20
18.609768
 30
0.0
 11
259.653015
 21
10.78029
 31
0.0
 70
    33
  1
%%c<>
  3
ED20
100
AcDbAlignedDimension
 13
213.237919
 23
-21.230961
 33
0.0
 14
315.484368
 24
18.650577
 34
0.0
1001
ACAD
1000
DSTYLE
1002
{
1070
   140
1040
30.0
1070
   340
1005
1F
1070
    41
1040
30.0
1002
}
  0
MTEXT
  5
329
100
AcDbEntity
  8
V0-ZBYTEK
 62
    51
100
AcDbMText
 10
659.178476
 20
-447.458054
 30
0.0
 40
22.05
 41
624.633
 71
     5
 72
     5
  1
SPECIALNI RADIALNI\PVENTILATOR
  7
ED10
  0
MTEXT
  5
32A
100
AcDbEntity
  8
V0-NAZVY
100
AcDbMText
 10
649.073026
 20
-371.777397
 30
0.0
 40
39.375
 41
323.8838
 71
     5
 72
     5
  1
CSB/CST-60
  7
ED10
  0
MTEXT
  5
32B
100
AcDbEntity
  8
V0-NAZVY
100
AcDbMText
 10
563.099157
 20
100.662539
 30
0.0
 40
27.5625
 41
226.7187
 71
     5
 72
     5
  1
CSB/CST-60
  7
ED10
  0
DIMENSION
  5
349
100
AcDbEntity
  8
V0-VYPLNE
  6
CONTINUOUS
 62
    41
 48
3.0
100
AcDbDimension
  2
*D6
 10
439.722172
 20
178.771003
 30
0.0
 11
273.562136
 21
191.772972
 31
0.0
 70
    32
  3
ED20
100
AcDbAlignedDimension
 13
107.402099
 23
-0.411013
 33
0.0
 14
439.722172
 24
5.767676
 34
0.0
100
AcDbRotatedDimension
1001
ACAD
1000
DSTYLE
1002
{
1070
   140
1040
30.0
1070
   340
1005
1F
1070
    41
1040
30.0
1002
}
  0
POINT
  5
364
100
AcDbEntity
  8
V0-VYPLNE
  6
CONTINUOUS
 62
    41
 48
3.0
100
AcDbPoint
 10
109.844721
 20
-172.528615
 30
0.0
  0
POINT
  5
365
100
AcDbEntity
  8
V0-VYPLNE
  6
CONTINUOUS
 62
    41
 48
3.0
100
AcDbPoint
 10
109.844721
 20
-479.445648
 30
0.0
  0
POINT
  5
366
100
AcDbEntity
  8
V0-VYPLNE
  6
CONTINUOUS
 62
    41
 48
3.0
100
AcDbPoint
 10
676.264472
 20
-172.528615
 30
0.0
  0
MTEXT
  5
4EE
100
AcDbEntity
  8
V0-NAZVY
100
AcDbMText
 10
260.053253
 20
-253.59276
 30
0.0
 40
27.5625
 41
226.7187
 71
     5
 72
     5
  1
CSB/CST-60
  7
ED10
  0
MTEXT
  5
4EF
100
AcDbEntity
  8
V0-NAZVY
100
AcDbMText
 10
258.072562
 20
-548.475662
 30
0.0
 40
27.5625
 41
226.7187
 71
     5
 72
     5
  1
CSB/CST-60
  7
ED10
  0
ENDSEC
  0
SECTION
  2
OBJECTS
  0
DICTIONARY
  5
1A
100
AcDbDictionary
  3
ACAD_GROUP
350
18
  3
ACAD_MLINESTYLE
350
19
  3
ACDBVARIABLEDICTIONARY
350
D9
  0
DICTIONARY
  5
18
102
{ACAD_REACTORS
330
1A
102
}
100
AcDbDictionary
  0
DICTIONARY
  5
19
102
{ACAD_REACTORS
330
1A
102
}
100
AcDbDictionary
  3
STANDARD
350
1D
  0
DICTIONARY
  5
D9
102
{ACAD_REACTORS
330
1A
102
}
100
AcDbDictionary
  3
SORTENTS
350
DA
  0
MLINESTYLE
  5
1D
102
{ACAD_REACTORS
330
19
102
}
100
AcDbMlineStyle
  2
STANDARD
 70
     0
  3

 62
     0
 51
90.0
 52
90.0
 71
     2
 49
0.5
 62
   256
  6
BYLAYER
 49
-0.5
 62
   256
  6
BYLAYER
  0
DICTIONARYVAR
  5
DA
102
{ACAD_REACTORS
330
D9
102
}
100
DictionaryVariables
280
     0
  1
96
  0
ENDSEC
  0
EOF
