  0
SECTION
  2
HEADER
  9
$ACADVER
  1
AC1014
  9
$ACADMAINTVER
 70
     0
  9
$DWGCODEPAGE
  3
ANSI_1250
  9
$INSBASE
 10
0.0
 20
0.0
 30
0.0
  9
$EXTMIN
 10
-305.503045
 20
-719.763046
 30
0.0
  9
$EXTMAX
 10
980.547896
 20
529.064244
 30
0.0
  9
$LIMMIN
 10
0.0
 20
0.0
  9
$LIMMAX
 10
420.0
 20
297.0
  9
$ORTHOMODE
 70
     0
  9
$REGENMODE
 70
     1
  9
$FILLMODE
 70
     1
  9
$QTEXTMODE
 70
     0
  9
$MIRRTEXT
 70
     1
  9
$DRAGMODE
 70
     2
  9
$LTSCALE
 40
1.0
  9
$OSMODE
 70
    15
  9
$ATTMODE
 70
     1
  9
$TEXTSIZE
 40
25.0
  9
$TRACEWID
 40
1.0
  9
$TEXTSTYLE
  7
ED40
  9
$CLAYER
  8
V0-VYPLNE
  9
$CELTYPE
  6
CONTINUOUS
  9
$CECOLOR
 62
    41
  9
$CELTSCALE
 40
3.0
  9
$DELOBJ
 70
     1
  9
$DISPSILH
 70
     0
  9
$DIMSCALE
 40
1.0
  9
$DIMASZ
 40
30.0
  9
$DIMEXO
 40
0.625
  9
$DIMDLI
 40
3.75
  9
$DIMRND
 40
0.0
  9
$DIMDLE
 40
0.0
  9
$DIMEXE
 40
1.25
  9
$DIMTP
 40
0.0
  9
$DIMTM
 40
0.0
  9
$DIMTXT
 40
30.0
  9
$DIMCEN
 40
50.0
  9
$DIMTSZ
 40
0.0
  9
$DIMTOL
 70
     0
  9
$DIMLIM
 70
     0
  9
$DIMTIH
 70
     0
  9
$DIMTOH
 70
     0
  9
$DIMSE1
 70
     0
  9
$DIMSE2
 70
     0
  9
$DIMTAD
 70
     1
  9
$DIMZIN
 70
     8
  9
$DIMBLK
  1

  9
$DIMASO
 70
     1
  9
$DIMSHO
 70
     1
  9
$DIMPOST
  1

  9
$DIMAPOST
  1

  9
$DIMALT
 70
     0
  9
$DIMALTD
 70
     4
  9
$DIMALTF
 40
0.0394
  9
$DIMLFAC
 40
1.0
  9
$DIMTOFL
 70
     1
  9
$DIMTVP
 40
0.0
  9
$DIMTIX
 70
     0
  9
$DIMSOXD
 70
     0
  9
$DIMSAH
 70
     1
  9
$DIMBLK1
  1
_OPEN
  9
$DIMBLK2
  1
_OPEN
  9
$DIMSTYLE
  2
ED20
  9
$DIMCLRD
 70
     0
  9
$DIMCLRE
 70
     0
  9
$DIMCLRT
 70
     0
  9
$DIMTFAC
 40
1.0
  9
$DIMGAP
 40
3.0
  9
$DIMJUST
 70
     0
  9
$DIMSD1
 70
     0
  9
$DIMSD2
 70
     0
  9
$DIMTOLJ
 70
     1
  9
$DIMTZIN
 70
     8
  9
$DIMALTZ
 70
     0
  9
$DIMALTTZ
 70
     0
  9
$DIMFIT
 70
     3
  9
$DIMUPT
 70
     0
  9
$DIMUNIT
 70
     2
  9
$DIMDEC
 70
     0
  9
$DIMTDEC
 70
     1
  9
$DIMALTU
 70
     8
  9
$DIMALTTD
 70
     4
  9
$DIMTXSTY
  7
ED
  9
$DIMAUNIT
 70
     0
  9
$LUNITS
 70
     2
  9
$LUPREC
 70
     4
  9
$SKETCHINC
 40
1.0
  9
$FILLETRAD
 40
5.0
  9
$AUNITS
 70
     0
  9
$AUPREC
 70
     0
  9
$MENU
  1
.
  9
$ELEVATION
 40
0.0
  9
$PELEVATION
 40
0.0
  9
$THICKNESS
 40
0.0
  9
$LIMCHECK
 70
     0
  9
$BLIPMODE
 70
     0
  9
$CHAMFERA
 40
10.0
  9
$CHAMFERB
 40
10.0
  9
$CHAMFERC
 40
20.0
  9
$CHAMFERD
 40
0.0
  9
$SKPOLY
 70
     1
  9
$TDCREATE
 40
2451196.643769328
  9
$TDUPDATE
 40
2452951.663266550
  9
$TDINDWG
 40
0.3912973380
  9
$TDUSRTIMER
 40
0.3912973380
  9
$USRTIMER
 70
     1
  9
$ANGBASE
 50
0.0
  9
$ANGDIR
 70
     0
  9
$PDMODE
 70
     3
  9
$PDSIZE
 40
15.0
  9
$PLINEWID
 40
0.0
  9
$COORDS
 70
     1
  9
$SPLFRAME
 70
     0
  9
$SPLINETYPE
 70
     6
  9
$SPLINESEGS
 70
     8
  9
$ATTDIA
 70
     0
  9
$ATTREQ
 70
     1
  9
$HANDLING
 70
     1
  9
$HANDSEED
  5
84A
  9
$SURFTAB1
 70
     6
  9
$SURFTAB2
 70
     6
  9
$SURFTYPE
 70
     6
  9
$SURFU
 70
     6
  9
$SURFV
 70
     6
  9
$UCSNAME
  2

  9
$UCSORG
 10
714.2644724051949
 20
-1.205727925487281
 30
0.0
  9
$UCSXDIR
 10
1.0
 20
0.0
 30
0.0
  9
$UCSYDIR
 10
0.0
 20
1.0
 30
0.0
  9
$PUCSNAME
  2

  9
$PUCSORG
 10
0.0
 20
0.0
 30
0.0
  9
$PUCSXDIR
 10
1.0
 20
0.0
 30
0.0
  9
$PUCSYDIR
 10
0.0
 20
1.0
 30
0.0
  9
$USERI1
 70
     0
  9
$USERI2
 70
     0
  9
$USERI3
 70
     2
  9
$USERI4
 70
     2
  9
$USERI5
 70
     6
  9
$USERR1
 40
281.0
  9
$USERR2
 40
321.0
  9
$USERR3
 40
0.0
  9
$USERR4
 40
0.0
  9
$USERR5
 40
0.0
  9
$WORLDVIEW
 70
     1
  9
$SHADEDGE
 70
     3
  9
$SHADEDIF
 70
    70
  9
$TILEMODE
 70
     1
  9
$MAXACTVP
 70
    48
  9
$PINSBASE
 10
0.0
 20
0.0
 30
0.0
  9
$PLIMCHECK
 70
     0
  9
$PEXTMIN
 10
1.000000E+20
 20
1.000000E+20
 30
1.000000E+20
  9
$PEXTMAX
 10
-1.000000E+20
 20
-1.000000E+20
 30
-1.000000E+20
  9
$PLIMMIN
 10
0.0
 20
0.0
  9
$PLIMMAX
 10
420.0
 20
297.0
  9
$UNITMODE
 70
     0
  9
$VISRETAIN
 70
     1
  9
$PLINEGEN
 70
     0
  9
$PSLTSCALE
 70
     0
  9
$TREEDEPTH
 70
  3020
  9
$PICKSTYLE
 70
     0
  9
$CMLSTYLE
  2
STANDARD
  9
$CMLJUST
 70
     0
  9
$CMLSCALE
 40
1.0
  9
$PROXYGRAPHICS
 70
     1
  9
$MEASUREMENT
 70
     0
  0
ENDSEC
  0
SECTION
  2
CLASSES
  0
CLASS
  1
DICTIONARYVAR
  2
AcDbDictionaryVar
  3
"AutoCAD"
 90
        0
280
     0
281
     0
  0
CLASS
  1
LWPOLYLINE
  2
AcDbPolyline
  3
"AutoCAD"
 90
        0
280
     0
281
     1
  0
CLASS
  1
HATCH
  2
AcDbHatch
  3
"ACAD_SEDONA"
 90
        0
280
     0
281
     1
  0
ENDSEC
  0
SECTION
  2
TABLES
  0
TABLE
  2
VPORT
  5
12
100
AcDbSymbolTable
 70
     7
  0
VPORT
  5
849
100
AcDbSymbolTableRecord
100
AcDbViewportTableRecord
  2
*ACTIVE
 70
     0
 10
0.0
 20
0.0
 11
1.0
 21
1.0
 12
392.833869
 22
-111.760297
 13
0.0
 23
0.0
 14
10.0
 24
10.0
 15
10.0
 25
10.0
 16
0.0
 26
0.0
 36
1.0
 17
0.0
 27
0.0
 37
0.0
 40
1574.954316
 41
1.525194
 42
50.0
 43
0.0
 44
0.0
 50
0.0
 51
0.0
 71
     0
 72
   100
 73
     1
 74
     1
 75
     0
 76
     0
 77
     0
 78
     0
  0
ENDTAB
  0
TABLE
  2
LTYPE
  5
D
100
AcDbSymbolTable
 70
     2
  0
LTYPE
  5
E
100
AcDbSymbolTableRecord
100
AcDbLinetypeTableRecord
  2
BYBLOCK
 70
     0
  3

 72
    65
 73
     0
 40
0.0
  0
LTYPE
  5
F
100
AcDbSymbolTableRecord
100
AcDbLinetypeTableRecord
  2
BYLAYER
 70
     0
  3

 72
    65
 73
     0
 40
0.0
  0
LTYPE
  5
5
100
AcDbSymbolTableRecord
100
AcDbLinetypeTableRecord
  2
CONTINUOUS
 70
     0
  3
Solid line
 72
    65
 73
     0
 40
0.0
  0
LTYPE
  5
2E
100
AcDbSymbolTableRecord
100
AcDbLinetypeTableRecord
  2
DASHDOT
 70
     0
  3
Dash dot __ . __ . __ . __ . __ . __ . __ . __
 72
    65
 73
     4
 40
25.4
 49
12.7
 74
     0
 49
-6.35
 74
     0
 49
0.0
 74
     0
 49
-6.35
 74
     0
  0
ENDTAB
  0
TABLE
  2
LAYER
  5
A
100
AcDbSymbolTable
 70
     6
  0
LAYER
  5
4
100
AcDbSymbolTableRecord
100
AcDbLayerTableRecord
  2
0
 70
     0
 62
     7
  6
CONTINUOUS
  0
LAYER
  5
27
100
AcDbSymbolTableRecord
100
AcDbLayerTableRecord
  2
V0-OBRYS
 70
     0
 62
    90
  6
CONTINUOUS
  0
LAYER
  5
2D
100
AcDbSymbolTableRecord
100
AcDbLayerTableRecord
  2
V0-VYPLNE
 70
     0
 62
    52
  6
CONTINUOUS
  0
LAYER
  5
31
100
AcDbSymbolTableRecord
100
AcDbLayerTableRecord
  2
V0-NAZVY
 70
     0
 62
   210
  6
CONTINUOUS
  0
LAYER
  5
1B
100
AcDbSymbolTableRecord
100
AcDbLayerTableRecord
  2
V0-ZBYTEK
 70
     0
 62
    51
  6
CONTINUOUS
  0
LAYER
  5
193
100
AcDbSymbolTableRecord
100
AcDbLayerTableRecord
  2
DEFPOINTS
 70
     0
 62
     7
  6
CONTINUOUS
  0
ENDTAB
  0
TABLE
  2
STYLE
  5
B
100
AcDbSymbolTable
 70
     4
  0
STYLE
  5
C
100
AcDbSymbolTableRecord
100
AcDbTextStyleTableRecord
  2
STANDARD
 70
     0
 40
0.0
 41
1.0
 50
0.0
 71
     0
 42
2.5
  3
ISOCP
  4

  0
STYLE
  5
1F
100
AcDbSymbolTableRecord
100
AcDbTextStyleTableRecord
  2
ED
 70
     0
 40
20.0
 41
1.0
 50
0.0
 71
     0
 42
2.5
  3
ISOCP.shx
  4

  0
STYLE
  5
1C
100
AcDbSymbolTableRecord
100
AcDbTextStyleTableRecord
  2
ED40
 70
     0
 40
70.0
 41
1.0
 50
0.0
 71
     0
 42
25.0
  3
romans.shx
  4

  0
STYLE
  5
31F
100
AcDbSymbolTableRecord
100
AcDbTextStyleTableRecord
  2
ED10
 70
     0
 40
10.0
 41
1.0
 50
0.0
 71
     0
 42
10.0
  3
ISOCP.shx
  4

  0
ENDTAB
  0
TABLE
  2
VIEW
  5
10
100
AcDbSymbolTable
 70
     0
  0
ENDTAB
  0
TABLE
  2
UCS
  5
11
100
AcDbSymbolTable
 70
     0
  0
ENDTAB
  0
TABLE
  2
APPID
  5
14
100
AcDbSymbolTable
 70
     3
  0
APPID
  5
15
100
AcDbSymbolTableRecord
100
AcDbRegAppTableRecord
  2
ACAD
 70
     0
  0
APPID
  5
3F3
100
AcDbSymbolTableRecord
100
AcDbRegAppTableRecord
  2
CONTENTBLOCKICON
 70
     0
  0
APPID
  5
3F4
100
AcDbSymbolTableRecord
100
AcDbRegAppTableRecord
  2
CONTENTBLOCKDESCRIPTION
 70
     0
  0
ENDTAB
  0
TABLE
  2
DIMSTYLE
  5
16
100
AcDbSymbolTable
 70
     3
  0
DIMSTYLE
105
1E
100
AcDbSymbolTableRecord
100
AcDbDimStyleTableRecord
  2
ED40
 70
     0
  3

  4

  5

  6
_OPEN
  7
_OPEN
 40
1.0
 41
50.0
 42
0.625
 43
3.75
 44
1.25
 45
0.0
 46
0.0
 47
0.0
 48
0.0
140
50.0
141
50.0
142
0.0
143
0.0394
144
1.0
145
0.0
146
1.0
147
3.0
 71
     0
 72
     0
 73
     0
 74
     0
 75
     0
 76
     0
 77
     1
 78
     8
170
     0
171
     4
172
     1
173
     1
174
     0
175
     0
176
     0
177
     0
178
     0
270
     2
271
     0
272
     1
273
     8
274
     4
340
1F
275
     0
280
     0
281
     0
282
     0
283
     1
284
     8
285
     0
286
     0
287
     3
288
     0
  0
DIMSTYLE
105
284
102
{ACAD_REACTORS
330
307
330
650
330
6F7
330
7F4
330
80C
330
819
330
826
102
}
100
AcDbSymbolTableRecord
100
AcDbDimStyleTableRecord
  2
ED20
 70
     0
  3

  4

  5

  6
_OPEN
  7
_OPEN
 40
1.0
 41
30.0
 42
0.625
 43
3.75
 44
1.25
 45
0.0
 46
0.0
 47
0.0
 48
0.0
140
30.0
141
50.0
142
0.0
143
0.0394
144
1.0
145
0.0
146
1.0
147
3.0
 71
     0
 72
     0
 73
     0
 74
     0
 75
     0
 76
     0
 77
     1
 78
     8
170
     0
171
     4
172
     1
173
     1
174
     0
175
     0
176
     0
177
     0
178
     0
270
     2
271
     0
272
     1
273
     8
274
     4
340
1F
275
     0
280
     0
281
     0
282
     0
283
     1
284
     8
285
     0
286
     0
287
     3
288
     0
  0
DIMSTYLE
105
320
100
AcDbSymbolTableRecord
100
AcDbDimStyleTableRecord
  2
ED10
 70
     0
  3

  4

  5

  6
_OPEN
  7
_OPEN
 40
1.0
 41
10.0
 42
1.0
 43
3.75
 44
1.25
 45
0.0
 46
0.0
 47
0.0
 48
0.0
140
10.0
141
2.0
142
0.0
143
0.0394
144
1.0
145
0.0
146
1.0
147
1.5
 71
     0
 72
     0
 73
     0
 74
     0
 75
     0
 76
     0
 77
     1
 78
     8
170
     0
171
     4
172
     1
173
     1
174
     0
175
     0
176
     0
177
     0
178
     0
270
     2
271
     0
272
     1
273
     8
274
     4
340
31F
275
     0
280
     0
281
     0
282
     0
283
     1
284
     8
285
     0
286
     0
287
     3
288
     0
  0
ENDTAB
  0
TABLE
  2
BLOCK_RECORD
  5
1
100
AcDbSymbolTable
 70
    19
  0
BLOCK_RECORD
  5
2
100
AcDbSymbolTableRecord
100
AcDbBlockTableRecord
  2
*MODEL_SPACE
  0
BLOCK_RECORD
  5
7
100
AcDbSymbolTableRecord
100
AcDbBlockTableRecord
  2
*PAPER_SPACE
  0
BLOCK_RECORD
  5
20
100
AcDbSymbolTableRecord
100
AcDbBlockTableRecord
  2
_OPEN
  0
BLOCK_RECORD
  5
29F
100
AcDbSymbolTableRecord
100
AcDbBlockTableRecord
  2
*D1
  0
BLOCK_RECORD
  5
2AC
100
AcDbSymbolTableRecord
100
AcDbBlockTableRecord
  2
*D2
  0
BLOCK_RECORD
  5
2B9
100
AcDbSymbolTableRecord
100
AcDbBlockTableRecord
  2
*D3
  0
BLOCK_RECORD
  5
2C5
100
AcDbSymbolTableRecord
100
AcDbBlockTableRecord
  2
*D4
  0
BLOCK_RECORD
  5
2FB
100
AcDbSymbolTableRecord
100
AcDbBlockTableRecord
  2
*D5
  0
BLOCK_RECORD
  5
33D
100
AcDbSymbolTableRecord
100
AcDbBlockTableRecord
  2
*D6
  0
BLOCK_RECORD
  5
62A
100
AcDbSymbolTableRecord
100
AcDbBlockTableRecord
  2
*D7
  0
BLOCK_RECORD
  5
637
100
AcDbSymbolTableRecord
100
AcDbBlockTableRecord
  2
*D8
  0
BLOCK_RECORD
  5
644
100
AcDbSymbolTableRecord
100
AcDbBlockTableRecord
  2
*D9
  0
BLOCK_RECORD
  5
6BF
100
AcDbSymbolTableRecord
100
AcDbBlockTableRecord
  2
*D10
  0
BLOCK_RECORD
  5
6EC
100
AcDbSymbolTableRecord
100
AcDbBlockTableRecord
  2
*D11
  0
BLOCK_RECORD
  5
71E
100
AcDbSymbolTableRecord
100
AcDbBlockTableRecord
  2
*D12
  0
BLOCK_RECORD
  5
72B
100
AcDbSymbolTableRecord
100
AcDbBlockTableRecord
  2
*D13
  0
BLOCK_RECORD
  5
78F
100
AcDbSymbolTableRecord
100
AcDbBlockTableRecord
  2
*D14
  0
BLOCK_RECORD
  5
7E8
100
AcDbSymbolTableRecord
100
AcDbBlockTableRecord
  2
*D15
  0
BLOCK_RECORD
  5
800
100
AcDbSymbolTableRecord
100
AcDbBlockTableRecord
  2
*D16
  0
BLOCK_RECORD
  5
80D
100
AcDbSymbolTableRecord
100
AcDbBlockTableRecord
  2
*D17
  0
BLOCK_RECORD
  5
81A
100
AcDbSymbolTableRecord
100
AcDbBlockTableRecord
  2
*D18
  0
ENDTAB
  0
ENDSEC
  0
SECTION
  2
BLOCKS
  0
BLOCK
  5
3
100
AcDbEntity
  8
0
100
AcDbBlockBegin
  2
*MODEL_SPACE
 70
     0
 10
0.0
 20
0.0
 30
0.0
  3
*MODEL_SPACE
  1

  0
ENDBLK
  5
6
100
AcDbEntity
  8
0
100
AcDbBlockEnd
  0
BLOCK
  5
8
100
AcDbEntity
 67
     1
  8
0
100
AcDbBlockBegin
  2
*PAPER_SPACE
 70
     0
 10
0.0
 20
0.0
 30
0.0
  3
*PAPER_SPACE
  1

  0
ENDBLK
  5
9
100
AcDbEntity
 67
     1
  8
0
100
AcDbBlockEnd
  0
BLOCK
  5
24
100
AcDbEntity
  8
0
100
AcDbBlockBegin
  2
_OPEN
 70
     0
 10
0.0
 20
0.0
 30
0.0
  3
_OPEN
  1

  0
LINE
  5
21
100
AcDbEntity
  8
0
  6
BYBLOCK
 62
     0
100
AcDbLine
 10
-1.0
 20
0.166667
 30
0.0
 11
0.0
 21
0.0
 31
0.0
  0
LINE
  5
22
100
AcDbEntity
  8
0
  6
BYBLOCK
 62
     0
100
AcDbLine
 10
0.0
 20
0.0
 30
0.0
 11
-1.0
 21
-0.166667
 31
0.0
  0
LINE
  5
23
100
AcDbEntity
  8
0
  6
BYBLOCK
 62
     0
100
AcDbLine
 10
0.0
 20
0.0
 30
0.0
 11
-1.0
 21
0.0
 31
0.0
  0
ENDBLK
  5
25
100
AcDbEntity
  8
0
100
AcDbBlockEnd
  0
BLOCK
  5
672
100
AcDbEntity
  8
0
 48
3.0
100
AcDbBlockBegin
  2
*D1
 70
     1
 10
0.0
 20
0.0
 30
0.0
  3
*D1
  1

  0
LINE
  5
673
100
AcDbEntity
  8
0
  6
BYBLOCK
 62
     0
 48
3.0
100
AcDbLine
 10
204.035472
 20
275.720413
 30
0.0
 11
-47.503375
 21
275.720413
 31
0.0
  0
LINE
  5
674
100
AcDbEntity
  8
0
  6
BYBLOCK
 62
     0
 48
3.0
100
AcDbLine
 10
-1.743202
 20
-220.469246
 30
0.0
 11
-47.503375
 21
-220.469246
 31
0.0
  0
LINE
  5
675
100
AcDbEntity
  8
0
  6
BYBLOCK
 62
     0
 48
3.0
100
AcDbLine
 10
-46.253375
 20
245.720413
 30
0.0
 11
-46.253375
 21
-190.469246
 31
0.0
  0
INSERT
  5
676
100
AcDbEntity
  8
0
  6
BYBLOCK
 62
     0
 48
3.0
100
AcDbBlockReference
  2
_OPEN
 10
-46.253375
 20
275.720413
 30
0.0
 41
30.0
 42
30.0
 43
30.0
 50
90.0
  0
INSERT
  5
677
100
AcDbEntity
  8
0
  6
BYBLOCK
 62
     0
 48
3.0
100
AcDbBlockReference
  2
_OPEN
 10
-46.253375
 20
-220.469246
 30
0.0
 41
30.0
 42
30.0
 43
30.0
 50
270.0
  0
MTEXT
  5
678
100
AcDbEntity
  8
0
  6
BYBLOCK
 62
     0
 48
3.0
100
AcDbMText
 10
-59.253375
 20
27.625583
 30
0.0
 40
20.0
 41
0.0
 71
     5
 72
     1
  1
\A1;448
  7
ED
 11
0.0
 21
1.0
 31
0.0
  0
POINT
  5
679
100
AcDbEntity
  8
DEFPOINTS
  6
BYBLOCK
 62
     0
 48
3.0
100
AcDbPoint
 10
204.660472
 20
275.720413
 30
0.0
  0
POINT
  5
67A
100
AcDbEntity
  8
DEFPOINTS
  6
BYBLOCK
 62
     0
 48
3.0
100
AcDbPoint
 10
-1.118202
 20
-220.469246
 30
0.0
  0
POINT
  5
67B
100
AcDbEntity
  8
DEFPOINTS
  6
BYBLOCK
 62
     0
 48
3.0
100
AcDbPoint
 10
-46.253375
 20
-220.469246
 30
0.0
  0
ENDBLK
  5
67C
100
AcDbEntity
  8
0
 48
3.0
100
AcDbBlockEnd
  0
BLOCK
  5
7BD
100
AcDbEntity
  8
0
 48
3.0
100
AcDbBlockBegin
  2
*D2
 70
     1
 10
0.0
 20
0.0
 30
0.0
  3
*D2
  1

  0
LINE
  5
7BE
100
AcDbEntity
  8
0
  6
BYBLOCK
 62
     0
 48
3.0
100
AcDbLine
 10
502.928359
 20
111.570231
 30
0.0
 11
502.928359
 21
433.536804
 31
0.0
  0
LINE
  5
7BF
100
AcDbEntity
  8
0
  6
BYBLOCK
 62
     0
 48
3.0
100
AcDbLine
 10
853.196709
 20
111.570225
 30
0.0
 11
853.196709
 21
433.536804
 31
0.0
  0
LINE
  5
7C0
100
AcDbEntity
  8
0
  6
BYBLOCK
 62
     0
 48
3.0
100
AcDbLine
 10
532.928359
 20
432.286804
 30
0.0
 11
823.196709
 21
432.286804
 31
0.0
  0
INSERT
  5
7C1
100
AcDbEntity
  8
0
  6
BYBLOCK
 62
     0
 48
3.0
100
AcDbBlockReference
  2
_OPEN
 10
502.928359
 20
432.286804
 30
0.0
 41
30.0
 42
30.0
 43
30.0
 50
180.0
  0
INSERT
  5
7C2
100
AcDbEntity
  8
0
  6
BYBLOCK
 62
     0
 48
3.0
100
AcDbBlockReference
  2
_OPEN
 10
853.196709
 20
432.286804
 30
0.0
 41
30.0
 42
30.0
 43
30.0
  0
MTEXT
  5
7C3
100
AcDbEntity
  8
0
  6
BYBLOCK
 62
     0
 48
3.0
100
AcDbMText
 10
678.062534
 20
445.286804
 30
0.0
 40
20.0
 41
0.0
 71
     5
 72
     1
  1
\A1;350
  7
ED
  0
POINT
  5
7C4
100
AcDbEntity
  8
DEFPOINTS
  6
BYBLOCK
 62
     0
 48
3.0
100
AcDbPoint
 10
502.928359
 20
110.945231
 30
0.0
  0
POINT
  5
7C5
100
AcDbEntity
  8
DEFPOINTS
  6
BYBLOCK
 62
     0
 48
3.0
100
AcDbPoint
 10
853.196709
 20
110.945225
 30
0.0
  0
POINT
  5
7C6
100
AcDbEntity
  8
DEFPOINTS
  6
BYBLOCK
 62
     0
 48
3.0
100
AcDbPoint
 10
853.196709
 20
432.286804
 30
0.0
  0
ENDBLK
  5
7C7
100
AcDbEntity
  8
0
 48
3.0
100
AcDbBlockEnd
  0
BLOCK
  5
69E
100
AcDbEntity
  8
0
 48
3.0
100
AcDbBlockBegin
  2
*D3
 70
     1
 10
0.0
 20
0.0
 30
0.0
  3
*D3
  1

  0
LINE
  5
69F
100
AcDbEntity
  8
0
  6
BYBLOCK
 62
     0
 48
3.0
100
AcDbLine
 10
609.107215
 20
-138.52031
 30
0.0
 11
684.501514
 21
-148.220493
 31
0.0
  0
LINE
  5
6A0
100
AcDbEntity
  8
0
  6
BYBLOCK
 62
     0
 48
3.0
100
AcDbLine
 10
823.337141
 20
-166.082999
 30
0.0
 11
853.091883
 21
-169.911226
 31
0.0
  0
MTEXT
  5
6A1
100
AcDbEntity
  8
0
  6
BYBLOCK
 62
     0
 48
3.0
100
AcDbMText
 10
633.585891
 20
-128.562567
 30
0.0
 40
20.0
 41
0.0
 71
     5
 72
     1
  1
\A1;\U+220580
  7
ED
 11
0.991825
 21
-0.127608
 31
0.0
  0
LINE
  5
6A2
100
AcDbEntity
  8
0
  6
BYBLOCK
 62
     0
 48
3.0
100
AcDbLine
 10
793.582399
 20
-162.254772
 30
0.0
 11
714.256256
 21
-152.04872
 31
0.0
  0
INSERT
  5
6A3
100
AcDbEntity
  8
0
  6
BYBLOCK
 62
     0
 48
3.0
100
AcDbBlockReference
  2
_OPEN
 10
793.582399
 20
-162.254772
 30
0.0
 41
30.0
 42
30.0
 43
30.0
 50
172.668636
  0
INSERT
  5
6A4
100
AcDbEntity
  8
0
  6
BYBLOCK
 62
     0
 48
3.0
100
AcDbBlockReference
  2
_OPEN
 10
714.256256
 20
-152.04872
 30
0.0
 41
30.0
 42
30.0
 43
30.0
 50
352.668636
  0
POINT
  5
6A5
100
AcDbEntity
  8
DEFPOINTS
  6
BYBLOCK
 62
     0
 48
3.0
100
AcDbPoint
 10
714.256256
 20
-152.04872
 30
0.0
  0
POINT
  5
6A6
100
AcDbEntity
  8
DEFPOINTS
  6
BYBLOCK
 62
     0
 48
3.0
100
AcDbPoint
 10
793.582399
 20
-162.254772
 30
0.0
  0
ENDBLK
  5
6A7
100
AcDbEntity
  8
0
 48
3.0
100
AcDbBlockEnd
  0
BLOCK
  5
76F
100
AcDbEntity
  8
0
 48
3.0
100
AcDbBlockBegin
  2
*D4
 70
     1
 10
0.0
 20
0.0
 30
0.0
  3
*D4
  1

  0
LINE
  5
770
100
AcDbEntity
  8
0
  6
BYBLOCK
 62
     0
 48
3.0
100
AcDbLine
 10
867.759734
 20
-231.711455
 30
0.0
 11
867.759734
 21
-293.209102
 31
0.0
  0
LINE
  5
771
100
AcDbEntity
  8
0
  6
BYBLOCK
 62
     0
 48
3.0
100
AcDbLine
 10
679.446314
 20
-231.711455
 30
0.0
 11
679.446314
 21
-293.209102
 31
0.0
  0
LINE
  5
772
100
AcDbEntity
  8
0
  6
BYBLOCK
 62
     0
 48
3.0
100
AcDbLine
 10
837.759734
 20
-291.959102
 30
0.0
 11
709.446314
 21
-291.959102
 31
0.0
  0
INSERT
  5
773
100
AcDbEntity
  8
0
  6
BYBLOCK
 62
     0
 48
3.0
100
AcDbBlockReference
  2
_OPEN
 10
867.759734
 20
-291.959102
 30
0.0
 41
30.0
 42
30.0
 43
30.0
  0
INSERT
  5
774
100
AcDbEntity
  8
0
  6
BYBLOCK
 62
     0
 48
3.0
100
AcDbBlockReference
  2
_OPEN
 10
679.446314
 20
-291.959102
 30
0.0
 41
30.0
 42
30.0
 43
30.0
 50
180.0
  0
MTEXT
  5
775
100
AcDbEntity
  8
0
  6
BYBLOCK
 62
     0
 48
3.0
100
AcDbMText
 10
773.603024
 20
-278.959102
 30
0.0
 40
20.0
 41
0.0
 71
     5
 72
     1
  1
\A1;188
  7
ED
  0
POINT
  5
776
100
AcDbEntity
  8
DEFPOINTS
  6
BYBLOCK
 62
     0
 48
3.0
100
AcDbPoint
 10
867.759734
 20
-231.086455
 30
0.0
  0
POINT
  5
777
100
AcDbEntity
  8
DEFPOINTS
  6
BYBLOCK
 62
     0
 48
3.0
100
AcDbPoint
 10
679.446314
 20
-231.086455
 30
0.0
  0
POINT
  5
778
100
AcDbEntity
  8
DEFPOINTS
  6
BYBLOCK
 62
     0
 48
3.0
100
AcDbPoint
 10
679.446314
 20
-291.959102
 30
0.0
  0
ENDBLK
  5
779
100
AcDbEntity
  8
0
 48
3.0
100
AcDbBlockEnd
  0
BLOCK
  5
7D3
100
AcDbEntity
  8
0
 48
3.0
100
AcDbBlockBegin
  2
*D5
 70
     1
 10
0.0
 20
0.0
 30
0.0
  3
*D5
  1

  0
LINE
  5
7D4
100
AcDbEntity
  8
0
  6
BYBLOCK
 62
     0
 48
3.0
100
AcDbLine
 10
88.601157
 20
80.891063
 30
0.0
 11
88.851668
 21
80.248812
 31
0.0
  0
LINE
  5
7D5
100
AcDbEntity
  8
0
  6
BYBLOCK
 62
     0
 48
3.0
100
AcDbLine
 10
238.869677
 20
139.503756
 30
0.0
 11
239.120189
 21
138.861505
 31
0.0
  0
LINE
  5
7D6
100
AcDbEntity
  8
0
  6
BYBLOCK
 62
     0
 48
3.0
100
AcDbLine
 10
116.346568
 20
92.315005
 30
0.0
 11
210.716819
 21
129.124408
 31
0.0
  0
INSERT
  5
7D7
100
AcDbEntity
  8
0
  6
BYBLOCK
 62
     0
 48
3.0
100
AcDbBlockReference
  2
_OPEN
 10
88.397433
 20
81.41336
 30
0.0
 41
30.0
 42
30.0
 43
30.0
 50
201.308421
  0
INSERT
  5
7D8
100
AcDbEntity
  8
0
  6
BYBLOCK
 62
     0
 48
3.0
100
AcDbBlockReference
  2
_OPEN
 10
238.665954
 20
140.026053
 30
0.0
 41
30.0
 42
30.0
 43
30.0
 50
21.308421
  0
MTEXT
  5
7D9
100
AcDbEntity
  8
0
  6
BYBLOCK
 62
     0
 48
3.0
100
AcDbMText
 10
158.807647
 20
122.830998
 30
0.0
 40
20.0
 41
0.0
 71
     5
 72
     1
  1
\A1;\U+2205160
  7
ED
 11
0.931638
 21
0.363388
 31
0.0
  0
POINT
  5
7DA
100
AcDbEntity
  8
DEFPOINTS
  6
BYBLOCK
 62
     0
 48
3.0
100
AcDbPoint
 10
88.374039
 20
81.473336
 30
0.0
  0
POINT
  5
7DB
100
AcDbEntity
  8
DEFPOINTS
  6
BYBLOCK
 62
     0
 48
3.0
100
AcDbPoint
 10
238.64256
 20
140.08603
 30
0.0
  0
POINT
  5
7DC
100
AcDbEntity
  8
DEFPOINTS
  6
BYBLOCK
 62
     0
 48
3.0
100
AcDbPoint
 10
238.665954
 20
140.026053
 30
0.0
  0
ENDBLK
  5
7DD
100
AcDbEntity
  8
0
 48
3.0
100
AcDbBlockEnd
  0
BLOCK
  5
65C
100
AcDbEntity
  8
0
 48
3.0
100
AcDbBlockBegin
  2
*D6
 70
     1
 10
0.0
 20
0.0
 30
0.0
  3
*D6
  1

  0
LINE
  5
65D
100
AcDbEntity
  8
0
  6
BYBLOCK
 62
     0
 48
3.0
100
AcDbLine
 10
-4.374216
 20
72.906017
 30
0.0
 11
-4.374216
 21
312.380645
 31
0.0
  0
LINE
  5
65E
100
AcDbEntity
  8
0
  6
BYBLOCK
 62
     0
 48
3.0
100
AcDbLine
 10
438.608441
 20
81.14221
 30
0.0
 11
438.608441
 21
312.380645
 31
0.0
  0
LINE
  5
65F
100
AcDbEntity
  8
0
  6
BYBLOCK
 62
     0
 48
3.0
100
AcDbLine
 10
25.625784
 20
311.130645
 30
0.0
 11
408.608441
 21
311.130645
 31
0.0
  0
INSERT
  5
660
100
AcDbEntity
  8
0
  6
BYBLOCK
 62
     0
 48
3.0
100
AcDbBlockReference
  2
_OPEN
 10
-4.374216
 20
311.130645
 30
0.0
 41
30.0
 42
30.0
 43
30.0
 50
180.0
  0
INSERT
  5
661
100
AcDbEntity
  8
0
  6
BYBLOCK
 62
     0
 48
3.0
100
AcDbBlockReference
  2
_OPEN
 10
438.608441
 20
311.130645
 30
0.0
 41
30.0
 42
30.0
 43
30.0
  0
MTEXT
  5
662
100
AcDbEntity
  8
0
  6
BYBLOCK
 62
     0
 48
3.0
100
AcDbMText
 10
217.117113
 20
324.130645
 30
0.0
 40
20.0
 41
0.0
 71
     5
 72
     1
  1
\A1;390
  7
ED
  0
POINT
  5
663
100
AcDbEntity
  8
DEFPOINTS
  6
BYBLOCK
 62
     0
 48
3.0
100
AcDbPoint
 10
-4.374216
 20
72.281017
 30
0.0
  0
POINT
  5
664
100
AcDbEntity
  8
DEFPOINTS
  6
BYBLOCK
 62
     0
 48
3.0
100
AcDbPoint
 10
438.608441
 20
80.51721
 30
0.0
  0
POINT
  5
665
100
AcDbEntity
  8
DEFPOINTS
  6
BYBLOCK
 62
     0
 48
3.0
100
AcDbPoint
 10
438.608441
 20
311.130645
 30
0.0
  0
ENDBLK
  5
666
100
AcDbEntity
  8
0
 48
3.0
100
AcDbBlockEnd
  0
BLOCK
  5
62B
100
AcDbEntity
  8
0
 48
3.0
100
AcDbBlockBegin
  2
*D7
 70
     1
 10
0.0
 20
0.0
 30
0.0
  3
*D7
  1

  0
LINE
  5
62C
100
AcDbEntity
  8
0
  6
BYBLOCK
 62
     0
 48
3.0
100
AcDbLine
 10
-652.433081
 20
492.289441
 30
0.0
 11
-652.433081
 21
543.331128
 31
0.0
  0
LINE
  5
62D
100
AcDbEntity
  8
0
  6
BYBLOCK
 62
     0
 48
3.0
100
AcDbLine
 10
-311.89362
 20
542.706128
 30
0.0
 11
-311.89362
 21
543.331128
 31
0.0
  0
LINE
  5
62E
100
AcDbEntity
  8
0
  6
BYBLOCK
 62
     0
 48
3.0
100
AcDbLine
 10
-622.433081
 20
542.081128
 30
0.0
 11
-341.89362
 21
542.081128
 31
0.0
  0
INSERT
  5
62F
100
AcDbEntity
  8
0
  6
BYBLOCK
 62
     0
 48
3.0
100
AcDbBlockReference
  2
_OPEN
 10
-652.433081
 20
542.081128
 30
0.0
 41
30.0
 42
30.0
 43
30.0
 50
180.0
  0
INSERT
  5
630
100
AcDbEntity
  8
0
  6
BYBLOCK
 62
     0
 48
3.0
100
AcDbBlockReference
  2
_OPEN
 10
-311.89362
 20
542.081128
 30
0.0
 41
30.0
 42
30.0
 43
30.0
  0
MTEXT
  5
631
100
AcDbEntity
  8
0
  6
BYBLOCK
 62
     0
 48
3.0
100
AcDbMText
 10
-482.16335
 20
555.081128
 30
0.0
 40
20.0
 41
0.0
 71
     5
 72
     1
  1
\A1;341
  7
ED
  0
POINT
  5
632
100
AcDbEntity
  8
DEFPOINTS
  6
BYBLOCK
 62
     0
 48
3.0
100
AcDbPoint
 10
-652.433081
 20
491.664441
 30
0.0
  0
POINT
  5
633
100
AcDbEntity
  8
DEFPOINTS
  6
BYBLOCK
 62
     0
 48
3.0
100
AcDbPoint
 10
-311.89362
 20
542.081128
 30
0.0
  0
POINT
  5
634
100
AcDbEntity
  8
DEFPOINTS
  6
BYBLOCK
 62
     0
 48
3.0
100
AcDbPoint
 10
-311.89362
 20
542.081128
 30
0.0
  0
ENDBLK
  5
635
100
AcDbEntity
  8
0
 48
3.0
100
AcDbBlockEnd
  0
BLOCK
  5
743
100
AcDbEntity
  8
0
 48
3.0
100
AcDbBlockBegin
  2
*D8
 70
     1
 10
0.0
 20
0.0
 30
0.0
  3
*D8
  1

  0
LINE
  5
744
100
AcDbEntity
  8
0
  6
BYBLOCK
 62
     0
 48
3.0
100
AcDbLine
 10
-77.092966
 20
113.363482
 30
0.0
 11
-77.092966
 21
444.038802
 31
0.0
  0
LINE
  5
745
100
AcDbEntity
  8
0
  6
BYBLOCK
 62
     0
 48
3.0
100
AcDbLine
 10
432.33709
 20
122.260105
 30
0.0
 11
432.33709
 21
444.038802
 31
0.0
  0
LINE
  5
746
100
AcDbEntity
  8
0
  6
BYBLOCK
 62
     0
 48
3.0
100
AcDbLine
 10
-47.092966
 20
442.788802
 30
0.0
 11
402.33709
 21
442.788802
 31
0.0
  0
INSERT
  5
747
100
AcDbEntity
  8
0
  6
BYBLOCK
 62
     0
 48
3.0
100
AcDbBlockReference
  2
_OPEN
 10
-77.092966
 20
442.788802
 30
0.0
 41
30.0
 42
30.0
 43
30.0
 50
180.0
  0
INSERT
  5
748
100
AcDbEntity
  8
0
  6
BYBLOCK
 62
     0
 48
3.0
100
AcDbBlockReference
  2
_OPEN
 10
432.33709
 20
442.788802
 30
0.0
 41
30.0
 42
30.0
 43
30.0
  0
MTEXT
  5
749
100
AcDbEntity
  8
0
  6
BYBLOCK
 62
     0
 48
3.0
100
AcDbMText
 10
177.622062
 20
455.788802
 30
0.0
 40
20.0
 41
0.0
 71
     5
 72
     1
  1
\A1;434
  7
ED
  0
POINT
  5
74A
100
AcDbEntity
  8
DEFPOINTS
  6
BYBLOCK
 62
     0
 48
3.0
100
AcDbPoint
 10
-77.092966
 20
112.738482
 30
0.0
  0
POINT
  5
74B
100
AcDbEntity
  8
DEFPOINTS
  6
BYBLOCK
 62
     0
 48
3.0
100
AcDbPoint
 10
432.33709
 20
121.635105
 30
0.0
  0
POINT
  5
74C
100
AcDbEntity
  8
DEFPOINTS
  6
BYBLOCK
 62
     0
 48
3.0
100
AcDbPoint
 10
432.33709
 20
442.788802
 30
0.0
  0
ENDBLK
  5
74D
100
AcDbEntity
  8
0
 48
3.0
100
AcDbBlockEnd
  0
BLOCK
  5
764
100
AcDbEntity
  8
0
 48
3.0
100
AcDbBlockBegin
  2
*D9
 70
     1
 10
0.0
 20
0.0
 30
0.0
  3
*D9
  1

  0
LINE
  5
765
100
AcDbEntity
  8
0
  6
BYBLOCK
 62
     0
 48
3.0
100
AcDbLine
 10
162.671925
 20
346.118787
 30
0.0
 11
-166.345178
 21
346.118787
 31
0.0
  0
LINE
  5
766
100
AcDbEntity
  8
0
  6
BYBLOCK
 62
     0
 48
3.0
100
AcDbLine
 10
-73.97355
 20
-224.49932
 30
0.0
 11
-166.345178
 21
-224.49932
 31
0.0
  0
LINE
  5
767
100
AcDbEntity
  8
0
  6
BYBLOCK
 62
     0
 48
3.0
100
AcDbLine
 10
-165.095178
 20
296.118787
 30
0.0
 11
-165.095178
 21
-174.49932
 31
0.0
  0
INSERT
  5
768
100
AcDbEntity
  8
0
  6
BYBLOCK
 62
     0
 48
3.0
100
AcDbBlockReference
  2
_OPEN
 10
-165.095178
 20
346.118787
 30
0.0
 41
50.0
 42
50.0
 43
50.0
 50
90.0
  0
INSERT
  5
769
100
AcDbEntity
  8
0
  6
BYBLOCK
 62
     0
 48
3.0
100
AcDbBlockReference
  2
_OPEN
 10
-165.095178
 20
-224.49932
 30
0.0
 41
50.0
 42
50.0
 43
50.0
 50
270.0
  0
MTEXT
  5
76A
100
AcDbEntity
  8
0
  6
BYBLOCK
 62
     0
 48
3.0
100
AcDbMText
 10
-178.095178
 20
60.809733
 30
0.0
 40
20.0
 41
0.0
 71
     5
 72
     1
  1
\A1;510
  7
ED
 11
0.0
 21
1.0
 31
0.0
  0
POINT
  5
76B
100
AcDbEntity
  8
DEFPOINTS
  6
BYBLOCK
 62
     0
 48
3.0
100
AcDbPoint
 10
163.296925
 20
346.118787
 30
0.0
  0
POINT
  5
76C
100
AcDbEntity
  8
DEFPOINTS
  6
BYBLOCK
 62
     0
 48
3.0
100
AcDbPoint
 10
-73.34855
 20
-224.49932
 30
0.0
  0
POINT
  5
76D
100
AcDbEntity
  8
DEFPOINTS
  6
BYBLOCK
 62
     0
 48
3.0
100
AcDbPoint
 10
-165.095178
 20
-224.49932
 30
0.0
  0
ENDBLK
  5
76E
100
AcDbEntity
  8
0
 48
3.0
100
AcDbBlockEnd
  0
BLOCK
  5
6C0
100
AcDbEntity
  8
0
 48
3.0
100
AcDbBlockBegin
  2
*D10
 70
     1
 10
0.0
 20
0.0
 30
0.0
  3
*D10
  1

  0
LINE
  5
6C1
100
AcDbEntity
  8
0
  6
BYBLOCK
 62
     0
 48
3.0
100
AcDbLine
 10
485.885067
 20
-246.333528
 30
0.0
 11
687.50888
 21
-179.248183
 31
0.0
  0
LINE
  5
6C2
100
AcDbEntity
  8
0
  6
BYBLOCK
 62
     0
 48
3.0
100
AcDbLine
 10
820.329775
 20
-135.055309
 30
0.0
 11
848.795462
 21
-125.584055
 31
0.0
  0
MTEXT
  5
6C3
100
AcDbEntity
  8
0
  6
BYBLOCK
 62
     0
 48
3.0
100
AcDbMText
 10
503.612021
 20
-226.734616
 30
0.0
 40
20.0
 41
0.0
 71
     5
 72
     1
  1
\A1;\U+220580
  7
ED
 11
0.948856
 21
0.315708
 31
0.0
  0
LINE
  5
6C4
100
AcDbEntity
  8
0
  6
BYBLOCK
 62
     0
 48
3.0
100
AcDbLine
 10
791.864088
 20
-144.526564
 30
0.0
 11
715.974567
 21
-169.776928
 31
0.0
  0
INSERT
  5
6C5
100
AcDbEntity
  8
0
  6
BYBLOCK
 62
     0
 48
3.0
100
AcDbBlockReference
  2
_OPEN
 10
791.864088
 20
-144.526564
 30
0.0
 41
30.0
 42
30.0
 43
30.0
 50
198.40359
  0
INSERT
  5
6C6
100
AcDbEntity
  8
0
  6
BYBLOCK
 62
     0
 48
3.0
100
AcDbBlockReference
  2
_OPEN
 10
715.974567
 20
-169.776928
 30
0.0
 41
30.0
 42
30.0
 43
30.0
 50
18.40359
  0
POINT
  5
6C7
100
AcDbEntity
  8
DEFPOINTS
  6
BYBLOCK
 62
     0
 48
3.0
100
AcDbPoint
 10
715.974567
 20
-169.776928
 30
0.0
  0
POINT
  5
6C8
100
AcDbEntity
  8
DEFPOINTS
  6
BYBLOCK
 62
     0
 48
3.0
100
AcDbPoint
 10
791.864088
 20
-144.526564
 30
0.0
  0
ENDBLK
  5
6C9
100
AcDbEntity
  8
0
 48
3.0
100
AcDbBlockEnd
  0
BLOCK
  5
7DE
100
AcDbEntity
  8
0
 48
3.0
100
AcDbBlockBegin
  2
*D11
 70
     1
 10
0.0
 20
0.0
 30
0.0
  3
*D11
  1

  0
LINE
  5
7DF
100
AcDbEntity
  8
0
  6
BYBLOCK
 62
     0
 48
3.0
100
AcDbLine
 10
980.547896
 20
-90.747373
 30
0.0
 11
878.064985
 21
-124.394314
 31
0.0
  0
LINE
  5
7E0
100
AcDbEntity
  8
0
  6
BYBLOCK
 62
     0
 48
3.0
100
AcDbLine
 10
711.824232
 20
-178.974077
 30
0.0
 11
683.321135
 21
-188.332145
 31
0.0
  0
MTEXT
  5
7E1
100
AcDbEntity
  8
0
  6
BYBLOCK
 62
     0
 48
3.0
100
AcDbMText
 10
949.882361
 20
-87.132683
 30
0.0
 40
20.0
 41
0.0
 71
     5
 72
     1
  1
\A1;\U+2205130
  7
ED
 11
0.950103
 21
0.311936
 31
0.0
  0
LINE
  5
7E2
100
AcDbEntity
  8
0
  6
BYBLOCK
 62
     0
 48
3.0
100
AcDbLine
 10
740.32733
 20
-169.616008
 30
0.0
 11
849.561888
 21
-133.752382
 31
0.0
  0
INSERT
  5
7E3
100
AcDbEntity
  8
0
  6
BYBLOCK
 62
     0
 48
3.0
100
AcDbBlockReference
  2
_OPEN
 10
740.32733
 20
-169.616008
 30
0.0
 41
30.0
 42
30.0
 43
30.0
 50
18.175918
  0
INSERT
  5
7E4
100
AcDbEntity
  8
0
  6
BYBLOCK
 62
     0
 48
3.0
100
AcDbBlockReference
  2
_OPEN
 10
849.561888
 20
-133.752382
 30
0.0
 41
30.0
 42
30.0
 43
30.0
 50
198.175918
  0
POINT
  5
7E5
100
AcDbEntity
  8
DEFPOINTS
  6
BYBLOCK
 62
     0
 48
3.0
100
AcDbPoint
 10
849.561888
 20
-133.752382
 30
0.0
  0
POINT
  5
7E6
100
AcDbEntity
  8
DEFPOINTS
  6
BYBLOCK
 62
     0
 48
3.0
100
AcDbPoint
 10
740.32733
 20
-169.616008
 30
0.0
  0
ENDBLK
  5
7E7
100
AcDbEntity
  8
0
 48
3.0
100
AcDbBlockEnd
  0
BLOCK
  5
738
100
AcDbEntity
  8
0
 48
3.0
100
AcDbBlockBegin
  2
*D12
 70
     1
 10
0.0
 20
0.0
 30
0.0
  3
*D12
  1

  0
LINE
  5
739
100
AcDbEntity
  8
0
  6
BYBLOCK
 62
     0
 48
3.0
100
AcDbLine
 10
-77.092966
 20
114.082232
 30
0.0
 11
-77.092966
 21
508.304577
 31
0.0
  0
LINE
  5
73A
100
AcDbEntity
  8
0
  6
BYBLOCK
 62
     0
 48
3.0
100
AcDbLine
 10
432.33709
 20
122.260105
 30
0.0
 11
432.33709
 21
508.304577
 31
0.0
  0
LINE
  5
73B
100
AcDbEntity
  8
0
  6
BYBLOCK
 62
     0
 48
3.0
100
AcDbLine
 10
-47.092966
 20
507.054577
 30
0.0
 11
402.33709
 21
507.054577
 31
0.0
  0
INSERT
  5
73C
100
AcDbEntity
  8
0
  6
BYBLOCK
 62
     0
 48
3.0
100
AcDbBlockReference
  2
_OPEN
 10
-77.092966
 20
507.054577
 30
0.0
 41
30.0
 42
30.0
 43
30.0
 50
180.0
  0
INSERT
  5
73D
100
AcDbEntity
  8
0
  6
BYBLOCK
 62
     0
 48
3.0
100
AcDbBlockReference
  2
_OPEN
 10
432.33709
 20
507.054577
 30
0.0
 41
30.0
 42
30.0
 43
30.0
  0
MTEXT
  5
73E
100
AcDbEntity
  8
0
  6
BYBLOCK
 62
     0
 48
3.0
100
AcDbMText
 10
177.622062
 20
520.054577
 30
0.0
 40
20.0
 41
0.0
 71
     5
 72
     1
  1
\A1;509
  7
ED
  0
POINT
  5
73F
100
AcDbEntity
  8
DEFPOINTS
  6
BYBLOCK
 62
     0
 48
3.0
100
AcDbPoint
 10
-77.092966
 20
113.457232
 30
0.0
  0
POINT
  5
740
100
AcDbEntity
  8
DEFPOINTS
  6
BYBLOCK
 62
     0
 48
3.0
100
AcDbPoint
 10
432.33709
 20
121.635105
 30
0.0
  0
POINT
  5
741
100
AcDbEntity
  8
DEFPOINTS
  6
BYBLOCK
 62
     0
 48
3.0
100
AcDbPoint
 10
432.33709
 20
507.054577
 30
0.0
  0
ENDBLK
  5
742
100
AcDbEntity
  8
0
 48
3.0
100
AcDbBlockEnd
  0
BLOCK
  5
759
100
AcDbEntity
  8
0
 48
3.0
100
AcDbBlockBegin
  2
*D13
 70
     1
 10
0.0
 20
0.0
 30
0.0
  3
*D13
  1

  0
LINE
  5
75A
100
AcDbEntity
  8
0
  6
BYBLOCK
 62
     0
 48
3.0
100
AcDbLine
 10
162.671925
 20
346.118787
 30
0.0
 11
-284.743378
 21
346.118787
 31
0.0
  0
LINE
  5
75B
100
AcDbEntity
  8
0
  6
BYBLOCK
 62
     0
 48
3.0
100
AcDbLine
 10
-73.97355
 20
-242.703102
 30
0.0
 11
-284.743378
 21
-242.703102
 31
0.0
  0
LINE
  5
75C
100
AcDbEntity
  8
0
  6
BYBLOCK
 62
     0
 48
3.0
100
AcDbLine
 10
-283.493378
 20
316.118787
 30
0.0
 11
-283.493378
 21
-212.703102
 31
0.0
  0
INSERT
  5
75D
100
AcDbEntity
  8
0
  6
BYBLOCK
 62
     0
 48
3.0
100
AcDbBlockReference
  2
_OPEN
 10
-283.493378
 20
346.118787
 30
0.0
 41
30.0
 42
30.0
 43
30.0
 50
90.0
  0
INSERT
  5
75E
100
AcDbEntity
  8
0
  6
BYBLOCK
 62
     0
 48
3.0
100
AcDbBlockReference
  2
_OPEN
 10
-283.493378
 20
-242.703102
 30
0.0
 41
30.0
 42
30.0
 43
30.0
 50
270.0
  0
MTEXT
  5
75F
100
AcDbEntity
  8
0
  6
BYBLOCK
 62
     0
 48
3.0
100
AcDbMText
 10
-296.493378
 20
51.707843
 30
0.0
 40
20.0
 41
0.0
 71
     5
 72
     1
  1
\A1;589
  7
ED
 11
0.0
 21
1.0
 31
0.0
  0
POINT
  5
760
100
AcDbEntity
  8
DEFPOINTS
  6
BYBLOCK
 62
     0
 48
3.0
100
AcDbPoint
 10
163.296925
 20
346.118787
 30
0.0
  0
POINT
  5
761
100
AcDbEntity
  8
DEFPOINTS
  6
BYBLOCK
 62
     0
 48
3.0
100
AcDbPoint
 10
-73.34855
 20
-242.703102
 30
0.0
  0
POINT
  5
762
100
AcDbEntity
  8
DEFPOINTS
  6
BYBLOCK
 62
     0
 48
3.0
100
AcDbPoint
 10
-283.493378
 20
-242.703102
 30
0.0
  0
ENDBLK
  5
763
100
AcDbEntity
  8
0
 48
3.0
100
AcDbBlockEnd
  0
BLOCK
  5
7B2
100
AcDbEntity
  8
0
 48
3.0
100
AcDbBlockBegin
  2
*D14
 70
     1
 10
0.0
 20
0.0
 30
0.0
  3
*D14
  1

  0
LINE
  5
7B3
100
AcDbEntity
  8
0
  6
BYBLOCK
 62
     0
 48
3.0
100
AcDbLine
 10
502.928359
 20
112.195231
 30
0.0
 11
502.928359
 21
492.663698
 31
0.0
  0
LINE
  5
7B4
100
AcDbEntity
  8
0
  6
BYBLOCK
 62
     0
 48
3.0
100
AcDbLine
 10
853.196709
 20
112.195225
 30
0.0
 11
853.196709
 21
492.663698
 31
0.0
  0
LINE
  5
7B5
100
AcDbEntity
  8
0
  6
BYBLOCK
 62
     0
 48
3.0
100
AcDbLine
 10
532.928359
 20
491.413698
 30
0.0
 11
823.196709
 21
491.413698
 31
0.0
  0
INSERT
  5
7B6
100
AcDbEntity
  8
0
  6
BYBLOCK
 62
     0
 48
3.0
100
AcDbBlockReference
  2
_OPEN
 10
502.928359
 20
491.413698
 30
0.0
 41
30.0
 42
30.0
 43
30.0
 50
180.0
  0
INSERT
  5
7B7
100
AcDbEntity
  8
0
  6
BYBLOCK
 62
     0
 48
3.0
100
AcDbBlockReference
  2
_OPEN
 10
853.196709
 20
491.413698
 30
0.0
 41
30.0
 42
30.0
 43
30.0
  0
MTEXT
  5
7B8
100
AcDbEntity
  8
0
  6
BYBLOCK
 62
     0
 48
3.0
100
AcDbMText
 10
678.062534
 20
504.413698
 30
0.0
 40
20.0
 41
0.0
 71
     5
 72
     1
  1
\A1;350
  7
ED
  0
POINT
  5
7B9
100
AcDbEntity
  8
DEFPOINTS
  6
BYBLOCK
 62
     0
 48
3.0
100
AcDbPoint
 10
502.928359
 20
111.570231
 30
0.0
  0
POINT
  5
7BA
100
AcDbEntity
  8
DEFPOINTS
  6
BYBLOCK
 62
     0
 48
3.0
100
AcDbPoint
 10
853.196709
 20
111.570225
 30
0.0
  0
POINT
  5
7BB
100
AcDbEntity
  8
DEFPOINTS
  6
BYBLOCK
 62
     0
 48
3.0
100
AcDbPoint
 10
853.196709
 20
491.413698
 30
0.0
  0
ENDBLK
  5
7BC
100
AcDbEntity
  8
0
 48
3.0
100
AcDbBlockEnd
  0
BLOCK
  5
7F5
100
AcDbEntity
  8
0
 48
3.0
100
AcDbBlockBegin
  2
*D15
 70
     1
 10
0.0
 20
0.0
 30
0.0
  3
*D15
  1

  0
LINE
  5
7F6
100
AcDbEntity
  8
0
  6
BYBLOCK
 62
     0
 48
3.0
100
AcDbLine
 10
654.307167
 20
-240.939254
 30
0.0
 11
654.307167
 21
-342.056853
 31
0.0
  0
LINE
  5
7F7
100
AcDbEntity
  8
0
  6
BYBLOCK
 62
     0
 48
3.0
100
AcDbLine
 10
886.824368
 20
-260.164819
 30
0.0
 11
886.824368
 21
-342.056853
 31
0.0
  0
LINE
  5
7F8
100
AcDbEntity
  8
0
  6
BYBLOCK
 62
     0
 48
3.0
100
AcDbLine
 10
684.307167
 20
-340.806853
 30
0.0
 11
856.824368
 21
-340.806853
 31
0.0
  0
INSERT
  5
7F9
100
AcDbEntity
  8
0
  6
BYBLOCK
 62
     0
 48
3.0
100
AcDbBlockReference
  2
_OPEN
 10
654.307167
 20
-340.806853
 30
0.0
 41
30.0
 42
30.0
 43
30.0
 50
180.0
  0
INSERT
  5
7FA
100
AcDbEntity
  8
0
  6
BYBLOCK
 62
     0
 48
3.0
100
AcDbBlockReference
  2
_OPEN
 10
886.824368
 20
-340.806853
 30
0.0
 41
30.0
 42
30.0
 43
30.0
  0
MTEXT
  5
7FB
100
AcDbEntity
  8
0
  6
BYBLOCK
 62
     0
 48
3.0
100
AcDbMText
 10
770.565767
 20
-327.804885
 30
0.0
 40
20.0
 41
0.0
 71
     5
 72
     1
  1
\A1;233
  7
ED
  0
POINT
  5
7FC
100
AcDbEntity
  8
DEFPOINTS
  6
BYBLOCK
 62
     0
 48
3.0
100
AcDbPoint
 10
654.307167
 20
-240.314254
 30
0.0
  0
POINT
  5
7FD
100
AcDbEntity
  8
DEFPOINTS
  6
BYBLOCK
 62
     0
 48
3.0
100
AcDbPoint
 10
886.824368
 20
-259.539819
 30
0.0
  0
POINT
  5
7FE
100
AcDbEntity
  8
DEFPOINTS
  6
BYBLOCK
 62
     0
 48
3.0
100
AcDbPoint
 10
886.824368
 20
-340.806853
 30
0.0
  0
ENDBLK
  5
7FF
100
AcDbEntity
  8
0
 48
3.0
100
AcDbBlockEnd
  0
BLOCK
  5
832
100
AcDbEntity
  8
0
 48
3.0
100
AcDbBlockBegin
  2
*D16
 70
     1
 10
0.0
 20
0.0
 30
0.0
  3
*D16
  1

  0
LINE
  5
833
100
AcDbEntity
  8
0
  6
BYBLOCK
 62
     0
 48
3.0
100
AcDbLine
 10
-77.274797
 20
111.570225
 30
0.0
 11
-77.274797
 21
407.366366
 31
0.0
  0
LINE
  5
834
100
AcDbEntity
  8
0
  6
BYBLOCK
 62
     0
 48
3.0
100
AcDbLine
 10
431.263801
 20
97.724661
 30
0.0
 11
431.263801
 21
407.366366
 31
0.0
  0
LINE
  5
835
100
AcDbEntity
  8
0
  6
BYBLOCK
 62
     0
 48
3.0
100
AcDbLine
 10
-47.274797
 20
406.116366
 30
0.0
 11
401.263801
 21
406.116366
 31
0.0
  0
INSERT
  5
836
100
AcDbEntity
  8
0
  6
BYBLOCK
 62
     0
 48
3.0
100
AcDbBlockReference
  2
_OPEN
 10
-77.274797
 20
406.116366
 30
0.0
 41
30.0
 42
30.0
 43
30.0
 50
180.0
  0
INSERT
  5
837
100
AcDbEntity
  8
0
  6
BYBLOCK
 62
     0
 48
3.0
100
AcDbBlockReference
  2
_OPEN
 10
431.263801
 20
406.116366
 30
0.0
 41
30.0
 42
30.0
 43
30.0
  0
MTEXT
  5
838
100
AcDbEntity
  8
0
  6
BYBLOCK
 62
     0
 48
3.0
100
AcDbMText
 10
176.994502
 20
419.116366
 30
0.0
 40
20.0
 41
0.0
 71
     5
 72
     1
  1
\A1;508
  7
ED
  0
POINT
  5
839
100
AcDbEntity
  8
DEFPOINTS
  6
BYBLOCK
 62
     0
 48
3.0
100
AcDbPoint
 10
-77.274797
 20
110.945225
 30
0.0
  0
POINT
  5
83A
100
AcDbEntity
  8
DEFPOINTS
  6
BYBLOCK
 62
     0
 48
3.0
100
AcDbPoint
 10
431.263801
 20
97.099661
 30
0.0
  0
POINT
  5
83B
100
AcDbEntity
  8
DEFPOINTS
  6
BYBLOCK
 62
     0
 48
3.0
100
AcDbPoint
 10
431.263801
 20
406.116366
 30
0.0
  0
ENDBLK
  5
83C
100
AcDbEntity
  8
0
 48
3.0
100
AcDbBlockEnd
  0
BLOCK
  5
83D
100
AcDbEntity
  8
0
 48
3.0
100
AcDbBlockBegin
  2
*D17
 70
     1
 10
0.0
 20
0.0
 30
0.0
  3
*D17
  1

  0
LINE
  5
83E
100
AcDbEntity
  8
0
  6
BYBLOCK
 62
     0
 48
3.0
100
AcDbLine
 10
502.928359
 20
111.570228
 30
0.0
 11
502.928359
 21
413.459033
 31
0.0
  0
LINE
  5
83F
100
AcDbEntity
  8
0
  6
BYBLOCK
 62
     0
 48
3.0
100
AcDbLine
 10
852.148171
 20
111.570225
 30
0.0
 11
852.148171
 21
413.459033
 31
0.0
  0
LINE
  5
840
100
AcDbEntity
  8
0
  6
BYBLOCK
 62
     0
 48
3.0
100
AcDbLine
 10
532.928359
 20
412.209033
 30
0.0
 11
822.148171
 21
412.209033
 31
0.0
  0
INSERT
  5
841
100
AcDbEntity
  8
0
  6
BYBLOCK
 62
     0
 48
3.0
100
AcDbBlockReference
  2
_OPEN
 10
502.928359
 20
412.209033
 30
0.0
 41
30.0
 42
30.0
 43
30.0
 50
180.0
  0
INSERT
  5
842
100
AcDbEntity
  8
0
  6
BYBLOCK
 62
     0
 48
3.0
100
AcDbBlockReference
  2
_OPEN
 10
852.148171
 20
412.209033
 30
0.0
 41
30.0
 42
30.0
 43
30.0
  0
MTEXT
  5
843
100
AcDbEntity
  8
0
  6
BYBLOCK
 62
     0
 48
3.0
100
AcDbMText
 10
677.538265
 20
425.209033
 30
0.0
 40
20.0
 41
0.0
 71
     5
 72
     1
  1
\A1;350
  7
ED
  0
POINT
  5
844
100
AcDbEntity
  8
DEFPOINTS
  6
BYBLOCK
 62
     0
 48
3.0
100
AcDbPoint
 10
502.928359
 20
110.945228
 30
0.0
  0
POINT
  5
845
100
AcDbEntity
  8
DEFPOINTS
  6
BYBLOCK
 62
     0
 48
3.0
100
AcDbPoint
 10
852.148171
 20
110.945225
 30
0.0
  0
POINT
  5
846
100
AcDbEntity
  8
DEFPOINTS
  6
BYBLOCK
 62
     0
 48
3.0
100
AcDbPoint
 10
852.148171
 20
412.209033
 30
0.0
  0
ENDBLK
  5
847
100
AcDbEntity
  8
0
 48
3.0
100
AcDbBlockEnd
  0
BLOCK
  5
827
100
AcDbEntity
  8
0
 48
3.0
100
AcDbBlockBegin
  2
*D18
 70
     1
 10
0.0
 20
0.0
 30
0.0
  3
*D18
  1

  0
LINE
  5
828
100
AcDbEntity
  8
0
  6
BYBLOCK
 62
     0
 48
3.0
100
AcDbLine
 10
153.864297
 20
345.876746
 30
0.0
 11
-158.645769
 21
345.876746
 31
0.0
  0
LINE
  5
829
100
AcDbEntity
  8
0
  6
BYBLOCK
 62
     0
 48
3.0
100
AcDbLine
 10
-73.97355
 20
-242.703102
 30
0.0
 11
-158.645769
 21
-242.703102
 31
0.0
  0
LINE
  5
82A
100
AcDbEntity
  8
0
  6
BYBLOCK
 62
     0
 48
3.0
100
AcDbLine
 10
-157.395769
 20
295.876746
 30
0.0
 11
-157.395769
 21
-192.703102
 31
0.0
  0
INSERT
  5
82B
100
AcDbEntity
  8
0
  6
BYBLOCK
 62
     0
 48
3.0
100
AcDbBlockReference
  2
_OPEN
 10
-157.395769
 20
345.876746
 30
0.0
 41
50.0
 42
50.0
 43
50.0
 50
90.0
  0
INSERT
  5
82C
100
AcDbEntity
  8
0
  6
BYBLOCK
 62
     0
 48
3.0
100
AcDbBlockReference
  2
_OPEN
 10
-157.395769
 20
-242.703102
 30
0.0
 41
50.0
 42
50.0
 43
50.0
 50
270.0
  0
MTEXT
  5
82D
100
AcDbEntity
  8
0
  6
BYBLOCK
 62
     0
 48
3.0
100
AcDbMText
 10
-170.395769
 20
51.586822
 30
0.0
 40
20.0
 41
0.0
 71
     5
 72
     1
  1
\A1;603
  7
ED
 11
0.0
 21
1.0
 31
0.0
  0
POINT
  5
82E
100
AcDbEntity
  8
DEFPOINTS
  6
BYBLOCK
 62
     0
 48
3.0
100
AcDbPoint
 10
154.489297
 20
345.876746
 30
0.0
  0
POINT
  5
82F
100
AcDbEntity
  8
DEFPOINTS
  6
BYBLOCK
 62
     0
 48
3.0
100
AcDbPoint
 10
-73.34855
 20
-242.703102
 30
0.0
  0
POINT
  5
830
100
AcDbEntity
  8
DEFPOINTS
  6
BYBLOCK
 62
     0
 48
3.0
100
AcDbPoint
 10
-157.395769
 20
-242.703102
 30
0.0
  0
ENDBLK
  5
831
100
AcDbEntity
  8
0
 48
3.0
100
AcDbBlockEnd
  0
ENDSEC
  0
SECTION
  2
ENTITIES
  0
ARC
  5
84
100
AcDbEntity
  8
V0-OBRYS
  6
CONTINUOUS
 62
    90
 48
3.0
100
AcDbCircle
 10
166.310006
 20
80.70031
 30
0.0
 40
265.46083
100
AcDbArc
 50
3.541812
 51
92.552168
  0
ARC
  5
85
100
AcDbEntity
  8
V0-OBRYS
  6
CONTINUOUS
 62
    90
 48
3.0
100
AcDbCircle
 10
164.737924
 20
104.209424
 30
0.0
 40
241.884536
100
AcDbArc
 50
92.428344
 51
181.684349
  0
ARC
  5
87
100
AcDbEntity
  8
V0-OBRYS
  6
CONTINUOUS
 62
    90
 48
3.0
100
AcDbCircle
 10
150.398384
 20
105.869966
 30
0.0
 40
227.584188
100
AcDbArc
 50
182.208527
 51
229.497032
  0
LINE
  5
88
100
AcDbEntity
  8
V0-OBRYS
  6
CONTINUOUS
 62
    90
 48
3.0
100
AcDbLine
 10
162.470021
 20
-195.40539
 30
0.0
 11
-58.785525
 21
-195.40539
 31
0.0
  0
LINE
  5
89
100
AcDbEntity
  8
V0-OBRYS
  6
CONTINUOUS
 62
    90
 48
3.0
100
AcDbLine
 10
45.15556
 20
-107.963001
 30
0.0
 11
-58.785525
 21
-107.963001
 31
0.0
  0
LINE
  5
8D
100
AcDbEntity
  8
V0-OBRYS
  6
CONTINUOUS
 62
    90
 48
3.0
100
AcDbLine
 10
-73.34855
 20
-60.665289
 30
0.0
 11
-73.34855
 21
-242.703102
 31
0.0
  0
CIRCLE
  5
8E
100
AcDbEntity
  8
V0-OBRYS
  6
CONTINUOUS
 62
    90
 48
3.0
100
AcDbCircle
 10
163.296925
 20
110.945225
 30
0.0
 40
211.735416
  0
CIRCLE
  5
8F
100
AcDbEntity
  8
V0-OBRYS
  6
CONTINUOUS
 62
    90
 48
3.0
100
AcDbCircle
 10
163.296925
 20
110.945225
 30
0.0
 40
199.280386
  0
CIRCLE
  5
90
100
AcDbEntity
  8
V0-OBRYS
  6
CONTINUOUS
 62
    90
 48
3.0
100
AcDbCircle
 10
163.296925
 20
110.903817
 30
0.0
 40
113.013283
  0
CIRCLE
  5
91
100
AcDbEntity
  8
V0-OBRYS
  6
CONTINUOUS
 62
    90
 48
3.0
100
AcDbCircle
 10
163.296925
 20
110.903817
 30
0.0
 40
80.859181
  0
LINE
  5
92
100
AcDbEntity
  8
V0-VYPLNE
  6
DASHDOT
 62
    63
 48
3.0
100
AcDbLine
 10
-77.274797
 20
110.945225
 30
0.0
 11
461.232156
 21
110.945225
 31
0.0
  0
LINE
  5
93
100
AcDbEntity
  8
V0-VYPLNE
  6
DASHDOT
 62
    63
 48
3.0
100
AcDbLine
 10
163.296925
 20
-194.925597
 30
0.0
 11
163.296925
 21
365.132555
 31
0.0
  0
CIRCLE
  5
94
100
AcDbEntity
  8
V0-VYPLNE
  6
DASHDOT
 62
    63
 48
3.0
100
AcDbCircle
 10
163.296925
 20
110.903817
 30
0.0
 40
98.662396
  0
ARC
  5
95
100
AcDbEntity
  8
V0-OBRYS
  6
CONTINUOUS
 62
    90
 48
3.0
100
AcDbCircle
 10
144.437053
 20
91.350094
 30
0.0
 40
286.902174
100
AcDbArc
 50
273.49102
 51
1.148294
  0
LINE
  5
9A
100
AcDbEntity
  8
V0-OBRYS
  6
CONTINUOUS
 62
    90
 48
3.0
100
AcDbLine
 10
-55.144769
 20
-60.665289
 30
0.0
 11
-55.144769
 21
-242.703102
 31
0.0
  0
LINE
  5
9E
100
AcDbEntity
  8
V0-VYPLNE
  6
DASHDOT
 62
    63
 48
3.0
100
AcDbLine
 10
163.296925
 20
-151.684195
 30
0.0
 11
-107.63481
 21
-151.684195
 31
0.0
  0
LINE
  5
9F
100
AcDbEntity
  8
V0-OBRYS
  6
CONTINUOUS
 62
    90
 48
3.0
100
AcDbLine
 10
-55.144769
 20
-60.665289
 30
0.0
 11
-73.34855
 21
-60.665289
 31
0.0
  0
LINE
  5
A0
100
AcDbEntity
  8
V0-OBRYS
  6
CONTINUOUS
 62
    90
 48
3.0
100
AcDbLine
 10
-55.144769
 20
-242.703102
 30
0.0
 11
-73.34855
 21
-242.703102
 31
0.0
  0
LINE
  5
A1
100
AcDbEntity
  8
V0-OBRYS
  6
CONTINUOUS
 62
    90
 48
3.0
100
AcDbLine
 10
-9.564734
 20
-103.440603
 30
0.0
 11
4.536071
 21
-83.414862
 31
0.0
  0
ARC
  5
A2
100
AcDbEntity
  8
V0-OBRYS
  6
CONTINUOUS
 62
    90
 48
3.0
100
AcDbCircle
 10
-4.679328
 20
-76.28684
 30
0.0
 40
11.65042
100
AcDbArc
 50
322.278394
 51
51.424018
  0
ARC
  5
A3
100
AcDbEntity
  8
V0-OBRYS
  6
CONTINUOUS
 62
    90
 48
3.0
100
AcDbCircle
 10
-18.780134
 20
-96.312581
 30
0.0
 40
11.65042
100
AcDbArc
 50
270.0
 51
322.278394
  0
LINE
  5
A5
100
AcDbEntity
  8
V0-OBRYS
  6
CONTINUOUS
 62
    90
 48
3.0
100
AcDbLine
 10
20.953782
 20
-238.231129
 30
0.0
 11
227.351335
 21
-238.231129
 31
0.0
  0
LINE
  5
A7
100
AcDbEntity
  8
V0-OBRYS
  6
CONTINUOUS
 62
    90
 48
3.0
100
AcDbLine
 10
227.351335
 20
-238.231129
 30
0.0
 11
302.081484
 21
-145.019643
 31
0.0
  0
LINE
  5
A8
100
AcDbEntity
  8
V0-OBRYS
  6
CONTINUOUS
 62
    90
 48
3.0
100
AcDbLine
 10
20.953782
 20
-238.231129
 30
0.0
 11
20.953782
 21
-196.568123
 31
0.0
  0
LINE
  5
A9
100
AcDbEntity
  8
V0-OBRYS
  6
CONTINUOUS
 62
    90
 48
3.0
100
AcDbLine
 10
20.953782
 20
-238.231129
 30
0.0
 11
20.953782
 21
-246.086455
 31
0.0
  0
LINE
  5
AA
100
AcDbEntity
  8
V0-OBRYS
  6
CONTINUOUS
 62
    90
 48
3.0
100
AcDbLine
 10
20.953782
 20
-246.086455
 30
0.0
 11
60.74925
 21
-246.086455
 31
0.0
  0
LINE
  5
AB
100
AcDbEntity
  8
V0-OBRYS
  6
CONTINUOUS
 62
    90
 48
3.0
100
AcDbLine
 10
227.947469
 20
-246.086455
 30
0.0
 11
227.947469
 21
-238.288763
 31
0.0
  0
LINE
  5
AC
100
AcDbEntity
  8
V0-OBRYS
  6
CONTINUOUS
 62
    90
 48
3.0
100
AcDbLine
 10
60.619382
 20
-245.5991
 30
0.0
 11
60.619382
 21
-241.700253
 31
0.0
  0
LINE
  5
AD
100
AcDbEntity
  8
V0-OBRYS
  6
CONTINUOUS
 62
    90
 48
3.0
100
AcDbLine
 10
60.619382
 20
-241.700253
 30
0.0
 11
95.255808
 21
-241.700253
 31
0.0
  0
LINE
  5
AE
100
AcDbEntity
  8
V0-OBRYS
  6
CONTINUOUS
 62
    90
 48
3.0
100
AcDbLine
 10
95.255808
 20
-241.700253
 30
0.0
 11
95.255808
 21
-246.086455
 31
0.0
  0
LINE
  5
AF
100
AcDbEntity
  8
V0-OBRYS
  6
CONTINUOUS
 62
    90
 48
3.0
100
AcDbLine
 10
187.685735
 20
-241.700253
 30
0.0
 11
153.049308
 21
-241.700253
 31
0.0
  0
LINE
  5
B0
100
AcDbEntity
  8
V0-OBRYS
  6
CONTINUOUS
 62
    90
 48
3.0
100
AcDbLine
 10
187.685735
 20
-245.5991
 30
0.0
 11
187.685735
 21
-241.700253
 31
0.0
  0
LINE
  5
B1
100
AcDbEntity
  8
V0-OBRYS
  6
CONTINUOUS
 62
    90
 48
3.0
100
AcDbLine
 10
153.049308
 20
-241.700253
 30
0.0
 11
153.049308
 21
-246.086455
 31
0.0
  0
LINE
  5
B2
100
AcDbEntity
  8
V0-OBRYS
  6
CONTINUOUS
 62
    90
 48
3.0
100
AcDbLine
 10
95.255808
 20
-246.086455
 30
0.0
 11
153.049308
 21
-246.086455
 31
0.0
  0
LINE
  5
B3
100
AcDbEntity
  8
V0-OBRYS
  6
CONTINUOUS
 62
    90
 48
3.0
100
AcDbLine
 10
187.53026
 20
-246.086455
 30
0.0
 11
227.947469
 21
-246.086455
 31
0.0
  0
CIRCLE
  5
B4
100
AcDbEntity
  8
V0-OBRYS
  6
CONTINUOUS
 62
    90
 48
3.0
100
AcDbCircle
 10
93.532075
 20
180.668666
 30
0.0
 40
7.341148
  0
CIRCLE
  5
B5
100
AcDbEntity
  8
V0-OBRYS
  6
CONTINUOUS
 62
    90
 48
3.0
100
AcDbCircle
 10
93.532075
 20
41.138968
 30
0.0
 40
7.341148
  0
CIRCLE
  5
B6
100
AcDbEntity
  8
V0-OBRYS
  6
CONTINUOUS
 62
    90
 48
3.0
100
AcDbCircle
 10
233.061774
 20
41.138968
 30
0.0
 40
7.341148
  0
CIRCLE
  5
B7
100
AcDbEntity
  8
V0-OBRYS
  6
CONTINUOUS
 62
    90
 48
3.0
100
AcDbCircle
 10
233.061774
 20
180.668666
 30
0.0
 40
7.341148
  0
LINE
  5
B9
100
AcDbEntity
  8
V0-VYPLNE
  6
DASHDOT
 62
    63
 48
3.0
100
AcDbLine
 10
794.944609
 20
-231.086455
 30
0.0
 11
794.944609
 21
365.132555
 31
0.0
  0
LINE
  5
BA
100
AcDbEntity
  8
V0-VYPLNE
  6
DASHDOT
 62
    63
 48
3.0
100
AcDbLine
 10
485.400862
 20
110.945232
 30
0.0
 11
877.83865
 21
110.945225
 31
0.0
  0
LINE
  5
BB
100
AcDbEntity
  8
V0-VYPLNE
  6
DASHDOT
 62
    63
 48
3.0
100
AcDbLine
 10
919.494853
 20
-151.684195
 30
0.0
 11
686.513118
 21
-151.684195
 31
0.0
  0
CIRCLE
  5
BD
100
AcDbEntity
  8
V0-OBRYS
  6
CONTINUOUS
 62
    90
 48
3.0
100
AcDbCircle
 10
794.944609
 20
-151.684195
 30
0.0
 40
91.018906
  0
LINE
  5
C0
100
AcDbEntity
  8
V0-OBRYS
  6
CONTINUOUS
 62
    90
 48
3.0
100
AcDbLine
 10
519.309482
 20
218.10827
 30
0.0
 11
736.692506
 21
218.108263
 31
0.0
  0
LINE
  5
C2
100
AcDbEntity
  8
V0-OBRYS
  6
CONTINUOUS
 62
    90
 48
3.0
100
AcDbLine
 10
563.847678
 20
218.108263
 30
0.0
 11
563.847678
 21
110.945221
 31
0.0
  0
ARC
  5
C4
100
AcDbEntity
  8
V0-OBRYS
  6
CONTINUOUS
 62
    90
 48
3.0
100
AcDbCircle
 10
1044.107329
 20
112.660482
 30
0.0
 40
541.181688
100
AcDbArc
 50
169.404955
 51
180.181597
  0
ARC
  5
C5
100
AcDbEntity
  8
V0-OBRYS
  6
CONTINUOUS
 62
    90
 48
3.0
100
AcDbCircle
 10
519.309482
 20
210.826758
 30
0.0
 40
7.281513
100
AcDbArc
 50
90.0
 51
169.404955
  0
ARC
  5
C6
100
AcDbEntity
  8
V0-OBRYS
  6
CONTINUOUS
 62
    90
 48
3.0
100
AcDbCircle
 10
1044.107329
 20
109.229989
 30
0.0
 40
541.181688
100
AcDbArc
 50
179.818405
 51
190.595047
  0
LINE
  5
C7
100
AcDbEntity
  8
V0-OBRYS
  6
CONTINUOUS
 62
    90
 48
3.0
100
AcDbLine
 10
563.847681
 20
3.782181
 30
0.0
 11
563.847678
 21
110.945223
 31
0.0
  0
LINE
  5
C8
100
AcDbEntity
  8
V0-VYPLNE
  6
DASHDOT
 62
    63
 48
3.0
100
AcDbLine
 10
485.400862
 20
110.945224
 30
0.0
 11
736.692509
 21
110.945222
 31
0.0
  0
LINE
  5
C9
100
AcDbEntity
  8
V0-OBRYS
  6
CONTINUOUS
 62
    90
 48
3.0
100
AcDbLine
 10
519.309485
 20
3.782186
 30
0.0
 11
736.692512
 21
3.782184
 31
0.0
  0
ARC
  5
CA
100
AcDbEntity
  8
V0-OBRYS
  6
CONTINUOUS
 62
    90
 48
3.0
100
AcDbCircle
 10
519.309485
 20
11.063699
 30
0.0
 40
7.281513
100
AcDbArc
 50
190.595047
 51
270.000002
  0
LINE
  5
CB
100
AcDbEntity
  8
V0-OBRYS
  6
CONTINUOUS
 62
    90
 48
3.0
100
AcDbLine
 10
743.974015
 20
326.302985
 30
0.0
 11
743.974027
 21
-99.683789
 31
0.0
  0
LINE
  5
CE
100
AcDbEntity
  8
V0-OBRYS
  6
CONTINUOUS
 62
    90
 48
3.0
100
AcDbLine
 10
845.915202
 20
326.302985
 30
0.0
 11
845.91519
 21
-99.683789
 31
0.0
  0
ARC
  5
D4
100
AcDbEntity
  8
V0-OBRYS
  6
CONTINUOUS
 62
    90
 48
3.0
100
AcDbCircle
 10
794.944609
 20
238.927655
 30
0.0
 40
107.465473
100
AcDbArc
 50
65.771559
 51
114.228441
  0
ARC
  5
D7
100
AcDbEntity
  8
V0-OBRYS
  6
CONTINUOUS
 62
    90
 48
3.0
100
AcDbCircle
 10
755.624435
 20
326.302985
 30
0.0
 40
11.65042
100
AcDbArc
 50
114.228441
 51
180.000002
  0
ARC
  5
D8
100
AcDbEntity
  8
V0-OBRYS
  6
CONTINUOUS
 62
    90
 48
3.0
100
AcDbCircle
 10
834.264782
 20
326.302985
 30
0.0
 40
11.65042
100
AcDbArc
 50
359.999998
 51
65.771559
  0
LINE
  5
E5
100
AcDbEntity
  8
V0-OBRYS
  6
CONTINUOUS
 62
    90
 48
3.0
100
AcDbLine
 10
563.847678
 20
210.934328
 30
0.0
 11
736.692506
 21
210.934328
 31
0.0
  0
LINE
  5
E6
100
AcDbEntity
  8
V0-OBRYS
  6
CONTINUOUS
 62
    90
 48
3.0
100
AcDbLine
 10
563.847678
 20
203.760393
 30
0.0
 11
736.692506
 21
203.760393
 31
0.0
  0
LINE
  5
E7
100
AcDbEntity
  8
V0-OBRYS
  6
CONTINUOUS
 62
    90
 48
3.0
100
AcDbLine
 10
563.847678
 20
189.412522
 30
0.0
 11
736.692506
 21
189.412522
 31
0.0
  0
LINE
  5
E8
100
AcDbEntity
  8
V0-OBRYS
  6
CONTINUOUS
 62
    90
 48
3.0
100
AcDbLine
 10
563.847678
 20
196.586457
 30
0.0
 11
736.692506
 21
196.586457
 31
0.0
  0
LINE
  5
E9
100
AcDbEntity
  8
V0-OBRYS
  6
CONTINUOUS
 62
    90
 48
3.0
100
AcDbLine
 10
563.847678
 20
167.890716
 30
0.0
 11
736.692507
 21
167.890716
 31
0.0
  0
LINE
  5
EA
100
AcDbEntity
  8
V0-OBRYS
  6
CONTINUOUS
 62
    90
 48
3.0
100
AcDbLine
 10
563.847678
 20
160.716781
 30
0.0
 11
736.692507
 21
160.716781
 31
0.0
  0
LINE
  5
EB
100
AcDbEntity
  8
V0-OBRYS
  6
CONTINUOUS
 62
    90
 48
3.0
100
AcDbLine
 10
563.847678
 20
175.064651
 30
0.0
 11
736.692507
 21
175.064651
 31
0.0
  0
LINE
  5
EC
100
AcDbEntity
  8
V0-OBRYS
  6
CONTINUOUS
 62
    90
 48
3.0
100
AcDbLine
 10
563.847678
 20
182.238587
 30
0.0
 11
736.692507
 21
182.238587
 31
0.0
  0
LINE
  5
ED
100
AcDbEntity
  8
V0-OBRYS
  6
CONTINUOUS
 62
    90
 48
3.0
100
AcDbLine
 10
563.847678
 20
124.847104
 30
0.0
 11
736.692508
 21
124.847104
 31
0.0
  0
LINE
  5
EE
100
AcDbEntity
  8
V0-OBRYS
  6
CONTINUOUS
 62
    90
 48
3.0
100
AcDbLine
 10
563.847678
 20
117.673169
 30
0.0
 11
736.692508
 21
117.673169
 31
0.0
  0
LINE
  5
F0
100
AcDbEntity
  8
V0-OBRYS
  6
CONTINUOUS
 62
    90
 48
3.0
100
AcDbLine
 10
563.847678
 20
110.499234
 30
0.0
 11
743.611549
 21
110.499234
 31
0.0
  0
LINE
  5
F1
100
AcDbEntity
  8
V0-OBRYS
  6
CONTINUOUS
 62
    90
 48
3.0
100
AcDbLine
 10
563.847678
 20
139.194975
 30
0.0
 11
736.692508
 21
139.194975
 31
0.0
  0
LINE
  5
F2
100
AcDbEntity
  8
V0-OBRYS
  6
CONTINUOUS
 62
    90
 48
3.0
100
AcDbLine
 10
563.847678
 20
132.02104
 30
0.0
 11
736.692508
 21
132.02104
 31
0.0
  0
LINE
  5
F3
100
AcDbEntity
  8
V0-OBRYS
  6
CONTINUOUS
 62
    90
 48
3.0
100
AcDbLine
 10
563.847678
 20
146.36891
 30
0.0
 11
736.692508
 21
146.36891
 31
0.0
  0
LINE
  5
F4
100
AcDbEntity
  8
V0-OBRYS
  6
CONTINUOUS
 62
    90
 48
3.0
100
AcDbLine
 10
563.847678
 20
153.542846
 30
0.0
 11
736.692507
 21
153.542846
 31
0.0
  0
LINE
  5
F5
100
AcDbEntity
  8
V0-OBRYS
  6
CONTINUOUS
 62
    90
 48
3.0
100
AcDbLine
 10
563.847678
 20
45.933816
 30
0.0
 11
726.128424
 21
45.933816
 31
0.0
  0
LINE
  5
F6
100
AcDbEntity
  8
V0-OBRYS
  6
CONTINUOUS
 62
    90
 48
3.0
100
AcDbLine
 10
563.847678
 20
38.759881
 30
0.0
 11
724.159182
 21
38.759881
 31
0.0
  0
LINE
  5
F7
100
AcDbEntity
  8
V0-OBRYS
  6
CONTINUOUS
 62
    90
 48
3.0
100
AcDbLine
 10
563.847678
 20
24.41201
 30
0.0
 11
720.220699
 21
24.41201
 31
0.0
  0
LINE
  5
F8
100
AcDbEntity
  8
V0-OBRYS
  6
CONTINUOUS
 62
    90
 48
3.0
100
AcDbLine
 10
563.847678
 20
31.585946
 30
0.0
 11
722.189941
 21
31.585946
 31
0.0
  0
LINE
  5
F9
100
AcDbEntity
  8
V0-OBRYS
  6
CONTINUOUS
 62
    90
 48
3.0
100
AcDbLine
 10
563.847678
 20
10.06414
 30
0.0
 11
716.282216
 21
10.06414
 31
0.0
  0
LINE
  5
FA
100
AcDbEntity
  8
V0-OBRYS
  6
CONTINUOUS
 62
    90
 48
3.0
100
AcDbLine
 10
563.847678
 20
17.238075
 30
0.0
 11
718.251457
 21
17.238075
 31
0.0
  0
LINE
  5
FB
100
AcDbEntity
  8
V0-OBRYS
  6
CONTINUOUS
 62
    90
 48
3.0
100
AcDbLine
 10
563.847678
 20
74.629557
 30
0.0
 11
734.00539
 21
74.629557
 31
0.0
  0
LINE
  5
FC
100
AcDbEntity
  8
V0-OBRYS
  6
CONTINUOUS
 62
    90
 48
3.0
100
AcDbLine
 10
563.847678
 20
67.455622
 30
0.0
 11
732.036148
 21
67.455622
 31
0.0
  0
LINE
  5
FD
100
AcDbEntity
  8
V0-OBRYS
  6
CONTINUOUS
 62
    90
 48
3.0
100
AcDbLine
 10
563.847678
 20
53.107752
 30
0.0
 11
728.097665
 21
53.107752
 31
0.0
  0
LINE
  5
FE
100
AcDbEntity
  8
V0-OBRYS
  6
CONTINUOUS
 62
    90
 48
3.0
100
AcDbLine
 10
563.847678
 20
60.281687
 30
0.0
 11
730.066907
 21
60.281687
 31
0.0
  0
LINE
  5
FF
100
AcDbEntity
  8
V0-OBRYS
  6
CONTINUOUS
 62
    90
 48
3.0
100
AcDbLine
 10
563.847678
 20
88.977428
 30
0.0
 11
736.692509
 21
88.977428
 31
0.0
  0
LINE
  5
100
100
AcDbEntity
  8
V0-OBRYS
  6
CONTINUOUS
 62
    90
 48
3.0
100
AcDbLine
 10
563.847678
 20
81.803493
 30
0.0
 11
735.974631
 21
81.803493
 31
0.0
  0
LINE
  5
101
100
AcDbEntity
  8
V0-OBRYS
  6
CONTINUOUS
 62
    90
 48
3.0
100
AcDbLine
 10
563.847678
 20
96.151363
 30
0.0
 11
736.692509
 21
96.151363
 31
0.0
  0
LINE
  5
102
100
AcDbEntity
  8
V0-OBRYS
  6
CONTINUOUS
 62
    90
 48
3.0
100
AcDbLine
 10
563.847678
 20
103.325299
 30
0.0
 11
736.692509
 21
103.325299
 31
0.0
  0
CIRCLE
  5
103
100
AcDbEntity
  8
V0-OBRYS
  6
CONTINUOUS
 62
    90
 48
3.0
100
AcDbCircle
 10
743.491069
 20
-100.23066
 30
0.0
 40
9.101891
  0
CIRCLE
  5
104
100
AcDbEntity
  8
V0-OBRYS
  6
CONTINUOUS
 62
    90
 48
3.0
100
AcDbCircle
 10
743.491074
 20
-203.137735
 30
0.0
 40
9.101891
  0
CIRCLE
  5
105
100
AcDbEntity
  8
V0-OBRYS
  6
CONTINUOUS
 62
    90
 48
3.0
100
AcDbCircle
 10
846.398148
 20
-203.13773
 30
0.0
 40
9.101891
  0
CIRCLE
  5
106
100
AcDbEntity
  8
V0-OBRYS
  6
CONTINUOUS
 62
    90
 48
3.0
100
AcDbCircle
 10
846.398144
 20
-100.230656
 30
0.0
 40
9.101891
  0
CIRCLE
  5
107
100
AcDbEntity
  8
V0-VYPLNE
  6
DASHDOT
 62
    63
 48
3.0
100
AcDbCircle
 10
794.944609
 20
-151.684195
 30
0.0
 40
72.76629
  0
LINE
  5
10C
100
AcDbEntity
  8
V0-OBRYS
  6
CONTINUOUS
 62
    90
 48
3.0
100
AcDbLine
 10
653.446314
 20
-243.0752
 30
0.0
 11
781.722344
 21
-243.0752
 31
0.0
  0
LINE
  5
10D
100
AcDbEntity
  8
V0-OBRYS
  6
CONTINUOUS
 62
    90
 48
3.0
100
AcDbLine
 10
653.446314
 20
-250.872891
 30
0.0
 11
867.759734
 21
-250.872891
 31
0.0
  0
LINE
  5
10F
100
AcDbEntity
  8
V0-OBRYS
  6
CONTINUOUS
 62
    90
 48
3.0
100
AcDbLine
 10
862.204582
 20
-213.007415
 30
0.0
 11
880.70054
 21
-240.901444
 31
0.0
  0
LINE
  5
110
100
AcDbEntity
  8
V0-OBRYS
  6
CONTINUOUS
 62
    90
 48
3.0
100
AcDbLine
 10
885.963515
 20
-241.189905
 30
0.0
 11
885.963515
 21
-250.93702
 31
0.0
  0
LINE
  5
111
100
AcDbEntity
  8
V0-OBRYS
  6
CONTINUOUS
 62
    90
 48
3.0
100
AcDbLine
 10
652.585461
 20
-234.4724
 30
0.0
 11
652.585461
 21
-242.270092
 31
0.0
  0
LINE
  5
112
100
AcDbEntity
  8
V0-OBRYS
  6
CONTINUOUS
 62
    90
 48
3.0
100
AcDbLine
 10
885.963515
 20
-241.189905
 30
0.0
 11
810.756171
 21
-241.189905
 31
0.0
  0
LINE
  5
113
100
AcDbEntity
  8
V0-OBRYS
  6
CONTINUOUS
 62
    90
 48
3.0
100
AcDbLine
 10
653.446314
 20
-223.288763
 30
0.0
 11
736.692509
 21
84.418718
 31
0.0
  0
LINE
  5
114
100
AcDbEntity
  8
V0-OBRYS
  6
CONTINUOUS
 62
    90
 48
3.0
100
AcDbLine
 10
736.692503
 20
315.833044
 30
0.0
 11
736.692514
 21
-93.942603
 31
0.0
  0
LINE
  5
116
100
AcDbEntity
  8
V0-OBRYS
  6
CONTINUOUS
 62
    90
 48
3.0
100
AcDbLine
 10
736.692503
 20
315.833044
 30
0.0
 11
744.303329
 21
315.833044
 31
0.0
  0
LINE
  5
117
100
AcDbEntity
  8
V0-OBRYS
  6
CONTINUOUS
 62
    90
 48
3.0
100
AcDbLine
 10
722.129491
 20
-79.507204
 30
0.0
 11
731.643016
 21
-79.507204
 31
0.0
  0
LINE
  5
125
100
AcDbEntity
  8
V0-OBRYS
  6
CONTINUOUS
 62
    90
 48
3.0
100
AcDbLine
 10
404.86813
 20
-571.621974
 30
0.0
 11
-47.332089
 21
-571.621986
 31
0.0
  0
LINE
  5
126
100
AcDbEntity
  8
V0-OBRYS
  6
CONTINUOUS
 62
    90
 48
3.0
100
AcDbLine
 10
394.398189
 20
-564.340462
 30
0.0
 11
-41.590902
 21
-564.340474
 31
0.0
  0
LINE
  5
127
100
AcDbEntity
  8
V0-VYPLNE
  6
DASHDOT
 62
    63
 48
3.0
100
AcDbLine
 10
-103.201945
 20
-622.592568
 30
0.0
 11
443.6977
 21
-622.592568
 31
0.0
  0
LINE
  5
128
100
AcDbEntity
  8
V0-OBRYS
  6
CONTINUOUS
 62
    90
 48
3.0
100
AcDbLine
 10
404.86813
 20
-673.563162
 30
0.0
 11
-47.332089
 21
-673.56315
 31
0.0
  0
ARC
  5
129
100
AcDbEntity
  8
V0-OBRYS
  6
CONTINUOUS
 62
    90
 48
3.0
100
AcDbCircle
 10
165.012176
 20
-857.557675
 30
0.0
 40
541.181688
100
AcDbArc
 50
79.404955
 51
90.181597
  0
LINE
  5
12A
100
AcDbEntity
  8
V0-OBRYS
  6
CONTINUOUS
 62
    90
 48
3.0
100
AcDbLine
 10
270.459963
 20
-378.082269
 30
0.0
 11
163.296921
 21
-378.082269
 31
0.0
  0
LINE
  5
133
100
AcDbEntity
  8
V0-VYPLNE
  6
DASHDOT
 62
    63
 48
3.0
100
AcDbLine
 10
163.296925
 20
-362.851208
 30
0.0
 11
163.296925
 21
-705.853247
 31
0.0
  0
LINE
  5
13A
100
AcDbEntity
  8
V0-OBRYS
  6
CONTINUOUS
 62
    90
 48
3.0
100
AcDbLine
 10
-41.590902
 20
-564.340474
 30
0.0
 11
-41.590902
 21
-571.951293
 31
0.0
  0
LINE
  5
13B
100
AcDbEntity
  8
V0-VYPLNE
  6
DASHDOT
 62
    63
 48
3.0
100
AcDbLine
 10
163.296917
 20
-362.851208
 30
0.0
 11
163.296922
 21
-564.340468
 31
0.0
  0
LINE
  5
13C
100
AcDbEntity
  8
V0-OBRYS
  6
CONTINUOUS
 62
    90
 48
3.0
100
AcDbLine
 10
56.13388
 20
-332.759832
 30
0.0
 11
56.133884
 21
-564.340471
 31
0.0
  0
ARC
  5
13D
100
AcDbEntity
  8
V0-OBRYS
  6
CONTINUOUS
 62
    90
 48
3.0
100
AcDbCircle
 10
161.581682
 20
-857.557676
 30
0.0
 40
541.181688
100
AcDbArc
 50
89.818405
 51
100.595047
  0
ARC
  5
13E
100
AcDbEntity
  8
V0-OBRYS
  6
CONTINUOUS
 62
    90
 48
3.0
100
AcDbCircle
 10
63.415392
 20
-332.759831
 30
0.0
 40
7.281513
100
AcDbArc
 50
100.595047
 51
180.000002
  0
LINE
  5
13F
100
AcDbEntity
  8
V0-OBRYS
  6
CONTINUOUS
 62
    90
 48
3.0
100
AcDbLine
 10
56.133881
 20
-378.082272
 30
0.0
 11
163.296923
 21
-378.082269
 31
0.0
  0
LINE
  5
140
100
AcDbEntity
  8
V0-OBRYS
  6
CONTINUOUS
 62
    90
 48
3.0
100
AcDbLine
 10
76.763711
 20
-378.082269
 30
0.0
 11
76.763711
 21
-564.340471
 31
0.0
  0
LINE
  5
141
100
AcDbEntity
  8
V0-OBRYS
  6
CONTINUOUS
 62
    90
 48
3.0
100
AcDbLine
 10
69.589775
 20
-378.082269
 30
0.0
 11
69.589775
 21
-564.340471
 31
0.0
  0
LINE
  5
142
100
AcDbEntity
  8
V0-OBRYS
  6
CONTINUOUS
 62
    90
 48
3.0
100
AcDbLine
 10
62.41584
 20
-378.082269
 30
0.0
 11
62.41584
 21
-564.340471
 31
0.0
  0
LINE
  5
143
100
AcDbEntity
  8
V0-OBRYS
  6
CONTINUOUS
 62
    90
 48
3.0
100
AcDbLine
 10
141.329128
 20
-378.082269
 30
0.0
 11
141.329128
 21
-564.340469
 31
0.0
  0
LINE
  5
144
100
AcDbEntity
  8
V0-OBRYS
  6
CONTINUOUS
 62
    90
 48
3.0
100
AcDbLine
 10
148.503063
 20
-378.082269
 30
0.0
 11
148.503063
 21
-564.340468
 31
0.0
  0
LINE
  5
145
100
AcDbEntity
  8
V0-OBRYS
  6
CONTINUOUS
 62
    90
 48
3.0
100
AcDbLine
 10
155.676999
 20
-378.082269
 30
0.0
 11
155.676999
 21
-564.340468
 31
0.0
  0
LINE
  5
146
100
AcDbEntity
  8
V0-OBRYS
  6
CONTINUOUS
 62
    90
 48
3.0
100
AcDbLine
 10
170.024869
 20
-378.082269
 30
0.0
 11
170.024869
 21
-564.340468
 31
0.0
  0
LINE
  5
147
100
AcDbEntity
  8
V0-OBRYS
  6
CONTINUOUS
 62
    90
 48
3.0
100
AcDbLine
 10
177.198805
 20
-378.082269
 30
0.0
 11
177.198805
 21
-564.340468
 31
0.0
  0
LINE
  5
148
100
AcDbEntity
  8
V0-OBRYS
  6
CONTINUOUS
 62
    90
 48
3.0
100
AcDbLine
 10
184.37274
 20
-378.082269
 30
0.0
 11
184.37274
 21
-564.340467
 31
0.0
  0
LINE
  5
149
100
AcDbEntity
  8
V0-OBRYS
  6
CONTINUOUS
 62
    90
 48
3.0
100
AcDbLine
 10
191.546675
 20
-378.082269
 30
0.0
 11
191.546675
 21
-564.340467
 31
0.0
  0
LINE
  5
14A
100
AcDbEntity
  8
V0-OBRYS
  6
CONTINUOUS
 62
    90
 48
3.0
100
AcDbLine
 10
198.72061
 20
-378.082269
 30
0.0
 11
198.72061
 21
-564.340467
 31
0.0
  0
LINE
  5
14B
100
AcDbEntity
  8
V0-OBRYS
  6
CONTINUOUS
 62
    90
 48
3.0
100
AcDbLine
 10
134.155193
 20
-378.082269
 30
0.0
 11
134.155193
 21
-563.622591
 31
0.0
  0
LINE
  5
14C
100
AcDbEntity
  8
V0-OBRYS
  6
CONTINUOUS
 62
    90
 48
3.0
100
AcDbLine
 10
126.981258
 20
-378.082269
 30
0.0
 11
126.981258
 21
-564.340469
 31
0.0
  0
LINE
  5
14D
100
AcDbEntity
  8
V0-OBRYS
  6
CONTINUOUS
 62
    90
 48
3.0
100
AcDbLine
 10
119.807322
 20
-378.082269
 30
0.0
 11
119.807322
 21
-564.340469
 31
0.0
  0
LINE
  5
14E
100
AcDbEntity
  8
V0-OBRYS
  6
CONTINUOUS
 62
    90
 48
3.0
100
AcDbLine
 10
162.850934
 20
-378.082269
 30
0.0
 11
162.850934
 21
-571.259508
 31
0.0
  0
LINE
  5
14F
100
AcDbEntity
  8
V0-OBRYS
  6
CONTINUOUS
 62
    90
 48
3.0
100
AcDbLine
 10
112.633387
 20
-378.082269
 30
0.0
 11
112.633387
 21
-564.34047
 31
0.0
  0
LINE
  5
150
100
AcDbEntity
  8
V0-OBRYS
  6
CONTINUOUS
 62
    90
 48
3.0
100
AcDbLine
 10
105.459452
 20
-378.082269
 30
0.0
 11
105.459452
 21
-564.34047
 31
0.0
  0
LINE
  5
151
100
AcDbEntity
  8
V0-OBRYS
  6
CONTINUOUS
 62
    90
 48
3.0
100
AcDbLine
 10
98.285516
 20
-378.082269
 30
0.0
 11
98.285516
 21
-564.34047
 31
0.0
  0
LINE
  5
152
100
AcDbEntity
  8
V0-OBRYS
  6
CONTINUOUS
 62
    90
 48
3.0
100
AcDbLine
 10
91.111581
 20
-378.082269
 30
0.0
 11
91.111581
 21
-564.34047
 31
0.0
  0
LINE
  5
153
100
AcDbEntity
  8
V0-OBRYS
  6
CONTINUOUS
 62
    90
 48
3.0
100
AcDbLine
 10
83.937646
 20
-378.082269
 30
0.0
 11
83.937646
 21
-564.34047
 31
0.0
  0
ARC
  5
156
100
AcDbEntity
  8
V0-OBRYS
  6
CONTINUOUS
 62
    90
 48
3.0
100
AcDbCircle
 10
317.4928
 20
-622.592568
 30
0.0
 40
107.465473
100
AcDbArc
 50
335.771559
 51
24.228441
  0
LINE
  5
157
100
AcDbEntity
  8
V0-OBRYS
  6
CONTINUOUS
 62
    90
 48
3.0
100
AcDbLine
 10
270.459963
 20
-332.759829
 30
0.0
 11
270.459963
 21
-564.340465
 31
0.0
  0
ARC
  5
158
100
AcDbEntity
  8
V0-OBRYS
  6
CONTINUOUS
 62
    90
 48
3.0
100
AcDbCircle
 10
263.178451
 20
-332.759829
 30
0.0
 40
7.281513
100
AcDbArc
 50
0.0
 51
79.404955
  0
LINE
  5
159
100
AcDbEntity
  8
V0-OBRYS
  6
CONTINUOUS
 62
    90
 48
3.0
100
AcDbLine
 10
205.894546
 20
-378.082269
 30
0.0
 11
205.894546
 21
-564.340467
 31
0.0
  0
LINE
  5
15A
100
AcDbEntity
  8
V0-OBRYS
  6
CONTINUOUS
 62
    90
 48
3.0
100
AcDbLine
 10
213.068481
 20
-378.082269
 30
0.0
 11
213.068481
 21
-564.340467
 31
0.0
  0
LINE
  5
15B
100
AcDbEntity
  8
V0-OBRYS
  6
CONTINUOUS
 62
    90
 48
3.0
100
AcDbLine
 10
220.242416
 20
-378.082269
 30
0.0
 11
220.242416
 21
-564.340466
 31
0.0
  0
LINE
  5
15C
100
AcDbEntity
  8
V0-OBRYS
  6
CONTINUOUS
 62
    90
 48
3.0
100
AcDbLine
 10
227.416352
 20
-378.082269
 30
0.0
 11
227.416352
 21
-564.340466
 31
0.0
  0
LINE
  5
15D
100
AcDbEntity
  8
V0-OBRYS
  6
CONTINUOUS
 62
    90
 48
3.0
100
AcDbLine
 10
234.590287
 20
-378.082269
 30
0.0
 11
234.590287
 21
-564.340466
 31
0.0
  0
LINE
  5
15E
100
AcDbEntity
  8
V0-OBRYS
  6
CONTINUOUS
 62
    90
 48
3.0
100
AcDbLine
 10
241.764222
 20
-378.082269
 30
0.0
 11
241.764222
 21
-564.340466
 31
0.0
  0
LINE
  5
15F
100
AcDbEntity
  8
V0-OBRYS
  6
CONTINUOUS
 62
    90
 48
3.0
100
AcDbLine
 10
248.938157
 20
-378.082269
 30
0.0
 11
248.938157
 21
-564.340466
 31
0.0
  0
LINE
  5
160
100
AcDbEntity
  8
V0-OBRYS
  6
CONTINUOUS
 62
    90
 48
3.0
100
AcDbLine
 10
256.112093
 20
-378.082269
 30
0.0
 11
256.112093
 21
-564.340465
 31
0.0
  0
LINE
  5
161
100
AcDbEntity
  8
V0-OBRYS
  6
CONTINUOUS
 62
    90
 48
3.0
100
AcDbLine
 10
263.286028
 20
-378.082269
 30
0.0
 11
263.286028
 21
-564.340465
 31
0.0
  0
ARC
  5
162
100
AcDbEntity
  8
V0-OBRYS
  6
CONTINUOUS
 62
    90
 48
3.0
100
AcDbCircle
 10
404.86813
 20
-583.272394
 30
0.0
 40
11.65042
100
AcDbArc
 50
24.228441
 51
90.000002
  0
LINE
  5
163
100
AcDbEntity
  8
V0-OBRYS
  6
CONTINUOUS
 62
    90
 48
3.0
100
AcDbLine
 10
394.398189
 20
-564.340462
 30
0.0
 11
394.398189
 21
-571.951289
 31
0.0
  0
ARC
  5
164
100
AcDbEntity
  8
V0-OBRYS
  6
CONTINUOUS
 62
    90
 48
3.0
100
AcDbCircle
 10
404.86813
 20
-661.912742
 30
0.0
 40
11.65042
100
AcDbArc
 50
269.999998
 51
335.771559
  0
LINE
  5
165
100
AcDbEntity
  8
V0-OBRYS
  6
CONTINUOUS
 62
    90
 48
3.0
100
AcDbLine
 10
-55.144769
 20
-531.153755
 30
0.0
 11
-55.144769
 21
-567.571016
 31
0.0
  0
LINE
  5
166
100
AcDbEntity
  8
V0-OBRYS
  6
CONTINUOUS
 62
    90
 48
3.0
100
AcDbLine
 10
-73.34855
 20
-531.153755
 30
0.0
 11
-73.34855
 21
-713.191567
 31
0.0
  0
LINE
  5
167
100
AcDbEntity
  8
V0-OBRYS
  6
CONTINUOUS
 62
    90
 48
3.0
100
AcDbLine
 10
-55.144769
 20
-713.191567
 30
0.0
 11
-73.34855
 21
-713.191567
 31
0.0
  0
LINE
  5
16A
100
AcDbEntity
  8
V0-OBRYS
  6
CONTINUOUS
 62
    90
 48
3.0
100
AcDbLine
 10
-55.144769
 20
-531.153755
 30
0.0
 11
-73.34855
 21
-531.153755
 31
0.0
  0
ARC
  5
16D
100
AcDbEntity
  8
V0-OBRYS
  6
CONTINUOUS
 62
    90
 48
3.0
100
AcDbCircle
 10
-47.332089
 20
-661.912742
 30
0.0
 40
11.65042
100
AcDbArc
 50
204.228441
 51
270.000002
  0
ARC
  5
16E
100
AcDbEntity
  8
V0-OBRYS
  6
CONTINUOUS
 62
    90
 48
3.0
100
AcDbCircle
 10
68.391188
 20
-622.697545
 30
0.0
 40
134.331841
100
AcDbArc
 50
155.771559
 51
204.228441
  0
ARC
  5
16F
100
AcDbEntity
  8
V0-OBRYS
  6
CONTINUOUS
 62
    90
 48
3.0
100
AcDbCircle
 10
-47.332089
 20
-583.272394
 30
0.0
 40
11.65042
100
AcDbArc
 50
89.999998
 51
155.771559
  0
LINE
  5
171
100
AcDbEntity
  8
V0-OBRYS
  6
CONTINUOUS
 62
    90
 48
3.0
100
AcDbLine
 10
-55.144769
 20
-675.460324
 30
0.0
 11
-55.144769
 21
-713.191567
 31
0.0
  0
LINE
  5
172
100
AcDbEntity
  8
V0-OBRYS
  6
CONTINUOUS
 62
    90
 48
3.0
100
AcDbLine
 10
21.92153
 20
-389.523455
 30
0.0
 11
21.92153
 21
-563.475552
 31
0.0
  0
LINE
  5
173
100
AcDbEntity
  8
V0-OBRYS
  6
CONTINUOUS
 62
    90
 48
3.0
100
AcDbLine
 10
297.389454
 20
-389.523455
 30
0.0
 11
297.389454
 21
-564.340465
 31
0.0
  0
LINE
  5
174
100
AcDbEntity
  8
V0-OBRYS
  6
CONTINUOUS
 62
    90
 48
3.0
100
AcDbLine
 10
293.020546
 20
-385.154547
 30
0.0
 11
270.459963
 21
-385.154547
 31
0.0
  0
LINE
  5
175
100
AcDbEntity
  8
V0-OBRYS
  6
CONTINUOUS
 62
    90
 48
3.0
100
AcDbLine
 10
29.203042
 20
-385.154547
 30
0.0
 11
29.203042
 21
-563.475552
 31
0.0
  0
LINE
  5
176
100
AcDbEntity
  8
V0-OBRYS
  6
CONTINUOUS
 62
    90
 48
3.0
100
AcDbLine
 10
290.107941
 20
-385.154547
 30
0.0
 11
290.107941
 21
-564.340465
 31
0.0
  0
LINE
  5
177
100
AcDbEntity
  8
V0-OBRYS
  6
CONTINUOUS
 62
    90
 48
3.0
100
AcDbLine
 10
56.133881
 20
-385.154547
 30
0.0
 11
26.290437
 21
-385.154547
 31
0.0
  0
ARC
  5
17A
100
AcDbEntity
  8
V0-OBRYS
  6
CONTINUOUS
 62
    90
 48
3.0
100
AcDbCircle
 10
26.290437
 20
-389.523455
 30
0.0
 40
4.368908
100
AcDbArc
 50
90.0
 51
180.0
  0
ARC
  5
17B
100
AcDbEntity
  8
V0-OBRYS
  6
CONTINUOUS
 62
    90
 48
3.0
100
AcDbCircle
 10
293.020546
 20
-389.523455
 30
0.0
 40
4.368908
100
AcDbArc
 50
0.0
 51
90.0
  0
LINE
  5
17C
100
AcDbEntity
  8
V0-OBRYS
  6
CONTINUOUS
 62
    90
 48
3.0
100
AcDbLine
 10
255.028486
 20
-680.84467
 30
0.0
 11
71.565365
 21
-680.844665
 31
0.0
  0
LINE
  5
180
100
AcDbEntity
  8
V0-OBRYS
  6
CONTINUOUS
 62
    90
 48
3.0
100
AcDbLine
 10
71.565364
 20
-674.611691
 30
0.0
 11
71.565365
 21
-680.844665
 31
0.0
  0
LINE
  5
181
100
AcDbEntity
  8
V0-OBRYS
  6
CONTINUOUS
 62
    90
 48
3.0
100
AcDbLine
 10
255.028486
 20
-674.611695
 30
0.0
 11
255.028486
 21
-680.84467
 31
0.0
  0
LINE
  5
182
100
AcDbEntity
  8
V0-OBRYS
  6
CONTINUOUS
 62
    90
 48
3.0
100
AcDbLine
 10
736.692503
 20
315.833044
 30
0.0
 11
736.692514
 21
-93.942603
 31
0.0
  0
LINE
  5
183
100
AcDbEntity
  8
V0-OBRYS
  6
CONTINUOUS
 62
    90
 48
3.0
100
AcDbLine
 10
852.148173
 20
202.676786
 30
0.0
 11
852.148168
 21
19.213665
 31
0.0
  0
LINE
  5
184
100
AcDbEntity
  8
V0-OBRYS
  6
CONTINUOUS
 62
    90
 48
3.0
100
AcDbLine
 10
845.915199
 20
202.676786
 30
0.0
 11
852.148173
 21
202.676786
 31
0.0
  0
LINE
  5
185
100
AcDbEntity
  8
V0-OBRYS
  6
CONTINUOUS
 62
    90
 48
3.0
100
AcDbLine
 10
845.915194
 20
19.213664
 30
0.0
 11
852.148168
 21
19.213665
 31
0.0
  0
ARC
  5
188
100
AcDbEntity
  8
V0-OBRYS
  6
CONTINUOUS
 62
    90
 48
3.0
100
AcDbCircle
 10
45.15556
 20
-100.681488
 30
0.0
 40
7.281513
100
AcDbArc
 50
270.0
 51
0.0
  0
CIRCLE
  5
277
100
AcDbEntity
  8
V0-OBRYS
  6
CONTINUOUS
 62
    90
 48
3.0
100
AcDbCircle
 10
794.944609
 20
-151.684195
 30
0.0
 40
57.485625
  0
DIMENSION
  5
307
100
AcDbEntity
  8
V0-VYPLNE
  6
CONTINUOUS
 62
    41
 48
3.0
100
AcDbDimension
  2
*D5
 10
238.665954
 20
140.026053
 30
0.0
 11
158.807647
 21
122.830998
 31
0.0
 70
    33
  1
%%c160
  3
ED20
100
AcDbAlignedDimension
 13
88.374039
 23
81.473336
 33
0.0
 14
238.64256
 24
140.08603
 34
0.0
1001
ACAD
1000
DSTYLE
1002
{
1070
   140
1040
30.0
1070
   340
1005
1F
1070
    41
1040
30.0
1002
}
  0
MTEXT
  5
329
100
AcDbEntity
  8
V0-ZBYTEK
 62
    51
100
AcDbMText
 10
768.752631
 20
-573.137279
 30
0.0
 40
33.801548
 41
957.531157
 71
     5
 72
     5
  1
SPECIALNI RADIALNI\PVENTILATOR
  7
ED10
  0
MTEXT
  5
32A
100
AcDbEntity
  8
V0-NAZVY
100
AcDbMText
 10
753.26148
 20
-457.122616
 30
0.0
 40
60.359906
 41
496.497671
 71
     5
 72
     5
  1
CBT-130
  7
ED10
  0
POINT
  5
391
100
AcDbEntity
  8
V0-VYPLNE
  6
CONTINUOUS
 62
    41
 48
3.0
100
AcDbPoint
 10
-73.34855
 20
-622.697545
 30
0.0
  0
POINT
  5
392
100
AcDbEntity
  8
V0-VYPLNE
  6
CONTINUOUS
 62
    41
 48
3.0
100
AcDbPoint
 10
-73.34855
 20
-151.684195
 30
0.0
  0
POINT
  5
393
100
AcDbEntity
  8
V0-VYPLNE
  6
CONTINUOUS
 62
    41
 48
3.0
100
AcDbPoint
 10
794.944609
 20
-151.684195
 30
0.0
  0
DIMENSION
  5
6F7
100
AcDbEntity
  8
V0-VYPLNE
  6
CONTINUOUS
 62
    41
 48
3.0
100
AcDbDimension
  2
*D11
 10
740.32733
 20
-169.616008
 30
0.0
 11
953.937524
 21
-99.484026
 31
0.0
 70
   163
  1
%%c130
  3
ED20
100
AcDbDiametricDimension
 15
849.561888
 25
-133.752382
 35
0.0
 40
0.0
1001
ACAD
1000
DSTYLE
1002
{
1070
   288
1070
     1
1002
}
  0
DIMENSION
  5
7F4
100
AcDbEntity
  8
V0-VYPLNE
  6
CONTINUOUS
 62
    41
 48
3.0
100
AcDbDimension
  2
*D15
 10
886.824368
 20
-340.806853
 30
0.0
 11
770.565767
 21
-327.804885
 31
0.0
 70
    32
  3
ED20
100
AcDbAlignedDimension
 13
654.307167
 23
-240.314254
 33
0.0
 14
886.824368
 24
-259.539819
 34
0.0
100
AcDbRotatedDimension
  0
DIMENSION
  5
80C
100
AcDbEntity
  8
V0-VYPLNE
  6
CONTINUOUS
 62
    41
 48
3.0
100
AcDbDimension
  2
*D16
 10
431.263801
 20
406.116366
 30
0.0
 11
176.994502
 21
419.116366
 31
0.0
 70
    32
  1
508
  3
ED20
100
AcDbAlignedDimension
 13
-77.274797
 23
110.945225
 33
0.0
 14
431.263801
 24
97.099661
 34
0.0
100
AcDbRotatedDimension
  0
DIMENSION
  5
819
100
AcDbEntity
  8
V0-VYPLNE
  6
CONTINUOUS
 62
    41
 48
3.0
100
AcDbDimension
  2
*D17
 10
852.148171
 20
412.209033
 30
0.0
 11
677.538265
 21
425.209033
 31
0.0
 70
    32
  1
350
  3
ED20
100
AcDbAlignedDimension
 13
502.928359
 23
110.945228
 33
0.0
 14
852.148171
 24
110.945225
 34
0.0
100
AcDbRotatedDimension
  0
DIMENSION
  5
826
100
AcDbEntity
  8
V0-VYPLNE
  6
CONTINUOUS
 62
    41
 48
3.0
100
AcDbDimension
  2
*D18
 10
-157.395769
 20
-242.703102
 30
0.0
 11
-170.395769
 21
51.586822
 31
0.0
 70
    32
  1
603
  3
ED40
100
AcDbAlignedDimension
 13
154.489297
 23
345.876746
 33
0.0
 14
-73.34855
 24
-242.703102
 34
0.0
 50
90.0
100
AcDbRotatedDimension
  0
ENDSEC
  0
SECTION
  2
OBJECTS
  0
DICTIONARY
  5
1A
100
AcDbDictionary
  3
ACAD_GROUP
350
18
  3
ACAD_MLINESTYLE
350
19
  3
ACDBVARIABLEDICTIONARY
350
D9
  0
DICTIONARY
  5
18
102
{ACAD_REACTORS
330
1A
102
}
100
AcDbDictionary
  0
DICTIONARY
  5
19
102
{ACAD_REACTORS
330
1A
102
}
100
AcDbDictionary
  3
STANDARD
350
1D
  0
DICTIONARY
  5
D9
102
{ACAD_REACTORS
330
1A
102
}
100
AcDbDictionary
  3
SORTENTS
350
DA
  0
MLINESTYLE
  5
1D
102
{ACAD_REACTORS
330
19
102
}
100
AcDbMlineStyle
  2
STANDARD
 70
     0
  3

 62
     0
 51
90.0
 52
90.0
 71
     2
 49
0.5
 62
   256
  6
BYLAYER
 49
-0.5
 62
   256
  6
BYLAYER
  0
DICTIONARYVAR
  5
DA
102
{ACAD_REACTORS
330
D9
102
}
100
DictionaryVariables
280
     0
  1
96
  0
ENDSEC
  0
EOF
