  0
SECTION
  2
HEADER
  9
$ACADVER
  1
AC1015
  9
$ACADMAINTVER
 70
    13
  9
$DWGCODEPAGE
  3
ANSI_1252
  9
$INSBASE
 10
0.0
 20
0.0
 30
0.0
  9
$EXTMIN
 10
-305.6369760423374
 20
-66.56298559893594
 30
0.0
  9
$EXTMAX
 10
701.8630239576626
 20
406.8320263516356
 30
0.0
  9
$LIMMIN
 10
0.0
 20
0.0
  9
$LIMMAX
 10
420.0
 20
297.0
  9
$ORTHOMODE
 70
     0
  9
$REGENMODE
 70
     1
  9
$FILLMODE
 70
     1
  9
$QTEXTMODE
 70
     0
  9
$MIRRTEXT
 70
     1
  9
$LTSCALE
 40
1.0
  9
$ATTMODE
 70
     1
  9
$TEXTSIZE
 40
15.0
  9
$TRACEWID
 40
1.0
  9
$TEXTSTYLE
  7
Standard
  9
$CLAYER
  8
popis
  9
$CELTYPE
  6
ByLayer
  9
$CECOLOR
 62
   256
  9
$CELTSCALE
 40
1.0
  9
$DISPSILH
 70
     0
  9
$DIMSCALE
 40
10.0
  9
$DIMASZ
 40
2.0
  9
$DIMEXO
 40
0.625
  9
$DIMDLI
 40
3.75
  9
$DIMRND
 40
0.0
  9
$DIMDLE
 40
0.0
  9
$DIMEXE
 40
1.25
  9
$DIMTP
 40
0.0
  9
$DIMTM
 40
0.0
  9
$DIMTXT
 40
2.0
  9
$DIMCEN
 40
2.5
  9
$DIMTSZ
 40
0.0
  9
$DIMTOL
 70
     0
  9
$DIMLIM
 70
     0
  9
$DIMTIH
 70
     0
  9
$DIMTOH
 70
     0
  9
$DIMSE1
 70
     0
  9
$DIMSE2
 70
     0
  9
$DIMTAD
 70
     1
  9
$DIMZIN
 70
     8
  9
$DIMBLK
  1

  9
$DIMASO
 70
     1
  9
$DIMSHO
 70
     1
  9
$DIMPOST
  1

  9
$DIMAPOST
  1

  9
$DIMALT
 70
     0
  9
$DIMALTD
 70
     3
  9
$DIMALTF
 40
0.03937007874016
  9
$DIMLFAC
 40
1.0
  9
$DIMTOFL
 70
     1
  9
$DIMTVP
 40
0.0
  9
$DIMTIX
 70
     0
  9
$DIMSOXD
 70
     0
  9
$DIMSAH
 70
     0
  9
$DIMBLK1
  1

  9
$DIMBLK2
  1

  9
$DIMSTYLE
  2
ISO-25
  9
$DIMCLRD
 70
     0
  9
$DIMCLRE
 70
     0
  9
$DIMCLRT
 70
     0
  9
$DIMTFAC
 40
1.0
  9
$DIMGAP
 40
0.625
  9
$DIMJUST
 70
     0
  9
$DIMSD1
 70
     0
  9
$DIMSD2
 70
     0
  9
$DIMTOLJ
 70
     0
  9
$DIMTZIN
 70
     8
  9
$DIMALTZ
 70
     0
  9
$DIMALTTZ
 70
     0
  9
$DIMUPT
 70
     0
  9
$DIMDEC
 70
     2
  9
$DIMTDEC
 70
     2
  9
$DIMALTU
 70
     2
  9
$DIMALTTD
 70
     3
  9
$DIMTXSTY
  7
Standard
  9
$DIMAUNIT
 70
     0
  9
$DIMADEC
 70
     0
  9
$DIMALTRND
 40
0.0
  9
$DIMAZIN
 70
     0
  9
$DIMDSEP
 70
    44
  9
$DIMATFIT
 70
     3
  9
$DIMFRAC
 70
     0
  9
$DIMLDRBLK
  1

  9
$DIMLUNIT
 70
     2
  9
$DIMLWD
 70
    -2
  9
$DIMLWE
 70
    -2
  9
$DIMTMOVE
 70
     0
  9
$LUNITS
 70
     2
  9
$LUPREC
 70
     4
  9
$SKETCHINC
 40
1.0
  9
$FILLETRAD
 40
10.0
  9
$AUNITS
 70
     0
  9
$AUPREC
 70
     0
  9
$MENU
  1
.
  9
$ELEVATION
 40
0.0
  9
$PELEVATION
 40
0.0
  9
$THICKNESS
 40
0.0
  9
$LIMCHECK
 70
     0
  9
$CHAMFERA
 40
10.0
  9
$CHAMFERB
 40
10.0
  9
$CHAMFERC
 40
20.0
  9
$CHAMFERD
 40
0.0
  9
$SKPOLY
 70
     0
  9
$TDCREATE
 40
2453639.692351574
  9
$TDUCREATE
 40
2453639.650684907
  9
$TDUPDATE
 40
2453685.544907581
  9
$TDUUPDATE
 40
2453685.503240914
  9
$TDINDWG
 40
0.0963784954
  9
$TDUSRTIMER
 40
0.0963779167
  9
$USRTIMER
 70
     1
  9
$ANGBASE
 50
0.0
  9
$ANGDIR
 70
     0
  9
$PDMODE
 70
     0
  9
$PDSIZE
 40
0.0
  9
$PLINEWID
 40
0.0
  9
$SPLFRAME
 70
     0
  9
$SPLINETYPE
 70
     6
  9
$SPLINESEGS
 70
     8
  9
$HANDSEED
  5
2A3
  9
$SURFTAB1
 70
     6
  9
$SURFTAB2
 70
     6
  9
$SURFTYPE
 70
     6
  9
$SURFU
 70
     6
  9
$SURFV
 70
     6
  9
$UCSBASE
  2

  9
$UCSNAME
  2

  9
$UCSORG
 10
0.0
 20
0.0
 30
0.0
  9
$UCSXDIR
 10
1.0
 20
0.0
 30
0.0
  9
$UCSYDIR
 10
0.0
 20
1.0
 30
0.0
  9
$UCSORTHOREF
  2

  9
$UCSORTHOVIEW
 70
     1
  9
$UCSORGTOP
 10
0.0
 20
0.0
 30
0.0
  9
$UCSORGBOTTOM
 10
0.0
 20
0.0
 30
0.0
  9
$UCSORGLEFT
 10
0.0
 20
0.0
 30
0.0
  9
$UCSORGRIGHT
 10
0.0
 20
0.0
 30
0.0
  9
$UCSORGFRONT
 10
0.0
 20
0.0
 30
0.0
  9
$UCSORGBACK
 10
0.0
 20
0.0
 30
0.0
  9
$PUCSBASE
  2

  9
$PUCSNAME
  2

  9
$PUCSORG
 10
0.0
 20
0.0
 30
0.0
  9
$PUCSXDIR
 10
1.0
 20
0.0
 30
0.0
  9
$PUCSYDIR
 10
0.0
 20
1.0
 30
0.0
  9
$PUCSORTHOREF
  2

  9
$PUCSORTHOVIEW
 70
     0
  9
$PUCSORGTOP
 10
0.0
 20
0.0
 30
0.0
  9
$PUCSORGBOTTOM
 10
0.0
 20
0.0
 30
0.0
  9
$PUCSORGLEFT
 10
0.0
 20
0.0
 30
0.0
  9
$PUCSORGRIGHT
 10
0.0
 20
0.0
 30
0.0
  9
$PUCSORGFRONT
 10
0.0
 20
0.0
 30
0.0
  9
$PUCSORGBACK
 10
0.0
 20
0.0
 30
0.0
  9
$USERI1
 70
     0
  9
$USERI2
 70
     0
  9
$USERI3
 70
     0
  9
$USERI4
 70
     0
  9
$USERI5
 70
     0
  9
$USERR1
 40
0.0
  9
$USERR2
 40
0.0
  9
$USERR3
 40
0.0
  9
$USERR4
 40
0.0
  9
$USERR5
 40
0.0
  9
$WORLDVIEW
 70
     1
  9
$SHADEDGE
 70
     3
  9
$SHADEDIF
 70
    70
  9
$TILEMODE
 70
     1
  9
$MAXACTVP
 70
    64
  9
$PINSBASE
 10
0.0
 20
0.0
 30
0.0
  9
$PLIMCHECK
 70
     0
  9
$PEXTMIN
 10
1.000000000000000E+20
 20
1.000000000000000E+20
 30
1.000000000000000E+20
  9
$PEXTMAX
 10
-1.000000000000000E+20
 20
-1.000000000000000E+20
 30
-1.000000000000000E+20
  9
$PLIMMIN
 10
0.0
 20
0.0
  9
$PLIMMAX
 10
420.0
 20
297.0
  9
$UNITMODE
 70
     0
  9
$VISRETAIN
 70
     1
  9
$PLINEGEN
 70
     0
  9
$PSLTSCALE
 70
     1
  9
$TREEDEPTH
 70
  3020
  9
$CMLSTYLE
  2
Standard
  9
$CMLJUST
 70
     0
  9
$CMLSCALE
 40
20.0
  9
$PROXYGRAPHICS
 70
     1
  9
$MEASUREMENT
 70
     1
  9
$CELWEIGHT
370
    -1
  9
$ENDCAPS
280
     0
  9
$JOINSTYLE
280
     0
  9
$LWDISPLAY
290
     0
  9
$INSUNITS
 70
     4
  9
$HYPERLINKBASE
  1

  9
$STYLESHEET
  1

  9
$XEDIT
290
     1
  9
$CEPSNTYPE
380
     0
  9
$PSTYLEMODE
290
     1
  9
$FINGERPRINTGUID
  2
{9B47308E-04D6-42FB-BD32-F27AC533D1CD}
  9
$VERSIONGUID
  2
{0520CE14-C17D-4B62-A89D-623DBE181F66}
  9
$EXTNAMES
290
     1
  9
$PSVPSCALE
 40
0.0
  9
$OLESTARTUP
290
     0
  0
ENDSEC
  0
SECTION
  2
CLASSES
  0
CLASS
  1
ACDBDICTIONARYWDFLT
  2
AcDbDictionaryWithDefault
  3
AutoCAD 2000
 90
        0
280
     0
281
     0
  0
CLASS
  1
ACDBPLACEHOLDER
  2
AcDbPlaceHolder
  3
AutoCAD 2000
 90
        0
280
     0
281
     0
  0
CLASS
  1
LAYOUT
  2
AcDbLayout
  3
AutoCAD 2000
 90
        0
280
     0
281
     0
  0
CLASS
  1
DICTIONARYVAR
  2
AcDbDictionaryVar
  3
AutoCAD 2000
 90
        0
280
     0
281
     0
  0
CLASS
  1
DIMASSOC
  2
AcDbDimAssoc
  3
"AcDbDimAssoc|Product Desc:     AcDim ARX App For Dimension|Company:          Autodesk, Inc.|WEB Address:      www.autodesk.com"
 90
        0
280
     0
281
     0
  0
ENDSEC
  0
SECTION
  2
TABLES
  0
TABLE
  2
VPORT
  5
8
330
0
100
AcDbSymbolTable
 70
     3
  0
VPORT
  5
2A2
330
8
100
AcDbSymbolTableRecord
100
AcDbViewportTableRecord
  2
*Active
 70
     0
 10
0.0
 20
0.0
 11
1.0
 21
1.0
 12
198.1130239576625
 22
170.1345203763498
 13
0.0
 23
0.0
 14
10.0
 24
10.0
 15
10.0
 25
10.0
 16
0.0
 26
0.0
 36
1.0
 17
0.0
 27
0.0
 37
0.0
 40
544.3668357320385
 41
1.862475442043221
 42
50.0
 43
0.0
 44
0.0
 50
0.0
 51
0.0
 71
     0
 72
   100
 73
     1
 74
     3
 75
     0
 76
     0
 77
     0
 78
     0
281
     0
 65
     1
110
0.0
120
0.0
130
0.0
111
1.0
121
0.0
131
0.0
112
0.0
122
1.0
132
0.0
 79
     1
146
0.0
  0
ENDTAB
  0
TABLE
  2
LTYPE
  5
5
330
0
100
AcDbSymbolTable
 70
     3
  0
LTYPE
  5
14
330
5
100
AcDbSymbolTableRecord
100
AcDbLinetypeTableRecord
  2
ByBlock
 70
     0
  3

 72
    65
 73
     0
 40
0.0
  0
LTYPE
  5
15
330
5
100
AcDbSymbolTableRecord
100
AcDbLinetypeTableRecord
  2
ByLayer
 70
     0
  3

 72
    65
 73
     0
 40
0.0
  0
LTYPE
  5
16
330
5
100
AcDbSymbolTableRecord
100
AcDbLinetypeTableRecord
  2
Continuous
 70
     0
  3
Solid line
 72
    65
 73
     0
 40
0.0
  0
LTYPE
  5
121
330
5
100
AcDbSymbolTableRecord
100
AcDbLinetypeTableRecord
  2
ACAD_ISO02W100
 70
     0
  3
ISO èárkovaná __ __ __ __ __ __ __ __ __ __ __ 
 72
    65
 73
     2
 40
15.0
 49
12.0
 74
     0
 49
-3.0
 74
     0
  0
LTYPE
  5
122
330
5
100
AcDbSymbolTableRecord
100
AcDbLinetypeTableRecord
  2
ACAD_ISO03W100
 70
     0
  3
ISO pøerušovaná __    __    __    __    __    _
 72
    65
 73
     2
 40
30.0
 49
12.0
 74
     0
 49
-18.0
 74
     0
  0
ENDTAB
  0
TABLE
  2
LAYER
  5
2
330
0
100
AcDbSymbolTable
 70
     5
  0
LAYER
  5
10
330
2
100
AcDbSymbolTableRecord
100
AcDbLayerTableRecord
  2
0
 70
     0
 62
    90
  6
Continuous
370
    -3
390
F
  0
LAYER
  5
2B
330
2
100
AcDbSymbolTableRecord
100
AcDbLayerTableRecord
  2
koty
 70
     0
 62
    41
  6
Continuous
370
    -3
390
F
  0
LAYER
  5
2C
330
2
100
AcDbSymbolTableRecord
100
AcDbLayerTableRecord
  2
popis
 70
     0
 62
   210
  6
Continuous
370
    -3
390
F
  0
LAYER
  5
4E
330
2
100
AcDbSymbolTableRecord
100
AcDbLayerTableRecord
  2
Defpoints
 70
     0
 62
     7
  6
Continuous
290
     0
370
    -3
390
F
  0
LAYER
  5
C4
330
2
100
AcDbSymbolTableRecord
100
AcDbLayerTableRecord
  2
srafy
 70
     0
 62
     7
  6
Continuous
370
    -3
390
F
  0
ENDTAB
  0
TABLE
  2
STYLE
  5
3
330
0
100
AcDbSymbolTable
 70
     2
  0
STYLE
  5
11
330
3
100
AcDbSymbolTableRecord
100
AcDbTextStyleTableRecord
  2
Standard
 70
     0
 40
0.0
 41
1.0
 50
0.0
 71
     0
 42
15.0
  3
txt
  4

  0
STYLE
  5
120
330
3
100
AcDbSymbolTableRecord
100
AcDbTextStyleTableRecord
  2

 70
     1
 40
0.0
 41
1.0
 50
0.0
 71
     0
 42
2.5
  3
ltypeshp.shx
  4

  0
ENDTAB
  0
TABLE
  2
VIEW
  5
6
330
0
100
AcDbSymbolTable
 70
     0
  0
ENDTAB
  0
TABLE
  2
UCS
  5
7
330
0
100
AcDbSymbolTable
 70
     0
  0
ENDTAB
  0
TABLE
  2
APPID
  5
9
330
0
100
AcDbSymbolTable
 70
     1
  0
APPID
  5
12
330
9
100
AcDbSymbolTableRecord
100
AcDbRegAppTableRecord
  2
ACAD
 70
     0
  0
ENDTAB
  0
TABLE
  2
DIMSTYLE
  5
A
330
0
100
AcDbSymbolTable
 70
     1
100
AcDbDimStyleTable
 71
     1
340
27
  0
DIMSTYLE
105
27
102
{ACAD_REACTORS
330
223
330
23B
330
253
330
26B
330
283
102
}
330
A
100
AcDbSymbolTableRecord
100
AcDbDimStyleTableRecord
  2
ISO-25
 70
     0
 40
10.0
 41
2.0
 42
0.625
 43
3.75
 44
1.25
 73
     0
 74
     0
 77
     1
 78
     8
140
2.0
141
2.5
143
0.03937007874016
147
0.625
171
     3
172
     1
271
     2
272
     2
274
     3
278
    44
283
     0
284
     8
340
11
  0
ENDTAB
  0
TABLE
  2
BLOCK_RECORD
  5
1
330
0
100
AcDbSymbolTable
 70
     6
  0
BLOCK_RECORD
  5
1F
330
1
100
AcDbSymbolTableRecord
100
AcDbBlockTableRecord
  2
*Model_Space
340
22
  0
BLOCK_RECORD
  5
1B
330
1
100
AcDbSymbolTableRecord
100
AcDbBlockTableRecord
  2
*Paper_Space
340
1E
  0
BLOCK_RECORD
  5
23
330
1
100
AcDbSymbolTableRecord
100
AcDbBlockTableRecord
  2
*Paper_Space0
340
26
  0
BLOCK_RECORD
  5
224
330
1
100
AcDbSymbolTableRecord
100
AcDbBlockTableRecord
  2
*D1
340
0
  0
BLOCK_RECORD
  5
23C
330
1
100
AcDbSymbolTableRecord
100
AcDbBlockTableRecord
  2
*D2
340
0
  0
BLOCK_RECORD
  5
254
330
1
100
AcDbSymbolTableRecord
100
AcDbBlockTableRecord
  2
*D3
340
0
  0
BLOCK_RECORD
  5
26C
330
1
100
AcDbSymbolTableRecord
100
AcDbBlockTableRecord
  2
*D4
340
0
  0
BLOCK_RECORD
  5
284
330
1
100
AcDbSymbolTableRecord
100
AcDbBlockTableRecord
  2
*D5
340
0
  0
ENDTAB
  0
ENDSEC
  0
SECTION
  2
BLOCKS
  0
BLOCK
  5
20
330
1F
100
AcDbEntity
  8
0
100
AcDbBlockBegin
  2
*Model_Space
 70
     0
 10
0.0
 20
0.0
 30
0.0
  3
*Model_Space
  1

  0
ENDBLK
  5
21
330
1F
100
AcDbEntity
  8
0
100
AcDbBlockEnd
  0
BLOCK
  5
1C
330
1B
100
AcDbEntity
 67
     1
  8
0
100
AcDbBlockBegin
  2
*Paper_Space
 70
     0
 10
0.0
 20
0.0
 30
0.0
  3
*Paper_Space
  1

  0
ENDBLK
  5
1D
330
1B
100
AcDbEntity
 67
     1
  8
0
100
AcDbBlockEnd
  0
BLOCK
  5
24
330
23
100
AcDbEntity
  8
0
100
AcDbBlockBegin
  2
*Paper_Space0
 70
     0
 10
0.0
 20
0.0
 30
0.0
  3
*Paper_Space0
  1

  0
ENDBLK
  5
25
330
23
100
AcDbEntity
  8
0
100
AcDbBlockEnd
  0
BLOCK
  5
22E
330
224
100
AcDbEntity
  8
0
100
AcDbBlockBegin
  2
*D1
 70
     1
 10
0.0
 20
0.0
 30
0.0
  3
*D1
  1

  0
LINE
  5
231
330
224
100
AcDbEntity
  8
koty
 62
     0
370
    -2
100
AcDbLine
 10
-219.4450997800695
 20
74.84877929866724
 30
0.0
 11
-219.4450997800695
 21
7.734885824788648
 31
0.0
  0
LINE
  5
232
330
224
100
AcDbEntity
  8
koty
 62
     0
370
    -2
100
AcDbLine
 10
4.554900219930459
 20
74.84877929866724
 30
0.0
 11
4.554900219930455
 21
7.734885824788648
 31
0.0
  0
LINE
  5
233
330
224
100
AcDbEntity
  8
koty
 62
     0
370
    -2
100
AcDbLine
 10
-199.4450997800695
 20
20.23488582478865
 30
0.0
 11
-15.44509978006954
 21
20.23488582478865
 31
0.0
  0
SOLID
  5
234
330
224
100
AcDbEntity
  8
koty
 62
     0
100
AcDbTrace
 10
-199.4450997800695
 20
23.56821915812198
 30
0.0
 11
-199.4450997800695
 21
16.90155249145531
 31
0.0
 12
-219.4450997800695
 22
20.23488582478865
 32
0.0
 13
-219.4450997800695
 23
20.23488582478865
 33
0.0
  0
SOLID
  5
235
330
224
100
AcDbEntity
  8
koty
 62
     0
100
AcDbTrace
 10
-15.44509978006954
 20
23.56821915812198
 30
0.0
 11
-15.44509978006954
 21
16.90155249145531
 31
0.0
 12
4.554900219930456
 22
20.23488582478865
 32
0.0
 13
4.554900219930456
 23
20.23488582478865
 33
0.0
  0
MTEXT
  5
236
330
224
100
AcDbEntity
  8
koty
 62
     0
100
AcDbMText
 10
-107.4450997800695
 20
36.48488582478865
 30
0.0
 40
20.0
 41
0.0
 71
     5
 72
     1
  1
224
 73
     1
 44
1.0
  0
POINT
  5
237
330
224
100
AcDbEntity
  8
Defpoints
 62
     0
100
AcDbPoint
 10
-219.4450997800695
 20
81.09877929866724
 30
0.0
  0
POINT
  5
238
330
224
100
AcDbEntity
  8
Defpoints
 62
     0
100
AcDbPoint
 10
4.554900219930459
 20
81.09877929866724
 30
0.0
  0
POINT
  5
239
330
224
100
AcDbEntity
  8
Defpoints
 62
     0
100
AcDbPoint
 10
4.554900219930456
 20
20.23488582478865
 30
0.0
  0
ENDBLK
  5
22F
330
224
100
AcDbEntity
  8
0
100
AcDbBlockEnd
  0
BLOCK
  5
246
330
23C
100
AcDbEntity
  8
0
100
AcDbBlockBegin
  2
*D2
 70
     1
 10
0.0
 20
0.0
 30
0.0
  3
*D2
  1

  0
LINE
  5
249
330
23C
100
AcDbEntity
  8
koty
 62
     0
370
    -2
100
AcDbLine
 10
274.6205493424514
 20
343.0951603626183
 30
0.0
 11
581.4524268652015
 21
343.0951603626182
 31
0.0
  0
LINE
  5
24A
330
23C
100
AcDbEntity
  8
koty
 62
     0
370
    -2
100
AcDbLine
 10
274.6205493424514
 20
81.09516036261823
 30
0.0
 11
581.4524268652014
 21
81.09516036261814
 31
0.0
  0
LINE
  5
24B
330
23C
100
AcDbEntity
  8
koty
 62
     0
370
    -2
100
AcDbLine
 10
568.9524268652015
 20
323.0951603626182
 30
0.0
 11
568.9524268652014
 21
101.0951603626181
 31
0.0
  0
SOLID
  5
24C
330
23C
100
AcDbEntity
  8
koty
 62
     0
100
AcDbTrace
 10
565.6190935318682
 20
323.0951603626182
 30
0.0
 11
572.2857601985349
 21
323.0951603626182
 31
0.0
 12
568.9524268652015
 22
343.0951603626182
 32
0.0
 13
568.9524268652015
 23
343.0951603626182
 33
0.0
  0
SOLID
  5
24D
330
23C
100
AcDbEntity
  8
koty
 62
     0
100
AcDbTrace
 10
565.619093531868
 20
101.0951603626181
 30
0.0
 11
572.2857601985348
 21
101.0951603626181
 31
0.0
 12
568.9524268652014
 22
81.09516036261814
 32
0.0
 13
568.9524268652014
 23
81.09516036261814
 33
0.0
  0
MTEXT
  5
24E
330
23C
100
AcDbEntity
  8
koty
 62
     0
100
AcDbMText
 10
552.7024268652014
 20
212.0951603626183
 30
0.0
 40
20.0
 41
0.0
 71
     5
 72
     1
  1
262
 11
0.0000000000000001
 21
1.0
 31
0.0
 73
     1
 44
1.0
  0
POINT
  5
24F
330
23C
100
AcDbEntity
  8
Defpoints
 62
     0
100
AcDbPoint
 10
268.3705493424514
 20
343.0951603626183
 30
0.0
  0
POINT
  5
250
330
23C
100
AcDbEntity
  8
Defpoints
 62
     0
100
AcDbPoint
 10
268.3705493424514
 20
81.09516036261823
 30
0.0
  0
POINT
  5
251
330
23C
100
AcDbEntity
  8
Defpoints
 62
     0
100
AcDbPoint
 10
568.9524268652014
 20
81.09516036261814
 30
0.0
  0
ENDBLK
  5
247
330
23C
100
AcDbEntity
  8
0
100
AcDbBlockEnd
  0
BLOCK
  5
25E
330
254
100
AcDbEntity
  8
0
100
AcDbBlockBegin
  2
*D3
 70
     1
 10
0.0
 20
0.0
 30
0.0
  3
*D3
  1

  0
LINE
  5
261
330
254
100
AcDbEntity
  8
koty
 62
     0
370
    -2
100
AcDbLine
 10
403.3705493424513
 20
213.8451603626182
 30
0.0
 11
403.3705493424513
 21
7.729047309053157
 31
0.0
  0
LINE
  5
262
330
254
100
AcDbEntity
  8
koty
 62
     0
370
    -2
100
AcDbLine
 10
260.3705493424513
 20
205.8451603626182
 30
0.0
 11
260.3705493424513
 21
7.729047309053157
 31
0.0
  0
LINE
  5
263
330
254
100
AcDbEntity
  8
koty
 62
     0
370
    -2
100
AcDbLine
 10
383.3705493424513
 20
20.22904730905315
 30
0.0
 11
280.3705493424513
 21
20.22904730905315
 31
0.0
  0
SOLID
  5
264
330
254
100
AcDbEntity
  8
koty
 62
     0
100
AcDbTrace
 10
383.3705493424513
 20
23.56238064238648
 30
0.0
 11
383.3705493424513
 21
16.89571397571982
 31
0.0
 12
403.3705493424513
 22
20.22904730905315
 32
0.0
 13
403.3705493424513
 23
20.22904730905315
 33
0.0
  0
SOLID
  5
265
330
254
100
AcDbEntity
  8
koty
 62
     0
100
AcDbTrace
 10
280.3705493424513
 20
23.56238064238648
 30
0.0
 11
280.3705493424513
 21
16.89571397571982
 31
0.0
 12
260.3705493424513
 22
20.22904730905315
 32
0.0
 13
260.3705493424513
 23
20.22904730905315
 33
0.0
  0
MTEXT
  5
266
330
254
100
AcDbEntity
  8
koty
 62
     0
100
AcDbMText
 10
331.8705493424513
 20
36.47904730905315
 30
0.0
 40
20.0
 41
0.0
 71
     5
 72
     1
  1
143
 73
     1
 44
1.0
  0
POINT
  5
267
330
254
100
AcDbEntity
  8
Defpoints
 62
     0
100
AcDbPoint
 10
403.3705493424513
 20
220.0951603626182
 30
0.0
  0
POINT
  5
268
330
254
100
AcDbEntity
  8
Defpoints
 62
     0
100
AcDbPoint
 10
260.3705493424513
 20
212.0951603626182
 30
0.0
  0
POINT
  5
269
330
254
100
AcDbEntity
  8
Defpoints
 62
     0
100
AcDbPoint
 10
260.3705493424513
 20
20.22904730905315
 30
0.0
  0
ENDBLK
  5
25F
330
254
100
AcDbEntity
  8
0
100
AcDbBlockEnd
  0
BLOCK
  5
276
330
26C
100
AcDbEntity
  8
0
100
AcDbBlockBegin
  2
*D4
 70
     1
 10
0.0
 20
0.0
 30
0.0
  3
*D4
  1

  0
LINE
  5
279
330
26C
100
AcDbEntity
  8
koty
 62
     0
370
    -2
100
AcDbLine
 10
403.3705493424513
 20
213.8451603626182
 30
0.0
 11
403.3705493424513
 21
-66.56298559893594
 31
0.0
  0
LINE
  5
27A
330
26C
100
AcDbEntity
  8
koty
 62
     0
370
    -2
100
AcDbLine
 10
133.3705493424513
 20
205.8451603626183
 30
0.0
 11
133.3705493424512
 21
-66.56298559893594
 31
0.0
  0
LINE
  5
27B
330
26C
100
AcDbEntity
  8
koty
 62
     0
370
    -2
100
AcDbLine
 10
383.3705493424513
 20
-54.06298559893594
 30
0.0
 11
153.3705493424512
 21
-54.06298559893594
 31
0.0
  0
SOLID
  5
27C
330
26C
100
AcDbEntity
  8
koty
 62
     0
100
AcDbTrace
 10
383.3705493424513
 20
-50.7296522656026
 30
0.0
 11
383.3705493424513
 21
-57.39631893226928
 31
0.0
 12
403.3705493424513
 22
-54.06298559893594
 32
0.0
 13
403.3705493424513
 23
-54.06298559893594
 33
0.0
  0
SOLID
  5
27D
330
26C
100
AcDbEntity
  8
koty
 62
     0
100
AcDbTrace
 10
153.3705493424512
 20
-50.7296522656026
 30
0.0
 11
153.3705493424512
 21
-57.39631893226928
 31
0.0
 12
133.3705493424512
 22
-54.06298559893594
 32
0.0
 13
133.3705493424512
 23
-54.06298559893594
 33
0.0
  0
MTEXT
  5
27E
330
26C
100
AcDbEntity
  8
koty
 62
     0
100
AcDbMText
 10
268.3705493424513
 20
-37.81298559893594
 30
0.0
 40
20.0
 41
0.0
 71
     5
 72
     1
  1
270
 73
     1
 44
1.0
  0
POINT
  5
27F
330
26C
100
AcDbEntity
  8
Defpoints
 62
     0
100
AcDbPoint
 10
403.3705493424513
 20
220.0951603626182
 30
0.0
  0
POINT
  5
280
330
26C
100
AcDbEntity
  8
Defpoints
 62
     0
100
AcDbPoint
 10
133.3705493424513
 20
212.0951603626183
 30
0.0
  0
POINT
  5
281
330
26C
100
AcDbEntity
  8
Defpoints
 62
     0
100
AcDbPoint
 10
133.3705493424512
 20
-54.06298559893594
 30
0.0
  0
ENDBLK
  5
277
330
26C
100
AcDbEntity
  8
0
100
AcDbBlockEnd
  0
BLOCK
  5
28E
330
284
100
AcDbEntity
  8
0
100
AcDbBlockBegin
  2
*D5
 70
     1
 10
0.0
 20
0.0
 30
0.0
  3
*D5
  1

  0
LINE
  5
291
330
284
100
AcDbEntity
  8
koty
 62
     0
370
    -2
100
AcDbLine
 10
409.6205493424513
 20
343.0951603626183
 30
0.0
 11
485.3391785410074
 21
343.0951603626183
 31
0.0
  0
LINE
  5
292
330
284
100
AcDbEntity
  8
koty
 62
     0
370
    -2
100
AcDbLine
 10
409.6205493424513
 20
220.0951603626182
 30
0.0
 11
485.3391785410074
 21
220.0951603626182
 31
0.0
  0
LINE
  5
293
330
284
100
AcDbEntity
  8
koty
 62
     0
370
    -2
100
AcDbLine
 10
472.8391785410074
 20
323.0951603626182
 30
0.0
 11
472.8391785410074
 21
240.0951603626181
 31
0.0
  0
SOLID
  5
294
330
284
100
AcDbEntity
  8
koty
 62
     0
100
AcDbTrace
 10
469.505845207674
 20
323.0951603626182
 30
0.0
 11
476.1725118743407
 21
323.0951603626182
 31
0.0
 12
472.8391785410074
 22
343.0951603626183
 32
0.0
 13
472.8391785410074
 23
343.0951603626183
 33
0.0
  0
SOLID
  5
295
330
284
100
AcDbEntity
  8
koty
 62
     0
100
AcDbTrace
 10
469.505845207674
 20
240.0951603626181
 30
0.0
 11
476.1725118743407
 21
240.0951603626181
 31
0.0
 12
472.8391785410074
 22
220.0951603626182
 32
0.0
 13
472.8391785410074
 23
220.0951603626182
 33
0.0
  0
MTEXT
  5
296
330
284
100
AcDbEntity
  8
koty
 62
     0
100
AcDbMText
 10
456.5891785410073
 20
281.5951603626183
 30
0.0
 40
20.0
 41
0.0
 71
     5
 72
     1
  1
123
 11
0.0000000000000001
 21
1.0
 31
0.0
 73
     1
 44
1.0
  0
POINT
  5
297
330
284
100
AcDbEntity
  8
Defpoints
 62
     0
100
AcDbPoint
 10
403.3705493424513
 20
343.0951603626183
 30
0.0
  0
POINT
  5
298
330
284
100
AcDbEntity
  8
Defpoints
 62
     0
100
AcDbPoint
 10
403.3705493424513
 20
220.0951603626182
 30
0.0
  0
POINT
  5
299
330
284
100
AcDbEntity
  8
Defpoints
 62
     0
100
AcDbPoint
 10
472.8391785410074
 20
220.0951603626182
 30
0.0
  0
ENDBLK
  5
28F
330
284
100
AcDbEntity
  8
0
100
AcDbBlockEnd
  0
ENDSEC
  0
SECTION
  2
ENTITIES
  0
LINE
  5
173
330
1F
100
AcDbEntity
  8
0
100
AcDbLine
 10
403.3705493424513
 20
343.0951603626182
 30
0.0
 11
403.3705493424513
 21
220.0951603626182
 31
0.0
  0
LINE
  5
174
330
1F
100
AcDbEntity
  8
0
100
AcDbLine
 10
403.3705493424513
 20
220.0951603626182
 30
0.0
 11
383.9791920681475
 21
220.0951603626182
 31
0.0
  0
ARC
  5
175
102
{ACAD_REACTORS
330
252
330
282
102
}
330
1F
100
AcDbEntity
  8
0
100
AcDbCircle
 10
264.4298086017105
 20
212.0951603626182
 30
0.0
 40
131.0592592592592
100
AcDbArc
 50
88.27694853086542
 51
271.7230514691345
  0
ARC
  5
177
330
1F
100
AcDbEntity
  8
0
100
AcDbCircle
 10
279.16477119686
 20
189.6942524386656
 30
0.0
 40
109.1342202298803
100
AcDbArc
 50
264.3237217662065
 51
16.17454193269134
  0
LINE
  5
179
102
{ACAD_REACTORS
330
26A
330
282
330
29A
102
}
330
1F
100
AcDbEntity
  8
0
100
AcDbLine
 10
403.3705493424513
 20
220.0951603626182
 30
0.0
 11
403.3705493424513
 21
343.0951603626182
 31
0.0
  0
LINE
  5
17A
330
1F
100
AcDbEntity
  8
0
100
AcDbLine
 10
403.3705493424513
 20
343.0951603626182
 30
0.0
 11
260.4890678609684
 21
343.0951603626182
 31
0.0
  0
ARC
  5
17C
330
1F
100
AcDbEntity
  8
0
100
AcDbCircle
 10
264.4298086017105
 20
212.0951603626182
 30
0.0
 40
126.0592592592592
100
AcDbArc
 50
88.27694853086542
 51
271.7230514691345
  0
LINE
  5
17D
330
1F
100
AcDbEntity
  8
0
100
AcDbLine
 10
403.3705493424513
 20
338.0951603626182
 30
0.0
 11
260.4890678609684
 21
338.0951603626182
 31
0.0
  0
LINE
  5
17E
330
1F
100
AcDbEntity
  8
0
100
AcDbLine
 10
403.3705493424513
 20
225.0951603626182
 30
0.0
 11
383.9791920681475
 21
225.0951603626182
 31
0.0
  0
ARC
  5
17F
330
1F
100
AcDbEntity
  8
0
100
AcDbCircle
 10
279.16477119686
 20
189.6942524386656
 30
0.0
 40
104.1342202298803
100
AcDbArc
 50
264.3237217662065
 51
16.17454193269134
  0
LINE
  5
180
330
1F
100
AcDbEntity
  8
0
100
AcDbLine
 10
379.1771042972125
 20
218.7023383925745
 30
0.0
 11
383.9791920681475
 21
225.0951603626182
 31
0.0
  0
CIRCLE
  5
186
330
1F
100
AcDbEntity
  8
0
100
AcDbCircle
 10
260.3705493424513
 20
212.0951603626182
 30
0.0
 40
78.00055876464364
  0
CIRCLE
  5
187
330
1F
100
AcDbEntity
  8
0
100
AcDbCircle
 10
260.3705493424513
 20
212.0951603626182
 30
0.0
 40
50.60893904375409
  0
CIRCLE
  5
188
330
1F
100
AcDbEntity
  8
0
100
AcDbCircle
 10
260.3705493424513
 20
212.0951603626182
 30
0.0
 40
26.63915177116027
  0
CIRCLE
  5
189
102
{ACAD_REACTORS
330
26A
102
}
330
1F
100
AcDbEntity
  8
0
100
AcDbCircle
 10
260.3705493424513
 20
212.0951603626182
 30
0.0
 40
3.935212185284097
  0
CIRCLE
  5
18A
330
1F
100
AcDbEntity
  8
0
100
AcDbCircle
 10
260.3705493424513
 20
212.0951603626182
 30
0.0
 40
96.36232570597002
  0
CIRCLE
  5
18B
330
1F
100
AcDbEntity
  8
0
100
AcDbCircle
 10
260.3705493424513
 20
212.0951603626182
 30
0.0
 40
90.74339047873863
  0
LINE
  5
18E
330
1F
100
AcDbEntity
  8
0
100
AcDbLine
 10
180.2831083926118
 20
254.7608927210673
 30
0.0
 11
185.3903494388732
 21
252.1149315243456
 31
0.0
  0
LINE
  5
18F
330
1F
100
AcDbEntity
  8
0
100
AcDbLine
 10
175.1245915855416
 20
243.199655241719
 30
0.0
 11
180.5503759377884
 21
241.290234931235
 31
0.0
  0
LINE
  5
190
330
1F
100
AcDbEntity
  8
0
100
AcDbLine
 10
171.6252903803699
 20
231.0330041503876
 30
0.0
 11
177.2640113179237
 21
229.8972894205514
 31
0.0
  0
LINE
  5
191
330
1F
100
AcDbEntity
  8
0
100
AcDbLine
 10
169.8533146946593
 20
218.4977494712051
 30
0.0
 11
175.5952209284207
 21
218.1578457173768
 31
0.0
  0
LINE
  5
192
330
1F
100
AcDbEntity
  8
0
100
AcDbLine
 10
169.8431540195395
 20
205.8378756778613
 30
0.0
 11
175.5764858759899
 21
206.3003987399742
 31
0.0
  0
LINE
  5
193
330
1F
100
AcDbEntity
  8
0
100
AcDbLine
 10
171.5950061209943
 20
193.2997928133505
 30
0.0
 11
177.2081708171162
 21
194.5557402061128
 31
0.0
  0
LINE
  5
194
330
1F
100
AcDbEntity
  8
0
100
AcDbLine
 10
175.0747731905711
 20
181.1275403987723
 30
0.0
 11
180.4585168604345
 21
183.1524665348029
 31
0.0
  0
LINE
  5
195
330
1F
100
AcDbEntity
  8
0
100
AcDbLine
 10
180.2147255204368
 20
169.5580374816449
 30
0.0
 11
185.2642597174257
 21
172.3125294770252
 31
0.0
  0
LINE
  5
196
330
1F
100
AcDbEntity
  8
0
100
AcDbLine
 10
186.9148197850998
 20
158.8164712761355
 30
0.0
 11
191.5318610698298
 21
162.2469160773637
 31
0.0
  0
LINE
  5
197
330
1F
100
AcDbEntity
  8
0
100
AcDbLine
 10
195.0446462709428
 20
149.1119141500839
 30
0.0
 11
199.1393291866132
 21
153.1515420511772
 31
0.0
  0
LINE
  5
198
330
1F
100
AcDbEntity
  8
0
100
AcDbLine
 10
204.4459671529593
 20
140.6332542691786
 30
0.0
 11
207.9385933542493
 21
145.2034385080509
 31
0.0
  0
LINE
  5
199
330
1F
100
AcDbEntity
  8
0
100
AcDbLine
 10
214.9357964140248
 20
133.5455191036686
 30
0.0
 11
217.7583859047298
 21
138.5573062426177
 31
0.0
  0
LINE
  5
19A
330
1F
100
AcDbEntity
  8
0
100
AcDbLine
 10
226.3099614595767
 20
127.9866633563715
 30
0.0
 11
228.4075757459081
 21
133.3425046595612
 31
0.0
  0
LINE
  5
19B
330
1F
100
AcDbEntity
  8
0
100
AcDbLine
 10
238.3470771049243
 20
124.0648838313036
 30
0.0
 11
239.6788885107995
 21
129.6605339399465
 31
0.0
  0
LINE
  5
19C
330
1F
100
AcDbEntity
  8
0
100
AcDbLine
 10
250.8128545860469
 20
121.8565135059624
 30
0.0
 11
251.3529409173636
 21
127.5830594556514
 31
0.0
  0
LINE
  5
19D
330
1F
100
AcDbEntity
  8
0
100
AcDbLine
 10
263.4646617238863
 20
121.4045357967465
 30
0.0
 11
263.2025108145445
 21
127.1505168844204
 31
0.0
  0
LINE
  5
19E
330
1F
100
AcDbEntity
  8
0
100
AcDbLine
 10
276.0562454837218
 20
122.7177479356489
 30
0.0
 11
274.9969598029796
 21
128.3713251753927
 31
0.0
  0
LINE
  5
19F
330
1F
100
AcDbEntity
  8
0
100
AcDbLine
 10
288.3425250103824
 20
125.7705897421424
 30
0.0
 11
286.5067223490958
 21
131.2217226838333
 31
0.0
  0
LINE
  5
1A0
330
1F
100
AcDbEntity
  8
0
100
AcDbLine
 10
300.0843618483174
 20
130.5036411230198
 30
0.0
 11
297.5077740170938
 21
135.6462296645196
 31
0.0
  0
LINE
  5
1A1
330
1F
100
AcDbEntity
  8
0
100
AcDbLine
 10
311.0532144996178
 20
136.8247786169184
 30
0.0
 11
307.7859918497667
 21
141.5587281218746
 31
0.0
  0
LINE
  5
1A2
330
1F
100
AcDbEntity
  8
0
100
AcDbLine
 10
321.0355867243113
 20
144.6109684727069
 30
0.0
 11
317.1413220283014
 21
148.8441379987932
 31
0.0
  0
LINE
  5
1A3
330
1F
100
AcDbEntity
  8
0
100
AcDbLine
 10
329.837183001824
 20
153.7106613615019
 30
0.0
 11
325.3916736923027
 21
157.3606570790521
 31
0.0
  0
LINE
  5
1A4
330
1F
100
AcDbEntity
  8
0
100
AcDbLine
 10
337.2866902722817
 20
163.9467421119704
 30
0.0
 11
332.376463131267
 21
166.9425210061509
 31
0.0
  0
LINE
  5
1A5
330
1F
100
AcDbEntity
  8
0
100
AcDbLine
 10
343.2391123503538
 20
175.1199770556738
 30
0.0
 11
337.9597393638449
 21
177.4032296979574
 31
0.0
  0
LINE
  5
1A6
330
1F
100
AcDbEntity
  8
0
100
AcDbLine
 10
347.5785921110702
 20
187.0128918837992
 30
0.0
 11
342.0328302690519
 21
188.5391773586652
 31
0.0
  0
LINE
  5
1A7
330
1F
100
AcDbEntity
  8
0
100
AcDbLine
 10
350.220666516974
 20
199.3940045372072
 30
0.0
 11
344.5164577654903
 21
200.1336154340114
 31
0.0
  0
LINE
  5
1A8
330
1F
100
AcDbEntity
  8
0
100
AcDbLine
 10
351.1139105950692
 20
212.0223307414064
 30
0.0
 11
345.3622808690266
 21
211.9608713753374
 31
0.0
  0
LINE
  5
1A9
330
1F
100
AcDbEntity
  8
0
100
AcDbLine
 10
350.2409383654256
 20
224.6520744913398
 30
0.0
 11
344.5538365950596
 21
223.7907410990491
 31
0.0
  0
LINE
  5
1AA
330
1F
100
AcDbEntity
  8
0
100
AcDbLine
 10
347.6187412395022
 20
237.037412191036
 30
0.0
 11
342.1068603917908
 21
235.3929696472523
 31
0.0
  0
LINE
  5
1AB
330
1F
100
AcDbEntity
  8
0
100
AcDbLine
 10
343.2983573016501
 20
248.9372773302828
 30
0.0
 11
338.0689798676222
 21
246.5417328385953
 31
0.0
  0
LINE
  5
1AC
330
1F
100
AcDbEntity
  8
0
100
AcDbLine
 10
337.3638779108556
 20
260.120052570041
 30
0.0
 11
332.518787773936
 21
257.0200326790888
 31
0.0
  0
LINE
  5
1AD
330
1F
100
AcDbEntity
  8
0
100
AcDbLine
 10
329.9308109580903
 20
270.3680779104868
 30
0.0
 11
325.5643122865858
 21
266.623920981227
 31
0.0
  0
LINE
  5
1AE
330
1F
100
AcDbEntity
  8
0
100
AcDbLine
 10
321.1438326366014
 20
279.4818871953247
 30
0.0
 11
317.3409143603342
 21
275.1664689834699
 31
0.0
  0
LINE
  5
1AF
330
1F
100
AcDbEntity
  8
0
100
AcDbLine
 10
311.173971484377
 20
287.2840904936296
 30
0.0
 11
308.0086530818392
 21
282.4814057059583
 31
0.0
  0
LINE
  5
1B0
330
1F
100
AcDbEntity
  8
0
100
AcDbLine
 10
300.2152795081962
 20
293.6228267930749
 30
0.0
 11
297.7491703015969
 21
288.4263542260058
 31
0.0
  0
LINE
  5
1B1
330
1F
100
AcDbEntity
  8
0
100
AcDbLine
 10
288.481055182048
 20
298.3747198017973
 30
0.0
 11
286.7621551819361
 21
292.8856028829487
 31
0.0
  0
LINE
  5
1B2
330
1F
100
AcDbEntity
  8
0
100
AcDbLine
 10
276.1996918349585
 20
301.4472793275803
 30
0.0
 11
275.2614574746163
 21
295.7723574739996
 31
0.0
  0
LINE
  5
1B3
330
1F
100
AcDbEntity
  8
0
100
AcDbLine
 10
263.6102322346351
 20
302.7807014942392
 30
0.0
 11
263.4709251786609
 21
297.0304306046784
 31
0.0
  0
LINE
  5
1B4
330
1F
100
AcDbEntity
  8
0
100
AcDbLine
 10
250.9577158918999
 20
302.3490327560452
 30
0.0
 11
251.6200475936788
 21
296.6353353125334
 31
0.0
  0
LINE
  5
1B5
330
1F
100
AcDbEntity
  8
0
100
AcDbLine
 10
238.4884096453404
 20
300.1606750539715
 30
0.0
 11
239.9394885716885
 21
294.5947616780122
 31
0.0
  0
LINE
  5
1B6
330
1F
100
AcDbEntity
  8
0
100
AcDbLine
 10
226.4450143574202
 20
296.2582222814687
 30
0.0
 11
228.6565969076139
 21
290.9484271457923
 31
0.0
  0
LINE
  5
1B7
330
1F
100
AcDbEntity
  8
0
100
AcDbLine
 10
215.0619410182596
 20
290.7176312427795
 30
0.0
 11
217.9909812535972
 21
285.7673034698994
 31
0.0
  0
LINE
  5
1B8
330
1F
100
AcDbEntity
  8
0
100
AcDbLine
 10
204.5607482023512
 20
283.6467432401431
 30
0.0
 11
208.1502356863858
 21
279.1522353292441
 31
0.0
  0
LINE
  5
1B9
330
1F
100
AcDbEntity
  8
0
100
AcDbLine
 10
195.145829682927
 20
275.1831850655149
 30
0.0
 11
199.3258991247633
 21
271.2319775006557
 31
0.0
  0
LINE
  5
1BA
330
1F
100
AcDbEntity
  8
0
100
AcDbLine
 10
187.0004361396565
 20
265.4916902516092
 30
0.0
 11
191.6897272423677
 21
262.1606887936078
 31
0.0
  0
CIRCLE
  5
1BB
330
1F
100
AcDbEntity
  8
0
100
AcDbCircle
 10
260.3705493424513
 20
285.5579889718434
 30
0.0
 40
2.5
  0
CIRCLE
  5
1BC
330
1F
100
AcDbEntity
  8
0
100
AcDbCircle
 10
260.3705493424513
 20
234.9653865194917
 30
0.0
 40
1.0
  0
CIRCLE
  5
1BD
330
1F
100
AcDbEntity
  8
0
100
AcDbCircle
 10
208.4244850677231
 20
264.0412246373464
 30
0.0
 40
2.5
  0
CIRCLE
  5
1BE
330
1F
100
AcDbEntity
  8
0
100
AcDbCircle
 10
186.907720733226
 20
212.0951603626182
 30
0.0
 40
2.5
  0
CIRCLE
  5
1BF
330
1F
100
AcDbEntity
  8
0
100
AcDbCircle
 10
208.424485067723
 20
160.1490960878899
 30
0.0
 40
2.5
  0
CIRCLE
  5
1C0
330
1F
100
AcDbEntity
  8
0
100
AcDbCircle
 10
260.3705493424512
 20
138.632331753393
 30
0.0
 40
2.5
  0
CIRCLE
  5
1C1
330
1F
100
AcDbEntity
  8
0
100
AcDbCircle
 10
312.3166136171795
 20
160.1490960878899
 30
0.0
 40
2.5
  0
CIRCLE
  5
1C2
330
1F
100
AcDbEntity
  8
0
100
AcDbCircle
 10
333.8333779516765
 20
212.0951603626181
 30
0.0
 40
2.5
  0
CIRCLE
  5
1C3
330
1F
100
AcDbEntity
  8
0
100
AcDbCircle
 10
312.3166136171796
 20
264.0412246373464
 30
0.0
 40
2.5
  0
CIRCLE
  5
1C4
330
1F
100
AcDbEntity
  8
0
100
AcDbCircle
 10
237.5003231855777
 20
212.0951603626183
 30
0.0
 40
1.0
  0
CIRCLE
  5
1C5
330
1F
100
AcDbEntity
  8
0
100
AcDbCircle
 10
260.3705493424512
 20
189.2249342057446
 30
0.0
 40
1.0
  0
CIRCLE
  5
1C6
330
1F
100
AcDbEntity
  8
0
100
AcDbCircle
 10
283.2407754993248
 20
212.0951603626181
 30
0.0
 40
1.0
  0
LINE
  5
1C7
330
1F
100
AcDbEntity
  8
0
100
AcDbLine
 10
226.5191199132438
 20
282.3672593293917
 30
0.0
 11
238.7800814326294
 21
257.8676019248658
 31
0.0
  0
LINE
  5
1C8
330
1F
100
AcDbEntity
  8
0
100
AcDbLine
 10
228.3326465156213
 20
283.2123871790177
 30
0.0
 11
240.6071627209677
 21
258.6856450175794
 31
0.0
  0
LINE
  5
1C9
330
1F
100
AcDbEntity
  8
0
100
AcDbLine
 10
186.7440963325831
 20
237.8484627679854
 30
0.0
 11
212.7377792542955
 21
229.1943979147229
 31
0.0
  0
LINE
  5
1CA
330
1F
100
AcDbEntity
  8
0
100
AcDbLine
 10
187.4288576575462
 20
239.728415359829
 30
0.0
 11
213.4512770048979
 21
231.0647833016465
 31
0.0
  0
LINE
  5
1CB
330
1F
100
AcDbEntity
  8
0
100
AcDbLine
 10
190.0984503756777
 20
178.2437309334107
 30
0.0
 11
214.5981077802037
 21
190.5046924527963
 31
0.0
  0
LINE
  5
1CC
330
1F
100
AcDbEntity
  8
0
100
AcDbLine
 10
189.2533225260517
 20
180.0572575357882
 30
0.0
 11
213.78006468749
 21
192.3317737411346
 31
0.0
  0
LINE
  5
1CD
330
1F
100
AcDbEntity
  8
0
100
AcDbLine
 10
234.6172469370841
 20
138.46870735275
 30
0.0
 11
243.2713117903466
 21
164.4623902744624
 31
0.0
  0
LINE
  5
1CE
330
1F
100
AcDbEntity
  8
0
100
AcDbLine
 10
232.7372943452405
 20
139.1534686777131
 30
0.0
 11
241.400926403423
 21
165.1758880250648
 31
0.0
  0
LINE
  5
1CF
330
1F
100
AcDbEntity
  8
0
100
AcDbLine
 10
294.2219787716587
 20
141.8230613958447
 30
0.0
 11
281.9610172522731
 21
166.3227188003706
 31
0.0
  0
LINE
  5
1D0
330
1F
100
AcDbEntity
  8
0
100
AcDbLine
 10
292.4084521692813
 20
140.9779335462186
 30
0.0
 11
280.1339359639348
 21
165.5046757076569
 31
0.0
  0
LINE
  5
1D1
330
1F
100
AcDbEntity
  8
0
100
AcDbLine
 10
333.9970023523195
 20
186.3418579572509
 30
0.0
 11
308.0033194306071
 21
194.9959228105135
 31
0.0
  0
LINE
  5
1D2
330
1F
100
AcDbEntity
  8
0
100
AcDbLine
 10
333.3122410273564
 20
184.4619053654074
 30
0.0
 11
307.2898216800047
 21
193.1255374235898
 31
0.0
  0
LINE
  5
1D3
330
1F
100
AcDbEntity
  8
0
100
AcDbLine
 10
330.6426483092248
 20
245.9465897918256
 30
0.0
 11
306.1429909046989
 21
233.68562827244
 31
0.0
  0
LINE
  5
1D4
330
1F
100
AcDbEntity
  8
0
100
AcDbLine
 10
331.4877761588509
 20
244.1330631894481
 30
0.0
 11
306.9610339974126
 21
231.8585469841017
 31
0.0
  0
LINE
  5
1D5
330
1F
100
AcDbEntity
  8
0
100
AcDbLine
 10
286.1238517478186
 20
285.7216133724864
 30
0.0
 11
277.469786894556
 21
259.727930450774
 31
0.0
  0
LINE
  5
1D6
330
1F
100
AcDbEntity
  8
0
100
AcDbLine
 10
288.0038043396621
 20
285.0368520475233
 30
0.0
 11
279.3401722814797
 21
259.0144327001715
 31
0.0
  0
LINE
  5
1D7
330
1F
100
AcDbEntity
  8
0
100
AcDbLine
 10
4.554900219930459
 20
343.0915414265692
 30
0.0
 11
-219.4450997800695
 21
343.0915414265692
 31
0.0
  0
LINE
  5
1DA
102
{ACAD_REACTORS
330
23A
102
}
330
1F
100
AcDbEntity
  8
0
100
AcDbLine
 10
4.554900219930459
 20
81.09877929866724
 30
0.0
 11
-219.4450997800695
 21
81.09877929866723
 31
0.0
  0
LINE
  5
1DB
330
1F
100
AcDbEntity
  8
0
100
AcDbLine
 10
4.554900219930458
 20
342.0915414265692
 30
0.0
 11
4.554900219930458
 21
236.9653865194917
 31
0.0
  0
LINE
  5
1DC
330
1F
100
AcDbEntity
  8
0
100
AcDbLine
 10
4.554900219930459
 20
343.0915414265692
 30
0.0
 11
-219.4450997800695
 21
343.0915414265692
 31
0.0
  0
LINE
  5
1DD
102
{ACAD_REACTORS
330
23A
102
}
330
1F
100
AcDbEntity
  8
0
100
AcDbLine
 10
-219.4450997800695
 20
343.0915414265692
 30
0.0
 11
-219.4450997800695
 21
81.09877929866724
 31
0.0
  0
LINE
  5
1DF
330
1F
100
AcDbEntity
  8
0
100
AcDbLine
 10
6.554900219930459
 20
234.9653865194918
 30
0.0
 11
-219.4450997800695
 21
234.9653865194917
 31
0.0
  0
LINE
  5
1E0
330
1F
100
AcDbEntity
  8
0
100
AcDbLine
 10
-107.4450997800695
 20
302.8385508413569
 30
0.0
 11
-194.7075604692883
 21
302.8385508413569
 31
0.0
  0
LINE
  5
1E1
330
1F
100
AcDbEntity
  8
0
100
AcDbLine
 10
4.554900219930458
 20
236.9653865194917
 30
0.0
 11
-217.4450997800695
 21
236.9653865194917
 31
0.0
  0
LINE
  5
1E2
330
1F
100
AcDbEntity
  8
0
100
AcDbLine
 10
-217.4450997800695
 20
342.0915414265692
 30
0.0
 11
-217.4450997800695
 21
236.9653865194917
 31
0.0
  0
LINE
  5
1E3
330
1F
100
AcDbEntity
  8
0
100
AcDbLine
 10
6.554900219930459
 20
343.0915414265691
 30
0.0
 11
6.554900219930459
 21
81.09877929866724
 31
0.0
  0
LINE
  5
1E4
330
1F
100
AcDbEntity
  8
0
100
AcDbLine
 10
4.554900219930459
 20
342.0915414265692
 30
0.0
 11
-217.4450997800695
 21
342.0915414265692
 31
0.0
  0
LINE
  5
1E5
330
1F
100
AcDbEntity
  8
0
100
AcDbLine
 10
4.554900219930459
 20
343.0915414265692
 30
0.0
 11
6.554900219930459
 21
343.0915414265691
 31
0.0
  0
LINE
  5
1E7
330
1F
100
AcDbEntity
  8
0
100
AcDbLine
 10
-196.7075604692883
 20
302.8385508413569
 30
0.0
 11
-196.7075604692883
 21
236.9653865194917
 31
0.0
  0
LINE
  5
1E8
330
1F
100
AcDbEntity
  8
0
100
AcDbLine
 10
-217.4450997800695
 20
302.8385508413569
 30
0.0
 11
-207.4162257122984
 21
291.5900326537209
 31
0.0
  0
LINE
  5
1E9
330
1F
100
AcDbEntity
  8
0
100
AcDbLine
 10
-207.4162257122984
 20
291.5900326537209
 30
0.0
 11
-207.4162257122984
 21
236.9653865194917
 31
0.0
  0
LINE
  5
1EB
330
1F
100
AcDbEntity
  8
0
100
AcDbLine
 10
-196.7075604692883
 20
302.8385508413569
 30
0.0
 11
-196.7075604692882
 21
317.4488265421594
 31
0.0
  0
LINE
  5
1EC
330
1F
100
AcDbEntity
  8
0
100
AcDbLine
 10
-194.7075604692883
 20
302.8385508413569
 30
0.0
 11
-194.7075604692883
 21
236.9653865194917
 31
0.0
  0
LINE
  5
1EE
330
1F
100
AcDbEntity
  8
0
100
AcDbLine
 10
-194.7075604692883
 20
302.8385508413569
 30
0.0
 11
-194.7075604692883
 21
317.4488265421594
 31
0.0
  0
LINE
  5
1EF
330
1F
100
AcDbEntity
  8
0
100
AcDbLine
 10
-196.7075604692882
 20
317.4488265421594
 30
0.0
 11
-194.7075604692883
 21
317.4488265421594
 31
0.0
  0
LINE
  5
1F7
330
1F
100
AcDbEntity
  8
0
100
AcDbLine
 10
-194.7075604692883
 20
249.3006435581564
 30
0.0
 11
-107.4450997800695
 21
249.3006435581564
 31
0.0
  0
LINE
  5
1F9
330
1F
100
AcDbEntity
  8
0
100
AcDbLine
 10
-107.4450997800695
 20
240.3776590109563
 30
0.0
 11
-194.7075604692883
 21
240.3776590109563
 31
0.0
  0
LINE
  5
1FA
330
1F
100
AcDbEntity
  8
0
100
AcDbLine
 10
-194.7075604692883
 20
240.3776590109563
 30
0.0
 11
-194.7075604692883
 21
249.3006435581564
 31
0.0
  0
LINE
  5
1FB
330
1F
100
AcDbEntity
  8
0
100
AcDbLine
 10
-194.7075604692883
 20
258.2236281053565
 30
0.0
 11
-107.4450997800695
 21
258.2236281053565
 31
0.0
  0
LINE
  5
1FD
330
1F
100
AcDbEntity
  8
0
100
AcDbLine
 10
-107.4450997800695
 20
249.3006435581564
 30
0.0
 11
-194.7075604692883
 21
249.3006435581564
 31
0.0
  0
LINE
  5
1FE
330
1F
100
AcDbEntity
  8
0
100
AcDbLine
 10
-194.7075604692883
 20
249.3006435581564
 30
0.0
 11
-194.7075604692883
 21
258.2236281053565
 31
0.0
  0
LINE
  5
1FF
330
1F
100
AcDbEntity
  8
0
100
AcDbLine
 10
-194.7075604692883
 20
267.1466126525566
 30
0.0
 11
-107.4450997800695
 21
267.1466126525566
 31
0.0
  0
LINE
  5
201
330
1F
100
AcDbEntity
  8
0
100
AcDbLine
 10
-107.4450997800695
 20
258.2236281053565
 30
0.0
 11
-194.7075604692883
 21
258.2236281053565
 31
0.0
  0
LINE
  5
202
330
1F
100
AcDbEntity
  8
0
100
AcDbLine
 10
-194.7075604692883
 20
258.2236281053565
 30
0.0
 11
-194.7075604692883
 21
267.1466126525566
 31
0.0
  0
LINE
  5
203
330
1F
100
AcDbEntity
  8
0
100
AcDbLine
 10
-194.7075604692883
 20
276.0695971997566
 30
0.0
 11
-107.4450997800695
 21
276.0695971997566
 31
0.0
  0
LINE
  5
205
330
1F
100
AcDbEntity
  8
0
100
AcDbLine
 10
-107.4450997800695
 20
267.1466126525566
 30
0.0
 11
-194.7075604692883
 21
267.1466126525566
 31
0.0
  0
LINE
  5
206
330
1F
100
AcDbEntity
  8
0
100
AcDbLine
 10
-194.7075604692883
 20
267.1466126525566
 30
0.0
 11
-194.7075604692883
 21
276.0695971997566
 31
0.0
  0
LINE
  5
207
330
1F
100
AcDbEntity
  8
0
100
AcDbLine
 10
-194.7075604692883
 20
284.9925817469567
 30
0.0
 11
-107.4450997800695
 21
284.9925817469567
 31
0.0
  0
LINE
  5
209
330
1F
100
AcDbEntity
  8
0
100
AcDbLine
 10
-107.4450997800695
 20
276.0695971997566
 30
0.0
 11
-194.7075604692883
 21
276.0695971997566
 31
0.0
  0
LINE
  5
20A
330
1F
100
AcDbEntity
  8
0
100
AcDbLine
 10
-194.7075604692883
 20
276.0695971997566
 30
0.0
 11
-194.7075604692883
 21
284.9925817469567
 31
0.0
  0
LINE
  5
20B
330
1F
100
AcDbEntity
  8
0
100
AcDbLine
 10
-194.7075604692883
 20
293.9155662941568
 30
0.0
 11
-107.4450997800695
 21
293.9155662941568
 31
0.0
  0
LINE
  5
20D
330
1F
100
AcDbEntity
  8
0
100
AcDbLine
 10
-107.4450997800695
 20
284.9925817469567
 30
0.0
 11
-194.7075604692883
 21
284.9925817469567
 31
0.0
  0
LINE
  5
20E
330
1F
100
AcDbEntity
  8
0
100
AcDbLine
 10
-194.7075604692883
 20
284.9925817469567
 30
0.0
 11
-194.7075604692883
 21
293.9155662941568
 31
0.0
  0
LINE
  5
20F
330
1F
100
AcDbEntity
  8
0
100
AcDbLine
 10
-194.7075604692883
 20
302.8385508413569
 30
0.0
 11
-107.4450997800695
 21
302.8385508413569
 31
0.0
  0
LINE
  5
211
330
1F
100
AcDbEntity
  8
0
100
AcDbLine
 10
-107.4450997800695
 20
293.9155662941568
 30
0.0
 11
-194.7075604692883
 21
293.9155662941568
 31
0.0
  0
LINE
  5
212
330
1F
100
AcDbEntity
  8
0
100
AcDbLine
 10
-194.7075604692883
 20
293.9155662941568
 30
0.0
 11
-194.7075604692883
 21
302.8385508413569
 31
0.0
  0
LINE
  5
213
330
1F
100
AcDbEntity
  8
0
100
AcDbLine
 10
4.554900219930458
 20
305.0817773713986
 30
0.0
 11
-7.473973847840596
 21
291.5900326537209
 31
0.0
  0
LINE
  5
214
330
1F
100
AcDbEntity
  8
0
100
AcDbLine
 10
-7.473973847840596
 20
291.5900326537209
 30
0.0
 11
-7.473973847840596
 21
236.9653865194917
 31
0.0
  0
LINE
  5
215
330
1F
100
AcDbEntity
  8
0
100
AcDbLine
 10
-18.18263909085072
 20
302.8385508413569
 30
0.0
 11
-18.18263909085072
 21
236.9653865194917
 31
0.0
  0
LINE
  5
216
330
1F
100
AcDbEntity
  8
0
100
AcDbLine
 10
-20.18263909085072
 20
302.8385508413569
 30
0.0
 11
-20.18263909085072
 21
236.9653865194917
 31
0.0
  0
LINE
  5
217
330
1F
100
AcDbEntity
  8
0
100
AcDbLine
 10
-18.18263909085072
 20
302.8385508413569
 30
0.0
 11
-18.18263909085075
 21
317.4488265421594
 31
0.0
  0
LINE
  5
218
330
1F
100
AcDbEntity
  8
0
100
AcDbLine
 10
-20.18263909085072
 20
302.8385508413569
 30
0.0
 11
-20.18263909085075
 21
317.4488265421594
 31
0.0
  0
LINE
  5
219
330
1F
100
AcDbEntity
  8
0
100
AcDbLine
 10
-20.18263909085072
 20
302.8385508413569
 30
0.0
 11
-107.4450997800695
 21
302.8385508413569
 31
0.0
  0
LINE
  5
21A
330
1F
100
AcDbEntity
  8
0
100
AcDbLine
 10
-107.4450997800695
 20
293.9155662941568
 30
0.0
 11
-20.18263909085072
 21
293.9155662941568
 31
0.0
  0
LINE
  5
21B
330
1F
100
AcDbEntity
  8
0
100
AcDbLine
 10
-107.4450997800695
 20
284.9925817469567
 30
0.0
 11
-20.18263909085072
 21
284.9925817469567
 31
0.0
  0
LINE
  5
21C
330
1F
100
AcDbEntity
  8
0
100
AcDbLine
 10
-107.4450997800695
 20
276.0695971997566
 30
0.0
 11
-20.18263909085072
 21
276.0695971997566
 31
0.0
  0
LINE
  5
21D
330
1F
100
AcDbEntity
  8
0
100
AcDbLine
 10
-107.4450997800695
 20
267.1466126525566
 30
0.0
 11
-20.18263909085072
 21
267.1466126525566
 31
0.0
  0
LINE
  5
21E
330
1F
100
AcDbEntity
  8
0
100
AcDbLine
 10
-107.4450997800695
 20
258.2236281053565
 30
0.0
 11
-20.18263909085072
 21
258.2236281053565
 31
0.0
  0
LINE
  5
21F
330
1F
100
AcDbEntity
  8
0
100
AcDbLine
 10
-107.4450997800695
 20
249.3006435581564
 30
0.0
 11
-20.18263909085072
 21
249.3006435581564
 31
0.0
  0
LINE
  5
220
330
1F
100
AcDbEntity
  8
0
100
AcDbLine
 10
-107.4450997800695
 20
240.3776590109563
 30
0.0
 11
-20.18263909085072
 21
240.3776590109563
 31
0.0
  0
LINE
  5
221
330
1F
100
AcDbEntity
  8
0
100
AcDbLine
 10
-18.18263909085075
 20
317.4488265421594
 30
0.0
 11
-20.18263909085075
 21
317.4488265421594
 31
0.0
  0
LINE
  5
222
330
1F
100
AcDbEntity
  8
0
100
AcDbLine
 10
2.554900219930516
 20
302.8385508413569
 30
0.0
 11
2.554900219930516
 21
302.8385508413569
 31
0.0
  0
DIMENSION
  5
223
102
{ACAD_XDICTIONARY
360
230
102
}
102
{ACAD_REACTORS
330
23A
102
}
330
1F
100
AcDbEntity
  8
koty
100
AcDbDimension
  2
*D1
 10
4.554900219930456
 20
20.23488582478865
 30
0.0
 11
-107.4450997800695
 21
36.48488582478865
 31
0.0
 70
    32
 71
     5
 42
223.9999999999999
  3
ISO-25
100
AcDbAlignedDimension
 13
-219.4450997800695
 23
81.09877929866724
 33
0.0
 14
4.554900219930459
 24
81.09877929866724
 34
0.0
100
AcDbRotatedDimension
  0
DIMENSION
  5
23B
102
{ACAD_XDICTIONARY
360
248
102
}
102
{ACAD_REACTORS
330
252
102
}
330
1F
100
AcDbEntity
  8
koty
100
AcDbDimension
  2
*D2
 10
568.9524268652014
 20
81.09516036261814
 30
0.0
 11
552.7024268652014
 21
212.0951603626183
 31
0.0
 70
    32
 71
     5
 42
262.0
  3
ISO-25
100
AcDbAlignedDimension
 13
268.3705493424514
 23
343.0951603626183
 33
0.0
 14
268.3705493424514
 24
81.09516036261823
 34
0.0
 50
90.0
100
AcDbRotatedDimension
  0
DIMENSION
  5
253
102
{ACAD_XDICTIONARY
360
260
102
}
102
{ACAD_REACTORS
330
26A
102
}
330
1F
100
AcDbEntity
  8
koty
100
AcDbDimension
  2
*D3
 10
260.3705493424513
 20
20.22904730905315
 30
0.0
 11
331.8705493424513
 21
36.47904730905315
 31
0.0
 70
    32
 71
     5
 42
143.0
  3
ISO-25
100
AcDbAlignedDimension
 13
403.3705493424513
 23
220.0951603626182
 33
0.0
 14
260.3705493424513
 24
212.0951603626182
 34
0.0
100
AcDbRotatedDimension
  0
DIMENSION
  5
26B
102
{ACAD_XDICTIONARY
360
278
102
}
102
{ACAD_REACTORS
330
282
102
}
330
1F
100
AcDbEntity
  8
koty
100
AcDbDimension
  2
*D4
 10
133.3705493424512
 20
-54.06298559893594
 30
0.0
 11
268.3705493424513
 21
-37.81298559893594
 31
0.0
 70
    32
 71
     5
 42
270.0
  3
ISO-25
100
AcDbAlignedDimension
 13
403.3705493424513
 23
220.0951603626182
 33
0.0
 14
133.3705493424513
 24
212.0951603626183
 34
0.0
100
AcDbRotatedDimension
  0
DIMENSION
  5
283
102
{ACAD_XDICTIONARY
360
290
102
}
102
{ACAD_REACTORS
330
29A
102
}
330
1F
100
AcDbEntity
  8
koty
100
AcDbDimension
  2
*D5
 10
472.8391785410074
 20
220.0951603626182
 30
0.0
 11
456.5891785410073
 21
281.5951603626183
 31
0.0
 70
    32
 71
     5
 42
123.0
  3
ISO-25
100
AcDbAlignedDimension
 13
403.3705493424513
 23
343.0951603626183
 33
0.0
 14
403.3705493424513
 24
220.0951603626182
 34
0.0
 50
90.0
100
AcDbRotatedDimension
  0
TEXT
  5
29B
330
1F
100
AcDbEntity
  8
popis
100
AcDbText
 10
-305.6369760423374
 20
391.8320263516355
 30
0.0
 40
15.0
  1
CBM/4 180/184 95W - speciální radiální ventilátor s asynchronním motorem
100
AcDbText
  0
ENDSEC
  0
SECTION
  2
OBJECTS
  0
DICTIONARY
  5
C
330
0
100
AcDbDictionary
281
     1
  3
ACAD_GROUP
350
D
  3
ACAD_LAYOUT
350
1A
  3
ACAD_MLINESTYLE
350
17
  3
ACAD_PLOTSETTINGS
350
19
  3
ACAD_PLOTSTYLENAME
350
E
  3
AcDbVariableDictionary
350
2E
  0
DICTIONARY
  5
230
330
223
100
AcDbDictionary
280
     1
281
     1
  3
ACAD_DIMASSOC
360
23A
  0
DICTIONARY
  5
248
330
23B
100
AcDbDictionary
280
     1
281
     1
  3
ACAD_DIMASSOC
360
252
  0
DICTIONARY
  5
260
330
253
100
AcDbDictionary
280
     1
281
     1
  3
ACAD_DIMASSOC
360
26A
  0
DICTIONARY
  5
278
330
26B
100
AcDbDictionary
280
     1
281
     1
  3
ACAD_DIMASSOC
360
282
  0
DICTIONARY
  5
290
330
283
100
AcDbDictionary
280
     1
281
     1
  3
ACAD_DIMASSOC
360
29A
  0
DICTIONARY
  5
D
102
{ACAD_REACTORS
330
C
102
}
330
C
100
AcDbDictionary
281
     1
  0
DICTIONARY
  5
1A
102
{ACAD_REACTORS
330
C
102
}
330
C
100
AcDbDictionary
281
     1
  3
Model
350
22
  3
Rozvržení1
350
1E
  3
Rozvržení2
350
26
  0
DICTIONARY
  5
17
102
{ACAD_REACTORS
330
C
102
}
330
C
100
AcDbDictionary
281
     1
  3
Standard
350
18
  0
DICTIONARY
  5
19
102
{ACAD_REACTORS
330
C
102
}
330
C
100
AcDbDictionary
281
     1
  0
ACDBDICTIONARYWDFLT
  5
E
102
{ACAD_REACTORS
330
C
102
}
330
C
100
AcDbDictionary
281
     1
  3
Normal
350
F
100
AcDbDictionaryWithDefault
340
F
  0
DICTIONARY
  5
2E
102
{ACAD_REACTORS
330
C
102
}
330
C
100
AcDbDictionary
281
     1
  3
DIMASSOC
350
30
  3
HIDETEXT
350
2F
  0
DIMASSOC
  5
23A
102
{ACAD_REACTORS
330
230
102
}
330
230
100
AcDbDimAssoc
330
223
 90
        3
 70
     0
 71
     0
  1
AcDbOsnapPointRef
 72
     1
331
1DD
 73
     2
 91
        0
 40
1.0
 10
-219.4450997800695
 20
81.09877929866724
 30
0.0
 75
     0
  1
AcDbOsnapPointRef
 72
    13
331
1DA
 73
     2
 91
        0
 40
0.0
 10
4.554900219930459
 20
81.09877929866724
 30
0.0
 75
     0
  0
DIMASSOC
  5
252
102
{ACAD_REACTORS
330
248
102
}
330
248
100
AcDbDimAssoc
330
23B
 90
        3
 70
     0
 71
     0
  1
AcDbOsnapPointRef
 72
    13
331
175
 73
     2
 91
        0
 40
1.540723405477173
 10
268.3705493424514
 20
343.0951603626183
 30
0.0
 75
     0
  1
AcDbOsnapPointRef
 72
     1
331
175
 73
     2
 91
        0
 40
4.742461901702412
 10
268.3705493424514
 20
81.09516036261823
 30
0.0
 75
     0
  0
DIMASSOC
  5
26A
102
{ACAD_REACTORS
330
260
102
}
330
260
100
AcDbDimAssoc
330
253
 90
        3
 70
     0
 71
     0
  1
AcDbOsnapPointRef
 72
    13
331
179
 73
     2
 91
        0
 40
0.0
 10
403.3705493424513
 20
220.0951603626182
 30
0.0
 75
     0
  1
AcDbOsnapPointRef
 72
     3
331
189
 73
     2
 91
        0
 40
0.0
 10
260.3705493424513
 20
212.0951603626182
 30
0.0
 75
     0
  0
DIMASSOC
  5
282
102
{ACAD_REACTORS
330
278
102
}
330
278
100
AcDbDimAssoc
330
26B
 90
        3
 70
     0
 71
     0
  1
AcDbOsnapPointRef
 72
    13
331
179
 73
     2
 91
        0
 40
0.0
 10
403.3705493424513
 20
220.0951603626182
 30
0.0
 75
     0
  1
AcDbOsnapPointRef
 72
     5
331
175
 73
     2
 91
        0
 40
3.141592653589793
 10
133.3705493424513
 20
212.0951603626183
 30
0.0
 75
     0
  0
DIMASSOC
  5
29A
102
{ACAD_REACTORS
330
290
102
}
330
290
100
AcDbDimAssoc
330
283
 90
        2
 70
     0
 71
     0
  1
AcDbOsnapPointRef
 72
    13
331
179
 73
     2
 91
        0
 40
0.0
 10
403.3705493424513
 20
220.0951603626182
 30
0.0
 75
     0
  0
LAYOUT
  5
22
102
{ACAD_REACTORS
330
1A
102
}
330
1A
100
AcDbPlotSettings
  1

  2
D:\AutoCAD 2002Cz\plotters\PublishToWeb DWF.pc3
  4

  6

 40
0.0
 41
0.0
 42
0.0
 43
0.0
 44
0.0
 45
0.0
 46
0.0
 47
0.0
 48
0.0
 49
0.0
140
0.0
141
0.0
142
1.0
143
1.0
 70
  1712
 72
     0
 73
     0
 74
     0
  7

 75
     0
147
1.0
148
0.0
149
0.0
100
AcDbLayout
  1
Model
 70
     1
 71
     0
 10
0.0
 20
0.0
 11
12.0
 21
9.0
 12
0.0
 22
0.0
 32
0.0
 14
0.0
 24
0.0
 34
0.0
 15
0.0
 25
0.0
 35
0.0
146
0.0
 13
0.0
 23
0.0
 33
0.0
 16
1.0
 26
0.0
 36
0.0
 17
0.0
 27
1.0
 37
0.0
 76
     0
330
1F
  0
LAYOUT
  5
1E
102
{ACAD_REACTORS
330
1A
102
}
330
1A
100
AcDbPlotSettings
  1

  2
D:\AutoCAD 2002Cz\plotters\PublishToWeb DWF.pc3
  4

  6

 40
0.0
 41
0.0
 42
0.0
 43
0.0
 44
0.0
 45
0.0
 46
0.0
 47
0.0
 48
0.0
 49
0.0
140
0.0
141
0.0
142
1.0
143
1.0
 70
   688
 72
     0
 73
     0
 74
     5
  7

 75
    16
147
1.0
148
0.0
149
0.0
100
AcDbLayout
  1
Rozvržení1
 70
     1
 71
     1
 10
0.0
 20
0.0
 11
420.0
 21
297.0
 12
0.0
 22
0.0
 32
0.0
 14
1.000000000000000E+20
 24
1.000000000000000E+20
 34
1.000000000000000E+20
 15
-1.000000000000000E+20
 25
-1.000000000000000E+20
 35
-1.000000000000000E+20
146
0.0
 13
0.0
 23
0.0
 33
0.0
 16
1.0
 26
0.0
 36
0.0
 17
0.0
 27
1.0
 37
0.0
 76
     0
330
1B
  0
LAYOUT
  5
26
102
{ACAD_REACTORS
330
1A
102
}
330
1A
100
AcDbPlotSettings
  1

  2
D:\AutoCAD 2002Cz\plotters\PublishToWeb DWF.pc3
  4

  6

 40
0.0
 41
0.0
 42
0.0
 43
0.0
 44
0.0
 45
0.0
 46
0.0
 47
0.0
 48
0.0
 49
0.0
140
0.0
141
0.0
142
1.0
143
1.0
 70
   688
 72
     0
 73
     0
 74
     5
  7

 75
    16
147
1.0
148
0.0
149
0.0
100
AcDbLayout
  1
Rozvržení2
 70
     1
 71
     2
 10
0.0
 20
0.0
 11
12.0
 21
9.0
 12
0.0
 22
0.0
 32
0.0
 14
0.0
 24
0.0
 34
0.0
 15
0.0
 25
0.0
 35
0.0
146
0.0
 13
0.0
 23
0.0
 33
0.0
 16
1.0
 26
0.0
 36
0.0
 17
0.0
 27
1.0
 37
0.0
 76
     0
330
23
  0
MLINESTYLE
  5
18
102
{ACAD_REACTORS
330
17
102
}
330
17
100
AcDbMlineStyle
  2
STANDARD
 70
     0
  3

 62
   256
 51
90.0
 52
90.0
 71
     2
 49
0.5
 62
   256
  6
BYLAYER
 49
-0.5
 62
   256
  6
BYLAYER
  0
ACDBPLACEHOLDER
  5
F
102
{ACAD_REACTORS
330
E
102
}
330
E
  0
DICTIONARYVAR
  5
30
102
{ACAD_REACTORS
330
2E
102
}
330
2E
100
DictionaryVariables
280
     0
  1
2
  0
DICTIONARYVAR
  5
2F
102
{ACAD_REACTORS
330
2E
102
}
330
2E
100
DictionaryVariables
280
     0
  1
1
  0
ENDSEC
  0
EOF
