  0
SECTION
  2
HEADER
  9
$ACADVER
  1
AC1015
  9
$ACADMAINTVER
 70
    20
  9
$DWGCODEPAGE
  3
ANSI_1250
  9
$INSBASE
 10
0.0
 20
0.0
 30
0.0
  9
$EXTMIN
 10
-735.9117366590083
 20
-192.1135443898004
 30
0.0
  9
$EXTMAX
 10
706.4117232948956
 20
766.1790269839464
 30
0.0
  9
$LIMMIN
 10
0.0
 20
0.0
  9
$LIMMAX
 10
420.0
 20
297.0
  9
$ORTHOMODE
 70
     1
  9
$REGENMODE
 70
     1
  9
$FILLMODE
 70
     1
  9
$QTEXTMODE
 70
     0
  9
$MIRRTEXT
 70
     1
  9
$LTSCALE
 40
1.0
  9
$ATTMODE
 70
     1
  9
$TEXTSIZE
 40
25.0
  9
$TRACEWID
 40
1.0
  9
$TEXTSTYLE
  7
Standard
  9
$CLAYER
  8
0
  9
$CELTYPE
  6
ByLayer
  9
$CECOLOR
 62
   256
  9
$CELTSCALE
 40
1.0
  9
$DISPSILH
 70
     0
  9
$DIMSCALE
 40
10.0
  9
$DIMASZ
 40
2.0
  9
$DIMEXO
 40
0.625
  9
$DIMDLI
 40
3.75
  9
$DIMRND
 40
0.0
  9
$DIMDLE
 40
0.0
  9
$DIMEXE
 40
1.25
  9
$DIMTP
 40
0.0
  9
$DIMTM
 40
0.0
  9
$DIMTXT
 40
2.0
  9
$DIMCEN
 40
2.5
  9
$DIMTSZ
 40
0.0
  9
$DIMTOL
 70
     0
  9
$DIMLIM
 70
     0
  9
$DIMTIH
 70
     0
  9
$DIMTOH
 70
     0
  9
$DIMSE1
 70
     0
  9
$DIMSE2
 70
     0
  9
$DIMTAD
 70
     1
  9
$DIMZIN
 70
     8
  9
$DIMBLK
  1

  9
$DIMASO
 70
     1
  9
$DIMSHO
 70
     1
  9
$DIMPOST
  1

  9
$DIMAPOST
  1

  9
$DIMALT
 70
     0
  9
$DIMALTD
 70
     3
  9
$DIMALTF
 40
0.03937007874016
  9
$DIMLFAC
 40
1.0
  9
$DIMTOFL
 70
     1
  9
$DIMTVP
 40
0.0
  9
$DIMTIX
 70
     0
  9
$DIMSOXD
 70
     0
  9
$DIMSAH
 70
     0
  9
$DIMBLK1
  1

  9
$DIMBLK2
  1

  9
$DIMSTYLE
  2
ISO-25
  9
$DIMCLRD
 70
     0
  9
$DIMCLRE
 70
     0
  9
$DIMCLRT
 70
     0
  9
$DIMTFAC
 40
1.0
  9
$DIMGAP
 40
0.625
  9
$DIMJUST
 70
     0
  9
$DIMSD1
 70
     0
  9
$DIMSD2
 70
     0
  9
$DIMTOLJ
 70
     0
  9
$DIMTZIN
 70
     8
  9
$DIMALTZ
 70
     0
  9
$DIMALTTZ
 70
     0
  9
$DIMUPT
 70
     0
  9
$DIMDEC
 70
     2
  9
$DIMTDEC
 70
     2
  9
$DIMALTU
 70
     2
  9
$DIMALTTD
 70
     3
  9
$DIMTXSTY
  7
Standard
  9
$DIMAUNIT
 70
     0
  9
$DIMADEC
 70
     0
  9
$DIMALTRND
 40
0.0
  9
$DIMAZIN
 70
     0
  9
$DIMDSEP
 70
    44
  9
$DIMATFIT
 70
     3
  9
$DIMFRAC
 70
     0
  9
$DIMLDRBLK
  1

  9
$DIMLUNIT
 70
     2
  9
$DIMLWD
 70
    -2
  9
$DIMLWE
 70
    -2
  9
$DIMTMOVE
 70
     0
  9
$LUNITS
 70
     2
  9
$LUPREC
 70
     4
  9
$SKETCHINC
 40
1.0
  9
$FILLETRAD
 40
5.0
  9
$AUNITS
 70
     0
  9
$AUPREC
 70
     0
  9
$MENU
  1
.
  9
$ELEVATION
 40
0.0
  9
$PELEVATION
 40
0.0
  9
$THICKNESS
 40
0.0
  9
$LIMCHECK
 70
     0
  9
$CHAMFERA
 40
10.0
  9
$CHAMFERB
 40
10.0
  9
$CHAMFERC
 40
20.0
  9
$CHAMFERD
 40
0.0
  9
$SKPOLY
 70
     0
  9
$TDCREATE
 40
2453639.692351574
  9
$TDUCREATE
 40
2453639.650684908
  9
$TDUPDATE
 40
2454040.680929352
  9
$TDUUPDATE
 40
2454040.639262685
  9
$TDINDWG
 40
0.1302323032
  9
$TDUSRTIMER
 40
0.1302317245
  9
$USRTIMER
 70
     1
  9
$ANGBASE
 50
0.0
  9
$ANGDIR
 70
     0
  9
$PDMODE
 70
     0
  9
$PDSIZE
 40
0.0
  9
$PLINEWID
 40
0.0
  9
$SPLFRAME
 70
     0
  9
$SPLINETYPE
 70
     6
  9
$SPLINESEGS
 70
     8
  9
$HANDSEED
  5
4C3
  9
$SURFTAB1
 70
     6
  9
$SURFTAB2
 70
     6
  9
$SURFTYPE
 70
     6
  9
$SURFU
 70
     6
  9
$SURFV
 70
     6
  9
$UCSBASE
  2

  9
$UCSNAME
  2

  9
$UCSORG
 10
0.0
 20
0.0
 30
0.0
  9
$UCSXDIR
 10
1.0
 20
0.0
 30
0.0
  9
$UCSYDIR
 10
0.0
 20
1.0
 30
0.0
  9
$UCSORTHOREF
  2

  9
$UCSORTHOVIEW
 70
     1
  9
$UCSORGTOP
 10
0.0
 20
0.0
 30
0.0
  9
$UCSORGBOTTOM
 10
0.0
 20
0.0
 30
0.0
  9
$UCSORGLEFT
 10
0.0
 20
0.0
 30
0.0
  9
$UCSORGRIGHT
 10
0.0
 20
0.0
 30
0.0
  9
$UCSORGFRONT
 10
0.0
 20
0.0
 30
0.0
  9
$UCSORGBACK
 10
0.0
 20
0.0
 30
0.0
  9
$PUCSBASE
  2

  9
$PUCSNAME
  2

  9
$PUCSORG
 10
0.0
 20
0.0
 30
0.0
  9
$PUCSXDIR
 10
1.0
 20
0.0
 30
0.0
  9
$PUCSYDIR
 10
0.0
 20
1.0
 30
0.0
  9
$PUCSORTHOREF
  2

  9
$PUCSORTHOVIEW
 70
     0
  9
$PUCSORGTOP
 10
0.0
 20
0.0
 30
0.0
  9
$PUCSORGBOTTOM
 10
0.0
 20
0.0
 30
0.0
  9
$PUCSORGLEFT
 10
0.0
 20
0.0
 30
0.0
  9
$PUCSORGRIGHT
 10
0.0
 20
0.0
 30
0.0
  9
$PUCSORGFRONT
 10
0.0
 20
0.0
 30
0.0
  9
$PUCSORGBACK
 10
0.0
 20
0.0
 30
0.0
  9
$USERI1
 70
     0
  9
$USERI2
 70
     0
  9
$USERI3
 70
     0
  9
$USERI4
 70
     0
  9
$USERI5
 70
     0
  9
$USERR1
 40
0.0
  9
$USERR2
 40
0.0
  9
$USERR3
 40
0.0
  9
$USERR4
 40
0.0
  9
$USERR5
 40
0.0
  9
$WORLDVIEW
 70
     1
  9
$SHADEDGE
 70
     3
  9
$SHADEDIF
 70
    70
  9
$TILEMODE
 70
     1
  9
$MAXACTVP
 70
    64
  9
$PINSBASE
 10
0.0
 20
0.0
 30
0.0
  9
$PLIMCHECK
 70
     0
  9
$PEXTMIN
 10
1.000000000000000E+20
 20
1.000000000000000E+20
 30
1.000000000000000E+20
  9
$PEXTMAX
 10
-1.000000000000000E+20
 20
-1.000000000000000E+20
 30
-1.000000000000000E+20
  9
$PLIMMIN
 10
0.0
 20
0.0
  9
$PLIMMAX
 10
420.0
 20
297.0
  9
$UNITMODE
 70
     0
  9
$VISRETAIN
 70
     1
  9
$PLINEGEN
 70
     0
  9
$PSLTSCALE
 70
     1
  9
$TREEDEPTH
 70
  3020
  9
$CMLSTYLE
  2
Standard
  9
$CMLJUST
 70
     0
  9
$CMLSCALE
 40
20.0
  9
$PROXYGRAPHICS
 70
     1
  9
$MEASUREMENT
 70
     1
  9
$CELWEIGHT
370
    -1
  9
$ENDCAPS
280
     0
  9
$JOINSTYLE
280
     0
  9
$LWDISPLAY
290
     0
  9
$INSUNITS
 70
     4
  9
$HYPERLINKBASE
  1

  9
$STYLESHEET
  1

  9
$XEDIT
290
     1
  9
$CEPSNTYPE
380
     0
  9
$PSTYLEMODE
290
     1
  9
$FINGERPRINTGUID
  2
{9B47308E-04D6-42FB-BD32-F27AC533D1CD}
  9
$VERSIONGUID
  2
{8A65B785-341E-4501-B002-4037092BC17C}
  9
$EXTNAMES
290
     1
  9
$PSVPSCALE
 40
0.0
  9
$OLESTARTUP
290
     0
  0
ENDSEC
  0
SECTION
  2
CLASSES
  0
CLASS
  1
ACDBDICTIONARYWDFLT
  2
AcDbDictionaryWithDefault
  3
ObjectDBX Classes
 90
        0
280
     0
281
     0
  0
CLASS
  1
ACDBPLACEHOLDER
  2
AcDbPlaceHolder
  3
ObjectDBX Classes
 90
        0
280
     0
281
     0
  0
CLASS
  1
LAYOUT
  2
AcDbLayout
  3
ObjectDBX Classes
 90
        0
280
     0
281
     0
  0
CLASS
  1
DICTIONARYVAR
  2
AcDbDictionaryVar
  3
ObjectDBX Classes
 90
        0
280
     0
281
     0
  0
CLASS
  1
DIMASSOC
  2
AcDbDimAssoc
  3
"AcDbDimAssoc|Product Desc:     AcDim ARX App For Dimension|Company:          Autodesk, Inc.|WEB Address:      www.autodesk.com"
 90
        0
280
     0
281
     0
  0
CLASS
  1
TABLESTYLE
  2
AcDbTableStyle
  3
ObjectDBX Classes
 90
     2047
280
     0
281
     0
  0
CLASS
  1
SORTENTSTABLE
  2
AcDbSortentsTable
  3
ObjectDBX Classes
 90
        0
280
     0
281
     0
  0
ENDSEC
  0
SECTION
  2
TABLES
  0
TABLE
  2
VPORT
  5
8
330
0
100
AcDbSymbolTable
 70
     9
  0
VPORT
  5
4BB
330
8
100
AcDbSymbolTableRecord
100
AcDbViewportTableRecord
  2
*Active
 70
     0
 10
0.0
 20
0.0
 11
1.0
 21
1.0
 12
61.74103306047391
 22
259.269946954055
 13
0.0
 23
0.0
 14
10.0
 24
10.0
 15
10.0
 25
10.0
 16
0.0
 26
0.0
 36
1.0
 17
0.0
 27
0.0
 37
0.0
 40
888.0019142520479
 41
1.847619047619047
 42
50.0
 43
0.0
 44
0.0
 50
0.0
 51
0.0
 71
     0
 72
   100
 73
     1
 74
     3
 75
     0
 76
     0
 77
     0
 78
     0
281
     0
 65
     1
110
0.0
120
0.0
130
0.0
111
1.0
121
0.0
131
0.0
112
0.0
122
1.0
132
0.0
 79
     1
146
0.0
  0
ENDTAB
  0
TABLE
  2
LTYPE
  5
5
330
0
100
AcDbSymbolTable
 70
     5
  0
LTYPE
  5
14
330
5
100
AcDbSymbolTableRecord
100
AcDbLinetypeTableRecord
  2
ByBlock
 70
     0
  3

 72
    65
 73
     0
 40
0.0
  0
LTYPE
  5
15
330
5
100
AcDbSymbolTableRecord
100
AcDbLinetypeTableRecord
  2
ByLayer
 70
     0
  3

 72
    65
 73
     0
 40
0.0
  0
LTYPE
  5
16
330
5
100
AcDbSymbolTableRecord
100
AcDbLinetypeTableRecord
  2
Continuous
 70
     0
  3
Solid line
 72
    65
 73
     0
 40
0.0
  0
LTYPE
  5
121
330
5
100
AcDbSymbolTableRecord
100
AcDbLinetypeTableRecord
  2
ACAD_ISO02W100
 70
     0
  3
ISO \U+00E8árkovaná __ __ __ __ __ __ __ __ __ __ __ 
 72
    65
 73
     2
 40
15.0
 49
12.0
 74
     0
 49
-3.0
 74
     0
  0
LTYPE
  5
122
330
5
100
AcDbSymbolTableRecord
100
AcDbLinetypeTableRecord
  2
ACAD_ISO03W100
 70
     0
  3
ISO p\U+00F8erušovaná __    __    __    __    __    _
 72
    65
 73
     2
 40
30.0
 49
12.0
 74
     0
 49
-18.0
 74
     0
  0
LTYPE
  5
305
330
5
100
AcDbSymbolTableRecord
100
AcDbLinetypeTableRecord
  2
DASHDOT
 70
     0
  3
Dash dot __ . __ . __ . __ . __ . __ . __ . __
 72
    65
 73
     4
 40
25.4
 49
12.7
 74
     0
 49
-6.349999999999999
 74
     0
 49
0.0
 74
     0
 49
-6.349999999999999
 74
     0
  0
ENDTAB
  0
TABLE
  2
LAYER
  5
2
330
0
100
AcDbSymbolTable
 70
     7
  0
LAYER
  5
10
330
2
100
AcDbSymbolTableRecord
100
AcDbLayerTableRecord
  2
0
 70
     0
 62
    90
  6
Continuous
370
    -3
390
F
  0
LAYER
  5
2B
330
2
100
AcDbSymbolTableRecord
100
AcDbLayerTableRecord
  2
koty
 70
     0
 62
    41
  6
Continuous
370
    -3
390
F
  0
LAYER
  5
2C
330
2
100
AcDbSymbolTableRecord
100
AcDbLayerTableRecord
  2
popis
 70
     0
 62
   210
  6
Continuous
370
    -3
390
F
  0
LAYER
  5
4E
330
2
100
AcDbSymbolTableRecord
100
AcDbLayerTableRecord
  2
Defpoints
 70
     0
 62
     7
  6
Continuous
290
     0
370
    -3
390
F
  0
LAYER
  5
C4
330
2
100
AcDbSymbolTableRecord
100
AcDbLayerTableRecord
  2
srafy
 70
     0
 62
     7
  6
Continuous
370
    -3
390
F
  0
LAYER
  5
306
330
2
100
AcDbSymbolTableRecord
100
AcDbLayerTableRecord
  2
V0-OBRYS
 70
     0
 62
    90
  6
Continuous
370
    -3
390
F
  0
LAYER
  5
307
330
2
100
AcDbSymbolTableRecord
100
AcDbLayerTableRecord
  2
V0-VYPLNE
 70
     0
 62
    63
  6
DASHDOT
370
    -3
390
F
  0
ENDTAB
  0
TABLE
  2
STYLE
  5
3
330
0
100
AcDbSymbolTable
 70
     3
  0
STYLE
  5
11
330
3
100
AcDbSymbolTableRecord
100
AcDbTextStyleTableRecord
  2
Standard
 70
     0
 40
0.0
 41
1.0
 50
0.0
 71
     0
 42
25.0
  3
txt
  4

  0
STYLE
  5
120
330
3
100
AcDbSymbolTableRecord
100
AcDbTextStyleTableRecord
  2

 70
     1
 40
0.0
 41
1.0
 50
0.0
 71
     0
 42
2.5
  3
ltypeshp.shx
  4

  0
STYLE
  5
308
330
3
100
AcDbSymbolTableRecord
100
AcDbTextStyleTableRecord
  2
ED20
 70
     0
 40
20.0
 41
1.0
 50
0.0
 71
     0
 42
20.0
  3
isocp.shx
  4

  0
ENDTAB
  0
TABLE
  2
VIEW
  5
6
330
0
100
AcDbSymbolTable
 70
     0
  0
ENDTAB
  0
TABLE
  2
UCS
  5
7
330
0
100
AcDbSymbolTable
 70
     0
  0
ENDTAB
  0
TABLE
  2
APPID
  5
9
330
0
100
AcDbSymbolTable
 70
     2
  0
APPID
  5
12
330
9
100
AcDbSymbolTableRecord
100
AcDbRegAppTableRecord
  2
ACAD
 70
     0
  0
APPID
  5
2F9
330
9
100
AcDbSymbolTableRecord
100
AcDbRegAppTableRecord
  2
ACAD_EXEMPT_FROM_CAD_STANDARDS
 70
     0
  0
ENDTAB
  0
TABLE
  2
DIMSTYLE
  5
A
330
0
100
AcDbSymbolTable
 70
     3
100
AcDbDimStyleTable
 71
     2
340
27
340
309
  0
DIMSTYLE
105
27
102
{ACAD_REACTORS
330
2BD
330
24B
330
217
330
26C
330
284
330
29C
330
2D5
102
}
330
A
100
AcDbSymbolTableRecord
100
AcDbDimStyleTableRecord
  2
ISO-25
 70
     0
 40
10.0
 41
2.0
 42
0.625
 43
3.75
 44
1.25
 73
     0
 74
     0
 77
     1
 78
     8
140
2.0
141
2.5
143
0.03937007874016
147
0.625
171
     3
172
     1
271
     2
272
     2
274
     3
278
    44
283
     0
284
     8
340
11
  0
DIMSTYLE
105
309
102
{ACAD_REACTORS
330
3E2
102
}
330
A
100
AcDbSymbolTableRecord
100
AcDbDimStyleTableRecord
  2
ED20
 70
     0
 40
0.0
 41
20.0
 42
1.0
 43
3.75
 44
1.25
 73
     0
 74
     0
 77
     1
 78
     8
140
20.0
141
3.0
143
0.0394
147
1.5
171
     4
172
     1
173
     1
271
     0
272
     1
273
     8
274
     4
284
     8
340
308
341
2FF
343
2FF
344
2FF
  0
ENDTAB
  0
TABLE
  2
BLOCK_RECORD
  5
1
330
0
100
AcDbSymbolTable
 70
    14
  0
BLOCK_RECORD
  5
1F
102
{ACAD_XDICTIONARY
360
34E
102
}
330
1
100
AcDbSymbolTableRecord
100
AcDbBlockTableRecord
  2
*Model_Space
340
22
  0
BLOCK_RECORD
  5
1B
330
1
100
AcDbSymbolTableRecord
100
AcDbBlockTableRecord
  2
*Paper_Space
340
1E
  0
BLOCK_RECORD
  5
23
330
1
100
AcDbSymbolTableRecord
100
AcDbBlockTableRecord
  2
*Paper_Space0
340
26
  0
BLOCK_RECORD
  5
218
330
1
100
AcDbSymbolTableRecord
100
AcDbBlockTableRecord
  2
*D1
340
0
  0
BLOCK_RECORD
  5
24C
330
1
100
AcDbSymbolTableRecord
100
AcDbBlockTableRecord
  2
*D3
340
0
  0
BLOCK_RECORD
  5
26D
330
1
100
AcDbSymbolTableRecord
100
AcDbBlockTableRecord
  2
*D4
340
0
  0
BLOCK_RECORD
  5
285
330
1
100
AcDbSymbolTableRecord
100
AcDbBlockTableRecord
  2
*D5
340
0
  0
BLOCK_RECORD
  5
29D
330
1
100
AcDbSymbolTableRecord
100
AcDbBlockTableRecord
  2
*D6
340
0
  0
BLOCK_RECORD
  5
2BE
330
1
100
AcDbSymbolTableRecord
100
AcDbBlockTableRecord
  2
*D7
340
0
  0
BLOCK_RECORD
  5
2D6
330
1
100
AcDbSymbolTableRecord
100
AcDbBlockTableRecord
  2
*D8
340
0
  0
BLOCK_RECORD
  5
2FF
330
1
100
AcDbSymbolTableRecord
100
AcDbBlockTableRecord
  2
_OPEN
340
0
102
{BLKREFS
331
486
331
487
102
}
  0
BLOCK_RECORD
  5
3E3
330
1
100
AcDbSymbolTableRecord
100
AcDbBlockTableRecord
  2
*D12
340
0
  0
BLOCK_RECORD
  5
492
102
{ACAD_XDICTIONARY
360
494
102
}
330
1
100
AcDbSymbolTableRecord
100
AcDbBlockTableRecord
  2
A$C3F7E3074
340
0
1001
ACAD
1000
DesignCenter Data
1002
{
1070
     1
1070
     4
1002
}
  0
ENDTAB
  0
ENDSEC
  0
SECTION
  2
BLOCKS
  0
BLOCK
  5
20
330
1F
100
AcDbEntity
  8
0
100
AcDbBlockBegin
  2
*Model_Space
 70
     0
 10
0.0
 20
0.0
 30
0.0
  3
*Model_Space
  1

  0
ENDBLK
  5
21
330
1F
100
AcDbEntity
  8
0
100
AcDbBlockEnd
  0
BLOCK
  5
1C
330
1B
100
AcDbEntity
 67
     1
  8
0
100
AcDbBlockBegin
  2
*Paper_Space
 70
     0
 10
0.0
 20
0.0
 30
0.0
  3
*Paper_Space
  1

  0
ENDBLK
  5
1D
330
1B
100
AcDbEntity
 67
     1
  8
0
100
AcDbBlockEnd
  0
BLOCK
  5
24
330
23
100
AcDbEntity
 67
     1
  8
0
100
AcDbBlockBegin
  2
*Paper_Space0
 70
     0
 10
0.0
 20
0.0
 30
0.0
  3
*Paper_Space0
  1

  0
ENDBLK
  5
25
330
23
100
AcDbEntity
 67
     1
  8
0
100
AcDbBlockEnd
  0
BLOCK
  5
222
330
218
100
AcDbEntity
  8
0
100
AcDbBlockBegin
  2
*D1
 70
     1
 10
0.0
 20
0.0
 30
0.0
  3
*D1
  1

  0
LINE
  5
454
330
218
100
AcDbEntity
  8
koty
 62
     0
370
    -2
100
AcDbLine
 10
-182.3041315109581
 20
185.7847244232558
 30
0.0
 11
-182.3041315109581
 21
59.65946490135195
 31
0.0
  0
LINE
  5
455
330
218
100
AcDbEntity
  8
koty
 62
     0
370
    -2
100
AcDbLine
 10
-49.30413151095809
 20
113.7847244232558
 30
0.0
 11
-49.30413151095809
 21
59.65946490135195
 31
0.0
  0
LINE
  5
456
330
218
100
AcDbEntity
  8
koty
 62
     0
370
    -2
100
AcDbLine
 10
-162.3041315109581
 20
72.15946490135195
 30
0.0
 11
-69.30413151095809
 21
72.15946490135195
 31
0.0
  0
SOLID
  5
457
330
218
100
AcDbEntity
  8
koty
 62
     0
100
AcDbTrace
 10
-162.3041315109581
 20
75.49279823468528
 30
0.0
 11
-162.3041315109581
 21
68.82613156801863
 31
0.0
 12
-182.3041315109581
 22
72.15946490135195
 32
0.0
 13
-182.3041315109581
 23
72.15946490135195
 33
0.0
  0
SOLID
  5
458
330
218
100
AcDbEntity
  8
koty
 62
     0
100
AcDbTrace
 10
-69.30413151095809
 20
75.49279823468528
 30
0.0
 11
-69.30413151095809
 21
68.82613156801863
 31
0.0
 12
-49.30413151095809
 22
72.15946490135195
 32
0.0
 13
-49.30413151095809
 23
72.15946490135195
 33
0.0
  0
MTEXT
  5
459
330
218
100
AcDbEntity
  8
koty
 62
     0
100
AcDbMText
 10
-115.8041315109581
 20
88.40946490135195
 30
0.0
 40
20.0
 41
0.0
 71
     5
 72
     1
  1
133
 73
     1
 44
1.0
1001
ACAD
1000
MTEXTBEGIN
1070
    73
1070
     1
1070
    44
1040
1.0
1070
    74
1070
     0
1000
MTEXTEND
  0
POINT
  5
45A
330
218
100
AcDbEntity
  8
Defpoints
 62
     0
100
AcDbPoint
 10
-182.3041315109581
 20
192.0347244232558
 30
0.0
  0
POINT
  5
45B
330
218
100
AcDbEntity
  8
Defpoints
 62
     0
100
AcDbPoint
 10
-49.30413151095809
 20
120.0347244232558
 30
0.0
  0
POINT
  5
45C
330
218
100
AcDbEntity
  8
Defpoints
 62
     0
100
AcDbPoint
 10
-49.30413151095809
 20
72.15946490135195
 30
0.0
  0
ENDBLK
  5
223
330
218
100
AcDbEntity
  8
0
100
AcDbBlockEnd
  0
BLOCK
  5
258
330
24C
100
AcDbEntity
  8
0
100
AcDbBlockBegin
  2
*D3
 70
     1
 10
0.0
 20
0.0
 30
0.0
  3
*D3
  1

  0
LINE
  5
45D
330
24C
100
AcDbEntity
  8
koty
 62
     0
370
    -2
100
AcDbLine
 10
-49.30413151095809
 20
185.7847244232558
 30
0.0
 11
-49.30413151095809
 21
131.6594649013519
 31
0.0
  0
LINE
  5
45E
330
24C
100
AcDbEntity
  8
koty
 62
     0
370
    -2
100
AcDbLine
 10
-0.3041315109580868
 20
214.7824193162036
 30
0.0
 11
-0.3041315109580919
 21
131.6594649013519
 31
0.0
  0
LINE
  5
45F
330
24C
100
AcDbEntity
  8
koty
 62
     0
370
    -2
100
AcDbLine
 10
-69.30413151095809
 20
144.1594649013519
 30
0.0
 11
-89.30413151095809
 21
144.1594649013519
 31
0.0
  0
LINE
  5
460
330
24C
100
AcDbEntity
  8
koty
 62
     0
370
    -2
100
AcDbLine
 10
19.69586848904191
 20
144.1594649013519
 30
0.0
 11
39.69586848904191
 21
144.1594649013519
 31
0.0
  0
LINE
  5
461
330
24C
100
AcDbEntity
  8
koty
 62
     0
370
    -2
100
AcDbLine
 10
-49.30413151095809
 20
144.1594649013519
 30
0.0
 11
-0.3041315109580911
 21
144.1594649013519
 31
0.0
  0
SOLID
  5
462
330
24C
100
AcDbEntity
  8
koty
 62
     0
100
AcDbTrace
 10
-69.30413151095809
 20
147.4927982346852
 30
0.0
 11
-69.30413151095809
 21
140.8261315680185
 31
0.0
 12
-49.30413151095809
 22
144.1594649013519
 32
0.0
 13
-49.30413151095809
 23
144.1594649013519
 33
0.0
  0
SOLID
  5
463
330
24C
100
AcDbEntity
  8
koty
 62
     0
100
AcDbTrace
 10
19.69586848904191
 20
147.4927982346852
 30
0.0
 11
19.69586848904191
 21
140.8261315680185
 31
0.0
 12
-0.3041315109580911
 22
144.1594649013519
 32
0.0
 13
-0.3041315109580911
 23
144.1594649013519
 33
0.0
  0
MTEXT
  5
464
330
24C
100
AcDbEntity
  8
koty
 62
     0
100
AcDbMText
 10
-24.80413151095809
 20
160.4094649013519
 30
0.0
 40
20.0
 41
0.0
 71
     5
 72
     1
  1
49
 73
     1
 44
1.0
1001
ACAD
1000
MTEXTBEGIN
1070
    73
1070
     1
1070
    44
1040
1.0
1070
    74
1070
     0
1000
MTEXTEND
  0
POINT
  5
465
330
24C
100
AcDbEntity
  8
Defpoints
 62
     0
100
AcDbPoint
 10
-49.30413151095809
 20
192.0347244232558
 30
0.0
  0
POINT
  5
466
330
24C
100
AcDbEntity
  8
Defpoints
 62
     0
100
AcDbPoint
 10
-0.3041315109580864
 20
221.0324193162036
 30
0.0
  0
POINT
  5
467
330
24C
100
AcDbEntity
  8
Defpoints
 62
     0
100
AcDbPoint
 10
-0.3041315109580911
 20
144.1594649013519
 30
0.0
  0
ENDBLK
  5
259
330
24C
100
AcDbEntity
  8
0
100
AcDbBlockEnd
  0
BLOCK
  5
277
330
26D
100
AcDbEntity
  8
0
100
AcDbBlockBegin
  2
*D4
 70
     1
 10
0.0
 20
0.0
 30
0.0
  3
*D4
  1

  0
LINE
  5
468
330
26D
100
AcDbEntity
  8
koty
 62
     0
370
    -2
100
AcDbLine
 10
-3.26555349204068
 20
200.0347244232559
 30
0.0
 11
50.30875757122175
 21
200.0347244232559
 31
0.0
  0
LINE
  5
469
330
26D
100
AcDbEntity
  8
koty
 62
     0
370
    -2
100
AcDbLine
 10
0.9458684890419064
 20
336.0347244232558
 30
0.0
 11
50.30875757122178
 21
336.0347244232558
 31
0.0
  0
LINE
  5
46A
330
26D
100
AcDbEntity
  8
koty
 62
     0
370
    -2
100
AcDbLine
 10
37.80875757122176
 20
220.0347244232558
 30
0.0
 11
37.80875757122178
 21
316.0347244232558
 31
0.0
  0
SOLID
  5
46B
330
26D
100
AcDbEntity
  8
koty
 62
     0
100
AcDbTrace
 10
34.47542423788843
 20
220.0347244232558
 30
0.0
 11
41.14209090455509
 21
220.0347244232558
 31
0.0
 12
37.80875757122176
 22
200.0347244232559
 32
0.0
 13
37.80875757122176
 23
200.0347244232559
 33
0.0
  0
SOLID
  5
46C
330
26D
100
AcDbEntity
  8
koty
 62
     0
100
AcDbTrace
 10
34.47542423788845
 20
316.0347244232558
 30
0.0
 11
41.14209090455512
 21
316.0347244232558
 31
0.0
 12
37.80875757122179
 22
336.0347244232558
 32
0.0
 13
37.80875757122179
 23
336.0347244232558
 33
0.0
  0
MTEXT
  5
46D
330
26D
100
AcDbEntity
  8
koty
 62
     0
100
AcDbMText
 10
21.55875757122173
 20
268.0347244232558
 30
0.0
 40
20.0
 41
0.0
 71
     5
 72
     1
  1
136
 11
0.0000000000000001
 21
1.0
 31
0.0
 73
     1
 44
1.0
1001
ACAD
1000
MTEXTBEGIN
1070
    73
1070
     1
1070
    44
1040
1.0
1070
    74
1070
     0
1000
MTEXTEND
  0
POINT
  5
46E
330
26D
100
AcDbEntity
  8
Defpoints
 62
     0
100
AcDbPoint
 10
-9.51555349204068
 20
200.0347244232559
 30
0.0
  0
POINT
  5
46F
330
26D
100
AcDbEntity
  8
Defpoints
 62
     0
100
AcDbPoint
 10
-5.304131510958093
 20
336.0347244232558
 30
0.0
  0
POINT
  5
470
330
26D
100
AcDbEntity
  8
Defpoints
 62
     0
100
AcDbPoint
 10
37.80875757122179
 20
336.0347244232558
 30
0.0
  0
ENDBLK
  5
278
330
26D
100
AcDbEntity
  8
0
100
AcDbBlockEnd
  0
BLOCK
  5
28F
330
285
100
AcDbEntity
  8
0
100
AcDbBlockBegin
  2
*D5
 70
     1
 10
0.0
 20
0.0
 30
0.0
  3
*D5
  1

  0
LINE
  5
442
330
285
100
AcDbEntity
  8
koty
 62
     0
370
    -2
100
AcDbLine
 10
-188.5541315109581
 20
452.0347244232559
 30
0.0
 11
-238.6608005694788
 21
452.0347244232559
 31
0.0
  0
LINE
  5
443
330
285
100
AcDbEntity
  8
koty
 62
     0
370
    -2
100
AcDbLine
 10
-188.5541315109581
 20
192.0347244232558
 30
0.0
 11
-238.6608005694788
 21
192.0347244232559
 31
0.0
  0
LINE
  5
444
330
285
100
AcDbEntity
  8
koty
 62
     0
370
    -2
100
AcDbLine
 10
-226.1608005694788
 20
432.0347244232559
 30
0.0
 11
-226.1608005694788
 21
212.0347244232559
 31
0.0
  0
SOLID
  5
445
330
285
100
AcDbEntity
  8
koty
 62
     0
100
AcDbTrace
 10
-229.4941339028122
 20
432.0347244232559
 30
0.0
 11
-222.8274672361455
 21
432.0347244232559
 31
0.0
 12
-226.1608005694788
 22
452.0347244232559
 32
0.0
 13
-226.1608005694788
 23
452.0347244232559
 33
0.0
  0
SOLID
  5
446
330
285
100
AcDbEntity
  8
koty
 62
     0
100
AcDbTrace
 10
-229.4941339028122
 20
212.0347244232559
 30
0.0
 11
-222.8274672361455
 21
212.0347244232559
 31
0.0
 12
-226.1608005694788
 22
192.0347244232559
 32
0.0
 13
-226.1608005694788
 23
192.0347244232559
 33
0.0
  0
MTEXT
  5
447
330
285
100
AcDbEntity
  8
koty
 62
     0
100
AcDbMText
 10
-242.4108005694789
 20
322.0347244232558
 30
0.0
 40
20.0
 41
0.0
 71
     5
 72
     1
  1
260
 11
0.0000000000000001
 21
1.0
 31
0.0
 73
     1
 44
1.0
1001
ACAD
1000
MTEXTBEGIN
1070
    73
1070
     1
1070
    44
1040
1.0
1070
    74
1070
     0
1000
MTEXTEND
  0
POINT
  5
448
330
285
100
AcDbEntity
  8
Defpoints
 62
     0
100
AcDbPoint
 10
-182.3041315109581
 20
452.0347244232559
 30
0.0
  0
POINT
  5
449
330
285
100
AcDbEntity
  8
Defpoints
 62
     0
100
AcDbPoint
 10
-182.3041315109581
 20
192.0347244232558
 30
0.0
  0
POINT
  5
44A
330
285
100
AcDbEntity
  8
Defpoints
 62
     0
100
AcDbPoint
 10
-226.1608005694788
 20
192.0347244232559
 30
0.0
  0
ENDBLK
  5
290
330
285
100
AcDbEntity
  8
0
100
AcDbBlockEnd
  0
BLOCK
  5
2A7
330
29D
100
AcDbEntity
  8
0
100
AcDbBlockBegin
  2
*D6
 70
     1
 10
0.0
 20
0.0
 30
0.0
  3
*D6
  1

  0
LINE
  5
3D9
330
29D
100
AcDbEntity
  8
koty
 62
     0
370
    -2
100
AcDbLine
 10
394.8041181468454
 20
309.7847244232558
 30
0.0
 11
394.8041181468454
 21
-22.5410785971269
 31
0.0
  0
LINE
  5
3DA
330
29D
100
AcDbEntity
  8
koty
 62
     0
370
    -2
100
AcDbLine
 10
98.80438485593799
 20
279.4930374695446
 30
0.0
 11
98.80438485593799
 21
-22.5410785971269
 31
0.0
  0
LINE
  5
3DB
330
29D
100
AcDbEntity
  8
koty
 62
     0
370
    -2
100
AcDbLine
 10
374.8041181468455
 20
-10.0410785971269
 30
0.0
 11
118.804384855938
 21
-10.0410785971269
 31
0.0
  0
SOLID
  5
3DC
330
29D
100
AcDbEntity
  8
koty
 62
     0
100
AcDbTrace
 10
374.8041181468455
 20
-6.707745263793564
 30
0.0
 11
374.8041181468455
 21
-13.37441193046023
 31
0.0
 12
394.8041181468454
 22
-10.0410785971269
 32
0.0
 13
394.8041181468454
 23
-10.0410785971269
 33
0.0
  0
SOLID
  5
3DD
330
29D
100
AcDbEntity
  8
koty
 62
     0
100
AcDbTrace
 10
118.804384855938
 20
-6.707745263793564
 30
0.0
 11
118.804384855938
 21
-13.37441193046023
 31
0.0
 12
98.80438485593799
 22
-10.0410785971269
 32
0.0
 13
98.80438485593799
 23
-10.0410785971269
 33
0.0
  0
MTEXT
  5
3DE
330
29D
100
AcDbEntity
  8
koty
 62
     0
100
AcDbMText
 10
246.8042515013917
 20
6.208921402873102
 30
0.0
 40
20.0
 41
0.0
 71
     5
 72
     1
  1
296
 73
     1
 44
1.0
1001
ACAD
1000
MTEXTBEGIN
1070
    73
1070
     1
1070
    44
1040
1.0
1070
    74
1070
     0
1000
MTEXTEND
  0
POINT
  5
3DF
330
29D
100
AcDbEntity
  8
Defpoints
 62
     0
100
AcDbPoint
 10
394.8041181468454
 20
316.0347244232558
 30
0.0
  0
POINT
  5
3E0
330
29D
100
AcDbEntity
  8
Defpoints
 62
     0
100
AcDbPoint
 10
98.80438485593799
 20
285.7430374695446
 30
0.0
  0
POINT
  5
3E1
330
29D
100
AcDbEntity
  8
Defpoints
 62
     0
100
AcDbPoint
 10
98.80438485593799
 20
-10.0410785971269
 30
0.0
  0
ENDBLK
  5
2A8
330
29D
100
AcDbEntity
  8
0
100
AcDbBlockEnd
  0
BLOCK
  5
2C8
330
2BE
100
AcDbEntity
  8
0
100
AcDbBlockBegin
  2
*D7
 70
     1
 10
0.0
 20
0.0
 30
0.0
  3
*D7
  1

  0
LINE
  5
47A
330
2BE
100
AcDbEntity
  8
koty
 62
     0
370
    -2
100
AcDbLine
 10
261.8041181468455
 20
281.7847244232559
 30
0.0
 11
261.8041181468455
 21
30.70840397850953
 31
0.0
  0
LINE
  5
47B
330
2BE
100
AcDbEntity
  8
koty
 62
     0
370
    -2
100
AcDbLine
 10
394.8041181468454
 20
309.7847244232558
 30
0.0
 11
394.8041181468454
 21
30.70840397850953
 31
0.0
  0
LINE
  5
47C
330
2BE
100
AcDbEntity
  8
koty
 62
     0
370
    -2
100
AcDbLine
 10
281.8041181468455
 20
43.20840397850952
 30
0.0
 11
374.8041181468455
 21
43.20840397850952
 31
0.0
  0
SOLID
  5
47D
330
2BE
100
AcDbEntity
  8
koty
 62
     0
100
AcDbTrace
 10
281.8041181468455
 20
46.54173731184285
 30
0.0
 11
281.8041181468455
 21
39.87507064517619
 31
0.0
 12
261.8041181468455
 22
43.20840397850952
 32
0.0
 13
261.8041181468455
 23
43.20840397850952
 33
0.0
  0
SOLID
  5
47E
330
2BE
100
AcDbEntity
  8
koty
 62
     0
100
AcDbTrace
 10
374.8041181468455
 20
46.54173731184285
 30
0.0
 11
374.8041181468455
 21
39.87507064517619
 31
0.0
 12
394.8041181468454
 22
43.20840397850952
 32
0.0
 13
394.8041181468454
 23
43.20840397850952
 33
0.0
  0
MTEXT
  5
47F
330
2BE
100
AcDbEntity
  8
koty
 62
     0
100
AcDbMText
 10
320.8650433176105
 20
59.45840397850952
 30
0.0
 40
20.0
 41
0.0
 71
     5
 72
     1
  1
133
 73
     1
 44
1.0
1001
ACAD
1000
MTEXTBEGIN
1070
    73
1070
     1
1070
    44
1040
1.0
1070
    74
1070
     0
1000
MTEXTEND
  0
POINT
  5
480
330
2BE
100
AcDbEntity
  8
Defpoints
 62
     0
100
AcDbPoint
 10
261.8041181468455
 20
288.0347244232559
 30
0.0
  0
POINT
  5
481
330
2BE
100
AcDbEntity
  8
Defpoints
 62
     0
100
AcDbPoint
 10
394.8041181468454
 20
316.0347244232558
 30
0.0
  0
POINT
  5
482
330
2BE
100
AcDbEntity
  8
Defpoints
 62
     0
100
AcDbPoint
 10
394.8041181468454
 20
43.20840397850952
 30
0.0
  0
ENDBLK
  5
2C9
330
2BE
100
AcDbEntity
  8
0
100
AcDbBlockEnd
  0
BLOCK
  5
2E0
330
2D6
100
AcDbEntity
  8
0
100
AcDbBlockBegin
  2
*D8
 70
     1
 10
0.0
 20
0.0
 30
0.0
  3
*D8
  1

  0
LINE
  5
3BE
330
2D6
100
AcDbEntity
  8
koty
 62
     0
370
    -2
100
AcDbLine
 10
401.0541181468454
 20
316.0347244232558
 30
0.0
 11
467.8845600975425
 21
316.0347244232558
 31
0.0
  0
LINE
  5
3BF
330
2D6
100
AcDbEntity
  8
koty
 62
     0
370
    -2
100
AcDbLine
 10
401.0541181468454
 20
452.0347244232558
 30
0.0
 11
467.8845600975425
 21
452.0347244232558
 31
0.0
  0
LINE
  5
3C0
330
2D6
100
AcDbEntity
  8
koty
 62
     0
370
    -2
100
AcDbLine
 10
455.3845600975425
 20
336.0347244232559
 30
0.0
 11
455.3845600975425
 21
432.0347244232558
 31
0.0
  0
SOLID
  5
3C1
330
2D6
100
AcDbEntity
  8
koty
 62
     0
100
AcDbTrace
 10
452.0512267642092
 20
336.0347244232559
 30
0.0
 11
458.7178934308759
 21
336.0347244232559
 31
0.0
 12
455.3845600975425
 22
316.0347244232558
 32
0.0
 13
455.3845600975425
 23
316.0347244232558
 33
0.0
  0
SOLID
  5
3C2
330
2D6
100
AcDbEntity
  8
koty
 62
     0
100
AcDbTrace
 10
452.0512267642092
 20
432.0347244232558
 30
0.0
 11
458.7178934308759
 21
432.0347244232558
 31
0.0
 12
455.3845600975425
 22
452.0347244232558
 32
0.0
 13
455.3845600975425
 23
452.0347244232558
 33
0.0
  0
MTEXT
  5
3C3
330
2D6
100
AcDbEntity
  8
koty
 62
     0
100
AcDbMText
 10
439.1345600975425
 20
384.034724423256
 30
0.0
 40
20.0
 41
0.0
 71
     5
 72
     1
  1
136
 11
0.0000000000000001
 21
1.0
 31
0.0
 73
     1
 44
1.0
1001
ACAD
1000
MTEXTBEGIN
1070
    73
1070
     1
1070
    44
1040
1.0
1070
    74
1070
     0
1000
MTEXTEND
  0
POINT
  5
3C4
330
2D6
100
AcDbEntity
  8
Defpoints
 62
     0
100
AcDbPoint
 10
394.8041181468454
 20
316.0347244232558
 30
0.0
  0
POINT
  5
3C5
330
2D6
100
AcDbEntity
  8
Defpoints
 62
     0
100
AcDbPoint
 10
394.8041181468454
 20
452.0347244232558
 30
0.0
  0
POINT
  5
3C6
330
2D6
100
AcDbEntity
  8
Defpoints
 62
     0
100
AcDbPoint
 10
455.3845600975425
 20
452.0347244232558
 30
0.0
  0
ENDBLK
  5
2E1
330
2D6
100
AcDbEntity
  8
0
100
AcDbBlockEnd
  0
BLOCK
  5
300
330
2FF
100
AcDbEntity
  8
0
100
AcDbBlockBegin
  2
_OPEN
 70
     0
 10
0.0
 20
0.0
 30
0.0
  3
_OPEN
  1

  0
LINE
  5
301
330
2FF
100
AcDbEntity
  8
0
  6
ByBlock
 62
     0
100
AcDbLine
 10
-1.0
 20
0.1666666666666666
 30
0.0
 11
0.0
 21
0.0
 31
0.0
  0
LINE
  5
302
330
2FF
100
AcDbEntity
  8
0
  6
ByBlock
 62
     0
100
AcDbLine
 10
0.0
 20
0.0
 30
0.0
 11
-1.0
 21
-0.1666666666666666
 31
0.0
  0
LINE
  5
303
330
2FF
100
AcDbEntity
  8
0
  6
ByBlock
 62
     0
100
AcDbLine
 10
0.0
 20
0.0
 30
0.0
 11
-1.0
 21
0.0
 31
0.0
  0
ENDBLK
  5
304
330
2FF
100
AcDbEntity
  8
0
100
AcDbBlockEnd
  0
BLOCK
  5
3ED
330
3E3
100
AcDbEntity
  8
0
100
AcDbBlockBegin
  2
*D12
 70
     1
 10
0.0
 20
0.0
 30
0.0
  3
*D12
  1

  0
LINE
  5
483
330
3E3
100
AcDbEntity
  8
koty
 62
     0
370
    -2
100
AcDbLine
 10
395.8041181468455
 20
452.0347244232558
 30
0.0
 11
504.6228163553571
 21
452.0347244232558
 31
0.0
  0
LINE
  5
484
330
3E3
100
AcDbEntity
  8
koty
 62
     0
370
    -2
100
AcDbLine
 10
263.3041181468475
 20
120.0347244232559
 30
0.0
 11
504.622816355357
 21
120.0347244232558
 31
0.0
  0
LINE
  5
485
330
3E3
100
AcDbEntity
  8
koty
 62
     0
370
    -2
100
AcDbLine
 10
503.3728163553572
 20
432.0347244232558
 30
0.0
 11
503.3728163553571
 21
140.0347244232558
 31
0.0
  0
INSERT
  5
486
330
3E3
100
AcDbEntity
  8
koty
 62
     0
370
    -2
100
AcDbBlockReference
  2
_OPEN
 10
503.3728163553572
 20
452.0347244232558
 30
0.0
 41
20.0
 42
20.0
 43
20.0
 50
90.0
  0
INSERT
  5
487
330
3E3
100
AcDbEntity
  8
koty
 62
     0
370
    -2
100
AcDbBlockReference
  2
_OPEN
 10
503.372816355357
 20
120.0347244232558
 30
0.0
 41
20.0
 42
20.0
 43
20.0
 50
270.0
  0
MTEXT
  5
488
330
3E3
100
AcDbEntity
  8
koty
 62
     0
100
AcDbMText
 10
491.8708478514201
 20
286.0347244232559
 30
0.0
 40
20.0
 41
0.0
 71
     5
 72
     1
  1
\A1;332
  7
ED20
 11
0.0000000000000001
 21
1.0
 31
0.0
 73
     1
 44
1.0
1001
ACAD
1000
MTEXTBEGIN
1070
    73
1070
     1
1070
    44
1040
1.0
1070
    74
1070
     0
1000
MTEXTEND
  0
POINT
  5
489
330
3E3
100
AcDbEntity
  8
Defpoints
 62
     0
100
AcDbPoint
 10
394.8041181468454
 20
452.0347244232558
 30
0.0
  0
POINT
  5
48A
330
3E3
100
AcDbEntity
  8
Defpoints
 62
     0
100
AcDbPoint
 10
262.3041181468475
 20
120.0347244232559
 30
0.0
  0
POINT
  5
48B
330
3E3
100
AcDbEntity
  8
Defpoints
 62
     0
100
AcDbPoint
 10
503.372816355357
 20
120.0347244232558
 30
0.0
  0
ENDBLK
  5
3EE
330
3E3
100
AcDbEntity
  8
0
100
AcDbBlockEnd
  0
BLOCK
  5
496
330
492
100
AcDbEntity
  8
0
100
AcDbBlockBegin
  2
A$C3F7E3074
 70
     0
 10
0.0
 20
0.0
 30
0.0
  3
A$C3F7E3074
  1

  0
ARC
  5
493
330
492
100
AcDbEntity
  8
0
100
AcDbCircle
 10
132.417500674308
 20
141.164025154338
 30
0.0
 40
143.3256483631643
100
AcDbArc
 50
279.9635260918429
 51
157.5019510864389
  0
ENDBLK
  5
497
330
492
100
AcDbEntity
  8
0
100
AcDbBlockEnd
  0
ENDSEC
  0
SECTION
  2
ENTITIES
  0
LINE
  5
173
330
1F
100
AcDbEntity
  8
0
100
AcDbLine
 10
394.8041181468454
 20
380.0347244232558
 30
0.0
 11
394.8041181468454
 21
258.0347244232559
 31
0.0
  0
LINE
  5
174
330
1F
100
AcDbEntity
  8
0
100
AcDbLine
 10
394.8041181468454
 20
316.0347244232558
 30
0.0
 11
368.9232706580077
 21
316.0347244232558
 31
0.0
  0
LINE
  5
178
102
{ACAD_REACTORS
330
2B3
330
2D4
330
2EC
102
}
330
1F
100
AcDbEntity
  8
0
100
AcDbLine
 10
394.8041181468454
 20
316.0347244232558
 30
0.0
 11
394.8041181468454
 21
452.0347244232558
 31
0.0
  0
LINE
  5
181
330
1F
100
AcDbEntity
  8
0
100
AcDbLine
 10
394.8041181468454
 20
321.0347244232559
 30
0.0
 11
368.9232706580077
 21
321.0347244232559
 31
0.0
  0
LINE
  5
182
330
1F
100
AcDbEntity
  8
0
100
AcDbLine
 10
394.8041181468454
 20
447.0347244232558
 30
0.0
 11
261.208919631426
 21
447.0277647641717
 31
0.0
  0
LINE
  5
183
330
1F
100
AcDbEntity
  8
0
100
AcDbLine
 10
364.170258462432
 20
314.4826693118926
 30
0.0
 11
368.9232706580077
 21
321.0347244232559
 31
0.0
  0
CIRCLE
  5
184
330
1F
100
AcDbEntity
  8
0
100
AcDbCircle
 10
261.8041181468455
 20
288.0347244232559
 30
0.0
 40
87.83780348554651
  0
CIRCLE
  5
185
330
1F
100
AcDbEntity
  8
0
100
AcDbCircle
 10
261.8041181468455
 20
288.0347244232559
 30
0.0
 40
80.91023048975634
  0
CIRCLE
  5
186
330
1F
100
AcDbEntity
  8
0
100
AcDbCircle
 10
261.8041181468455
 20
288.0347244232559
 30
0.0
 40
59.06092517076501
  0
CIRCLE
  5
187
330
1F
100
AcDbEntity
  8
0
100
AcDbCircle
 10
261.8041181468455
 20
288.0347244232559
 30
0.0
 40
34.00230510705223
  0
CIRCLE
  5
188
330
1F
100
AcDbEntity
  8
0
100
AcDbCircle
 10
261.8041181468455
 20
288.0347244232559
 30
0.0
 40
14.69274030655508
  0
CIRCLE
  5
189
102
{ACAD_REACTORS
330
2D4
102
}
330
1F
100
AcDbEntity
  8
0
100
AcDbCircle
 10
261.8041181468455
 20
288.0347244232559
 30
0.0
 40
2.872943722430143
  0
CIRCLE
  5
18C
330
1F
100
AcDbEntity
  8
0
100
AcDbCircle
 10
261.8041181468454
 20
299.3867177554703
 30
0.0
 40
1.0
  0
CIRCLE
  5
18D
330
1F
100
AcDbEntity
  8
0
100
AcDbCircle
 10
261.8041181468454
 20
342.8599623969807
 30
0.0
 40
2.5
  0
CIRCLE
  5
1BB
330
1F
100
AcDbEntity
  8
0
100
AcDbCircle
 10
223.0368205954584
 20
326.8020219746428
 30
0.0
 40
2.5
  0
CIRCLE
  5
1BC
330
1F
100
AcDbEntity
  8
0
100
AcDbCircle
 10
206.9788801731207
 20
288.0347244232559
 30
0.0
 40
2.5
  0
CIRCLE
  5
1BD
330
1F
100
AcDbEntity
  8
0
100
AcDbCircle
 10
223.0368205954584
 20
249.2674268718689
 30
0.0
 40
2.5
  0
CIRCLE
  5
1BE
330
1F
100
AcDbEntity
  8
0
100
AcDbCircle
 10
261.8041181468456
 20
233.2094864495311
 30
0.0
 40
2.5
  0
CIRCLE
  5
1BF
330
1F
100
AcDbEntity
  8
0
100
AcDbCircle
 10
300.5714156982325
 20
249.2674268718687
 30
0.0
 40
2.5
  0
CIRCLE
  5
1C0
330
1F
100
AcDbEntity
  8
0
100
AcDbCircle
 10
316.6293561205704
 20
288.0347244232559
 30
0.0
 40
2.5
  0
CIRCLE
  5
1C1
330
1F
100
AcDbEntity
  8
0
100
AcDbCircle
 10
300.5714156982326
 20
326.8020219746428
 30
0.0
 40
2.5
  0
CIRCLE
  5
1C2
330
1F
100
AcDbEntity
  8
0
100
AcDbCircle
 10
250.4521248146311
 20
288.0347244232558
 30
0.0
 40
1.0
  0
CIRCLE
  5
1C3
330
1F
100
AcDbEntity
  8
0
100
AcDbCircle
 10
261.8041181468456
 20
276.6827310910414
 30
0.0
 40
1.0
  0
CIRCLE
  5
1C4
330
1F
100
AcDbEntity
  8
0
100
AcDbCircle
 10
273.15611147906
 20
288.0347244232559
 30
0.0
 40
1.0
  0
LINE
  5
1C5
330
1F
100
AcDbEntity
  8
0
100
AcDbLine
 10
239.6939581066285
 20
342.8008974228612
 30
0.0
 11
249.0741952306995
 21
319.5641680457185
 31
0.0
  0
LINE
  5
1C6
330
1F
100
AcDbEntity
  8
0
100
AcDbLine
 10
237.8520725170574
 20
342.0207632867922
 30
0.0
 11
247.2416849792992
 21
318.7608093159625
 31
0.0
  0
LINE
  5
1C7
330
1F
100
AcDbEntity
  8
0
100
AcDbLine
 10
206.6935700889257
 20
309.2719647049502
 30
0.0
 11
229.7802999165512
 21
299.4641521668544
 31
0.0
  0
LINE
  5
1C8
330
1F
100
AcDbEntity
  8
0
100
AcDbLine
 10
207.4443417416317
 20
311.1260126333551
 30
0.0
 11
230.5080199363744
 21
301.3279929977492
 31
0.0
  0
LINE
  5
1C9
330
1F
100
AcDbEntity
  8
0
100
AcDbLine
 10
207.8180792833092
 20
264.0826787934678
 30
0.0
 11
231.0780332541388
 21
273.4722912557096
 31
0.0
  0
LINE
  5
1CA
330
1F
100
AcDbEntity
  8
0
100
AcDbLine
 10
207.0379451472402
 20
265.9245643830388
 30
0.0
 11
230.2746745243829
 21
275.3048015071099
 31
0.0
  0
LINE
  5
1CB
330
1F
100
AcDbEntity
  8
0
100
AcDbLine
 10
240.5668778651512
 20
232.9241763653361
 30
0.0
 11
250.3746904032469
 21
256.0109061929615
 31
0.0
  0
LINE
  5
1CC
330
1F
100
AcDbEntity
  8
0
100
AcDbLine
 10
238.7128299367462
 20
233.6749480180421
 30
0.0
 11
248.510849572352
 21
256.7386262127848
 31
0.0
  0
LINE
  5
1CD
330
1F
100
AcDbEntity
  8
0
100
AcDbLine
 10
285.7561637766336
 20
234.0486855597195
 30
0.0
 11
276.3665513143918
 21
257.3086395305491
 31
0.0
  0
LINE
  5
1CE
330
1F
100
AcDbEntity
  8
0
100
AcDbLine
 10
283.9142781870624
 20
233.2685514236505
 30
0.0
 11
274.5340410629915
 21
256.5052808007932
 31
0.0
  0
LINE
  5
1CF
330
1F
100
AcDbEntity
  8
0
100
AcDbLine
 10
316.9146662047652
 20
266.7974841415615
 30
0.0
 11
293.8279363771398
 21
276.6052966796573
 31
0.0
  0
LINE
  5
1D0
330
1F
100
AcDbEntity
  8
0
100
AcDbLine
 10
316.1638945520592
 20
264.9434362131566
 30
0.0
 11
293.1002163573166
 21
274.7414558487624
 31
0.0
  0
LINE
  5
1D1
330
1F
100
AcDbEntity
  8
0
100
AcDbLine
 10
315.7901570103819
 20
311.9867700530439
 30
0.0
 11
292.5302030395522
 21
302.5971575908021
 31
0.0
  0
LINE
  5
1D2
330
1F
100
AcDbEntity
  8
0
100
AcDbLine
 10
316.5702911464508
 20
310.1448844634728
 30
0.0
 11
293.3335617693082
 21
300.7646473394018
 31
0.0
  0
LINE
  5
1D3
330
1F
100
AcDbEntity
  8
0
100
AcDbLine
 10
283.0413584285399
 20
343.1452724811757
 30
0.0
 11
273.2335458904441
 21
320.0585426535501
 31
0.0
  0
LINE
  5
1D4
330
1F
100
AcDbEntity
  8
0
100
AcDbLine
 10
284.8954063569448
 20
342.3945008284696
 30
0.0
 11
275.0973867213389
 21
319.3308226337269
 31
0.0
  0
LINE
  5
1D5
102
{ACAD_REACTORS
330
29B
102
}
330
1F
100
AcDbEntity
  8
0
100
AcDbLine
 10
-49.30413151095809
 20
452.0347244232557
 30
0.0
 11
-182.3041315109581
 21
452.0347244232559
 31
0.0
  0
LINE
  5
1D8
102
{ACAD_REACTORS
330
22E
102
}
330
1F
100
AcDbEntity
  8
0
100
AcDbLine
 10
-49.30413151095809
 20
120.0347244232558
 30
0.0
 11
-182.3041315109581
 21
120.0347244232558
 31
0.0
  0
LINE
  5
1D9
102
{ACAD_REACTORS
330
283
102
}
330
1F
100
AcDbEntity
  8
0
100
AcDbLine
 10
-5.304131510958093
 20
336.0347244232558
 30
0.0
 11
-49.30413151095809
 21
336.0347244232559
 31
0.0
  0
LINE
  5
1DC
102
{ACAD_REACTORS
330
22E
330
266
102
}
330
1F
100
AcDbEntity
  8
0
100
AcDbLine
 10
-49.30413151095809
 20
452.0347244232558
 30
0.0
 11
-49.30413151095809
 21
120.0347244232558
 31
0.0
  0
LINE
  5
1DD
330
1F
100
AcDbEntity
  8
0
100
AcDbLine
 10
-49.30413151095809
 20
452.0347244232557
 30
0.0
 11
-182.3041315109581
 21
452.0347244232558
 31
0.0
  0
LINE
  5
1DE
102
{ACAD_REACTORS
330
22E
330
29B
102
}
330
1F
100
AcDbEntity
  8
0
100
AcDbLine
 10
-182.3041315109581
 20
452.0347244232558
 30
0.0
 11
-182.3041315109581
 21
120.0347244232558
 31
0.0
  0
LINE
  5
1E5
330
1F
100
AcDbEntity
  8
0
100
AcDbLine
 10
-9.51555349204068
 20
200.0347244232559
 30
0.0
 11
-38.85996817023443
 21
200.0347244232558
 31
0.0
  0
LINE
  5
1E9
330
1F
100
AcDbEntity
  8
0
100
AcDbLine
 10
-5.304131510958086
 20
216.0324193162036
 30
0.0
 11
-49.30413151095808
 21
216.0324193162037
 31
0.0
  0
ARC
  5
1EF
330
1F
100
AcDbEntity
  8
0
100
AcDbCircle
 10
-5.304131510958086
 20
221.0324193162036
 30
0.0
 40
5.0
100
AcDbArc
 50
270.0
 51
0.0
  0
ARC
  5
1F0
102
{ACAD_REACTORS
330
283
102
}
330
1F
100
AcDbEntity
  8
0
100
AcDbCircle
 10
-5.304131510958093
 20
331.0347244232558
 30
0.0
 40
5.0
100
AcDbArc
 50
0.0
 51
90.0
  0
LINE
  5
1F2
330
1F
100
AcDbEntity
  8
0
100
AcDbLine
 10
-6.722597971389632
 20
204.8354489805072
 30
0.0
 11
-42.92068386437813
 21
204.8354489805071
 31
0.0
  0
LINE
  5
1F3
330
1F
100
AcDbEntity
  8
0
100
AcDbLine
 10
-38.85996817023443
 20
200.0347244232558
 30
0.0
 11
-38.85996817023443
 21
204.8354489805072
 31
0.0
  0
LINE
  5
1F5
330
1F
100
AcDbEntity
  8
0
100
AcDbLine
 10
-9.51555349204068
 20
200.0347244232559
 30
0.0
 11
-9.51555349204068
 21
204.8354489805072
 31
0.0
  0
LINE
  5
1F6
330
1F
100
AcDbEntity
  8
0
100
AcDbLine
 10
-42.92068386437813
 20
216.0324193162036
 30
0.0
 11
-6.722597971389632
 21
216.0324193162036
 31
0.0
  0
LINE
  5
1F7
330
1F
100
AcDbEntity
  8
0
100
AcDbLine
 10
-6.722597971389632
 20
216.0324193162036
 30
0.0
 11
-6.722597971389632
 21
204.8354489805072
 31
0.0
  0
LINE
  5
1F8
102
{ACAD_REACTORS
330
283
102
}
330
1F
100
AcDbEntity
  8
0
100
AcDbLine
 10
-9.51555349204068
 20
200.0347244232559
 30
0.0
 11
-38.85996817023443
 21
200.0347244232558
 31
0.0
  0
LINE
  5
1F9
330
1F
100
AcDbEntity
  8
0
100
AcDbLine
 10
-42.92068386437813
 20
204.8354489805071
 30
0.0
 11
-42.92068386437813
 21
216.0324193162036
 31
0.0
  0
LINE
  5
1FA
330
1F
100
AcDbEntity
  8
0
100
AcDbLine
 10
-49.3041315109581
 20
326.9041413806923
 30
0.0
 11
-182.3041315109581
 21
326.9041413806922
 31
0.0
  0
LINE
  5
1FB
330
1F
100
AcDbEntity
  8
0
100
AcDbLine
 10
-51.30413151095808
 20
451.0347244232558
 30
0.0
 11
-180.304131510958
 21
451.0347244232558
 31
0.0
  0
LINE
  5
1FC
330
1F
100
AcDbEntity
  8
0
100
AcDbLine
 10
-180.304131510958
 20
451.0347244232558
 30
0.0
 11
-180.3041315109581
 21
328.9041413806922
 31
0.0
  0
LINE
  5
1FD
330
1F
100
AcDbEntity
  8
0
100
AcDbLine
 10
-51.30413151095808
 20
451.0347244232558
 30
0.0
 11
-51.30413151095809
 21
328.9041413806921
 31
0.0
  0
LINE
  5
1FE
102
{ACAD_REACTORS
330
4A8
102
}
330
1F
100
AcDbEntity
  8
0
100
AcDbLine
 10
-51.30413151095808
 20
328.9041413806921
 30
0.0
 11
-180.3041315109581
 21
328.9041413806922
 31
0.0
  0
LINE
  5
202
330
1F
100
AcDbEntity
  8
0
100
AcDbLine
 10
-162.5285619998033
 20
406.5738688503163
 30
0.0
 11
-162.5285619998033
 21
328.9041413806922
 31
0.0
  0
LINE
  5
203
330
1F
100
AcDbEntity
  8
0
100
AcDbLine
 10
-180.304131510958
 20
365.6211735532297
 30
0.0
 11
-171.532196954131
 21
359.6382058256349
 31
0.0
  0
LINE
  5
204
330
1F
100
AcDbEntity
  8
0
100
AcDbLine
 10
-171.532196954131
 20
359.6382058256349
 30
0.0
 11
-171.532196954131
 21
328.9041413806922
 31
0.0
  0
LINE
  5
205
102
{ACAD_REACTORS
330
4A8
102
}
330
1F
100
AcDbEntity
  8
0
100
AcDbLine
 10
-160.5285619998033
 20
401.4706059020739
 30
0.0
 11
-104.3041315109581
 21
401.4706059020739
 31
0.0
  0
LINE
  5
206
102
{ACAD_REACTORS
330
4A8
102
}
330
1F
100
AcDbEntity
  8
0
100
AcDbLine
 10
-160.5285619998033
 20
406.5738688503163
 30
0.0
 11
-160.5285619998032
 21
328.9041413806922
 31
0.0
  0
LINE
  5
208
330
1F
100
AcDbEntity
  8
0
100
AcDbLine
 10
-162.5285619998033
 20
406.5738688503163
 30
0.0
 11
-160.5285619998033
 21
406.5738688503163
 31
0.0
  0
LINE
  5
209
102
{ACAD_REACTORS
330
4A8
102
}
330
1F
100
AcDbEntity
  8
0
100
AcDbLine
 10
-71.07970102211293
 20
406.5738688503162
 30
0.0
 11
-71.07970102211303
 21
328.9041413806921
 31
0.0
  0
LINE
  5
20A
330
1F
100
AcDbEntity
  8
0
100
AcDbLine
 10
-69.07970102211293
 20
406.5738688503162
 30
0.0
 11
-69.07970102211301
 21
328.9041413806921
 31
0.0
  0
LINE
  5
20B
102
{ACAD_REACTORS
330
4A8
102
}
330
1F
100
AcDbEntity
  8
0
100
AcDbLine
 10
-71.07970102211293
 20
401.4706059020739
 30
0.0
 11
-104.3041315109581
 21
401.4706059020739
 31
0.0
  0
LINE
  5
20C
330
1F
100
AcDbEntity
  8
0
100
AcDbLine
 10
-69.07970102211293
 20
406.5738688503162
 30
0.0
 11
-71.07970102211293
 21
406.5738688503162
 31
0.0
  0
LINE
  5
20D
330
1F
100
AcDbEntity
  8
0
100
AcDbLine
 10
-51.30413151095821
 20
365.6211735532297
 30
0.0
 11
-60.07606606778525
 21
359.6382058256349
 31
0.0
  0
LINE
  5
20E
330
1F
100
AcDbEntity
  8
0
100
AcDbLine
 10
-60.07606606778525
 20
359.6382058256349
 30
0.0
 11
-60.07606606778527
 21
328.9041413806921
 31
0.0
  0
DIMENSION
  5
217
102
{ACAD_XDICTIONARY
360
224
102
}
102
{ACAD_REACTORS
330
22E
102
}
330
1F
100
AcDbEntity
  8
koty
100
AcDbDimension
  2
*D1
 10
-49.30413151095809
 20
72.15946490135195
 30
0.0
 11
-115.8041315109581
 21
88.40946490135195
 31
0.0
 70
    32
 71
     5
 42
133.0
  3
ISO-25
100
AcDbAlignedDimension
 13
-182.3041315109581
 23
192.0347244232558
 33
0.0
 14
-49.30413151095809
 24
120.0347244232558
 34
0.0
100
AcDbRotatedDimension
  0
DIMENSION
  5
24B
102
{ACAD_XDICTIONARY
360
25A
102
}
102
{ACAD_REACTORS
330
266
102
}
330
1F
100
AcDbEntity
  8
koty
100
AcDbDimension
  2
*D3
 10
-0.3041315109580911
 20
144.1594649013519
 30
0.0
 11
-24.80413151095809
 21
160.4094649013519
 31
0.0
 70
    32
 71
     5
 42
49.0
  3
ISO-25
100
AcDbAlignedDimension
 13
-49.30413151095809
 23
192.0347244232558
 33
0.0
 14
-0.3041315109580864
 24
221.0324193162036
 34
0.0
100
AcDbRotatedDimension
  0
LINE
  5
26B
330
1F
100
AcDbEntity
  8
0
100
AcDbLine
 10
-0.3041315109580935
 20
331.0347244232558
 30
0.0
 11
-0.3041315109580926
 21
221.0324193162036
 31
0.0
  0
DIMENSION
  5
26C
102
{ACAD_XDICTIONARY
360
279
102
}
102
{ACAD_REACTORS
330
283
102
}
330
1F
100
AcDbEntity
  8
koty
100
AcDbDimension
  2
*D4
 10
37.80875757122179
 20
336.0347244232558
 30
0.0
 11
21.55875757122173
 21
268.0347244232558
 31
0.0
 70
    32
 71
     5
 42
135.9999999999999
  3
ISO-25
100
AcDbAlignedDimension
 13
-9.51555349204068
 23
200.0347244232559
 33
0.0
 14
-5.304131510958093
 24
336.0347244232558
 34
0.0
 50
90.0
100
AcDbRotatedDimension
  0
DIMENSION
  5
284
102
{ACAD_XDICTIONARY
360
291
102
}
102
{ACAD_REACTORS
330
29B
102
}
330
1F
100
AcDbEntity
  8
koty
100
AcDbDimension
  2
*D5
 10
-226.1608005694788
 20
192.0347244232559
 30
0.0
 11
-242.4108005694789
 21
322.0347244232558
 31
0.0
 70
    32
 71
     5
 42
260.0
  3
ISO-25
100
AcDbAlignedDimension
 13
-182.3041315109581
 23
452.0347244232559
 33
0.0
 14
-182.3041315109581
 24
192.0347244232558
 34
0.0
 50
90.0
100
AcDbRotatedDimension
  0
DIMENSION
  5
29C
102
{ACAD_XDICTIONARY
360
2A9
102
}
102
{ACAD_REACTORS
330
2B3
102
}
330
1F
100
AcDbEntity
  8
koty
100
AcDbDimension
  2
*D6
 10
98.80438485593799
 20
-10.0410785971269
 30
0.0
 11
246.8042515013917
 21
6.208921402873102
 31
0.0
 70
    32
 71
     5
 42
295.9997332909074
  3
ISO-25
100
AcDbAlignedDimension
 13
394.8041181468454
 23
316.0347244232558
 33
0.0
 14
98.80438485593799
 24
285.7430374695446
 34
0.0
100
AcDbRotatedDimension
  0
DIMENSION
  5
2BD
102
{ACAD_XDICTIONARY
360
2CA
102
}
102
{ACAD_REACTORS
330
2D4
102
}
330
1F
100
AcDbEntity
  8
koty
100
AcDbDimension
  2
*D7
 10
394.8041181468454
 20
43.20840397850952
 30
0.0
 11
320.8650433176105
 21
43.20840397850952
 31
0.0
 70
   160
 71
     5
 42
132.9999999999999
  3
ISO-25
100
AcDbAlignedDimension
 13
261.8041181468455
 23
288.0347244232559
 33
0.0
 14
394.8041181468454
 24
316.0347244232558
 34
0.0
100
AcDbRotatedDimension
  0
DIMENSION
  5
2D5
102
{ACAD_XDICTIONARY
360
2E2
102
}
102
{ACAD_REACTORS
330
2EC
102
}
330
1F
100
AcDbEntity
  8
koty
100
AcDbDimension
  2
*D8
 10
455.3845600975425
 20
452.0347244232558
 30
0.0
 11
439.1345600975425
 21
384.034724423256
 31
0.0
 70
    32
 71
     5
 42
136.0
  3
ISO-25
100
AcDbAlignedDimension
 13
394.8041181468454
 23
316.0347244232558
 33
0.0
 14
394.8041181468454
 24
452.0347244232558
 34
0.0
 50
90.0
100
AcDbRotatedDimension
  0
TEXT
  5
2ED
330
1F
100
AcDbEntity
  8
popis
100
AcDbText
 10
-200.6280853620515
 20
531.5801137182843
 30
0.0
 40
10.0
  1
CBM/4 180/092 160W - speciállní radiální ventilátor s asynchronním motorem
100
AcDbText
  0
LINE
  5
314
330
1F
100
AcDbEntity
  8
V0-VYPLNE
100
AcDbLine
 10
261.8041181468455
 20
512.8808410311943
 30
0.0
 11
261.8041181468455
 21
-12.81139218468263
 31
0.0
  0
LINE
  5
315
330
1F
100
AcDbEntity
  8
V0-VYPLNE
100
AcDbLine
 10
567.4683297397629
 20
288.0347244232559
 30
0.0
 11
-323.1425508287625
 21
285.5098852110796
 31
0.0
  0
LINE
  5
316
330
1F
100
AcDbEntity
  8
V0-VYPLNE
100
AcDbLine
 10
-115.8041315109581
 20
633.0033422903523
 30
0.0
 11
-115.8041315109581
 21
-60.80798288156384
 31
0.0
  0
LINE
  5
39E
102
{ACAD_REACTORS
330
3F9
102
}
330
1F
100
AcDbEntity
  8
0
100
AcDbLine
 10
262.3041181468475
 20
120.0347244232559
 30
0.0
 11
261.3041490890714
 21
120.0268578169561
 31
0.0
  0
LINE
  5
3A9
330
1F
100
AcDbEntity
  8
0
100
AcDbLine
 10
394.8041181468454
 20
452.0347244232558
 30
0.0
 11
261.208919631426
 21
452.0347244232558
 31
0.0
  0
LINE
  5
3AA
330
1F
100
AcDbEntity
  8
0
100
AcDbLine
 10
394.8041181468454
 20
452.0347244232558
 30
0.0
 11
394.8041181468454
 21
316.0347244232558
 31
0.0
  0
ARC
  5
3D6
330
1F
100
AcDbEntity
  8
0
100
AcDbCircle
 10
264.8378076502966
 20
286.0406966465242
 30
0.0
 40
166.0336896108614
100
AcDbArc
 50
91.25237550118724
 51
268.9530601998425
  0
ARC
  5
3D8
330
1F
100
AcDbEntity
  8
0
100
AcDbCircle
 10
264.839885803174
 20
286.0329428129828
 30
0.0
 40
161.0357618991365
100
AcDbArc
 50
91.29199046461421
 51
268.9198239189749
  0
DIMENSION
  5
3E2
102
{ACAD_XDICTIONARY
360
3EF
102
}
102
{ACAD_REACTORS
330
3F9
102
}
330
1F
100
AcDbEntity
  8
koty
100
AcDbDimension
  2
*D12
 10
503.372816355357
 20
120.0347244232558
 30
0.0
 11
491.8708478514201
 21
286.0347244232559
 31
0.0
 70
    32
 71
     5
 42
332.0
  3
ED20
100
AcDbAlignedDimension
 13
394.8041181468454
 23
452.0347244232558
 33
0.0
 14
262.3041181468475
 24
120.0347244232559
 34
0.0
 50
90.0
100
AcDbRotatedDimension
1001
ACAD
1000
DSTYLE
1002
{
1070
    40
1040
1.0
1002
}
  0
ARC
  5
490
330
1F
100
AcDbEntity
  8
0
100
AcDbCircle
 10
236.5057699836996
 20
261.1908825274598
 30
0.0
 40
143.3256483631643
100
AcDbArc
 50
279.9635260918432
 51
22.49804891356135
  0
ARC
  5
498
330
1F
100
AcDbEntity
  8
0
100
AcDbCircle
 10
234.765933885719
 20
262.0182477885442
 30
0.0
 40
139.6352202882025
100
AcDbArc
 50
281.1649609803999
 51
22.06911977528315
  0
HATCH
  5
4A8
330
1F
100
AcDbEntity
  8
0
100
AcDbHatch
 10
0.0
 20
0.0
 30
0.0
210
0.0
220
0.0
230
1.0
  2
ANSI31
 70
     0
 71
     1
 91
        1
 92
        7
 72
     0
 73
     1
 93
        5
 10
-71.07970102211293
 20
401.4706059020738
 10
-104.3041315109581
 20
401.4706059020739
 10
-160.5285619998033
 20
401.4706059020741
 10
-160.5285619998032
 20
328.9041413806921
 10
-71.07970102211301
 20
328.9041413806921
 97
        5
330
20B
330
205
330
206
330
1FE
330
209
 75
     0
 76
     1
 52
315.0
 41
3.0
 77
     0
 78
     1
 53
0.0
 43
0.0
 44
0.0
 45
0.0000000000000036
 46
9.524999999999998
 79
     0
 47
1.591840016201976
 98
        1
 10
-136.4793258810041
 20
366.1260722736299
1001
ACAD
1010
0.0
1020
0.0
1030
0.0
  0
ENDSEC
  0
SECTION
  2
OBJECTS
  0
DICTIONARY
  5
C
330
0
100
AcDbDictionary
281
     1
  3
ACAD_COLOR
350
2F2
  3
ACAD_GROUP
350
D
  3
ACAD_LAYOUT
350
1A
  3
ACAD_MATERIAL
350
2F1
  3
ACAD_MLINESTYLE
350
17
  3
ACAD_PLOTSETTINGS
350
19
  3
ACAD_PLOTSTYLENAME
350
E
  3
ACAD_TABLESTYLE
350
2F3
  3
ACDBHEADERROUNDTRIPXREC
350
4BC
  3
AcDbVariableDictionary
350
2E
  0
DICTIONARY
  5
34E
330
1F
100
AcDbDictionary
280
     1
281
     1
  3
ACAD_SORTENTS
360
34F
  0
DICTIONARY
  5
494
330
492
100
AcDbDictionary
280
     1
281
     1
  3
ACAD_SORTENTS
360
495
  0
DICTIONARY
  5
224
330
217
100
AcDbDictionary
280
     1
281
     1
  3
ACAD_DIMASSOC
360
22E
  0
DICTIONARY
  5
25A
330
24B
100
AcDbDictionary
280
     1
281
     1
  3
ACAD_DIMASSOC
360
266
  0
DICTIONARY
  5
279
330
26C
100
AcDbDictionary
280
     1
281
     1
  3
ACAD_DIMASSOC
360
283
  0
DICTIONARY
  5
291
330
284
100
AcDbDictionary
280
     1
281
     1
  3
ACAD_DIMASSOC
360
29B
  0
DICTIONARY
  5
2A9
330
29C
100
AcDbDictionary
280
     1
281
     1
  3
ACAD_DIMASSOC
360
2B3
  0
DICTIONARY
  5
2CA
330
2BD
100
AcDbDictionary
280
     1
281
     1
  3
ACAD_DIMASSOC
360
2D4
  0
DICTIONARY
  5
2E2
330
2D5
100
AcDbDictionary
280
     1
281
     1
  3
ACAD_DIMASSOC
360
2EC
  0
DICTIONARY
  5
3EF
330
3E2
100
AcDbDictionary
280
     1
281
     1
  3
ACAD_DIMASSOC
360
3F9
  0
DICTIONARY
  5
2F2
102
{ACAD_REACTORS
330
C
102
}
330
C
100
AcDbDictionary
281
     1
  0
DICTIONARY
  5
D
102
{ACAD_REACTORS
330
C
102
}
330
C
100
AcDbDictionary
281
     1
  0
DICTIONARY
  5
1A
102
{ACAD_REACTORS
330
C
102
}
330
C
100
AcDbDictionary
281
     1
  3
Model
350
22
  3
Rozvržení1
350
1E
  3
Rozvržení2
350
26
  0
DICTIONARY
  5
2F1
102
{ACAD_REACTORS
330
C
102
}
330
C
100
AcDbDictionary
281
     1
  0
DICTIONARY
  5
17
102
{ACAD_REACTORS
330
C
102
}
330
C
100
AcDbDictionary
281
     1
  3
Standard
350
18
  0
DICTIONARY
  5
19
102
{ACAD_REACTORS
330
C
102
}
330
C
100
AcDbDictionary
281
     1
  0
ACDBDICTIONARYWDFLT
  5
E
102
{ACAD_REACTORS
330
C
102
}
330
C
100
AcDbDictionary
281
     1
  3
Normal
350
F
100
AcDbDictionaryWithDefault
340
F
  0
DICTIONARY
  5
2F3
102
{ACAD_REACTORS
330
C
102
}
330
C
100
AcDbDictionary
281
     1
  3
Standard
350
2F4
  0
DICTIONARY
  5
4BC
102
{ACAD_REACTORS
330
C
102
}
330
C
100
AcDbDictionary
281
     1
  0
DICTIONARY
  5
2E
102
{ACAD_REACTORS
330
C
102
}
330
C
100
AcDbDictionary
281
     1
  3
CTABLESTYLE
350
35A
  3
DIMASSOC
350
30
  3
HIDETEXT
350
2F
  3
PROJECTNAME
350
4B2
  0
SORTENTSTABLE
  5
34F
102
{ACAD_REACTORS
330
34E
102
}
330
34E
100
AcDbSortentsTable
330
1F
331
2BD
  5
2ED
331
20A
  5
20C
331
1C6
  5
1C6
331
1F9
  5
1F9
331
1BF
  5
1BF
331
186
  5
186
331
490
  5
499
331
2ED
  5
315
331
208
  5
20A
331
1C4
  5
1C4
331
184
  5
184
331
1F7
  5
1F7
331
1D5
  5
1D5
331
1BD
  5
1BD
331
173
  5
173
331
4A8
  5
202
331
26C
  5
29C
331
206
  5
209
331
1C2
  5
1C2
331
39E
  5
3A9
331
217
  5
26B
331
1F5
  5
1F5
331
1D3
  5
1D3
331
1BB
  5
1BB
331
182
  5
182
331
204
  5
206
331
1F3
  5
1F3
331
1D1
  5
1D1
331
1C0
  5
1C0
331
202
  5
204
331
1CF
  5
1CF
331
3A9
  5
3AA
331
1EF
  5
1EF
331
1DE
  5
1DE
331
1CD
  5
1CD
331
18D
  5
18D
331
316
  5
39E
331
24B
  5
26C
331
1FE
  5
203
331
1DC
  5
1DC
331
1CB
  5
1CB
331
284
  5
2BD
331
3E2
  5
490
331
314
  5
316
331
20D
  5
217
331
1C9
  5
1C9
331
189
  5
189
331
1FC
  5
1FC
331
178
  5
178
331
20B
  5
20D
331
1E9
  5
1E9
331
1C7
  5
1C7
331
187
  5
187
331
1FA
  5
1FA
331
1D8
  5
1D8
331
209
  5
20B
331
1C5
  5
1C5
331
185
  5
185
331
2D5
  5
314
331
1F8
  5
1F8
331
1BE
  5
1BE
331
174
  5
174
331
1E5
  5
1E5
331
1C3
  5
1C3
331
1F6
  5
1F6
331
1D4
  5
1D4
331
1BC
  5
1BC
331
183
  5
183
331
26B
  5
284
331
205
  5
208
331
1D2
  5
1D2
331
1C1
  5
1C1
331
181
  5
181
331
3D8
  5
3E2
331
203
  5
205
331
29C
  5
2D5
331
1F2
  5
1F2
331
1D0
  5
1D0
331
3AA
  5
3D6
331
3D6
  5
3D8
331
1F0
  5
1F0
331
1CE
  5
1CE
331
498
  5
49B
331
1DD
  5
1DD
331
1CC
  5
1CC
331
18C
  5
18C
331
315
  5
33D
331
20E
  5
24B
331
1CA
  5
1CA
331
1FD
  5
1FD
331
20C
  5
20E
331
1C8
  5
1C8
331
188
  5
188
331
1FB
  5
1FB
331
1D9
  5
1D9
  0
SORTENTSTABLE
  5
495
102
{ACAD_REACTORS
330
494
102
}
330
494
100
AcDbSortentsTable
330
492
  0
DIMASSOC
  5
22E
102
{ACAD_REACTORS
330
224
102
}
330
224
100
AcDbDimAssoc
330
217
 90
        3
 70
     0
 71
     0
  1
AcDbOsnapPointRef
 72
     1
331
1DE
 73
     2
 91
        0
 40
1.0
 10
-159.3041315109581
 20
120.0347244232558
 30
0.0
 75
     0
  1
AcDbOsnapPointRef
 72
     6
331
1DC
 73
     2
 91
        0
 40
1.0
 10
-49.30413151095809
 20
120.0347244232558
 30
0.0
332
1D8
 74
     2
 92
        0
 75
     0
  0
DIMASSOC
  5
266
102
{ACAD_REACTORS
330
25A
102
}
330
25A
100
AcDbDimAssoc
330
24B
 90
        1
 70
     0
 71
     0
  1
AcDbOsnapPointRef
 72
     1
331
1DC
 73
     2
 91
        0
 40
1.0
 10
-49.30413151095809
 20
120.0347244232558
 30
0.0
 75
     0
  0
DIMASSOC
  5
283
102
{ACAD_REACTORS
330
279
102
}
330
279
100
AcDbDimAssoc
330
26C
 90
        3
 70
     0
 71
     0
  1
AcDbOsnapPointRef
 72
    13
331
1F8
 73
     2
 91
        0
 40
0.0
 10
-9.51555349204068
 20
200.0347244232559
 30
0.0
 75
     0
  1
AcDbOsnapPointRef
 72
     6
331
1D9
 73
     2
 91
        0
 40
0.0
 10
-5.30413151095808
 20
300.0347244232558
 30
0.0
332
1F0
 74
     2
 92
        0
 75
     0
  0
DIMASSOC
  5
29B
102
{ACAD_REACTORS
330
291
102
}
330
291
100
AcDbDimAssoc
330
284
 90
        3
 70
     0
 71
     0
  1
AcDbOsnapPointRef
 72
     1
331
1D5
 73
     2
 91
        0
 40
1.0
 10
-159.3041315109581
 20
380.0347244232559
 30
0.0
 75
     0
  1
AcDbOsnapPointRef
 72
     1
331
1DE
 73
     2
 91
        0
 40
1.0
 10
-159.3041315109581
 20
120.0347244232558
 30
0.0
 75
     0
  0
DIMASSOC
  5
2B3
102
{ACAD_REACTORS
330
2A9
102
}
330
2A9
100
AcDbDimAssoc
330
29C
 90
        1
 70
     0
 71
     0
  1
AcDbOsnapPointRef
 72
    13
331
178
 73
     2
 91
        0
 40
0.0
 10
394.8041181468454
 20
258.0347244232559
 30
0.0
 75
     0
  0
DIMASSOC
  5
2D4
102
{ACAD_REACTORS
330
2CA
102
}
330
2CA
100
AcDbDimAssoc
330
2BD
 90
        3
 70
     0
 71
     0
  1
AcDbOsnapPointRef
 72
     3
331
189
 73
     2
 91
        0
 40
0.0
 10
249.8041181468455
 20
250.0347244232559
 30
0.0
 75
     0
  1
AcDbOsnapPointRef
 72
    13
331
178
 73
     2
 91
        0
 40
0.0
 10
394.8041181468454
 20
258.0347244232559
 30
0.0
 75
     0
  0
DIMASSOC
  5
2EC
102
{ACAD_REACTORS
330
2E2
102
}
330
2E2
100
AcDbDimAssoc
330
2D5
 90
        3
 70
     0
 71
     0
  1
AcDbOsnapPointRef
 72
    13
331
178
 73
     2
 91
        0
 40
0.0
 10
394.8041181468454
 20
258.0347244232559
 30
0.0
 75
     0
  1
AcDbOsnapPointRef
 72
     1
331
178
 73
     2
 91
        0
 40
1.0
 10
394.8041181468454
 20
380.0347244232558
 30
0.0
 75
     0
  0
DIMASSOC
  5
3F9
102
{ACAD_REACTORS
330
3EF
102
}
330
3EF
100
AcDbDimAssoc
330
3E2
 90
        2
 70
     0
 71
     0
  1
AcDbOsnapPointRef
 72
    13
331
39E
 73
     2
 91
        0
 40
0.0
 10
0.0
 20
0.0
 30
2.000000000000000E+50
 75
     0
  0
LAYOUT
  5
22
102
{ACAD_XDICTIONARY
360
4BF
102
}
102
{ACAD_REACTORS
330
1A
102
}
330
1A
100
AcDbPlotSettings
  1

  2
D:\AutoCAD 2002Cz\plotters\PublishToWeb DWF.pc3
  4

  6

 40
0.0
 41
0.0
 42
0.0
 43
0.0
 44
0.0
 45
0.0
 46
0.0
 47
0.0
 48
0.0
 49
0.0
140
0.0
141
0.0
142
1.0
143
1.0
 70
  1712
 72
     0
 73
     0
 74
     0
  7

 75
     0
147
1.0
148
0.0
149
0.0
100
AcDbLayout
  1
Model
 70
     1
 71
     0
 10
0.0
 20
0.0
 11
12.0
 21
9.0
 12
0.0
 22
0.0
 32
0.0
 14
0.0
 24
0.0
 34
0.0
 15
0.0
 25
0.0
 35
0.0
146
0.0
 13
0.0
 23
0.0
 33
0.0
 16
1.0
 26
0.0
 36
0.0
 17
0.0
 27
1.0
 37
0.0
 76
     0
330
1F
  0
LAYOUT
  5
1E
102
{ACAD_XDICTIONARY
360
4BD
102
}
102
{ACAD_REACTORS
330
1A
102
}
330
1A
100
AcDbPlotSettings
  1

  2
D:\AutoCAD 2002Cz\plotters\PublishToWeb DWF.pc3
  4

  6

 40
0.0
 41
0.0
 42
0.0
 43
0.0
 44
0.0
 45
0.0
 46
0.0
 47
0.0
 48
0.0
 49
0.0
140
0.0
141
0.0
142
1.0
143
1.0
 70
   688
 72
     0
 73
     0
 74
     5
  7

 75
    16
147
1.0
148
0.0
149
0.0
100
AcDbLayout
  1
Rozvržení1
 70
     1
 71
     1
 10
0.0
 20
0.0
 11
420.0
 21
297.0
 12
0.0
 22
0.0
 32
0.0
 14
1.000000000000000E+20
 24
1.000000000000000E+20
 34
1.000000000000000E+20
 15
-1.000000000000000E+20
 25
-1.000000000000000E+20
 35
-1.000000000000000E+20
146
0.0
 13
0.0
 23
0.0
 33
0.0
 16
1.0
 26
0.0
 36
0.0
 17
0.0
 27
1.0
 37
0.0
 76
     0
330
1B
  0
LAYOUT
  5
26
102
{ACAD_XDICTIONARY
360
4C1
102
}
102
{ACAD_REACTORS
330
1A
102
}
330
1A
100
AcDbPlotSettings
  1

  2
D:\AutoCAD 2002Cz\plotters\PublishToWeb DWF.pc3
  4

  6

 40
0.0
 41
0.0
 42
0.0
 43
0.0
 44
0.0
 45
0.0
 46
0.0
 47
0.0
 48
0.0
 49
0.0
140
0.0
141
0.0
142
1.0
143
1.0
 70
   688
 72
     0
 73
     0
 74
     5
  7

 75
    16
147
1.0
148
0.0
149
0.0
100
AcDbLayout
  1
Rozvržení2
 70
     1
 71
     2
 10
0.0
 20
0.0
 11
12.0
 21
9.0
 12
0.0
 22
0.0
 32
0.0
 14
0.0
 24
0.0
 34
0.0
 15
0.0
 25
0.0
 35
0.0
146
0.0
 13
0.0
 23
0.0
 33
0.0
 16
1.0
 26
0.0
 36
0.0
 17
0.0
 27
1.0
 37
0.0
 76
     0
330
23
  0
MLINESTYLE
  5
18
102
{ACAD_REACTORS
330
17
102
}
330
17
100
AcDbMlineStyle
  2
STANDARD
 70
     0
  3

 62
   256
 51
90.0
 52
90.0
 71
     2
 49
0.5
 62
   256
  6
BYLAYER
 49
-0.5
 62
   256
  6
BYLAYER
  0
ACDBPLACEHOLDER
  5
F
102
{ACAD_REACTORS
330
E
102
}
330
E
  0
TABLESTYLE
  5
2F4
102
{ACAD_REACTORS
330
2F3
102
}
330
2F3
100
AcDbTableStyle
  3
Standard
 70
     0
 71
     0
 40
1.5
 41
1.5
280
     0
281
     0
  7
Standard
140
4.5
170
     2
 62
     0
 63
     7
283
     0
274
    -2
284
     1
 64
     0
275
    -2
285
     1
 65
     0
276
    -2
286
     1
 66
     0
277
    -2
287
     1
 67
     0
278
    -2
288
     1
 68
     0
279
    -2
289
     1
 69
     0
  7
Standard
140
6.0
170
     5
 62
     0
 63
     7
283
     0
274
    -2
284
     1
 64
     0
275
    -2
285
     1
 65
     0
276
    -2
286
     1
 66
     0
277
    -2
287
     1
 67
     0
278
    -2
288
     1
 68
     0
279
    -2
289
     1
 69
     0
  7
Standard
140
4.5
170
     5
 62
     0
 63
     7
283
     0
274
    -2
284
     1
 64
     0
275
    -2
285
     1
 65
     0
276
    -2
286
     1
 66
     0
277
    -2
287
     1
 67
     0
278
    -2
288
     1
 68
     0
279
    -2
289
     1
 69
     0
  0
DICTIONARYVAR
  5
35A
102
{ACAD_REACTORS
330
2E
102
}
330
2E
100
DictionaryVariables
280
     0
  1
STANDARD
  0
DICTIONARYVAR
  5
30
102
{ACAD_REACTORS
330
2E
102
}
330
2E
100
DictionaryVariables
280
     0
  1
2
  0
DICTIONARYVAR
  5
2F
102
{ACAD_REACTORS
330
2E
102
}
330
2E
100
DictionaryVariables
280
     0
  1
1
  0
DICTIONARYVAR
  5
4B2
102
{ACAD_REACTORS
330
2E
102
}
330
2E
100
DictionaryVariables
280
     0
  1

  0
DICTIONARY
  5
4BF
330
22
100
AcDbDictionary
280
     1
281
     1
  3
ACAD_XREC_ROUNDTRIP
360
4C0
  0
DICTIONARY
  5
4BD
330
1E
100
AcDbDictionary
280
     1
281
     1
  3
ACAD_XREC_ROUNDTRIP
360
4BE
  0
DICTIONARY
  5
4C1
330
26
100
AcDbDictionary
280
     1
281
     1
  3
ACAD_XREC_ROUNDTRIP
360
4C2
  0
XRECORD
  5
4C0
102
{ACAD_REACTORS
330
4BF
102
}
330
4BF
100
AcDbXrecord
280
     1
102
SHADEPLOT
 70
     0
102
SHADEPLOTRESLEVEL
 70
     2
102
SHADEPLOTCUSTOMDPI
 70
   300
  0
XRECORD
  5
4BE
102
{ACAD_REACTORS
330
4BD
102
}
330
4BD
100
AcDbXrecord
280
     1
102
SHADEPLOT
 70
     0
102
SHADEPLOTRESLEVEL
 70
     2
102
SHADEPLOTCUSTOMDPI
 70
   300
  0
XRECORD
  5
4C2
102
{ACAD_REACTORS
330
4C1
102
}
330
4C1
100
AcDbXrecord
280
     1
102
SHADEPLOT
 70
     0
102
SHADEPLOTRESLEVEL
 70
     2
102
SHADEPLOTCUSTOMDPI
 70
   300
  0
ENDSEC
  0
EOF
