  0
SECTION
  2
HEADER
  9
$ACADVER
  1
AC1015
  9
$ACADMAINTVER
 70
    13
  9
$DWGCODEPAGE
  3
ANSI_1252
  9
$INSBASE
 10
0.0
 20
0.0
 30
0.0
  9
$EXTMIN
 10
-231.3654787779589
 20
-105.5013119921875
 30
0.0
  9
$EXTMAX
 10
440.3011878887078
 20
315.5559190128476
 30
0.0
  9
$LIMMIN
 10
0.0
 20
0.0
  9
$LIMMAX
 10
420.0
 20
297.0
  9
$ORTHOMODE
 70
     0
  9
$REGENMODE
 70
     1
  9
$FILLMODE
 70
     1
  9
$QTEXTMODE
 70
     0
  9
$MIRRTEXT
 70
     1
  9
$LTSCALE
 40
1.0
  9
$ATTMODE
 70
     1
  9
$TEXTSIZE
 40
20.0
  9
$TRACEWID
 40
1.0
  9
$TEXTSTYLE
  7
Standard
  9
$CLAYER
  8
popis
  9
$CELTYPE
  6
ByLayer
  9
$CECOLOR
 62
   256
  9
$CELTSCALE
 40
1.0
  9
$DISPSILH
 70
     0
  9
$DIMSCALE
 40
10.0
  9
$DIMASZ
 40
2.0
  9
$DIMEXO
 40
0.625
  9
$DIMDLI
 40
3.75
  9
$DIMRND
 40
0.0
  9
$DIMDLE
 40
0.0
  9
$DIMEXE
 40
1.25
  9
$DIMTP
 40
0.0
  9
$DIMTM
 40
0.0
  9
$DIMTXT
 40
2.0
  9
$DIMCEN
 40
2.5
  9
$DIMTSZ
 40
0.0
  9
$DIMTOL
 70
     0
  9
$DIMLIM
 70
     0
  9
$DIMTIH
 70
     0
  9
$DIMTOH
 70
     0
  9
$DIMSE1
 70
     0
  9
$DIMSE2
 70
     0
  9
$DIMTAD
 70
     1
  9
$DIMZIN
 70
     8
  9
$DIMBLK
  1

  9
$DIMASO
 70
     1
  9
$DIMSHO
 70
     1
  9
$DIMPOST
  1

  9
$DIMAPOST
  1

  9
$DIMALT
 70
     0
  9
$DIMALTD
 70
     3
  9
$DIMALTF
 40
0.03937007874016
  9
$DIMLFAC
 40
1.0
  9
$DIMTOFL
 70
     1
  9
$DIMTVP
 40
0.0
  9
$DIMTIX
 70
     0
  9
$DIMSOXD
 70
     0
  9
$DIMSAH
 70
     0
  9
$DIMBLK1
  1

  9
$DIMBLK2
  1

  9
$DIMSTYLE
  2
ISO-25
  9
$DIMCLRD
 70
     0
  9
$DIMCLRE
 70
     0
  9
$DIMCLRT
 70
     0
  9
$DIMTFAC
 40
1.0
  9
$DIMGAP
 40
0.625
  9
$DIMJUST
 70
     0
  9
$DIMSD1
 70
     0
  9
$DIMSD2
 70
     0
  9
$DIMTOLJ
 70
     0
  9
$DIMTZIN
 70
     8
  9
$DIMALTZ
 70
     0
  9
$DIMALTTZ
 70
     0
  9
$DIMUPT
 70
     0
  9
$DIMDEC
 70
     2
  9
$DIMTDEC
 70
     2
  9
$DIMALTU
 70
     2
  9
$DIMALTTD
 70
     3
  9
$DIMTXSTY
  7
Standard
  9
$DIMAUNIT
 70
     0
  9
$DIMADEC
 70
     0
  9
$DIMALTRND
 40
0.0
  9
$DIMAZIN
 70
     0
  9
$DIMDSEP
 70
    44
  9
$DIMATFIT
 70
     3
  9
$DIMFRAC
 70
     0
  9
$DIMLDRBLK
  1

  9
$DIMLUNIT
 70
     2
  9
$DIMLWD
 70
    -2
  9
$DIMLWE
 70
    -2
  9
$DIMTMOVE
 70
     0
  9
$LUNITS
 70
     2
  9
$LUPREC
 70
     4
  9
$SKETCHINC
 40
1.0
  9
$FILLETRAD
 40
10.0
  9
$AUNITS
 70
     0
  9
$AUPREC
 70
     0
  9
$MENU
  1
.
  9
$ELEVATION
 40
0.0
  9
$PELEVATION
 40
0.0
  9
$THICKNESS
 40
0.0
  9
$LIMCHECK
 70
     0
  9
$CHAMFERA
 40
10.0
  9
$CHAMFERB
 40
10.0
  9
$CHAMFERC
 40
20.0
  9
$CHAMFERD
 40
0.0
  9
$SKPOLY
 70
     0
  9
$TDCREATE
 40
2453639.692351574
  9
$TDUCREATE
 40
2453639.650684907
  9
$TDUPDATE
 40
2453685.608296250
  9
$TDUUPDATE
 40
2453685.566629583
  9
$TDINDWG
 40
0.0987419560
  9
$TDUSRTIMER
 40
0.0987413773
  9
$USRTIMER
 70
     1
  9
$ANGBASE
 50
0.0
  9
$ANGDIR
 70
     0
  9
$PDMODE
 70
     0
  9
$PDSIZE
 40
0.0
  9
$PLINEWID
 40
0.0
  9
$SPLFRAME
 70
     0
  9
$SPLINETYPE
 70
     6
  9
$SPLINESEGS
 70
     8
  9
$HANDSEED
  5
255
  9
$SURFTAB1
 70
     6
  9
$SURFTAB2
 70
     6
  9
$SURFTYPE
 70
     6
  9
$SURFU
 70
     6
  9
$SURFV
 70
     6
  9
$UCSBASE
  2

  9
$UCSNAME
  2

  9
$UCSORG
 10
0.0
 20
0.0
 30
0.0
  9
$UCSXDIR
 10
1.0
 20
0.0
 30
0.0
  9
$UCSYDIR
 10
0.0
 20
1.0
 30
0.0
  9
$UCSORTHOREF
  2

  9
$UCSORTHOVIEW
 70
     1
  9
$UCSORGTOP
 10
0.0
 20
0.0
 30
0.0
  9
$UCSORGBOTTOM
 10
0.0
 20
0.0
 30
0.0
  9
$UCSORGLEFT
 10
0.0
 20
0.0
 30
0.0
  9
$UCSORGRIGHT
 10
0.0
 20
0.0
 30
0.0
  9
$UCSORGFRONT
 10
0.0
 20
0.0
 30
0.0
  9
$UCSORGBACK
 10
0.0
 20
0.0
 30
0.0
  9
$PUCSBASE
  2

  9
$PUCSNAME
  2

  9
$PUCSORG
 10
0.0
 20
0.0
 30
0.0
  9
$PUCSXDIR
 10
1.0
 20
0.0
 30
0.0
  9
$PUCSYDIR
 10
0.0
 20
1.0
 30
0.0
  9
$PUCSORTHOREF
  2

  9
$PUCSORTHOVIEW
 70
     0
  9
$PUCSORGTOP
 10
0.0
 20
0.0
 30
0.0
  9
$PUCSORGBOTTOM
 10
0.0
 20
0.0
 30
0.0
  9
$PUCSORGLEFT
 10
0.0
 20
0.0
 30
0.0
  9
$PUCSORGRIGHT
 10
0.0
 20
0.0
 30
0.0
  9
$PUCSORGFRONT
 10
0.0
 20
0.0
 30
0.0
  9
$PUCSORGBACK
 10
0.0
 20
0.0
 30
0.0
  9
$USERI1
 70
     0
  9
$USERI2
 70
     0
  9
$USERI3
 70
     0
  9
$USERI4
 70
     0
  9
$USERI5
 70
     0
  9
$USERR1
 40
0.0
  9
$USERR2
 40
0.0
  9
$USERR3
 40
0.0
  9
$USERR4
 40
0.0
  9
$USERR5
 40
0.0
  9
$WORLDVIEW
 70
     1
  9
$SHADEDGE
 70
     3
  9
$SHADEDIF
 70
    70
  9
$TILEMODE
 70
     1
  9
$MAXACTVP
 70
    64
  9
$PINSBASE
 10
0.0
 20
0.0
 30
0.0
  9
$PLIMCHECK
 70
     0
  9
$PEXTMIN
 10
1.000000000000000E+20
 20
1.000000000000000E+20
 30
1.000000000000000E+20
  9
$PEXTMAX
 10
-1.000000000000000E+20
 20
-1.000000000000000E+20
 30
-1.000000000000000E+20
  9
$PLIMMIN
 10
0.0
 20
0.0
  9
$PLIMMAX
 10
420.0
 20
297.0
  9
$UNITMODE
 70
     0
  9
$VISRETAIN
 70
     1
  9
$PLINEGEN
 70
     0
  9
$PSLTSCALE
 70
     1
  9
$TREEDEPTH
 70
  3020
  9
$CMLSTYLE
  2
Standard
  9
$CMLJUST
 70
     0
  9
$CMLSCALE
 40
20.0
  9
$PROXYGRAPHICS
 70
     1
  9
$MEASUREMENT
 70
     1
  9
$CELWEIGHT
370
    -1
  9
$ENDCAPS
280
     0
  9
$JOINSTYLE
280
     0
  9
$LWDISPLAY
290
     0
  9
$INSUNITS
 70
     4
  9
$HYPERLINKBASE
  1

  9
$STYLESHEET
  1

  9
$XEDIT
290
     1
  9
$CEPSNTYPE
380
     0
  9
$PSTYLEMODE
290
     1
  9
$FINGERPRINTGUID
  2
{9B47308E-04D6-42FB-BD32-F27AC533D1CD}
  9
$VERSIONGUID
  2
{7CE67412-C457-4BCF-830A-BE99A4E25E29}
  9
$EXTNAMES
290
     1
  9
$PSVPSCALE
 40
0.0
  9
$OLESTARTUP
290
     0
  0
ENDSEC
  0
SECTION
  2
CLASSES
  0
CLASS
  1
ACDBDICTIONARYWDFLT
  2
AcDbDictionaryWithDefault
  3
AutoCAD 2000
 90
        0
280
     0
281
     0
  0
CLASS
  1
ACDBPLACEHOLDER
  2
AcDbPlaceHolder
  3
AutoCAD 2000
 90
        0
280
     0
281
     0
  0
CLASS
  1
LAYOUT
  2
AcDbLayout
  3
AutoCAD 2000
 90
        0
280
     0
281
     0
  0
CLASS
  1
DICTIONARYVAR
  2
AcDbDictionaryVar
  3
AutoCAD 2000
 90
        0
280
     0
281
     0
  0
CLASS
  1
DIMASSOC
  2
AcDbDimAssoc
  3
"AcDbDimAssoc|Product Desc:     AcDim ARX App For Dimension|Company:          Autodesk, Inc.|WEB Address:      www.autodesk.com"
 90
        0
280
     0
281
     0
  0
ENDSEC
  0
SECTION
  2
TABLES
  0
TABLE
  2
VPORT
  5
8
330
0
100
AcDbSymbolTable
 70
     5
  0
VPORT
  5
254
330
8
100
AcDbSymbolTableRecord
100
AcDbViewportTableRecord
  2
*Active
 70
     0
 10
0.0
 20
0.0
 11
1.0
 21
1.0
 12
104.4678545553743
 22
105.02730351033
 13
0.0
 23
0.0
 14
10.0
 24
10.0
 15
10.0
 25
10.0
 16
0.0
 26
0.0
 36
1.0
 17
0.0
 27
0.0
 37
0.0
 40
426.0108454874474
 41
1.862475442043222
 42
50.0
 43
0.0
 44
0.0
 50
0.0
 51
0.0
 71
     0
 72
   100
 73
     1
 74
     3
 75
     0
 76
     0
 77
     0
 78
     0
281
     0
 65
     1
110
0.0
120
0.0
130
0.0
111
1.0
121
0.0
131
0.0
112
0.0
122
1.0
132
0.0
 79
     1
146
0.0
  0
ENDTAB
  0
TABLE
  2
LTYPE
  5
5
330
0
100
AcDbSymbolTable
 70
     3
  0
LTYPE
  5
14
330
5
100
AcDbSymbolTableRecord
100
AcDbLinetypeTableRecord
  2
ByBlock
 70
     0
  3

 72
    65
 73
     0
 40
0.0
  0
LTYPE
  5
15
330
5
100
AcDbSymbolTableRecord
100
AcDbLinetypeTableRecord
  2
ByLayer
 70
     0
  3

 72
    65
 73
     0
 40
0.0
  0
LTYPE
  5
16
330
5
100
AcDbSymbolTableRecord
100
AcDbLinetypeTableRecord
  2
Continuous
 70
     0
  3
Solid line
 72
    65
 73
     0
 40
0.0
  0
LTYPE
  5
121
330
5
100
AcDbSymbolTableRecord
100
AcDbLinetypeTableRecord
  2
ACAD_ISO02W100
 70
     0
  3
ISO èárkovaná __ __ __ __ __ __ __ __ __ __ __ 
 72
    65
 73
     2
 40
15.0
 49
12.0
 74
     0
 49
-3.0
 74
     0
  0
LTYPE
  5
122
330
5
100
AcDbSymbolTableRecord
100
AcDbLinetypeTableRecord
  2
ACAD_ISO03W100
 70
     0
  3
ISO pøerušovaná __    __    __    __    __    _
 72
    65
 73
     2
 40
30.0
 49
12.0
 74
     0
 49
-18.0
 74
     0
  0
ENDTAB
  0
TABLE
  2
LAYER
  5
2
330
0
100
AcDbSymbolTable
 70
     5
  0
LAYER
  5
10
330
2
100
AcDbSymbolTableRecord
100
AcDbLayerTableRecord
  2
0
 70
     0
 62
    90
  6
Continuous
370
    -3
390
F
  0
LAYER
  5
2B
330
2
100
AcDbSymbolTableRecord
100
AcDbLayerTableRecord
  2
koty
 70
     0
 62
    41
  6
Continuous
370
    -3
390
F
  0
LAYER
  5
2C
330
2
100
AcDbSymbolTableRecord
100
AcDbLayerTableRecord
  2
popis
 70
     0
 62
   210
  6
Continuous
370
    -3
390
F
  0
LAYER
  5
4E
330
2
100
AcDbSymbolTableRecord
100
AcDbLayerTableRecord
  2
Defpoints
 70
     0
 62
     7
  6
Continuous
290
     0
370
    -3
390
F
  0
LAYER
  5
C4
330
2
100
AcDbSymbolTableRecord
100
AcDbLayerTableRecord
  2
srafy
 70
     0
 62
     7
  6
Continuous
370
    -3
390
F
  0
ENDTAB
  0
TABLE
  2
STYLE
  5
3
330
0
100
AcDbSymbolTable
 70
     2
  0
STYLE
  5
11
330
3
100
AcDbSymbolTableRecord
100
AcDbTextStyleTableRecord
  2
Standard
 70
     0
 40
0.0
 41
1.0
 50
0.0
 71
     0
 42
20.0
  3
txt
  4

  0
STYLE
  5
120
330
3
100
AcDbSymbolTableRecord
100
AcDbTextStyleTableRecord
  2

 70
     1
 40
0.0
 41
1.0
 50
0.0
 71
     0
 42
2.5
  3
ltypeshp.shx
  4

  0
ENDTAB
  0
TABLE
  2
VIEW
  5
6
330
0
100
AcDbSymbolTable
 70
     0
  0
ENDTAB
  0
TABLE
  2
UCS
  5
7
330
0
100
AcDbSymbolTable
 70
     0
  0
ENDTAB
  0
TABLE
  2
APPID
  5
9
330
0
100
AcDbSymbolTable
 70
     1
  0
APPID
  5
12
330
9
100
AcDbSymbolTableRecord
100
AcDbRegAppTableRecord
  2
ACAD
 70
     0
  0
ENDTAB
  0
TABLE
  2
DIMSTYLE
  5
A
330
0
100
AcDbSymbolTable
 70
     1
100
AcDbDimStyleTable
 71
     1
340
27
  0
DIMSTYLE
105
27
102
{ACAD_REACTORS
330
1E7
330
1FF
330
220
330
238
102
}
330
A
100
AcDbSymbolTableRecord
100
AcDbDimStyleTableRecord
  2
ISO-25
 70
     0
 40
10.0
 41
2.0
 42
0.625
 43
3.75
 44
1.25
 73
     0
 74
     0
 77
     1
 78
     8
140
2.0
141
2.5
143
0.03937007874016
147
0.625
171
     3
172
     1
271
     2
272
     2
274
     3
278
    44
283
     0
284
     8
340
11
  0
ENDTAB
  0
TABLE
  2
BLOCK_RECORD
  5
1
330
0
100
AcDbSymbolTable
 70
     5
  0
BLOCK_RECORD
  5
1F
330
1
100
AcDbSymbolTableRecord
100
AcDbBlockTableRecord
  2
*Model_Space
340
22
  0
BLOCK_RECORD
  5
1B
330
1
100
AcDbSymbolTableRecord
100
AcDbBlockTableRecord
  2
*Paper_Space
340
1E
  0
BLOCK_RECORD
  5
23
330
1
100
AcDbSymbolTableRecord
100
AcDbBlockTableRecord
  2
*Paper_Space0
340
26
  0
BLOCK_RECORD
  5
1E8
330
1
100
AcDbSymbolTableRecord
100
AcDbBlockTableRecord
  2
*D1
340
0
  0
BLOCK_RECORD
  5
200
330
1
100
AcDbSymbolTableRecord
100
AcDbBlockTableRecord
  2
*D2
340
0
  0
BLOCK_RECORD
  5
221
330
1
100
AcDbSymbolTableRecord
100
AcDbBlockTableRecord
  2
*D3
340
0
  0
BLOCK_RECORD
  5
239
330
1
100
AcDbSymbolTableRecord
100
AcDbBlockTableRecord
  2
*D4
340
0
  0
ENDTAB
  0
ENDSEC
  0
SECTION
  2
BLOCKS
  0
BLOCK
  5
20
330
1F
100
AcDbEntity
  8
0
100
AcDbBlockBegin
  2
*Model_Space
 70
     0
 10
0.0
 20
0.0
 30
0.0
  3
*Model_Space
  1

  0
ENDBLK
  5
21
330
1F
100
AcDbEntity
  8
0
100
AcDbBlockEnd
  0
BLOCK
  5
1C
330
1B
100
AcDbEntity
 67
     1
  8
0
100
AcDbBlockBegin
  2
*Paper_Space
 70
     0
 10
0.0
 20
0.0
 30
0.0
  3
*Paper_Space
  1

  0
ENDBLK
  5
1D
330
1B
100
AcDbEntity
 67
     1
  8
0
100
AcDbBlockEnd
  0
BLOCK
  5
24
330
23
100
AcDbEntity
  8
0
100
AcDbBlockBegin
  2
*Paper_Space0
 70
     0
 10
0.0
 20
0.0
 30
0.0
  3
*Paper_Space0
  1

  0
ENDBLK
  5
25
330
23
100
AcDbEntity
  8
0
100
AcDbBlockEnd
  0
BLOCK
  5
1F2
330
1E8
100
AcDbEntity
  8
0
100
AcDbBlockBegin
  2
*D1
 70
     1
 10
0.0
 20
0.0
 30
0.0
  3
*D1
  1

  0
LINE
  5
1F5
330
1E8
100
AcDbEntity
  8
koty
 62
     0
370
    -2
100
AcDbLine
 10
-190.6840713986252
 20
41.20148759130768
 30
0.0
 11
-190.6840713986252
 21
-23.17872217574472
 31
0.0
  0
LINE
  5
1F6
330
1E8
100
AcDbEntity
  8
koty
 62
     0
370
    -2
100
AcDbLine
 10
-14.68407139862529
 20
41.20148759130767
 30
0.0
 11
-14.68407139862529
 21
-23.17872217574473
 31
0.0
  0
LINE
  5
1F7
330
1E8
100
AcDbEntity
  8
koty
 62
     0
370
    -2
100
AcDbLine
 10
-170.6840713986252
 20
-10.67872217574472
 30
0.0
 11
-34.6840713986253
 21
-10.67872217574472
 31
0.0
  0
SOLID
  5
1F8
330
1E8
100
AcDbEntity
  8
koty
 62
     0
100
AcDbTrace
 10
-170.6840713986252
 20
-7.345388842411391
 30
0.0
 11
-170.6840713986252
 21
-14.01205550907805
 31
0.0
 12
-190.6840713986252
 22
-10.67872217574472
 32
0.0
 13
-190.6840713986252
 23
-10.67872217574472
 33
0.0
  0
SOLID
  5
1F9
330
1E8
100
AcDbEntity
  8
koty
 62
     0
100
AcDbTrace
 10
-34.6840713986253
 20
-7.345388842411391
 30
0.0
 11
-34.6840713986253
 21
-14.01205550907805
 31
0.0
 12
-14.68407139862529
 22
-10.67872217574472
 32
0.0
 13
-14.68407139862529
 23
-10.67872217574472
 33
0.0
  0
MTEXT
  5
1FA
330
1E8
100
AcDbEntity
  8
koty
 62
     0
100
AcDbMText
 10
-102.6840713986252
 20
5.571277824255275
 30
0.0
 40
20.0
 41
0.0
 71
     5
 72
     1
  1
176
 73
     1
 44
1.0
  0
POINT
  5
1FB
330
1E8
100
AcDbEntity
  8
Defpoints
 62
     0
100
AcDbPoint
 10
-190.6840713986252
 20
47.45148759130768
 30
0.0
  0
POINT
  5
1FC
330
1E8
100
AcDbEntity
  8
Defpoints
 62
     0
100
AcDbPoint
 10
-14.68407139862529
 20
47.45148759130767
 30
0.0
  0
POINT
  5
1FD
330
1E8
100
AcDbEntity
  8
Defpoints
 62
     0
100
AcDbPoint
 10
-14.68407139862529
 20
-10.67872217574472
 30
0.0
  0
ENDBLK
  5
1F3
330
1E8
100
AcDbEntity
  8
0
100
AcDbBlockEnd
  0
BLOCK
  5
20A
330
200
100
AcDbEntity
  8
0
100
AcDbBlockBegin
  2
*D2
 70
     1
 10
0.0
 20
0.0
 30
0.0
  3
*D2
  1

  0
LINE
  5
217
330
200
100
AcDbEntity
  8
koty
 62
     0
370
    -2
100
AcDbLine
 10
324.8981671930009
 20
171.2014875913076
 30
0.0
 11
324.8981671930009
 21
-105.5013119921875
 31
0.0
  0
LINE
  5
218
330
200
100
AcDbEntity
  8
koty
 62
     0
370
    -2
100
AcDbLine
 10
100.8981671930009
 20
153.2014875913076
 30
0.0
 11
100.8981671930009
 21
-105.5013119921875
 31
0.0
  0
LINE
  5
219
330
200
100
AcDbEntity
  8
koty
 62
     0
370
    -2
100
AcDbLine
 10
304.8981671930009
 20
-93.00131199218759
 30
0.0
 11
120.8981671930009
 21
-93.00131199218759
 31
0.0
  0
SOLID
  5
21A
330
200
100
AcDbEntity
  8
koty
 62
     0
100
AcDbTrace
 10
304.8981671930009
 20
-89.66797865885427
 30
0.0
 11
304.8981671930009
 21
-96.33464532552093
 31
0.0
 12
324.8981671930009
 22
-93.00131199218759
 32
0.0
 13
324.8981671930009
 23
-93.00131199218759
 33
0.0
  0
SOLID
  5
21B
330
200
100
AcDbEntity
  8
koty
 62
     0
100
AcDbTrace
 10
120.8981671930009
 20
-89.66797865885427
 30
0.0
 11
120.8981671930009
 21
-96.33464532552093
 31
0.0
 12
100.8981671930009
 22
-93.00131199218759
 32
0.0
 13
100.8981671930009
 23
-93.00131199218759
 33
0.0
  0
MTEXT
  5
21C
330
200
100
AcDbEntity
  8
koty
 62
     0
100
AcDbMText
 10
212.8981671930009
 20
-76.7513119921876
 30
0.0
 40
20.0
 41
0.0
 71
     5
 72
     1
  1
224
 73
     1
 44
1.0
  0
POINT
  5
21D
330
200
100
AcDbEntity
  8
Defpoints
 62
     0
100
AcDbPoint
 10
324.8981671930009
 20
177.4514875913076
 30
0.0
  0
POINT
  5
21E
330
200
100
AcDbEntity
  8
Defpoints
 62
     0
100
AcDbPoint
 10
100.8981671930009
 20
159.4514875913076
 30
0.0
  0
POINT
  5
21F
330
200
100
AcDbEntity
  8
Defpoints
 62
     0
100
AcDbPoint
 10
100.8981671930009
 20
-93.00131199218759
 30
0.0
  0
ENDBLK
  5
20B
330
200
100
AcDbEntity
  8
0
100
AcDbBlockEnd
  0
BLOCK
  5
22B
330
221
100
AcDbEntity
  8
0
100
AcDbBlockBegin
  2
*D3
 70
     1
 10
0.0
 20
0.0
 30
0.0
  3
*D3
  1

  0
LINE
  5
22E
330
221
100
AcDbEntity
  8
koty
 62
     0
370
    -2
100
AcDbLine
 10
179.8981671930009
 20
153.2014875913076
 30
0.0
 11
179.8981671930009
 21
-23.17872217574472
 31
0.0
  0
LINE
  5
22F
330
221
100
AcDbEntity
  8
koty
 62
     0
370
    -2
100
AcDbLine
 10
324.8981671930009
 20
171.2014875913076
 30
0.0
 11
324.8981671930009
 21
-23.17872217574472
 31
0.0
  0
LINE
  5
230
330
221
100
AcDbEntity
  8
koty
 62
     0
370
    -2
100
AcDbLine
 10
199.8981671930009
 20
-10.67872217574472
 30
0.0
 11
304.8981671930009
 21
-10.67872217574472
 31
0.0
  0
SOLID
  5
231
330
221
100
AcDbEntity
  8
koty
 62
     0
100
AcDbTrace
 10
199.8981671930009
 20
-7.345388842411391
 30
0.0
 11
199.8981671930009
 21
-14.01205550907805
 31
0.0
 12
179.8981671930009
 22
-10.67872217574472
 32
0.0
 13
179.8981671930009
 23
-10.67872217574472
 33
0.0
  0
SOLID
  5
232
330
221
100
AcDbEntity
  8
koty
 62
     0
100
AcDbTrace
 10
304.8981671930009
 20
-7.345388842411391
 30
0.0
 11
304.8981671930009
 21
-14.01205550907805
 31
0.0
 12
324.8981671930009
 22
-10.67872217574472
 32
0.0
 13
324.8981671930009
 23
-10.67872217574472
 33
0.0
  0
MTEXT
  5
233
330
221
100
AcDbEntity
  8
koty
 62
     0
100
AcDbMText
 10
252.3981671930009
 20
5.571277824255275
 30
0.0
 40
20.0
 41
0.0
 71
     5
 72
     1
  1
145
 73
     1
 44
1.0
  0
POINT
  5
234
330
221
100
AcDbEntity
  8
Defpoints
 62
     0
100
AcDbPoint
 10
179.8981671930009
 20
159.4514875913076
 30
0.0
  0
POINT
  5
235
330
221
100
AcDbEntity
  8
Defpoints
 62
     0
100
AcDbPoint
 10
324.8981671930009
 20
177.4514875913076
 30
0.0
  0
POINT
  5
236
330
221
100
AcDbEntity
  8
Defpoints
 62
     0
100
AcDbPoint
 10
324.8981671930009
 20
-10.67872217574472
 30
0.0
  0
ENDBLK
  5
22C
330
221
100
AcDbEntity
  8
0
100
AcDbBlockEnd
  0
BLOCK
  5
243
330
239
100
AcDbEntity
  8
0
100
AcDbBlockBegin
  2
*D4
 70
     1
 10
0.0
 20
0.0
 30
0.0
  3
*D4
  1

  0
LINE
  5
246
330
239
100
AcDbEntity
  8
koty
 62
     0
370
    -2
100
AcDbLine
 10
331.1481671930009
 20
271.4514875913077
 30
0.0
 11
379.7316332895618
 21
271.4514875913077
 31
0.0
  0
LINE
  5
247
330
239
100
AcDbEntity
  8
koty
 62
     0
370
    -2
100
AcDbLine
 10
331.1481671930009
 20
177.4514875913076
 30
0.0
 11
379.7316332895618
 21
177.4514875913076
 31
0.0
  0
LINE
  5
248
330
239
100
AcDbEntity
  8
koty
 62
     0
370
    -2
100
AcDbLine
 10
367.2316332895618
 20
251.4514875913076
 30
0.0
 11
367.2316332895618
 21
197.4514875913076
 31
0.0
  0
SOLID
  5
249
330
239
100
AcDbEntity
  8
koty
 62
     0
100
AcDbTrace
 10
363.8982999562285
 20
251.4514875913076
 30
0.0
 11
370.5649666228951
 21
251.4514875913076
 31
0.0
 12
367.2316332895618
 22
271.4514875913077
 32
0.0
 13
367.2316332895618
 23
271.4514875913077
 33
0.0
  0
SOLID
  5
24A
330
239
100
AcDbEntity
  8
koty
 62
     0
100
AcDbTrace
 10
363.8982999562285
 20
197.4514875913076
 30
0.0
 11
370.5649666228951
 21
197.4514875913076
 31
0.0
 12
367.2316332895618
 22
177.4514875913076
 32
0.0
 13
367.2316332895618
 23
177.4514875913076
 33
0.0
  0
MTEXT
  5
24B
330
239
100
AcDbEntity
  8
koty
 62
     0
100
AcDbMText
 10
350.9816332895618
 20
224.4514875913077
 30
0.0
 40
20.0
 41
0.0
 71
     5
 72
     1
  1
94
 11
0.0000000000000001
 21
1.0
 31
0.0
 73
     1
 44
1.0
  0
POINT
  5
24C
330
239
100
AcDbEntity
  8
Defpoints
 62
     0
100
AcDbPoint
 10
324.8981671930009
 20
271.4514875913077
 30
0.0
  0
POINT
  5
24D
330
239
100
AcDbEntity
  8
Defpoints
 62
     0
100
AcDbPoint
 10
324.8981671930009
 20
177.4514875913076
 30
0.0
  0
POINT
  5
24E
330
239
100
AcDbEntity
  8
Defpoints
 62
     0
100
AcDbPoint
 10
367.2316332895618
 20
177.4514875913076
 30
0.0
  0
ENDBLK
  5
244
330
239
100
AcDbEntity
  8
0
100
AcDbBlockEnd
  0
ENDSEC
  0
SECTION
  2
ENTITIES
  0
LINE
  5
173
102
{ACAD_REACTORS
330
216
330
237
330
24F
102
}
330
1F
100
AcDbEntity
  8
0
100
AcDbLine
 10
324.8981671930009
 20
271.4514875913077
 30
0.0
 11
324.8981671930009
 21
177.4514875913076
 31
0.0
  0
LINE
  5
174
330
1F
100
AcDbEntity
  8
0
100
AcDbLine
 10
324.8981671930009
 20
177.4514875913076
 30
0.0
 11
309.6659992733406
 21
177.4514875913076
 31
0.0
  0
ARC
  5
175
102
{ACAD_REACTORS
330
216
102
}
330
1F
100
AcDbEntity
  8
0
100
AcDbCircle
 10
212.8981671930009
 20
159.4514875913076
 30
0.0
 40
112.0
100
AcDbArc
 50
90.0
 51
270.0
  0
ARC
  5
177
330
1F
100
AcDbEntity
  8
0
100
AcDbCircle
 10
217.6111908269948
 20
144.958699769457
 30
0.0
 40
97.62104803027481
100
AcDbArc
 50
267.2327548157515
 51
19.44161519453735
  0
LINE
  5
179
102
{ACAD_REACTORS
330
24F
102
}
330
1F
100
AcDbEntity
  8
0
100
AcDbLine
 10
324.8981671930009
 20
177.4514875913076
 30
0.0
 11
324.8981671930009
 21
271.4514875913077
 31
0.0
  0
LINE
  5
17A
330
1F
100
AcDbEntity
  8
0
100
AcDbLine
 10
324.8981671930009
 20
271.4514875913077
 30
0.0
 11
212.8981671930009
 21
271.4514875913077
 31
0.0
  0
CIRCLE
  5
17E
330
1F
100
AcDbEntity
  8
0
100
AcDbCircle
 10
179.8981671930009
 20
159.4514875913076
 30
0.0
 40
74.83638675518149
  0
CIRCLE
  5
17F
330
1F
100
AcDbEntity
  8
0
100
AcDbCircle
 10
179.8981671930009
 20
159.4514875913076
 30
0.0
 40
70.76364003209457
  0
CIRCLE
  5
180
330
1F
100
AcDbEntity
  8
0
100
AcDbCircle
 10
179.8981671930009
 20
159.4514875913076
 30
0.0
 40
53.2412150652884
  0
CIRCLE
  5
181
330
1F
100
AcDbEntity
  8
0
100
AcDbCircle
 10
179.8981671930009
 20
159.4514875913076
 30
0.0
 40
36.80000574330463
  0
CIRCLE
  5
182
330
1F
100
AcDbEntity
  8
0
100
AcDbCircle
 10
179.8981671930009
 20
159.4514875913076
 30
0.0
 40
14.97627346107729
  0
CIRCLE
  5
183
102
{ACAD_REACTORS
330
237
102
}
330
1F
100
AcDbEntity
  8
0
100
AcDbCircle
 10
179.8981671930009
 20
159.4514875913076
 30
0.0
 40
3.852791391481482
  0
LINE
  5
185
330
1F
100
AcDbEntity
  8
0
100
AcDbLine
 10
147.567545204515
 20
213.9229052661968
 30
0.0
 11
143.7803186828762
 21
220.3037165528793
 31
0.0
  0
LINE
  5
187
330
1F
100
AcDbEntity
  8
0
100
AcDbLine
 10
140.3012284837439
 20
208.8932402557303
 30
0.0
 11
135.6628216968653
 21
214.6848738665432
 31
0.0
  0
LINE
  5
188
330
1F
100
AcDbEntity
  8
0
100
AcDbLine
 10
133.8056211340984
 20
202.9012477688109
 30
0.0
 11
128.4063153939769
 21
207.9909761434052
 31
0.0
  0
LINE
  5
189
330
1F
100
AcDbEntity
  8
0
100
AcDbLine
 10
128.2071527639953
 20
196.0635551234061
 30
0.0
 11
122.1520394152433
 21
200.3523124884505
 31
0.0
  0
LINE
  5
18A
330
1F
100
AcDbEntity
  8
0
100
AcDbLine
 10
123.6147911920955
 20
188.5132502290985
 30
0.0
 11
117.0217261284569
 21
191.9175608008718
 31
0.0
  0
LINE
  5
18B
330
1F
100
AcDbEntity
  8
0
100
AcDbLine
 10
120.1179215126619
 20
180.3972911823114
 30
0.0
 11
113.1152312461002
 21
182.8508939278798
 31
0.0
  0
LINE
  5
18C
330
1F
100
AcDbEntity
  8
0
100
AcDbLine
 10
117.7846063163745
 20
171.8736458941238
 30
0.0
 11
110.5085902474862
 21
173.3287842269766
 31
0.0
  0
LINE
  5
18D
330
1F
100
AcDbEntity
  8
0
100
AcDbLine
 10
116.6602609294224
 20
163.1082174245676
 30
0.0
 11
109.2525384346427
 21
163.5365687322511
 31
0.0
  0
LINE
  5
18E
330
1F
100
AcDbEntity
  8
0
100
AcDbLine
 10
116.7667694558385
 20
154.2716148682755
 30
0.0
 11
109.371523427369
 21
153.664841779828
 31
0.0
  0
LINE
  5
18F
330
1F
100
AcDbEntity
  8
0
100
AcDbLine
 10
118.102058828308
 20
145.5358326425194
 30
0.0
 11
110.863229318125
 21
143.9057453059134
 31
0.0
  0
LINE
  5
190
330
1F
100
AcDbEntity
  8
0
100
AcDbLine
 10
120.6401391580649
 20
137.0709028115184
 30
0.0
 11
113.6986217485377
 21
134.4492290225641
 31
0.0
  0
LINE
  5
191
330
1F
100
AcDbEntity
  8
0
100
AcDbLine
 10
124.3316095985139
 20
129.0415856057182
 30
0.0
 11
117.8225130301599
 21
125.4793532626079
 31
0.0
  0
LINE
  5
192
330
1F
100
AcDbEntity
  8
0
100
AcDbLine
 10
129.1046198765171
 20
121.6041625513167
 30
0.0
 11
123.1546363100518
 21
117.1707064546298
 31
0.0
  0
LINE
  5
193
330
1F
100
AcDbEntity
  8
0
100
AcDbLine
 10
134.866268776232
 20
114.9033946281245
 30
0.0
 11
129.5912078737705
 21
109.6850069578014
 31
0.0
  0
LINE
  5
194
330
1F
100
AcDbEntity
  8
0
100
AcDbLine
 10
141.5044123556041
 20
109.069704661756
 30
0.0
 11
137.00694717732
 21
103.1679553979715
 31
0.0
  0
LINE
  5
195
330
1F
100
AcDbEntity
  8
0
100
AcDbLine
 10
148.8898467006371
 20
104.2166387916825
 30
0.0
 11
145.257515290435
 21
97.74639877071594
 31
0.0
  0
LINE
  5
196
330
1F
100
AcDbEntity
  8
0
100
AcDbLine
 10
156.8788227326124
 20
100.4386564247843
 30
0.0
 11
154.182324289676
 21
93.52586150885491
 31
0.0
  0
LINE
  5
197
330
1F
100
AcDbEntity
  8
0
100
AcDbLine
 10
165.3158441203929
 20
97.80929169044213
 30
0.0
 11
163.6076629196925
 21
90.58849156940068
 31
0.0
  0
LINE
  5
198
330
1F
100
AcDbEntity
  8
0
100
AcDbLine
 10
174.036693839635
 20
96.37972218235164
 30
0.0
 11
173.3500776852149
 21
88.99146151701584
 31
0.0
  0
LINE
  5
199
330
1F
100
AcDbEntity
  8
0
100
AcDbLine
 10
182.8716304703733
 20
96.1777728448767
 30
0.0
 11
183.219943564665
 21
88.76585572507542
 31
0.0
  0
LINE
  5
19A
330
1F
100
AcDbEntity
  8
0
100
AcDbLine
 10
191.6486920206818
 20
97.20737439215723
 30
0.0
 11
193.0251548455053
 21
89.9160653536966
 31
0.0
  0
LINE
  5
19B
330
1F
100
AcDbEntity
  8
0
100
AcDbLine
 10
200.1970429712435
 20
99.44848680122987
 30
0.0
 11
202.5748642434166
 21
92.41970288080242
 31
0.0
  0
LINE
  5
19C
330
1F
100
AcDbEntity
  8
0
100
AcDbLine
 10
208.3502993944106
 20
102.8574893682796
 30
0.0
 11
211.6831975276023
 21
96.22803784977328
 31
0.0
  0
LINE
  5
19D
330
1F
100
AcDbEntity
  8
0
100
AcDbLine
 10
215.949767428098
 20
107.3680297360217
 30
0.0
 11
220.1728713512611
 21
101.2669453523548
 31
0.0
  0
LINE
  5
19E
330
1F
100
AcDbEntity
  8
0
100
AcDbLine
 10
222.8475320712967
 20
112.8923153668617
 30
0.0
 11
227.8786438702763
 21
107.4383487856818
 31
0.0
  0
LINE
  5
19F
330
1F
100
AcDbEntity
  8
0
100
AcDbLine
 10
228.9093361813179
 20
119.3228223247772
 30
0.0
 11
234.6505309877517
 21
114.6221288017919
 31
0.0
  0
LINE
  5
1A0
330
1F
100
AcDbEntity
  8
0
100
AcDbLine
 10
234.0171936363598
 20
126.5343881064255
 30
0.0
 11
240.3567256238529
 21
122.6784612941
 31
0.0
  0
LINE
  5
1A1
330
1F
100
AcDbEntity
  8
0
100
AcDbLine
 10
238.0716858011619
 20
134.3866477869013
 30
0.0
 11
244.8861631906885
 21
131.4505389145859
 31
0.0
  0
LINE
  5
1A2
330
1F
100
AcDbEntity
  8
0
100
AcDbLine
 10
240.9938965976528
 20
142.7267660633372
 30
0.0
 11
248.1506833381789
 21
140.767623150457
 31
0.0
  0
LINE
  5
1A3
330
1F
100
AcDbEntity
  8
0
100
AcDbLine
 10
242.7269485166443
 20
151.3924120202262
 30
0.0
 11
250.0867458949898
 21
150.4483675550886
 31
0.0
  0
LINE
  5
1A4
330
1F
100
AcDbEntity
  8
0
100
AcDbLine
 10
243.2371096738506
 20
160.2149187160438
 30
0.0
 11
250.6566676056915
 21
160.3043474503279
 31
0.0
  0
LINE
  5
1A5
330
1F
100
AcDbEntity
  8
0
100
AcDbLine
 10
242.5144503626464
 20
169.0225660934084
 30
0.0
 11
249.8493555924614
 21
170.143727398525
 31
0.0
  0
LINE
  5
1A6
330
1F
100
AcDbEntity
  8
0
100
AcDbLine
 10
240.5730363245115
 20
177.64392331467
 30
0.0
 11
247.6805232653333
 21
179.7749950611172
 31
0.0
  0
LINE
  5
1A7
330
1F
100
AcDbEntity
  8
0
100
AcDbLine
 10
237.4506549753724
 20
185.9111854681654
 30
0.0
 11
244.1923844785445
 21
189.0106887684567
 31
0.0
  0
LINE
  5
1A8
330
1F
100
AcDbEntity
  8
0
100
AcDbLine
 10
233.2080799165339
 20
193.663439699948
 30
0.0
 11
239.4528318858808
 21
197.671046247976
 31
0.0
  0
LINE
  5
1A9
330
1F
100
AcDbEntity
  8
0
100
AcDbLine
 10
227.9278880456589
 20
200.7497971994545
 30
0.0
 11
233.5541154873972
 21
205.5875034923468
 31
0.0
  0
LINE
  5
1AA
330
1F
100
AcDbEntity
  8
0
100
AcDbLine
 10
221.7128522913846
 20
207.0323300785694
 30
0.0
 11
226.6110470880998
 21
212.6059756661441
 31
0.0
  0
LINE
  5
1AB
330
1F
100
AcDbEntity
  8
0
100
AcDbLine
 10
214.6839412551695
 20
212.3887559810759
 30
0.0
 11
218.7587656167576
 21
218.5898561918988
 31
0.0
  0
LINE
  5
1AC
330
1F
100
AcDbEntity
  8
0
100
AcDbLine
 10
206.977964695066
 20
216.7148181696259
 30
0.0
 11
210.1501068003725
 21
223.4226756417402
 31
0.0
  0
LINE
  5
1AD
330
1F
100
AcDbEntity
  8
0
100
AcDbLine
 10
198.7449106793978
 20
219.926314764542
 30
0.0
 11
200.9526283906012
 21
227.0103686823279
 31
0.0
  0
LINE
  5
1AE
330
1F
100
AcDbEntity
  8
0
100
AcDbLine
 10
190.1450262396199
 20
221.9607376376274
 30
0.0
 11
191.3453488427132
 21
229.283104949567
 31
0.0
  0
LINE
  5
1AF
330
1F
100
AcDbEntity
  8
0
100
AcDbLine
 10
181.3456983441289
 20
222.7784890617793
 30
0.0
 11
181.5152629249897
 21
230.1966482172151
 31
0.0
  0
LINE
  5
1B0
330
1F
100
AcDbEntity
  8
0
100
AcDbLine
 10
172.5181959013235
 20
222.3636524357049
 30
0.0
 11
171.6537020782623
 21
229.7332174047074
 31
0.0
  0
LINE
  5
1B1
330
1F
100
AcDbEntity
  8
0
100
AcDbLine
 10
163.8343362051177
 20
220.7243020824612
 30
0.0
 11
161.9526103670531
 21
227.9018326656645
 31
0.0
  0
LINE
  5
1B2
330
1F
100
AcDbEntity
  8
0
100
AcDbLine
 10
155.4631407067541
 20
217.8923460919407
 30
0.0
 11
152.6008085066927
 21
224.7381398208629
 31
0.0
  0
CIRCLE
  5
1B5
330
1F
100
AcDbEntity
  8
0
100
AcDbCircle
 10
179.8981671930009
 20
172.0473026628263
 30
0.0
 40
1.0
  0
CIRCLE
  5
1B6
330
1F
100
AcDbEntity
  8
0
100
AcDbCircle
 10
179.8981671930009
 20
208.7728578404757
 30
0.0
 40
2.5
  0
CIRCLE
  5
1B7
330
1F
100
AcDbEntity
  8
0
100
AcDbCircle
 10
145.0226918324018
 20
194.3269629519068
 30
0.0
 40
2.5
  0
CIRCLE
  5
1B8
330
1F
100
AcDbEntity
  8
0
100
AcDbCircle
 10
130.5767969438329
 20
159.4514875913076
 30
0.0
 40
2.5
  0
CIRCLE
  5
1B9
330
1F
100
AcDbEntity
  8
0
100
AcDbCircle
 10
145.0226918324017
 20
124.5760122307084
 30
0.0
 40
2.5
  0
CIRCLE
  5
1BA
330
1F
100
AcDbEntity
  8
0
100
AcDbCircle
 10
179.8981671930009
 20
110.1301173421396
 30
0.0
 40
2.5
  0
CIRCLE
  5
1BB
330
1F
100
AcDbEntity
  8
0
100
AcDbCircle
 10
214.7736425536001
 20
124.5760122307085
 30
0.0
 40
2.5
  0
CIRCLE
  5
1BC
330
1F
100
AcDbEntity
  8
0
100
AcDbCircle
 10
229.219537442169
 20
159.4514875913076
 30
0.0
 40
2.5
  0
CIRCLE
  5
1BD
330
1F
100
AcDbEntity
  8
0
100
AcDbCircle
 10
214.7736425536002
 20
194.3269629519068
 30
0.0
 40
2.5
  0
CIRCLE
  5
1BE
330
1F
100
AcDbEntity
  8
0
100
AcDbCircle
 10
167.3023521214823
 20
159.4514875913076
 30
0.0
 40
1.0
  0
CIRCLE
  5
1BF
330
1F
100
AcDbEntity
  8
0
100
AcDbCircle
 10
179.8981671930009
 20
146.855672519789
 30
0.0
 40
1.0
  0
CIRCLE
  5
1C0
330
1F
100
AcDbEntity
  8
0
100
AcDbCircle
 10
192.4939822645196
 20
159.4514875913076
 30
0.0
 40
1.0
  0
ARC
  5
1C2
330
1F
100
AcDbEntity
  8
0
100
AcDbCircle
 10
212.8981671930009
 20
159.4514875913076
 30
0.0
 40
109.0
100
AcDbArc
 50
90.0
 51
270.0
  0
LINE
  5
1C3
330
1F
100
AcDbEntity
  8
0
100
AcDbLine
 10
324.8981671930009
 20
268.4514875913076
 30
0.0
 11
212.8981671930009
 21
268.4514875913076
 31
0.0
  0
LINE
  5
1C4
330
1F
100
AcDbEntity
  8
0
100
AcDbLine
 10
324.8981671930009
 20
180.4514875913076
 30
0.0
 11
309.6659992733406
 21
180.4514875913076
 31
0.0
  0
ARC
  5
1C5
330
1F
100
AcDbEntity
  8
0
100
AcDbCircle
 10
217.6111908269948
 20
144.958699769457
 30
0.0
 40
94.62104803027481
100
AcDbArc
 50
267.2327548157515
 51
19.44161519453735
  0
LINE
  5
1C6
330
1F
100
AcDbEntity
  8
0
100
AcDbLine
 10
306.837055813797
 20
176.4529492081168
 30
0.0
 11
309.6659992733406
 21
180.4514875913076
 31
0.0
  0
LINE
  5
1C7
330
1F
100
AcDbEntity
  8
0
100
AcDbLine
 10
-14.68407139862529
 20
271.4514875913077
 30
0.0
 11
-190.6840713986252
 21
271.4514875913077
 31
0.0
  0
LINE
  5
1C8
330
1F
100
AcDbEntity
  8
0
100
AcDbLine
 10
-14.68407139862529
 20
47.45148759130768
 30
0.0
 11
-190.6840713986252
 21
47.45148759130768
 31
0.0
  0
LINE
  5
1C9
102
{ACAD_REACTORS
330
1FE
102
}
330
1F
100
AcDbEntity
  8
0
100
AcDbLine
 10
-14.68407139862529
 20
271.4514875913077
 30
0.0
 11
-14.68407139862529
 21
47.45148759130767
 31
0.0
  0
LINE
  5
1CB
330
1F
100
AcDbEntity
  8
0
100
AcDbLine
 10
-14.68407139862529
 20
271.4514875913077
 30
0.0
 11
-190.6840713986252
 21
271.4514875913077
 31
0.0
  0
LINE
  5
1CC
102
{ACAD_REACTORS
330
1FE
102
}
330
1F
100
AcDbEntity
  8
0
100
AcDbLine
 10
-190.6840713986252
 20
271.4514875913077
 30
0.0
 11
-190.6840713986252
 21
47.45148759130768
 31
0.0
  0
LINE
  5
1CD
330
1F
100
AcDbEntity
  8
0
100
AcDbLine
 10
-14.68407139862529
 20
172.0473026628263
 30
0.0
 11
-190.6840713986252
 21
172.0473026628263
 31
0.0
  0
LINE
  5
1CE
330
1F
100
AcDbEntity
  8
0
100
AcDbLine
 10
-16.68407139862529
 20
174.0473026628263
 30
0.0
 11
-188.6840713986252
 21
174.0473026628263
 31
0.0
  0
LINE
  5
1CF
330
1F
100
AcDbEntity
  8
0
100
AcDbLine
 10
-188.6840713986253
 20
270.4514875913076
 30
0.0
 11
-188.6840713986252
 21
174.0473026628263
 31
0.0
  0
LINE
  5
1D0
330
1F
100
AcDbEntity
  8
0
100
AcDbLine
 10
-16.68407139862529
 20
270.4514875913077
 30
0.0
 11
-16.68407139862529
 21
174.0473026628263
 31
0.0
  0
LINE
  5
1D1
330
1F
100
AcDbEntity
  8
0
100
AcDbLine
 10
-16.68407139862529
 20
270.4514875913077
 30
0.0
 11
-188.6840713986253
 21
270.4514875913076
 31
0.0
  0
LINE
  5
1D3
330
1F
100
AcDbEntity
  8
0
100
AcDbLine
 10
-102.6840713986252
 20
230.2151276234022
 30
0.0
 11
-159.1485011252445
 21
230.2151276234022
 31
0.0
  0
LINE
  5
1D4
330
1F
100
AcDbEntity
  8
0
100
AcDbLine
 10
-161.1485011252445
 20
252.1258200588442
 30
0.0
 11
-159.1485011252446
 21
252.1258200588443
 31
0.0
  0
LINE
  5
1D5
330
1F
100
AcDbEntity
  8
0
100
AcDbLine
 10
-161.1485011252445
 20
252.1258200588442
 30
0.0
 11
-161.1485011252445
 21
174.0473026628263
 31
0.0
  0
LINE
  5
1D6
330
1F
100
AcDbEntity
  8
0
100
AcDbLine
 10
-188.6840713986252
 20
230.2151276234022
 30
0.0
 11
-176.320885430802
 21
217.788269951907
 31
0.0
  0
LINE
  5
1D7
330
1F
100
AcDbEntity
  8
0
100
AcDbLine
 10
-176.320885430802
 20
217.788269951907
 30
0.0
 11
-176.320885430802
 21
174.0473026628263
 31
0.0
  0
LINE
  5
1D8
330
1F
100
AcDbEntity
  8
0
100
AcDbLine
 10
-159.1485011252445
 20
252.1258200588442
 30
0.0
 11
-159.1485011252445
 21
174.0473026628263
 31
0.0
  0
LINE
  5
1D9
330
1F
100
AcDbEntity
  8
0
100
AcDbLine
 10
-159.1485011252445
 20
242.0520869874172
 30
0.0
 11
-102.6840713986252
 21
242.0520869874172
 31
0.0
  0
LINE
  5
1DA
330
1F
100
AcDbEntity
  8
0
100
AcDbLine
 10
-46.21964167200599
 20
252.1258200588442
 30
0.0
 11
-46.21964167200599
 21
174.0473026628263
 31
0.0
  0
LINE
  5
1DB
330
1F
100
AcDbEntity
  8
0
100
AcDbLine
 10
-44.21964167200599
 20
252.1258200588442
 30
0.0
 11
-44.21964167200599
 21
174.0473026628263
 31
0.0
  0
LINE
  5
1DC
330
1F
100
AcDbEntity
  8
0
100
AcDbLine
 10
-44.21964167200599
 20
252.1258200588442
 30
0.0
 11
-46.21964167200596
 21
252.1258200588443
 31
0.0
  0
LINE
  5
1DD
330
1F
100
AcDbEntity
  8
0
100
AcDbLine
 10
-46.21964167200599
 20
242.0520869874172
 30
0.0
 11
-102.6840713986252
 21
242.0520869874172
 31
0.0
  0
LINE
  5
1DE
330
1F
100
AcDbEntity
  8
0
100
AcDbLine
 10
-102.6840713986252
 20
230.2151276234022
 30
0.0
 11
-46.21964167200599
 21
230.2151276234022
 31
0.0
  0
LINE
  5
1DF
330
1F
100
AcDbEntity
  8
0
100
AcDbLine
 10
-102.6840713986252
 20
218.3781682593872
 30
0.0
 11
-159.1485011252445
 21
218.3781682593872
 31
0.0
  0
LINE
  5
1E0
330
1F
100
AcDbEntity
  8
0
100
AcDbLine
 10
-102.6840713986252
 20
218.3781682593872
 30
0.0
 11
-46.21964167200599
 21
218.3781682593872
 31
0.0
  0
LINE
  5
1E1
330
1F
100
AcDbEntity
  8
0
100
AcDbLine
 10
-102.6840713986252
 20
206.5412088953721
 30
0.0
 11
-159.1485011252445
 21
206.5412088953721
 31
0.0
  0
LINE
  5
1E2
330
1F
100
AcDbEntity
  8
0
100
AcDbLine
 10
-102.6840713986252
 20
206.5412088953721
 30
0.0
 11
-46.21964167200599
 21
206.5412088953721
 31
0.0
  0
LINE
  5
1E3
330
1F
100
AcDbEntity
  8
0
100
AcDbLine
 10
-102.6840713986252
 20
182.8672901673421
 30
0.0
 11
-159.1485011252445
 21
182.8672901673421
 31
0.0
  0
LINE
  5
1E4
330
1F
100
AcDbEntity
  8
0
100
AcDbLine
 10
-102.6840713986252
 20
182.8672901673421
 30
0.0
 11
-46.21964167200599
 21
182.8672901673421
 31
0.0
  0
LINE
  5
1E5
330
1F
100
AcDbEntity
  8
0
100
AcDbLine
 10
-102.6840713986252
 20
194.7042495313571
 30
0.0
 11
-46.21964167200599
 21
194.7042495313571
 31
0.0
  0
LINE
  5
1E6
330
1F
100
AcDbEntity
  8
0
100
AcDbLine
 10
-102.6840713986252
 20
194.7042495313571
 30
0.0
 11
-159.1485011252445
 21
194.7042495313571
 31
0.0
  0
DIMENSION
  5
1E7
102
{ACAD_XDICTIONARY
360
1F4
102
}
102
{ACAD_REACTORS
330
1FE
102
}
330
1F
100
AcDbEntity
  8
koty
100
AcDbDimension
  2
*D1
 10
-14.68407139862529
 20
-10.67872217574472
 30
0.0
 11
-102.6840713986252
 21
5.571277824255275
 31
0.0
 70
    32
 71
     5
 42
176.0
  3
ISO-25
100
AcDbAlignedDimension
 13
-190.6840713986252
 23
47.45148759130768
 33
0.0
 14
-14.68407139862529
 24
47.45148759130767
 34
0.0
100
AcDbRotatedDimension
  0
DIMENSION
  5
1FF
102
{ACAD_XDICTIONARY
360
20C
102
}
102
{ACAD_REACTORS
330
216
102
}
330
1F
100
AcDbEntity
  8
koty
100
AcDbDimension
  2
*D2
 10
100.8981671930009
 20
-93.00131199218759
 30
0.0
 11
212.8981671930009
 21
-76.7513119921876
 31
0.0
 70
    32
 71
     5
 42
224.0
  3
ISO-25
100
AcDbAlignedDimension
 13
324.8981671930009
 23
177.4514875913076
 33
0.0
 14
100.8981671930009
 24
159.4514875913076
 34
0.0
100
AcDbRotatedDimension
  0
DIMENSION
  5
220
102
{ACAD_XDICTIONARY
360
22D
102
}
102
{ACAD_REACTORS
330
237
102
}
330
1F
100
AcDbEntity
  8
koty
100
AcDbDimension
  2
*D3
 10
324.8981671930009
 20
-10.67872217574472
 30
0.0
 11
252.3981671930009
 21
5.571277824255275
 31
0.0
 70
    32
 71
     5
 42
145.0
  3
ISO-25
100
AcDbAlignedDimension
 13
179.8981671930009
 23
159.4514875913076
 33
0.0
 14
324.8981671930009
 24
177.4514875913076
 34
0.0
100
AcDbRotatedDimension
  0
DIMENSION
  5
238
102
{ACAD_XDICTIONARY
360
245
102
}
102
{ACAD_REACTORS
330
24F
102
}
330
1F
100
AcDbEntity
  8
koty
100
AcDbDimension
  2
*D4
 10
367.2316332895618
 20
177.4514875913076
 30
0.0
 11
350.9816332895618
 21
224.4514875913077
 31
0.0
 70
    32
 71
     5
 42
93.99999999999996
  3
ISO-25
100
AcDbAlignedDimension
 13
324.8981671930009
 23
271.4514875913077
 33
0.0
 14
324.8981671930009
 24
177.4514875913076
 34
0.0
 50
90.0
100
AcDbRotatedDimension
  0
TEXT
  5
250
330
1F
100
AcDbEntity
  8
popis
100
AcDbText
 10
-231.3654787779589
 20
305.555919012847
 30
0.0
 40
10.0
  1
CBM/4 160/150 125W - speciální radiální ventilátor s asynchronním motorem
100
AcDbText
  0
ENDSEC
  0
SECTION
  2
OBJECTS
  0
DICTIONARY
  5
C
330
0
100
AcDbDictionary
281
     1
  3
ACAD_GROUP
350
D
  3
ACAD_LAYOUT
350
1A
  3
ACAD_MLINESTYLE
350
17
  3
ACAD_PLOTSETTINGS
350
19
  3
ACAD_PLOTSTYLENAME
350
E
  3
AcDbVariableDictionary
350
2E
  0
DICTIONARY
  5
1F4
330
1E7
100
AcDbDictionary
280
     1
281
     1
  3
ACAD_DIMASSOC
360
1FE
  0
DICTIONARY
  5
20C
330
1FF
100
AcDbDictionary
280
     1
281
     1
  3
ACAD_DIMASSOC
360
216
  0
DICTIONARY
  5
22D
330
220
100
AcDbDictionary
280
     1
281
     1
  3
ACAD_DIMASSOC
360
237
  0
DICTIONARY
  5
245
330
238
100
AcDbDictionary
280
     1
281
     1
  3
ACAD_DIMASSOC
360
24F
  0
DICTIONARY
  5
D
102
{ACAD_REACTORS
330
C
102
}
330
C
100
AcDbDictionary
281
     1
  0
DICTIONARY
  5
1A
102
{ACAD_REACTORS
330
C
102
}
330
C
100
AcDbDictionary
281
     1
  3
Model
350
22
  3
Rozvržení1
350
1E
  3
Rozvržení2
350
26
  0
DICTIONARY
  5
17
102
{ACAD_REACTORS
330
C
102
}
330
C
100
AcDbDictionary
281
     1
  3
Standard
350
18
  0
DICTIONARY
  5
19
102
{ACAD_REACTORS
330
C
102
}
330
C
100
AcDbDictionary
281
     1
  0
ACDBDICTIONARYWDFLT
  5
E
102
{ACAD_REACTORS
330
C
102
}
330
C
100
AcDbDictionary
281
     1
  3
Normal
350
F
100
AcDbDictionaryWithDefault
340
F
  0
DICTIONARY
  5
2E
102
{ACAD_REACTORS
330
C
102
}
330
C
100
AcDbDictionary
281
     1
  3
DIMASSOC
350
30
  3
HIDETEXT
350
2F
  0
DIMASSOC
  5
1FE
102
{ACAD_REACTORS
330
1F4
102
}
330
1F4
100
AcDbDimAssoc
330
1E7
 90
        3
 70
     0
 71
     0
  1
AcDbOsnapPointRef
 72
     1
331
1CC
 73
     2
 91
        0
 40
1.0
 10
-190.6840713986252
 20
47.45148759130768
 30
0.0
 75
     0
  1
AcDbOsnapPointRef
 72
     1
331
1C9
 73
     2
 91
        0
 40
1.0
 10
-14.68407139862529
 20
47.45148759130767
 30
0.0
 75
     0
  0
DIMASSOC
  5
216
102
{ACAD_REACTORS
330
20C
102
}
330
20C
100
AcDbDimAssoc
330
1FF
 90
        3
 70
     0
 71
     0
  1
AcDbOsnapPointRef
 72
     1
331
173
 73
     2
 91
        0
 40
1.0
 10
324.8981671930009
 20
177.4514875913076
 30
0.0
 75
     0
  1
AcDbOsnapPointRef
 72
     5
331
175
 73
     2
 91
        0
 40
3.141592653589793
 10
100.8981671930009
 20
159.4514875913076
 30
0.0
 75
     0
  0
DIMASSOC
  5
237
102
{ACAD_REACTORS
330
22D
102
}
330
22D
100
AcDbDimAssoc
330
220
 90
        3
 70
     0
 71
     0
  1
AcDbOsnapPointRef
 72
     3
331
183
 73
     2
 91
        0
 40
0.0
 10
179.8981671930009
 20
159.4514875913076
 30
0.0
 75
     0
  1
AcDbOsnapPointRef
 72
     1
331
173
 73
     2
 91
        0
 40
1.0
 10
324.8981671930009
 20
177.4514875913076
 30
0.0
 75
     0
  0
DIMASSOC
  5
24F
102
{ACAD_REACTORS
330
245
102
}
330
245
100
AcDbDimAssoc
330
238
 90
        3
 70
     0
 71
     0
  1
AcDbOsnapPointRef
 72
     1
331
179
 73
     2
 91
        0
 40
1.0
 10
324.8981671930009
 20
271.4514875913077
 30
0.0
 75
     0
  1
AcDbOsnapPointRef
 72
     1
331
173
 73
     2
 91
        0
 40
1.0
 10
324.8981671930009
 20
177.4514875913076
 30
0.0
 75
     0
  0
LAYOUT
  5
22
102
{ACAD_REACTORS
330
1A
102
}
330
1A
100
AcDbPlotSettings
  1

  2
D:\AutoCAD 2002Cz\plotters\PublishToWeb DWF.pc3
  4

  6

 40
0.0
 41
0.0
 42
0.0
 43
0.0
 44
0.0
 45
0.0
 46
0.0
 47
0.0
 48
0.0
 49
0.0
140
0.0
141
0.0
142
1.0
143
1.0
 70
  1712
 72
     0
 73
     0
 74
     0
  7

 75
     0
147
1.0
148
0.0
149
0.0
100
AcDbLayout
  1
Model
 70
     1
 71
     0
 10
0.0
 20
0.0
 11
12.0
 21
9.0
 12
0.0
 22
0.0
 32
0.0
 14
0.0
 24
0.0
 34
0.0
 15
0.0
 25
0.0
 35
0.0
146
0.0
 13
0.0
 23
0.0
 33
0.0
 16
1.0
 26
0.0
 36
0.0
 17
0.0
 27
1.0
 37
0.0
 76
     0
330
1F
  0
LAYOUT
  5
1E
102
{ACAD_REACTORS
330
1A
102
}
330
1A
100
AcDbPlotSettings
  1

  2
D:\AutoCAD 2002Cz\plotters\PublishToWeb DWF.pc3
  4

  6

 40
0.0
 41
0.0
 42
0.0
 43
0.0
 44
0.0
 45
0.0
 46
0.0
 47
0.0
 48
0.0
 49
0.0
140
0.0
141
0.0
142
1.0
143
1.0
 70
   688
 72
     0
 73
     0
 74
     5
  7

 75
    16
147
1.0
148
0.0
149
0.0
100
AcDbLayout
  1
Rozvržení1
 70
     1
 71
     1
 10
0.0
 20
0.0
 11
420.0
 21
297.0
 12
0.0
 22
0.0
 32
0.0
 14
1.000000000000000E+20
 24
1.000000000000000E+20
 34
1.000000000000000E+20
 15
-1.000000000000000E+20
 25
-1.000000000000000E+20
 35
-1.000000000000000E+20
146
0.0
 13
0.0
 23
0.0
 33
0.0
 16
1.0
 26
0.0
 36
0.0
 17
0.0
 27
1.0
 37
0.0
 76
     0
330
1B
  0
LAYOUT
  5
26
102
{ACAD_REACTORS
330
1A
102
}
330
1A
100
AcDbPlotSettings
  1

  2
D:\AutoCAD 2002Cz\plotters\PublishToWeb DWF.pc3
  4

  6

 40
0.0
 41
0.0
 42
0.0
 43
0.0
 44
0.0
 45
0.0
 46
0.0
 47
0.0
 48
0.0
 49
0.0
140
0.0
141
0.0
142
1.0
143
1.0
 70
   688
 72
     0
 73
     0
 74
     5
  7

 75
    16
147
1.0
148
0.0
149
0.0
100
AcDbLayout
  1
Rozvržení2
 70
     1
 71
     2
 10
0.0
 20
0.0
 11
12.0
 21
9.0
 12
0.0
 22
0.0
 32
0.0
 14
0.0
 24
0.0
 34
0.0
 15
0.0
 25
0.0
 35
0.0
146
0.0
 13
0.0
 23
0.0
 33
0.0
 16
1.0
 26
0.0
 36
0.0
 17
0.0
 27
1.0
 37
0.0
 76
     0
330
23
  0
MLINESTYLE
  5
18
102
{ACAD_REACTORS
330
17
102
}
330
17
100
AcDbMlineStyle
  2
STANDARD
 70
     0
  3

 62
   256
 51
90.0
 52
90.0
 71
     2
 49
0.5
 62
   256
  6
BYLAYER
 49
-0.5
 62
   256
  6
BYLAYER
  0
ACDBPLACEHOLDER
  5
F
102
{ACAD_REACTORS
330
E
102
}
330
E
  0
DICTIONARYVAR
  5
30
102
{ACAD_REACTORS
330
2E
102
}
330
2E
100
DictionaryVariables
280
     0
  1
2
  0
DICTIONARYVAR
  5
2F
102
{ACAD_REACTORS
330
2E
102
}
330
2E
100
DictionaryVariables
280
     0
  1
1
  0
ENDSEC
  0
EOF
