  0
SECTION
  2
HEADER
  9
$ACADVER
  1
AC1014
  9
$ACADMAINTVER
 70
     0
  9
$DWGCODEPAGE
  3
ANSI_1250
  9
$INSBASE
 10
0.0
 20
0.0
 30
0.0
  9
$EXTMIN
 10
-531.030643
 20
-754.271017
 30
0.0
  9
$EXTMAX
 10
640.156058
 20
430.82983
 30
0.0
  9
$LIMMIN
 10
0.0
 20
0.0
  9
$LIMMAX
 10
420.0
 20
297.0
  9
$ORTHOMODE
 70
     0
  9
$REGENMODE
 70
     1
  9
$FILLMODE
 70
     1
  9
$QTEXTMODE
 70
     0
  9
$MIRRTEXT
 70
     1
  9
$DRAGMODE
 70
     2
  9
$LTSCALE
 40
1.0
  9
$OSMODE
 70
    35
  9
$ATTMODE
 70
     1
  9
$TEXTSIZE
 40
30.0
  9
$TRACEWID
 40
5.0
  9
$TEXTSTYLE
  7
ED30
  9
$CLAYER
  8
0
  9
$CELTYPE
  6
CONTINUOUS
  9
$CECOLOR
 62
     7
  9
$CELTSCALE
 40
1.0
  9
$DELOBJ
 70
     1
  9
$DISPSILH
 70
     0
  9
$DIMSCALE
 40
1.0
  9
$DIMASZ
 40
25.0
  9
$DIMEXO
 40
1.0
  9
$DIMDLI
 40
3.75
  9
$DIMRND
 40
0.0
  9
$DIMDLE
 40
0.0
  9
$DIMEXE
 40
1.25
  9
$DIMTP
 40
0.0
  9
$DIMTM
 40
0.0
  9
$DIMTXT
 40
30.0
  9
$DIMCEN
 40
3.0
  9
$DIMTSZ
 40
0.0
  9
$DIMTOL
 70
     0
  9
$DIMLIM
 70
     0
  9
$DIMTIH
 70
     0
  9
$DIMTOH
 70
     0
  9
$DIMSE1
 70
     0
  9
$DIMSE2
 70
     0
  9
$DIMTAD
 70
     1
  9
$DIMZIN
 70
     8
  9
$DIMBLK
  1

  9
$DIMASO
 70
     1
  9
$DIMSHO
 70
     1
  9
$DIMPOST
  1

  9
$DIMAPOST
  1

  9
$DIMALT
 70
     0
  9
$DIMALTD
 70
     4
  9
$DIMALTF
 40
0.0394
  9
$DIMLFAC
 40
1.0
  9
$DIMTOFL
 70
     1
  9
$DIMTVP
 40
0.0
  9
$DIMTIX
 70
     0
  9
$DIMSOXD
 70
     0
  9
$DIMSAH
 70
     1
  9
$DIMBLK1
  1
_OPEN
  9
$DIMBLK2
  1
_OPEN
  9
$DIMSTYLE
  2
ED30
  9
$DIMCLRD
 70
     0
  9
$DIMCLRE
 70
     0
  9
$DIMCLRT
 70
     0
  9
$DIMTFAC
 40
1.0
  9
$DIMGAP
 40
2.0
  9
$DIMJUST
 70
     0
  9
$DIMSD1
 70
     0
  9
$DIMSD2
 70
     0
  9
$DIMTOLJ
 70
     1
  9
$DIMTZIN
 70
     8
  9
$DIMALTZ
 70
     0
  9
$DIMALTTZ
 70
     0
  9
$DIMFIT
 70
     3
  9
$DIMUPT
 70
     0
  9
$DIMUNIT
 70
     2
  9
$DIMDEC
 70
     0
  9
$DIMTDEC
 70
     1
  9
$DIMALTU
 70
     8
  9
$DIMALTTD
 70
     4
  9
$DIMTXSTY
  7
ED30
  9
$DIMAUNIT
 70
     0
  9
$LUNITS
 70
     2
  9
$LUPREC
 70
     4
  9
$SKETCHINC
 40
1.0
  9
$FILLETRAD
 40
0.0
  9
$AUNITS
 70
     0
  9
$AUPREC
 70
     0
  9
$MENU
  1
.
  9
$ELEVATION
 40
0.0
  9
$PELEVATION
 40
0.0
  9
$THICKNESS
 40
0.0
  9
$LIMCHECK
 70
     0
  9
$BLIPMODE
 70
     0
  9
$CHAMFERA
 40
10.0
  9
$CHAMFERB
 40
10.0
  9
$CHAMFERC
 40
20.0
  9
$CHAMFERD
 40
0.0
  9
$SKPOLY
 70
     1
  9
$TDCREATE
 40
2451196.643769328
  9
$TDUPDATE
 40
2452919.714634606
  9
$TDINDWG
 40
0.3197653935
  9
$TDUSRTIMER
 40
0.3197653935
  9
$USRTIMER
 70
     1
  9
$ANGBASE
 50
0.0
  9
$ANGDIR
 70
     0
  9
$PDMODE
 70
     3
  9
$PDSIZE
 40
20.0
  9
$PLINEWID
 40
0.0
  9
$COORDS
 70
     1
  9
$SPLFRAME
 70
     0
  9
$SPLINETYPE
 70
     6
  9
$SPLINESEGS
 70
     8
  9
$ATTDIA
 70
     0
  9
$ATTREQ
 70
     1
  9
$HANDLING
 70
     1
  9
$HANDSEED
  5
1166
  9
$SURFTAB1
 70
     6
  9
$SURFTAB2
 70
     6
  9
$SURFTYPE
 70
     6
  9
$SURFU
 70
     6
  9
$SURFV
 70
     6
  9
$UCSNAME
  2

  9
$UCSORG
 10
631.0930539653663
 20
-184.0
 30
0.0
  9
$UCSXDIR
 10
1.0
 20
0.0
 30
0.0
  9
$UCSYDIR
 10
0.0
 20
1.0
 30
0.0
  9
$PUCSNAME
  2

  9
$PUCSORG
 10
0.0
 20
0.0
 30
0.0
  9
$PUCSXDIR
 10
1.0
 20
0.0
 30
0.0
  9
$PUCSYDIR
 10
0.0
 20
1.0
 30
0.0
  9
$USERI1
 70
     0
  9
$USERI2
 70
     0
  9
$USERI3
 70
     0
  9
$USERI4
 70
     0
  9
$USERI5
 70
     0
  9
$USERR1
 40
0.0
  9
$USERR2
 40
0.0
  9
$USERR3
 40
0.0
  9
$USERR4
 40
0.0
  9
$USERR5
 40
0.0
  9
$WORLDVIEW
 70
     1
  9
$SHADEDGE
 70
     3
  9
$SHADEDIF
 70
    70
  9
$TILEMODE
 70
     1
  9
$MAXACTVP
 70
    48
  9
$PINSBASE
 10
0.0
 20
0.0
 30
0.0
  9
$PLIMCHECK
 70
     0
  9
$PEXTMIN
 10
1.000000E+20
 20
1.000000E+20
 30
1.000000E+20
  9
$PEXTMAX
 10
-1.000000E+20
 20
-1.000000E+20
 30
-1.000000E+20
  9
$PLIMMIN
 10
0.0
 20
0.0
  9
$PLIMMAX
 10
420.0
 20
297.0
  9
$UNITMODE
 70
     0
  9
$VISRETAIN
 70
     1
  9
$PLINEGEN
 70
     0
  9
$PSLTSCALE
 70
     0
  9
$TREEDEPTH
 70
  3020
  9
$PICKSTYLE
 70
     1
  9
$CMLSTYLE
  2
STANDARD
  9
$CMLJUST
 70
     0
  9
$CMLSCALE
 40
1.0
  9
$PROXYGRAPHICS
 70
     1
  9
$MEASUREMENT
 70
     1
  0
ENDSEC
  0
SECTION
  2
CLASSES
  0
CLASS
  1
DICTIONARYVAR
  2
AcDbDictionaryVar
  3
"AutoCAD"
 90
        0
280
     0
281
     0
  0
CLASS
  1
LWPOLYLINE
  2
AcDbPolyline
  3
"AutoCAD"
 90
        0
280
     0
281
     1
  0
CLASS
  1
HATCH
  2
AcDbHatch
  3
"ACAD_SEDONA"
 90
        0
280
     0
281
     1
  0
ENDSEC
  0
SECTION
  2
TABLES
  0
TABLE
  2
VPORT
  5
8
100
AcDbSymbolTable
 70
     3
  0
VPORT
  5
1165
100
AcDbSymbolTableRecord
100
AcDbViewportTableRecord
  2
*ACTIVE
 70
     0
 10
0.0
 20
0.0
 11
1.0
 21
1.0
 12
166.891065
 22
-64.34165
 13
0.0
 23
0.0
 14
10.0
 24
10.0
 15
10.0
 25
10.0
 16
0.0
 26
0.0
 36
1.0
 17
0.0
 27
0.0
 37
0.0
 40
1490.941514
 41
1.730469
 42
50.0
 43
0.0
 44
0.0
 50
0.0
 51
0.0
 71
     0
 72
   100
 73
     1
 74
     1
 75
     0
 76
     0
 77
     0
 78
     0
  0
ENDTAB
  0
TABLE
  2
LTYPE
  5
5
100
AcDbSymbolTable
 70
    46
  0
LTYPE
  5
14
100
AcDbSymbolTableRecord
100
AcDbLinetypeTableRecord
  2
BYBLOCK
 70
     0
  3

 72
    65
 73
     0
 40
0.0
  0
LTYPE
  5
15
100
AcDbSymbolTableRecord
100
AcDbLinetypeTableRecord
  2
BYLAYER
 70
     0
  3

 72
    65
 73
     0
 40
0.0
  0
LTYPE
  5
16
100
AcDbSymbolTableRecord
100
AcDbLinetypeTableRecord
  2
CONTINUOUS
 70
     0
  3
Solid line
 72
    65
 73
     0
 40
0.0
  0
LTYPE
  5
7F
100
AcDbSymbolTableRecord
100
AcDbLinetypeTableRecord
  2
DASHDOT
 70
     0
  3
Dash dot __ . __ . __ . __ . __ . __ . __ . __
 72
    65
 73
     4
 40
25.4
 49
12.7
 74
     0
 49
-6.35
 74
     0
 49
0.0
 74
     0
 49
-6.35
 74
     0
  0
LTYPE
  5
80
100
AcDbSymbolTableRecord
100
AcDbLinetypeTableRecord
  2
DASHED
 70
     0
  3
Dashed __ __ __ __ __ __ __ __ __ __ __ __ __ _
 72
    65
 73
     2
 40
19.05
 49
12.7
 74
     0
 49
-6.35
 74
     0
  0
LTYPE
  5
713
100
AcDbSymbolTableRecord
100
AcDbLinetypeTableRecord
  2
DOT2
 70
     0
  3
...............................................
 72
    65
 73
     2
 40
0.125
 49
0.0
 74
     0
 49
-0.125
 74
     0
  0
LTYPE
  5
714
100
AcDbSymbolTableRecord
100
AcDbLinetypeTableRecord
  2
ACAD_ISO02W100
 70
     0
  3
ISO dash __ __ __ __ __ __ __ __ __ __ __ __ __
 72
    65
 73
     2
 40
15.0
 49
12.0
 74
     0
 49
-3.0
 74
     0
  0
LTYPE
  5
715
100
AcDbSymbolTableRecord
100
AcDbLinetypeTableRecord
  2
ACAD_ISO03W100
 70
     0
  3
ISO dash space __    __    __    __    __    __
 72
    65
 73
     2
 40
30.0
 49
12.0
 74
     0
 49
-18.0
 74
     0
  0
LTYPE
  5
716
100
AcDbSymbolTableRecord
100
AcDbLinetypeTableRecord
  2
ACAD_ISO04W100
 70
     0
  3
ISO long-dash dot ____ . ____ . ____ . ____ . _
 72
    65
 73
     4
 40
30.5
 49
24.0
 74
     0
 49
-3.0
 74
     0
 49
0.5
 74
     0
 49
-3.0
 74
     0
  0
LTYPE
  5
717
100
AcDbSymbolTableRecord
100
AcDbLinetypeTableRecord
  2
ACAD_ISO05W100
 70
     0
  3
ISO long-dash double-dot ____ .. ____ .. ____ .
 72
    65
 73
     6
 40
34.0
 49
24.0
 74
     0
 49
-3.0
 74
     0
 49
0.5
 74
     0
 49
-3.0
 74
     0
 49
0.5
 74
     0
 49
-3.0
 74
     0
  0
LTYPE
  5
718
100
AcDbSymbolTableRecord
100
AcDbLinetypeTableRecord
  2
ACAD_ISO06W100
 70
     0
  3
ISO long-dash triple-dot ____ ... ____ ... ____
 72
    65
 73
     8
 40
37.5
 49
24.0
 74
     0
 49
-3.0
 74
     0
 49
0.5
 74
     0
 49
-3.0
 74
     0
 49
0.5
 74
     0
 49
-3.0
 74
     0
 49
0.5
 74
     0
 49
-3.0
 74
     0
  0
LTYPE
  5
719
100
AcDbSymbolTableRecord
100
AcDbLinetypeTableRecord
  2
ACAD_ISO07W100
 70
     0
  3
ISO dot . . . . . . . . . . . . . . . . . . . .
 72
    65
 73
     2
 40
3.5
 49
0.5
 74
     0
 49
-3.0
 74
     0
  0
LTYPE
  5
71A
100
AcDbSymbolTableRecord
100
AcDbLinetypeTableRecord
  2
ACAD_ISO08W100
 70
     0
  3
ISO long-dash short-dash ____ __ ____ __ ____ _
 72
    65
 73
     4
 40
36.0
 49
24.0
 74
     0
 49
-3.0
 74
     0
 49
6.0
 74
     0
 49
-3.0
 74
     0
  0
LTYPE
  5
71B
100
AcDbSymbolTableRecord
100
AcDbLinetypeTableRecord
  2
ACAD_ISO09W100
 70
     0
  3
ISO long-dash double-short-dash ____ __ __ ____
 72
    65
 73
     6
 40
45.0
 49
24.0
 74
     0
 49
-3.0
 74
     0
 49
6.0
 74
     0
 49
-3.0
 74
     0
 49
6.0
 74
     0
 49
-3.0
 74
     0
  0
LTYPE
  5
71C
100
AcDbSymbolTableRecord
100
AcDbLinetypeTableRecord
  2
ACAD_ISO10W100
 70
     0
  3
ISO dash dot __ . __ . __ . __ . __ . __ . __ .
 72
    65
 73
     4
 40
18.5
 49
12.0
 74
     0
 49
-3.0
 74
     0
 49
0.5
 74
     0
 49
-3.0
 74
     0
  0
LTYPE
  5
71D
100
AcDbSymbolTableRecord
100
AcDbLinetypeTableRecord
  2
ACAD_ISO11W100
 70
     0
  3
ISO double-dash dot __ __ . __ __ . __ __ . __ 
 72
    65
 73
     6
 40
33.5
 49
12.0
 74
     0
 49
-3.0
 74
     0
 49
12.0
 74
     0
 49
-3.0
 74
     0
 49
0.5
 74
     0
 49
-3.0
 74
     0
  0
LTYPE
  5
71E
100
AcDbSymbolTableRecord
100
AcDbLinetypeTableRecord
  2
ACAD_ISO12W100
 70
     0
  3
ISO dash double-dot __ . . __ . . __ . . __ . .
 72
    65
 73
     6
 40
22.0
 49
12.0
 74
     0
 49
-3.0
 74
     0
 49
0.5
 74
     0
 49
-3.0
 74
     0
 49
0.5
 74
     0
 49
-3.0
 74
     0
  0
LTYPE
  5
71F
100
AcDbSymbolTableRecord
100
AcDbLinetypeTableRecord
  2
ACAD_ISO13W100
 70
     0
  3
ISO double-dash double-dot __ __ . . __ __ . . 
 72
    65
 73
     8
 40
37.0
 49
12.0
 74
     0
 49
-3.0
 74
     0
 49
12.0
 74
     0
 49
-3.0
 74
     0
 49
0.5
 74
     0
 49
-3.0
 74
     0
 49
0.5
 74
     0
 49
-3.0
 74
     0
  0
LTYPE
  5
720
100
AcDbSymbolTableRecord
100
AcDbLinetypeTableRecord
  2
ACAD_ISO14W100
 70
     0
  3
ISO dash triple-dot __ . . . __ . . . __ . . . 
 72
    65
 73
     8
 40
25.5
 49
12.0
 74
     0
 49
-3.0
 74
     0
 49
0.5
 74
     0
 49
-3.0
 74
     0
 49
0.5
 74
     0
 49
-3.0
 74
     0
 49
0.5
 74
     0
 49
-3.0
 74
     0
  0
LTYPE
  5
721
100
AcDbSymbolTableRecord
100
AcDbLinetypeTableRecord
  2
ACAD_ISO15W100
 70
     0
  3
ISO double-dash triple-dot __ __ . . . __ __ . 
 72
    65
 73
    10
 40
40.5
 49
12.0
 74
     0
 49
-3.0
 74
     0
 49
12.0
 74
     0
 49
-3.0
 74
     0
 49
0.5
 74
     0
 49
-3.0
 74
     0
 49
0.5
 74
     0
 49
-3.0
 74
     0
 49
0.5
 74
     0
 49
-3.0
 74
     0
  0
LTYPE
  5
722
100
AcDbSymbolTableRecord
100
AcDbLinetypeTableRecord
  2
BATTING
 70
     0
  3
Batting SSSSSSSSSSSSSSSSSSSSSSSSSSSSSSSSSSSSSSS
 72
    65
 73
     4
 40
0.4001
 49
0.0001
 74
     0
 49
-0.1
 74
     4
 75
   134
340
743
 46
0.1
 50
0.0
 44
-0.1
 45
0.0
 49
-0.2
 74
     4
 75
   134
340
743
 46
0.1
 50
180.0
 44
0.1
 45
0.0
 49
-0.1
 74
     0
  0
LTYPE
  5
723
100
AcDbSymbolTableRecord
100
AcDbLinetypeTableRecord
  2
BORDER
 70
     0
  3
Border __ __ . __ __ . __ __ . __ __ . __ __ .
 72
    65
 73
     6
 40
1.75
 49
0.5
 74
     0
 49
-0.25
 74
     0
 49
0.5
 74
     0
 49
-0.25
 74
     0
 49
0.0
 74
     0
 49
-0.25
 74
     0
  0
LTYPE
  5
724
100
AcDbSymbolTableRecord
100
AcDbLinetypeTableRecord
  2
BORDER2
 70
     0
  3
Border (.5x) __.__.__.__.__.__.__.__.__.__.__.
 72
    65
 73
     6
 40
0.875
 49
0.25
 74
     0
 49
-0.125
 74
     0
 49
0.25
 74
     0
 49
-0.125
 74
     0
 49
0.0
 74
     0
 49
-0.125
 74
     0
  0
LTYPE
  5
725
100
AcDbSymbolTableRecord
100
AcDbLinetypeTableRecord
  2
BORDERX2
 70
     0
  3
Border (2x) ____  ____  .  ____  ____  .  ___
 72
    65
 73
     6
 40
3.5
 49
1.0
 74
     0
 49
-0.5
 74
     0
 49
1.0
 74
     0
 49
-0.5
 74
     0
 49
0.0
 74
     0
 49
-0.5
 74
     0
  0
LTYPE
  5
726
100
AcDbSymbolTableRecord
100
AcDbLinetypeTableRecord
  2
CENTER
 70
     0
  3
Center ____ _ ____ _ ____ _ ____ _ ____ _ ____
 72
    65
 73
     4
 40
2.0
 49
1.25
 74
     0
 49
-0.25
 74
     0
 49
0.25
 74
     0
 49
-0.25
 74
     0
  0
LTYPE
  5
727
100
AcDbSymbolTableRecord
100
AcDbLinetypeTableRecord
  2
CENTER2
 70
     0
  3
Center (.5x) ___ _ ___ _ ___ _ ___ _ ___ _ ___
 72
    65
 73
     4
 40
1.125
 49
0.75
 74
     0
 49
-0.125
 74
     0
 49
0.125
 74
     0
 49
-0.125
 74
     0
  0
LTYPE
  5
728
100
AcDbSymbolTableRecord
100
AcDbLinetypeTableRecord
  2
CENTERX2
 70
     0
  3
Center (2x) ________  __  ________  __  _____
 72
    65
 73
     4
 40
4.0
 49
2.5
 74
     0
 49
-0.5
 74
     0
 49
0.5
 74
     0
 49
-0.5
 74
     0
  0
LTYPE
  5
729
100
AcDbSymbolTableRecord
100
AcDbLinetypeTableRecord
  2
DASHDOT2
 70
     0
  3
Dash dot (.5x) _._._._._._._._._._._._._._._.
 72
    65
 73
     4
 40
0.5
 49
0.25
 74
     0
 49
-0.125
 74
     0
 49
0.0
 74
     0
 49
-0.125
 74
     0
  0
LTYPE
  5
72A
100
AcDbSymbolTableRecord
100
AcDbLinetypeTableRecord
  2
DASHDOTX2
 70
     0
  3
Dash dot (2x) ____  .  ____  .  ____  .  ___
 72
    65
 73
     4
 40
2.0
 49
1.0
 74
     0
 49
-0.5
 74
     0
 49
0.0
 74
     0
 49
-0.5
 74
     0
  0
LTYPE
  5
72B
100
AcDbSymbolTableRecord
100
AcDbLinetypeTableRecord
  2
DASHED2
 70
     0
  3
Dashed (.5x) _ _ _ _ _ _ _ _ _ _ _ _ _ _ _ _ _
 72
    65
 73
     2
 40
0.375
 49
0.25
 74
     0
 49
-0.125
 74
     0
  0
LTYPE
  5
72C
100
AcDbSymbolTableRecord
100
AcDbLinetypeTableRecord
  2
DASHEDX2
 70
     0
  3
Dashed (2x) ____  ____  ____  ____  ____  ___
 72
    65
 73
     2
 40
1.5
 49
1.0
 74
     0
 49
-0.5
 74
     0
  0
LTYPE
  5
72D
100
AcDbSymbolTableRecord
100
AcDbLinetypeTableRecord
  2
DIVIDE
 70
     0
  3
Divide ____ . . ____ . . ____ . . ____ . . ____
 72
    65
 73
     6
 40
1.25
 49
0.5
 74
     0
 49
-0.25
 74
     0
 49
0.0
 74
     0
 49
-0.25
 74
     0
 49
0.0
 74
     0
 49
-0.25
 74
     0
  0
LTYPE
  5
72E
100
AcDbSymbolTableRecord
100
AcDbLinetypeTableRecord
  2
DIVIDE2
 70
     0
  3
Divide (.5x) __..__..__..__..__..__..__..__.._
 72
    65
 73
     6
 40
0.625
 49
0.25
 74
     0
 49
-0.125
 74
     0
 49
0.0
 74
     0
 49
-0.125
 74
     0
 49
0.0
 74
     0
 49
-0.125
 74
     0
  0
LTYPE
  5
72F
100
AcDbSymbolTableRecord
100
AcDbLinetypeTableRecord
  2
DIVIDEX2
 70
     0
  3
Divide (2x) ________  .  .  ________  .  .  _
 72
    65
 73
     6
 40
2.5
 49
1.0
 74
     0
 49
-0.5
 74
     0
 49
0.0
 74
     0
 49
-0.5
 74
     0
 49
0.0
 74
     0
 49
-0.5
 74
     0
  0
LTYPE
  5
730
100
AcDbSymbolTableRecord
100
AcDbLinetypeTableRecord
  2
DOT
 70
     0
  3
Dot . . . . . . . . . . . . . . . . . . . . . .
 72
    65
 73
     2
 40
0.25
 49
0.0
 74
     0
 49
-0.25
 74
     0
  0
LTYPE
  5
731
100
AcDbSymbolTableRecord
100
AcDbLinetypeTableRecord
  2
DOTX2
 70
     0
  3
Dot (2x) .  .  .  .  .  .  .  .  .  .  .  .  . 
 72
    65
 73
     2
 40
0.5
 49
0.0
 74
     0
 49
-0.5
 74
     0
  0
LTYPE
  5
732
100
AcDbSymbolTableRecord
100
AcDbLinetypeTableRecord
  2
FENCELINE1
 70
     0
  3
Fenceline circle ----0-----0----0-----0----0---
 72
    65
 73
     4
 40
1.45
 49
0.25
 74
     0
 49
-0.1
 74
     4
 75
   133
340
743
 46
0.1
 50
0.0
 44
-0.1
 45
0.0
 49
-0.1
 74
     0
 49
1.0
 74
     0
  0
LTYPE
  5
733
100
AcDbSymbolTableRecord
100
AcDbLinetypeTableRecord
  2
FENCELINE2
 70
     0
  3
Fenceline square ----[]-----[]----[]-----[]----
 72
    65
 73
     4
 40
1.45
 49
0.25
 74
     0
 49
-0.1
 74
     4
 75
   132
340
743
 46
0.1
 50
0.0
 44
-0.1
 45
0.0
 49
-0.1
 74
     0
 49
1.0
 74
     0
  0
LTYPE
  5
734
100
AcDbSymbolTableRecord
100
AcDbLinetypeTableRecord
  2
GAS_LINE
 70
     0
  3
Gas line ----GAS----GAS----GAS----GAS----GAS---
 72
    65
 73
     3
 40
0.95
 49
0.5
 74
     0
 49
-0.2
 74
     2
 75
     0
340
10
 46
0.1
 50
0.0
 44
-0.1
 45
-0.05
  9
GAS
 49
-0.25
 74
     0
  0
LTYPE
  5
735
100
AcDbSymbolTableRecord
100
AcDbLinetypeTableRecord
  2
HIDDEN
 70
     0
  3
Hidden __ __ __ __ __ __ __ __ __ __ __ __ __ _
 72
    65
 73
     2
 40
0.375
 49
0.25
 74
     0
 49
-0.125
 74
     0
  0
LTYPE
  5
736
100
AcDbSymbolTableRecord
100
AcDbLinetypeTableRecord
  2
HIDDEN2
 70
     0
  3
Hidden (.5x) _ _ _ _ _ _ _ _ _ _ _ _ _ _ _ _ _
 72
    65
 73
     2
 40
0.1875
 49
0.125
 74
     0
 49
-0.0625
 74
     0
  0
LTYPE
  5
737
100
AcDbSymbolTableRecord
100
AcDbLinetypeTableRecord
  2
HIDDENX2
 70
     0
  3
Hidden (2x) ____ ____ ____ ____ ____ ____ ____
 72
    65
 73
     2
 40
0.75
 49
0.5
 74
     0
 49
-0.25
 74
     0
  0
LTYPE
  5
738
100
AcDbSymbolTableRecord
100
AcDbLinetypeTableRecord
  2
HOT_WATER_SUPPLY
 70
     0
  3
Hot water supply ---- HW ---- HW ---- HW ----
 72
    65
 73
     3
 40
0.9
 49
0.5
 74
     0
 49
-0.2
 74
     2
 75
     0
340
10
 46
0.1
 50
0.0
 44
-0.1
 45
-0.05
  9
HW
 49
-0.2
 74
     0
  0
LTYPE
  5
739
100
AcDbSymbolTableRecord
100
AcDbLinetypeTableRecord
  2
PHANTOM
 70
     0
  3
Phantom ______  __  __  ______  __  __  ______
 72
    65
 73
     6
 40
2.5
 49
1.25
 74
     0
 49
-0.25
 74
     0
 49
0.25
 74
     0
 49
-0.25
 74
     0
 49
0.25
 74
     0
 49
-0.25
 74
     0
  0
LTYPE
  5
73A
100
AcDbSymbolTableRecord
100
AcDbLinetypeTableRecord
  2
PHANTOM2
 70
     0
  3
Phantom (.5x) ___ _ _ ___ _ _ ___ _ _ ___ _ _
 72
    65
 73
     6
 40
1.25
 49
0.625
 74
     0
 49
-0.125
 74
     0
 49
0.125
 74
     0
 49
-0.125
 74
     0
 49
0.125
 74
     0
 49
-0.125
 74
     0
  0
LTYPE
  5
73B
100
AcDbSymbolTableRecord
100
AcDbLinetypeTableRecord
  2
PHANTOMX2
 70
     0
  3
Phantom (2x) ____________    ____    ____   _
 72
    65
 73
     6
 40
5.0
 49
2.5
 74
     0
 49
-0.5
 74
     0
 49
0.5
 74
     0
 49
-0.5
 74
     0
 49
0.5
 74
     0
 49
-0.5
 74
     0
  0
LTYPE
  5
73C
100
AcDbSymbolTableRecord
100
AcDbLinetypeTableRecord
  2
TRACKS
 70
     0
  3
Tracks -|-|-|-|-|-|-|-|-|-|-|-|-|-|-|-|-|-|-|-|
 72
    65
 73
     2
 40
0.3
 49
0.15
 74
     4
 75
   130
340
743
 46
0.25
 50
0.0
 44
0.0
 45
0.0
 49
0.15
 74
     0
  0
LTYPE
  5
73D
100
AcDbSymbolTableRecord
100
AcDbLinetypeTableRecord
  2
ZIGZAG
 70
     0
  3
Zig zag /\/\/\/\/\/\/\/\/\/\/\/\/\/\/\/\/\/\/\/
 72
    65
 73
     4
 40
0.8001
 49
0.0001
 74
     0
 49
-0.2
 74
     4
 75
   131
340
743
 46
0.2
 50
0.0
 44
-0.2
 45
0.0
 49
-0.4
 74
     4
 75
   131
340
743
 46
0.2
 50
180.0
 44
0.2
 45
0.0
 49
-0.2
 74
     0
  0
ENDTAB
  0
TABLE
  2
LAYER
  5
2
100
AcDbSymbolTable
 70
     6
  0
LAYER
  5
F
100
AcDbSymbolTableRecord
100
AcDbLayerTableRecord
  2
0
 70
     0
 62
     7
  6
CONTINUOUS
  0
LAYER
  5
9E
100
AcDbSymbolTableRecord
100
AcDbLayerTableRecord
  2
DEFPOINTS
 70
     0
 62
     7
  6
CONTINUOUS
  0
LAYER
  5
377
100
AcDbSymbolTableRecord
100
AcDbLayerTableRecord
  2
V0-OBRYS
 70
     0
 62
    90
  6
CONTINUOUS
  0
LAYER
  5
378
100
AcDbSymbolTableRecord
100
AcDbLayerTableRecord
  2
V0-VYPLNE
 70
     0
 62
    63
  6
DASHDOT
  0
LAYER
  5
37A
100
AcDbSymbolTableRecord
100
AcDbLayerTableRecord
  2
V0-NAZVY
 70
     0
 62
   210
  6
CONTINUOUS
  0
LAYER
  5
559
100
AcDbSymbolTableRecord
100
AcDbLayerTableRecord
  2
V0-ZBYTEK
 70
     0
 62
    51
  6
CONTINUOUS
  0
ENDTAB
  0
TABLE
  2
STYLE
  5
3
100
AcDbSymbolTable
 70
     6
  0
STYLE
  5
10
100
AcDbSymbolTableRecord
100
AcDbTextStyleTableRecord
  2
STANDARD
 70
     0
 40
7.0
 41
1.0
 50
0.0
 71
     0
 42
20.0
  3
ISOCP.shx
  4

  0
STYLE
  5
331
100
AcDbSymbolTableRecord
100
AcDbTextStyleTableRecord
  2
ED30
 70
     0
 40
30.0
 41
1.0
 50
0.0
 71
     0
 42
30.0
  3
ISOCP.shx
  4

  0
STYLE
  5
5D2
100
AcDbSymbolTableRecord
100
AcDbTextStyleTableRecord
  2
ED20
 70
     0
 40
20.0
 41
1.0
 50
0.0
 71
     0
 42
20.0
  3
isocp.shx
  4

  0
STYLE
  5
64F
100
AcDbSymbolTableRecord
100
AcDbTextStyleTableRecord
  2
ED40
 70
     0
 40
40.0
 41
1.0
 50
0.0
 71
     0
 42
20.0
  3
isocp.shx
  4

  0
STYLE
  5
650
100
AcDbSymbolTableRecord
100
AcDbTextStyleTableRecord
  2
ED10
 70
     0
 40
10.0
 41
1.0
 50
0.0
 71
     0
 42
20.0
  3
isocp.shx
  4

  0
STYLE
  5
743
100
AcDbSymbolTableRecord
100
AcDbTextStyleTableRecord
  2

 70
     1
 40
0.0
 41
1.0
 50
0.0
 71
     0
 42
0.2
  3
ltypeshp.shx
  4

  0
ENDTAB
  0
TABLE
  2
VIEW
  5
6
100
AcDbSymbolTable
 70
     0
  0
ENDTAB
  0
TABLE
  2
UCS
  5
7
100
AcDbSymbolTable
 70
     0
  0
ENDTAB
  0
TABLE
  2
APPID
  5
9
100
AcDbSymbolTable
 70
     5
  0
APPID
  5
11
100
AcDbSymbolTableRecord
100
AcDbRegAppTableRecord
  2
ACAD
 70
     0
  0
APPID
  5
744
100
AcDbSymbolTableRecord
100
AcDbRegAppTableRecord
  2
CONTENTTABDATA
 70
     0
  0
APPID
  5
745
100
AcDbSymbolTableRecord
100
AcDbRegAppTableRecord
  2
CONTENTCURRENTTAB
 70
     0
  0
APPID
  5
746
100
AcDbSymbolTableRecord
100
AcDbRegAppTableRecord
  2
CONTENTBLOCKDESCRIPTION
 70
     0
  0
APPID
  5
10DD
100
AcDbSymbolTableRecord
100
AcDbRegAppTableRecord
  2
CONTENTBLOCKICON
 70
     0
  0
ENDTAB
  0
TABLE
  2
DIMSTYLE
  5
A
100
AcDbSymbolTable
 70
     5
  0
DIMSTYLE
105
1D
100
AcDbSymbolTableRecord
100
AcDbDimStyleTableRecord
  2
STANDARD
 70
     0
  3

  4

  5

  6
_OPEN
  7
_OPEN
 40
0.0
 41
15.0
 42
0.625
 43
3.75
 44
1.25
 45
0.0
 46
0.0
 47
0.0
 48
0.0
140
15.0
141
2.5
142
0.0
143
0.0394
144
1.0
145
0.0
146
1.0
147
3.0
 71
     0
 72
     0
 73
     0
 74
     0
 75
     0
 76
     0
 77
     1
 78
     8
170
     0
171
     4
172
     1
173
     1
174
     0
175
     0
176
     0
177
     0
178
     0
270
     2
271
     0
272
     1
273
     8
274
     4
340
331
275
     0
280
     0
281
     0
282
     0
283
     1
284
     8
285
     0
286
     0
287
     3
288
     0
  0
DIMSTYLE
105
397
100
AcDbSymbolTableRecord
100
AcDbDimStyleTableRecord
  2
ED40
 70
     0
  3

  4

  5

  6
_OPEN
  7
_OPEN
 40
0.0
 41
35.0
 42
1.0
 43
3.75
 44
1.25
 45
0.0
 46
0.0
 47
0.0
 48
0.0
140
40.0
141
3.0
142
0.0
143
0.0394
144
1.0
145
0.0
146
1.0
147
3.0
 71
     0
 72
     0
 73
     0
 74
     0
 75
     0
 76
     0
 77
     1
 78
     8
170
     0
171
     4
172
     1
173
     1
174
     0
175
     0
176
     0
177
     0
178
     0
270
     2
271
     0
272
     1
273
     8
274
     4
340
64F
275
     0
280
     0
281
     0
282
     0
283
     1
284
     8
285
     0
286
     0
287
     3
288
     0
  0
DIMSTYLE
105
656
100
AcDbSymbolTableRecord
100
AcDbDimStyleTableRecord
  2
ED30
 70
     0
  3

  4

  5

  6
_OPEN
  7
_OPEN
 40
0.0
 41
25.0
 42
1.0
 43
3.75
 44
1.25
 45
0.0
 46
0.0
 47
0.0
 48
0.0
140
30.0
141
3.0
142
0.0
143
0.0394
144
1.0
145
0.0
146
1.0
147
2.0
 71
     0
 72
     0
 73
     0
 74
     0
 75
     0
 76
     0
 77
     1
 78
     8
170
     0
171
     4
172
     1
173
     1
174
     0
175
     0
176
     0
177
     0
178
     0
270
     2
271
     0
272
     1
273
     8
274
     4
340
331
275
     0
280
     0
281
     0
282
     0
283
     1
284
     8
285
     0
286
     0
287
     3
288
     0
  0
DIMSTYLE
105
657
102
{ACAD_REACTORS
330
C7A
330
C87
330
C94
330
CAE
330
CBB
330
CA1
102
}
100
AcDbSymbolTableRecord
100
AcDbDimStyleTableRecord
  2
ED20
 70
     0
  3

  4

  5

  6
_OPEN
  7
_OPEN
 40
0.0
 41
20.0
 42
1.0
 43
3.75
 44
1.25
 45
0.0
 46
0.0
 47
0.0
 48
0.0
140
20.0
141
3.0
142
0.0
143
0.0394
144
1.0
145
0.0
146
1.0
147
1.5
 71
     0
 72
     0
 73
     0
 74
     0
 75
     0
 76
     0
 77
     1
 78
     8
170
     0
171
     4
172
     1
173
     1
174
     0
175
     0
176
     0
177
     0
178
     0
270
     2
271
     0
272
     1
273
     8
274
     4
340
5D2
275
     0
280
     0
281
     0
282
     0
283
     1
284
     8
285
     0
286
     0
287
     3
288
     0
  0
DIMSTYLE
105
658
100
AcDbSymbolTableRecord
100
AcDbDimStyleTableRecord
  2
ED10
 70
     0
  3

  4

  5

  6
_OPEN
  7
_OPEN
 40
0.0
 41
15.0
 42
1.0
 43
3.75
 44
1.25
 45
0.0
 46
0.0
 47
0.0
 48
0.0
140
10.0
141
3.0
142
0.0
143
0.0394
144
1.0
145
0.0
146
1.0
147
1.5
 71
     0
 72
     0
 73
     0
 74
     0
 75
     0
 76
     0
 77
     1
 78
     8
170
     0
171
     4
172
     1
173
     1
174
     0
175
     0
176
     0
177
     0
178
     0
270
     2
271
     0
272
     1
273
     8
274
     4
340
5D2
275
     0
280
     0
281
     0
282
     0
283
     1
284
     8
285
     0
286
     0
287
     3
288
     0
  0
ENDTAB
  0
TABLE
  2
BLOCK_RECORD
  5
1
100
AcDbSymbolTable
 70
     7
  0
BLOCK_RECORD
  5
1A
100
AcDbSymbolTableRecord
100
AcDbBlockTableRecord
  2
*MODEL_SPACE
  0
BLOCK_RECORD
  5
17
100
AcDbSymbolTableRecord
100
AcDbBlockTableRecord
  2
*PAPER_SPACE
  0
BLOCK_RECORD
  5
90
100
AcDbSymbolTableRecord
100
AcDbBlockTableRecord
  2
_OPEN
  0
BLOCK_RECORD
  5
C6E
100
AcDbSymbolTableRecord
100
AcDbBlockTableRecord
  2
*D1
  0
BLOCK_RECORD
  5
C7B
100
AcDbSymbolTableRecord
100
AcDbBlockTableRecord
  2
*D2
  0
BLOCK_RECORD
  5
C88
100
AcDbSymbolTableRecord
100
AcDbBlockTableRecord
  2
*D3
  0
BLOCK_RECORD
  5
C95
100
AcDbSymbolTableRecord
100
AcDbBlockTableRecord
  2
*D4
  0
BLOCK_RECORD
  5
CA2
100
AcDbSymbolTableRecord
100
AcDbBlockTableRecord
  2
*D5
  0
BLOCK_RECORD
  5
CAF
100
AcDbSymbolTableRecord
100
AcDbBlockTableRecord
  2
*D6
  0
ENDTAB
  0
ENDSEC
  0
SECTION
  2
BLOCKS
  0
BLOCK
  5
1B
100
AcDbEntity
  8
0
100
AcDbBlockBegin
  2
*MODEL_SPACE
 70
     0
 10
0.0
 20
0.0
 30
0.0
  3
*MODEL_SPACE
  1

  0
ENDBLK
  5
1C
100
AcDbEntity
  8
0
100
AcDbBlockEnd
  0
BLOCK
  5
18
100
AcDbEntity
 67
     1
  8
0
100
AcDbBlockBegin
  2
*PAPER_SPACE
 70
     0
 10
0.0
 20
0.0
 30
0.0
  3
*PAPER_SPACE
  1

  0
ENDBLK
  5
19
100
AcDbEntity
 67
     1
  8
0
100
AcDbBlockEnd
  0
BLOCK
  5
91
100
AcDbEntity
  8
0
100
AcDbBlockBegin
  2
_OPEN
 70
     0
 10
0.0
 20
0.0
 30
0.0
  3
_OPEN
  1

  0
LINE
  5
92
100
AcDbEntity
  8
0
  6
BYBLOCK
 62
     0
100
AcDbLine
 10
-1.0
 20
0.166667
 30
0.0
 11
0.0
 21
0.0
 31
0.0
  0
LINE
  5
93
100
AcDbEntity
  8
0
  6
BYBLOCK
 62
     0
100
AcDbLine
 10
0.0
 20
0.0
 30
0.0
 11
-1.0
 21
-0.166667
 31
0.0
  0
LINE
  5
94
100
AcDbEntity
  8
0
  6
BYBLOCK
 62
     0
100
AcDbLine
 10
0.0
 20
0.0
 30
0.0
 11
-1.0
 21
0.0
 31
0.0
  0
ENDBLK
  5
95
100
AcDbEntity
  8
0
100
AcDbBlockEnd
  0
BLOCK
  5
1051
100
AcDbEntity
  8
0
100
AcDbBlockBegin
  2
*D1
 70
     1
 10
0.0
 20
0.0
 30
0.0
  3
*D1
  1

  0
LINE
  5
1052
100
AcDbEntity
  8
0
  6
BYBLOCK
 62
     0
100
AcDbLine
 10
-270.857979
 20
354.589996
 30
0.0
 11
-501.780643
 21
354.589996
 31
0.0
  0
LINE
  5
1053
100
AcDbEntity
  8
0
  6
BYBLOCK
 62
     0
100
AcDbLine
 10
-270.857979
 20
-160.593506
 30
0.0
 11
-501.780643
 21
-160.593506
 31
0.0
  0
LINE
  5
1054
100
AcDbEntity
  8
0
  6
BYBLOCK
 62
     0
100
AcDbLine
 10
-500.530643
 20
329.589996
 30
0.0
 11
-500.530643
 21
-135.593506
 31
0.0
  0
INSERT
  5
1055
100
AcDbEntity
  8
0
  6
BYBLOCK
 62
     0
100
AcDbBlockReference
  2
_OPEN
 10
-500.530643
 20
354.589996
 30
0.0
 41
25.0
 42
25.0
 43
25.0
 50
90.0
  0
INSERT
  5
1056
100
AcDbEntity
  8
0
  6
BYBLOCK
 62
     0
100
AcDbBlockReference
  2
_OPEN
 10
-500.530643
 20
-160.593506
 30
0.0
 41
25.0
 42
25.0
 43
25.0
 50
270.0
  0
MTEXT
  5
1057
100
AcDbEntity
  8
0
  6
BYBLOCK
 62
     0
100
AcDbMText
 10
-517.530643
 20
96.998245
 30
0.0
 40
30.0
 41
0.0
 71
     5
 72
     1
  1
\A1;515
  7
ED30
 11
0.0
 21
1.0
 31
0.0
  0
POINT
  5
1058
100
AcDbEntity
  8
DEFPOINTS
  6
BYBLOCK
 62
     0
100
AcDbPoint
 10
-269.857979
 20
354.589996
 30
0.0
  0
POINT
  5
1059
100
AcDbEntity
  8
DEFPOINTS
  6
BYBLOCK
 62
     0
100
AcDbPoint
 10
-269.857979
 20
-160.593506
 30
0.0
  0
POINT
  5
105A
100
AcDbEntity
  8
DEFPOINTS
  6
BYBLOCK
 62
     0
100
AcDbPoint
 10
-500.530643
 20
-160.593506
 30
0.0
  0
ENDBLK
  5
105B
100
AcDbEntity
  8
0
100
AcDbBlockEnd
  0
BLOCK
  5
1046
100
AcDbEntity
  8
0
100
AcDbBlockBegin
  2
*D2
 70
     1
 10
0.0
 20
0.0
 30
0.0
  3
*D2
  1

  0
LINE
  5
1047
100
AcDbEntity
  8
0
  6
BYBLOCK
 62
     0
100
AcDbLine
 10
-446.293863
 20
99.183454
 30
0.0
 11
-446.293863
 21
-226.983451
 31
0.0
  0
LINE
  5
1048
100
AcDbEntity
  8
0
  6
BYBLOCK
 62
     0
100
AcDbLine
 10
46.476033
 20
-161.392616
 30
0.0
 11
46.476033
 21
-226.983451
 31
0.0
  0
LINE
  5
1049
100
AcDbEntity
  8
0
  6
BYBLOCK
 62
     0
100
AcDbLine
 10
-421.293863
 20
-225.733451
 30
0.0
 11
21.476033
 21
-225.733451
 31
0.0
  0
INSERT
  5
104A
100
AcDbEntity
  8
0
  6
BYBLOCK
 62
     0
100
AcDbBlockReference
  2
_OPEN
 10
-446.293863
 20
-225.733451
 30
0.0
 41
25.0
 42
25.0
 43
25.0
 50
180.0
  0
INSERT
  5
104B
100
AcDbEntity
  8
0
  6
BYBLOCK
 62
     0
100
AcDbBlockReference
  2
_OPEN
 10
46.476033
 20
-225.733451
 30
0.0
 41
25.0
 42
25.0
 43
25.0
  0
MTEXT
  5
104C
100
AcDbEntity
  8
0
  6
BYBLOCK
 62
     0
100
AcDbMText
 10
-199.908915
 20
-208.733451
 30
0.0
 40
30.0
 41
0.0
 71
     5
 72
     1
  1
\A1;493
  7
ED30
  0
POINT
  5
104D
100
AcDbEntity
  8
DEFPOINTS
  6
BYBLOCK
 62
     0
100
AcDbPoint
 10
-446.293863
 20
100.183454
 30
0.0
  0
POINT
  5
104E
100
AcDbEntity
  8
DEFPOINTS
  6
BYBLOCK
 62
     0
100
AcDbPoint
 10
46.476033
 20
-160.392616
 30
0.0
  0
POINT
  5
104F
100
AcDbEntity
  8
DEFPOINTS
  6
BYBLOCK
 62
     0
100
AcDbPoint
 10
46.476033
 20
-225.733451
 30
0.0
  0
ENDBLK
  5
1050
100
AcDbEntity
  8
0
100
AcDbBlockEnd
  0
BLOCK
  5
1067
100
AcDbEntity
  8
0
100
AcDbBlockBegin
  2
*D3
 70
     1
 10
0.0
 20
0.0
 30
0.0
  3
*D3
  1

  0
LINE
  5
1068
100
AcDbEntity
  8
0
  6
BYBLOCK
 62
     0
100
AcDbLine
 10
47.476033
 20
180.473432
 30
0.0
 11
137.854928
 21
180.473432
 31
0.0
  0
LINE
  5
1069
100
AcDbEntity
  8
0
  6
BYBLOCK
 62
     0
100
AcDbLine
 10
47.476033
 20
-160.392616
 30
0.0
 11
137.854928
 21
-160.392616
 31
0.0
  0
LINE
  5
106A
100
AcDbEntity
  8
0
  6
BYBLOCK
 62
     0
100
AcDbLine
 10
136.604928
 20
155.473432
 30
0.0
 11
136.604928
 21
-135.392616
 31
0.0
  0
INSERT
  5
106B
100
AcDbEntity
  8
0
  6
BYBLOCK
 62
     0
100
AcDbBlockReference
  2
_OPEN
 10
136.604928
 20
180.473432
 30
0.0
 41
25.0
 42
25.0
 43
25.0
 50
90.0
  0
INSERT
  5
106C
100
AcDbEntity
  8
0
  6
BYBLOCK
 62
     0
100
AcDbBlockReference
  2
_OPEN
 10
136.604928
 20
-160.392616
 30
0.0
 41
25.0
 42
25.0
 43
25.0
 50
270.0
  0
MTEXT
  5
106D
100
AcDbEntity
  8
0
  6
BYBLOCK
 62
     0
100
AcDbMText
 10
119.604928
 20
8.165581
 30
0.0
 40
30.0
 41
0.0
 71
     5
 72
     1
  1
\A1;341
  7
ED30
 11
0.0
 21
1.0
 31
0.0
  0
POINT
  5
106E
100
AcDbEntity
  8
DEFPOINTS
  6
BYBLOCK
 62
     0
100
AcDbPoint
 10
46.476033
 20
180.473432
 30
0.0
  0
POINT
  5
106F
100
AcDbEntity
  8
DEFPOINTS
  6
BYBLOCK
 62
     0
100
AcDbPoint
 10
46.476033
 20
-160.392616
 30
0.0
  0
POINT
  5
1070
100
AcDbEntity
  8
DEFPOINTS
  6
BYBLOCK
 62
     0
100
AcDbPoint
 10
136.604928
 20
-160.392616
 30
0.0
  0
ENDBLK
  5
1071
100
AcDbEntity
  8
0
100
AcDbBlockEnd
  0
BLOCK
  5
105C
100
AcDbEntity
  8
0
100
AcDbBlockBegin
  2
*D4
 70
     1
 10
0.0
 20
0.0
 30
0.0
  3
*D4
  1

  0
LINE
  5
105D
100
AcDbEntity
  8
0
  6
BYBLOCK
 62
     0
100
AcDbLine
 10
-183.236847
 20
353.29533
 30
0.0
 11
-183.236847
 21
400.070971
 31
0.0
  0
LINE
  5
105E
100
AcDbEntity
  8
0
  6
BYBLOCK
 62
     0
100
AcDbLine
 10
46.476033
 20
181.473432
 30
0.0
 11
46.476033
 21
400.070971
 31
0.0
  0
LINE
  5
105F
100
AcDbEntity
  8
0
  6
BYBLOCK
 62
     0
100
AcDbLine
 10
-158.236847
 20
398.820971
 30
0.0
 11
21.476033
 21
398.820971
 31
0.0
  0
INSERT
  5
1060
100
AcDbEntity
  8
0
  6
BYBLOCK
 62
     0
100
AcDbBlockReference
  2
_OPEN
 10
-183.236847
 20
398.820971
 30
0.0
 41
25.0
 42
25.0
 43
25.0
 50
180.0
  0
INSERT
  5
1061
100
AcDbEntity
  8
0
  6
BYBLOCK
 62
     0
100
AcDbBlockReference
  2
_OPEN
 10
46.476033
 20
398.820971
 30
0.0
 41
25.0
 42
25.0
 43
25.0
  0
MTEXT
  5
1062
100
AcDbEntity
  8
0
  6
BYBLOCK
 62
     0
100
AcDbMText
 10
-68.380407
 20
415.823924
 30
0.0
 40
30.0
 41
0.0
 71
     5
 72
     1
  1
\A1;230
  7
ED30
  0
POINT
  5
1063
100
AcDbEntity
  8
DEFPOINTS
  6
BYBLOCK
 62
     0
100
AcDbPoint
 10
-183.236847
 20
352.29533
 30
0.0
  0
POINT
  5
1064
100
AcDbEntity
  8
DEFPOINTS
  6
BYBLOCK
 62
     0
100
AcDbPoint
 10
46.476033
 20
180.473432
 30
0.0
  0
POINT
  5
1065
100
AcDbEntity
  8
DEFPOINTS
  6
BYBLOCK
 62
     0
100
AcDbPoint
 10
46.476033
 20
398.820971
 30
0.0
  0
ENDBLK
  5
1066
100
AcDbEntity
  8
0
100
AcDbBlockEnd
  0
BLOCK
  5
107D
100
AcDbEntity
  8
0
100
AcDbBlockBegin
  2
*D5
 70
     1
 10
0.0
 20
0.0
 30
0.0
  3
*D5
  1

  0
LINE
  5
107E
100
AcDbEntity
  8
0
  6
BYBLOCK
 62
     0
100
AcDbLine
 10
235.566948
 20
152.382401
 30
0.0
 11
235.566948
 21
399.427971
 31
0.0
  0
LINE
  5
107F
100
AcDbEntity
  8
0
  6
BYBLOCK
 62
     0
100
AcDbLine
 10
624.846644
 20
347.729533
 30
0.0
 11
624.846644
 21
399.427971
 31
0.0
  0
LINE
  5
1080
100
AcDbEntity
  8
0
  6
BYBLOCK
 62
     0
100
AcDbLine
 10
260.566948
 20
398.177971
 30
0.0
 11
599.846644
 21
398.177971
 31
0.0
  0
INSERT
  5
1081
100
AcDbEntity
  8
0
  6
BYBLOCK
 62
     0
100
AcDbBlockReference
  2
_OPEN
 10
235.566948
 20
398.177971
 30
0.0
 41
25.0
 42
25.0
 43
25.0
 50
180.0
  0
INSERT
  5
1082
100
AcDbEntity
  8
0
  6
BYBLOCK
 62
     0
100
AcDbBlockReference
  2
_OPEN
 10
624.846644
 20
398.177971
 30
0.0
 41
25.0
 42
25.0
 43
25.0
  0
MTEXT
  5
1083
100
AcDbEntity
  8
0
  6
BYBLOCK
 62
     0
100
AcDbMText
 10
430.206796
 20
415.177971
 30
0.0
 40
30.0
 41
0.0
 71
     5
 72
     1
  1
\A1;389
  7
ED30
  0
POINT
  5
1084
100
AcDbEntity
  8
DEFPOINTS
  6
BYBLOCK
 62
     0
100
AcDbPoint
 10
235.566948
 20
151.382401
 30
0.0
  0
POINT
  5
1085
100
AcDbEntity
  8
DEFPOINTS
  6
BYBLOCK
 62
     0
100
AcDbPoint
 10
624.846644
 20
346.729533
 30
0.0
  0
POINT
  5
1086
100
AcDbEntity
  8
DEFPOINTS
  6
BYBLOCK
 62
     0
100
AcDbPoint
 10
624.846644
 20
398.177971
 30
0.0
  0
ENDBLK
  5
1087
100
AcDbEntity
  8
0
100
AcDbBlockEnd
  0
BLOCK
  5
1072
100
AcDbEntity
  8
0
100
AcDbBlockBegin
  2
*D6
 70
     1
 10
0.0
 20
0.0
 30
0.0
  3
*D6
  1

  0
LINE
  5
1073
100
AcDbEntity
  8
0
  6
BYBLOCK
 62
     0
100
AcDbLine
 10
315.888372
 20
-167.999683
 30
0.0
 11
315.888372
 21
-227.497229
 31
0.0
  0
LINE
  5
1074
100
AcDbEntity
  8
0
  6
BYBLOCK
 62
     0
100
AcDbLine
 10
624.846644
 20
-167.999683
 30
0.0
 11
624.846644
 21
-227.497229
 31
0.0
  0
LINE
  5
1075
100
AcDbEntity
  8
0
  6
BYBLOCK
 62
     0
100
AcDbLine
 10
340.888372
 20
-226.247229
 30
0.0
 11
599.846644
 21
-226.247229
 31
0.0
  0
INSERT
  5
1076
100
AcDbEntity
  8
0
  6
BYBLOCK
 62
     0
100
AcDbBlockReference
  2
_OPEN
 10
315.888372
 20
-226.247229
 30
0.0
 41
25.0
 42
25.0
 43
25.0
 50
180.0
  0
INSERT
  5
1077
100
AcDbEntity
  8
0
  6
BYBLOCK
 62
     0
100
AcDbBlockReference
  2
_OPEN
 10
624.846644
 20
-226.247229
 30
0.0
 41
25.0
 42
25.0
 43
25.0
  0
MTEXT
  5
1078
100
AcDbEntity
  8
0
  6
BYBLOCK
 62
     0
100
AcDbMText
 10
470.367508
 20
-209.247229
 30
0.0
 40
30.0
 41
0.0
 71
     5
 72
     1
  1
\A1;309
  7
ED30
  0
POINT
  5
1079
100
AcDbEntity
  8
DEFPOINTS
  6
BYBLOCK
 62
     0
100
AcDbPoint
 10
315.888372
 20
-166.999683
 30
0.0
  0
POINT
  5
107A
100
AcDbEntity
  8
DEFPOINTS
  6
BYBLOCK
 62
     0
100
AcDbPoint
 10
624.846644
 20
-166.999683
 30
0.0
  0
POINT
  5
107B
100
AcDbEntity
  8
DEFPOINTS
  6
BYBLOCK
 62
     0
100
AcDbPoint
 10
624.846644
 20
-226.247229
 30
0.0
  0
ENDBLK
  5
107C
100
AcDbEntity
  8
0
100
AcDbBlockEnd
  0
ENDSEC
  0
SECTION
  2
ENTITIES
  0
ARC
  5
8D0
100
AcDbEntity
  8
V0-OBRYS
100
AcDbCircle
 10
-171.175791
 20
113.913416
 30
0.0
 40
274.306032
100
AcDbArc
 50
179.728476
 51
180.0
  0
ARC
  5
8D1
100
AcDbEntity
  8
V0-OBRYS
100
AcDbCircle
 10
-201.973726
 20
109.999264
 30
0.0
 40
243.338477
100
AcDbArc
 50
89.824564
 51
181.947148
  0
ARC
  5
8D2
100
AcDbEntity
  8
V0-OBRYS
100
AcDbCircle
 10
-211.918561
 20
138.826347
 30
0.0
 40
214.776449
100
AcDbArc
 50
11.180997
 51
87.147077
  0
LINE
  5
91A
100
AcDbEntity
  8
V0-OBRYS
100
AcDbLine
 10
-172.345791
 20
-160.392616
 30
0.0
 11
46.476033
 21
-160.392616
 31
0.0
  0
LINE
  5
947
100
AcDbEntity
  8
V0-OBRYS
100
AcDbLine
 10
46.476033
 20
-160.392616
 30
0.0
 11
46.476033
 21
180.473432
 31
0.0
  0
LINE
  5
948
100
AcDbEntity
  8
V0-OBRYS
100
AcDbLine
 10
-1.218671
 20
180.473432
 30
0.0
 11
46.476033
 21
180.473432
 31
0.0
  0
LINE
  5
949
100
AcDbEntity
  8
V0-OBRYS
100
AcDbLine
 10
-1.218671
 20
180.473432
 30
0.0
 11
-1.218671
 21
-159.678532
 31
0.0
  0
CIRCLE
  5
94B
100
AcDbEntity
  8
V0-OBRYS
100
AcDbCircle
 10
-183.363977
 20
140.868344
 30
0.0
 40
33.385154
  0
ARC
  5
94C
100
AcDbEntity
  8
V0-OBRYS
100
AcDbCircle
 10
-183.363977
 20
140.868344
 30
0.0
 40
88.339963
100
AcDbArc
 50
152.614823
 51
267.600439
  0
ARC
  5
94D
100
AcDbEntity
  8
V0-OBRYS
100
AcDbCircle
 10
-183.363977
 20
140.868344
 30
0.0
 40
138.340861
100
AcDbArc
 50
151.655913
 51
268.285088
  0
ARC
  5
94E
100
AcDbEntity
  8
V0-OBRYS
100
AcDbCircle
 10
-183.363977
 20
140.868344
 30
0.0
 40
144.534525
100
AcDbArc
 50
151.558401
 51
268.418387
  0
LINE
  5
950
100
AcDbEntity
  8
V0-VYPLNE
100
AcDbLine
 10
624.846644
 20
134.261277
 30
0.0
 11
194.050847
 21
134.261277
 31
0.0
  0
ARC
  5
951
100
AcDbEntity
  8
V0-OBRYS
100
AcDbCircle
 10
-172.183519
 20
112.86029
 30
0.0
 40
273.252955
100
AcDbArc
 50
182.415579
 51
269.965975
  0
LINE
  5
98A
100
AcDbEntity
  8
V0-OBRYS
100
AcDbLine
 10
-179.400017
 20
107.48319
 30
0.0
 11
-179.400017
 21
-25.191243
 31
0.0
  0
LINE
  5
98C
100
AcDbEntity
  8
V0-OBRYS
100
AcDbLine
 10
-187.327937
 20
107.48319
 30
0.0
 11
-187.327937
 21
-25.191243
 31
0.0
  0
LINE
  5
98D
100
AcDbEntity
  8
V0-OBRYS
100
AcDbLine
 10
-179.400017
 20
107.48319
 30
0.0
 11
-187.327937
 21
107.48319
 31
0.0
  0
ARC
  5
98E
100
AcDbEntity
  8
V0-OBRYS
100
AcDbCircle
 10
-183.368623
 20
-25.191243
 30
0.0
 40
3.96396
100
AcDbArc
 50
180.0
 51
0.0
  0
LINE
  5
98F
100
AcDbEntity
  8
V0-OBRYS
100
AcDbLine
 10
-152.469606
 20
154.12803
 30
0.0
 11
-37.570177
 21
220.465247
 31
0.0
  0
LINE
  5
990
100
AcDbEntity
  8
V0-OBRYS
100
AcDbLine
 10
-156.433566
 20
160.993811
 30
0.0
 11
-41.534137
 21
227.331027
 31
0.0
  0
ARC
  5
991
100
AcDbEntity
  8
V0-OBRYS
100
AcDbCircle
 10
-39.552157
 20
223.898137
 30
0.0
 40
3.96396
100
AcDbArc
 50
300.0
 51
120.0
  0
LINE
  5
992
100
AcDbEntity
  8
V0-OBRYS
100
AcDbLine
 10
-156.433566
 20
160.993811
 30
0.0
 11
-152.469606
 21
154.12803
 31
0.0
  0
LINE
  5
993
100
AcDbEntity
  8
V0-OBRYS
100
AcDbLine
 10
-210.294388
 20
160.993811
 30
0.0
 11
-325.193818
 21
227.331027
 31
0.0
  0
LINE
  5
994
100
AcDbEntity
  8
V0-OBRYS
100
AcDbLine
 10
-214.258348
 20
154.12803
 30
0.0
 11
-329.157778
 21
220.465247
 31
0.0
  0
ARC
  5
995
100
AcDbEntity
  8
V0-OBRYS
100
AcDbCircle
 10
-327.175798
 20
223.898137
 30
0.0
 40
3.96396
100
AcDbArc
 50
60.0
 51
240.0
  0
LINE
  5
996
100
AcDbEntity
  8
V0-OBRYS
100
AcDbLine
 10
-214.258348
 20
154.12803
 30
0.0
 11
-210.294388
 21
160.993811
 31
0.0
  0
ARC
  5
997
100
AcDbEntity
  8
V0-OBRYS
100
AcDbCircle
 10
-183.363977
 20
140.868344
 30
0.0
 40
88.339963
100
AcDbArc
 50
272.565236
 51
27.437736
  0
ARC
  5
998
100
AcDbEntity
  8
V0-OBRYS
100
AcDbCircle
 10
-183.363977
 20
140.868344
 30
0.0
 40
138.340861
100
AcDbArc
 50
271.637083
 51
28.280642
  0
ARC
  5
999
100
AcDbEntity
  8
V0-OBRYS
100
AcDbCircle
 10
-183.363977
 20
140.868344
 30
0.0
 40
144.534525
100
AcDbArc
 50
271.628789
 51
28.480046
  0
ARC
  5
99A
100
AcDbEntity
  8
V0-OBRYS
100
AcDbCircle
 10
-183.363977
 20
140.868344
 30
0.0
 40
144.534525
100
AcDbArc
 50
31.609657
 51
148.514274
  0
ARC
  5
99B
100
AcDbEntity
  8
V0-OBRYS
100
AcDbCircle
 10
-183.363977
 20
140.868344
 30
0.0
 40
138.340861
100
AcDbArc
 50
31.727031
 51
148.450037
  0
ARC
  5
99C
100
AcDbEntity
  8
V0-OBRYS
100
AcDbCircle
 10
-183.363977
 20
140.868344
 30
0.0
 40
88.339963
100
AcDbArc
 50
32.684046
 51
147.424572
  0
LINE
  5
BFE
100
AcDbEntity
  8
V0-OBRYS
100
AcDbLine
 10
624.846644
 20
346.729533
 30
0.0
 11
624.846644
 21
-166.999683
 31
0.0
  0
LINE
  5
BFF
100
AcDbEntity
  8
V0-OBRYS
100
AcDbLine
 10
315.888372
 20
198.491686
 30
0.0
 11
624.846644
 21
198.491686
 31
0.0
  0
LINE
  5
C00
100
AcDbEntity
  8
V0-OBRYS
100
AcDbLine
 10
315.888372
 20
346.729533
 30
0.0
 11
624.846644
 21
346.729533
 31
0.0
  0
LINE
  5
C01
100
AcDbEntity
  8
V0-OBRYS
100
AcDbLine
 10
315.888372
 20
-166.999683
 30
0.0
 11
624.846644
 21
-166.999683
 31
0.0
  0
LINE
  5
C02
100
AcDbEntity
  8
V0-OBRYS
100
AcDbLine
 10
315.888372
 20
-166.999683
 30
0.0
 11
315.888372
 21
346.729533
 31
0.0
  0
LINE
  5
C03
100
AcDbEntity
  8
V0-OBRYS
100
AcDbLine
 10
235.566948
 20
91.545306
 30
0.0
 11
235.566948
 21
149.676074
 31
0.0
  0
LINE
  5
C08
100
AcDbEntity
  8
V0-OBRYS
100
AcDbLine
 10
315.888372
 20
224.754296
 30
0.0
 11
235.566948
 21
151.382401
 31
0.0
  0
LINE
  5
C09
100
AcDbEntity
  8
V0-OBRYS
100
AcDbLine
 10
315.888372
 20
-36.313146
 30
0.0
 11
241.522928
 21
91.545306
 31
0.0
  0
LINE
  5
C0B
100
AcDbEntity
  8
V0-OBRYS
100
AcDbLine
 10
233.378975
 20
91.545306
 30
0.0
 11
315.888372
 21
91.545306
 31
0.0
  0
LINE
  5
C0C
100
AcDbEntity
  8
V0-OBRYS
100
AcDbLine
 10
241.522928
 20
91.545306
 30
0.0
 11
307.859629
 21
16.582871
 31
0.0
  0
LINE
  5
C0D
100
AcDbEntity
  8
V0-OBRYS
100
AcDbLine
 10
306.151622
 20
190.15201
 30
0.0
 11
306.151622
 21
-13.028291
 31
0.0
  0
LINE
  5
C0E
100
AcDbEntity
  8
V0-OBRYS
100
AcDbLine
 10
235.086982
 20
149.676074
 30
0.0
 11
306.151622
 21
149.676074
 31
0.0
  0
LINE
  5
C0F
100
AcDbEntity
  8
V0-OBRYS
100
AcDbLine
 10
244.607152
 20
149.607245
 30
0.0
 11
244.607152
 21
88.165119
 31
0.0
  0
LINE
  5
C11
100
AcDbEntity
  8
V0-OBRYS
100
AcDbLine
 10
347.600052
 20
166.780006
 30
0.0
 11
593.134964
 21
166.780006
 31
0.0
  0
LINE
  5
C12
100
AcDbEntity
  8
V0-OBRYS
100
AcDbLine
 10
593.134964
 20
166.780006
 30
0.0
 11
593.134964
 21
-135.288003
 31
0.0
  0
LINE
  5
C13
100
AcDbEntity
  8
V0-OBRYS
100
AcDbLine
 10
347.600052
 20
-135.288003
 30
0.0
 11
593.134964
 21
-135.288003
 31
0.0
  0
LINE
  5
C14
100
AcDbEntity
  8
V0-OBRYS
100
AcDbLine
 10
347.600052
 20
-135.288003
 30
0.0
 11
347.600052
 21
166.780006
 31
0.0
  0
LINE
  5
C15
100
AcDbEntity
  8
V0-OBRYS
100
AcDbLine
 10
370.540981
 20
60.421973
 30
0.0
 11
370.540981
 21
-48.257406
 31
0.0
  0
LINE
  5
C16
100
AcDbEntity
  8
V0-OBRYS
100
AcDbLine
 10
370.540981
 20
-48.257406
 30
0.0
 11
569.892936
 21
-48.257406
 31
0.0
  0
LINE
  5
C17
100
AcDbEntity
  8
V0-OBRYS
100
AcDbLine
 10
569.892936
 20
-48.257406
 30
0.0
 11
569.892936
 21
60.421973
 31
0.0
  0
LINE
  5
C1B
100
AcDbEntity
  8
V0-OBRYS
100
AcDbLine
 10
347.600052
 20
60.421973
 30
0.0
 11
593.134964
 21
60.421973
 31
0.0
  0
LINE
  5
C1C
100
AcDbEntity
  8
V0-OBRYS
100
AcDbLine
 10
560.584104
 20
60.421973
 30
0.0
 11
569.892936
 21
60.421973
 31
0.0
  0
LINE
  5
C1D
100
AcDbEntity
  8
V0-OBRYS
100
AcDbLine
 10
371.491076
 20
42.366104
 30
0.0
 11
569.892936
 21
42.366104
 31
0.0
  0
LINE
  5
C1E
100
AcDbEntity
  8
V0-OBRYS
100
AcDbLine
 10
371.491076
 20
26.889644
 30
0.0
 11
569.892936
 21
26.889644
 31
0.0
  0
LINE
  5
C1F
100
AcDbEntity
  8
V0-OBRYS
100
AcDbLine
 10
370.845591
 20
12.702885
 30
0.0
 11
569.892936
 21
12.702885
 31
0.0
  0
LINE
  5
C20
100
AcDbEntity
  8
V0-OBRYS
100
AcDbLine
 10
370.845591
 20
-1.483869
 30
0.0
 11
569.892936
 21
-1.483869
 31
0.0
  0
LINE
  5
C21
100
AcDbEntity
  8
V0-OBRYS
100
AcDbLine
 10
370.200105
 20
-14.380917
 30
0.0
 11
569.892936
 21
-14.380917
 31
0.0
  0
LINE
  5
C22
100
AcDbEntity
  8
V0-OBRYS
100
AcDbLine
 10
370.200105
 20
-25.343407
 30
0.0
 11
569.892936
 21
-25.343407
 31
0.0
  0
LINE
  5
C23
100
AcDbEntity
  8
V0-OBRYS
100
AcDbLine
 10
370.845591
 20
-35.016198
 30
0.0
 11
569.892936
 21
-35.016198
 31
0.0
  0
LINE
  5
C24
100
AcDbEntity
  8
V0-OBRYS
100
AcDbLine
 10
370.845591
 20
-42.109572
 30
0.0
 11
569.892936
 21
-42.109572
 31
0.0
  0
LWPOLYLINE
  5
C28
100
AcDbEntity
  8
V0-OBRYS
100
AcDbPolyline
 90
        4
 70
     1
 43
0.0
 10
-230.638243
 20
-122.120308
 10
-160.638243
 20
-122.120308
 10
-160.638243
 20
-102.120308
 10
-230.638243
 20
-102.120308
  0
LWPOLYLINE
  5
C2A
100
AcDbEntity
  8
V0-OBRYS
100
AcDbPolyline
 90
        4
 70
     1
 43
0.0
 10
-125.071579
 20
-136.110232
 10
-65.071579
 20
-136.110232
 10
-65.071579
 20
-76.110232
 10
-125.071579
 20
-76.110232
  0
LWPOLYLINE
  5
C2B
100
AcDbEntity
  8
V0-OBRYS
100
AcDbPolyline
 90
        4
 70
     0
 43
0.0
 10
317.843032
 20
-80.773881
 10
277.231486
 20
-80.773881
 10
277.231486
 20
-140.773881
 10
317.843032
 20
-140.773881
  0
LINE
  5
C2C
100
AcDbEntity
  8
V0-VYPLNE
100
AcDbLine
 10
87.554323
 20
140.868344
 30
0.0
 11
-185.805042
 21
140.868344
 31
0.0
  0
LINE
  5
C2D
100
AcDbEntity
  8
V0-OBRYS
100
AcDbLine
 10
235.566948
 20
149.676074
 30
0.0
 11
314.691655
 21
197.453121
 31
0.0
  0
LINE
  5
C2F
100
AcDbEntity
  8
V0-OBRYS
100
AcDbLine
 10
291.235227
 20
-80.50959
 30
0.0
 11
291.235227
 21
-140.773881
 31
0.0
  0
LINE
  5
C31
100
AcDbEntity
  8
V0-OBRYS
100
AcDbLine
 10
-447.320727
 20
-365.612121
 30
0.0
 11
49.782834
 21
-365.612121
 31
0.0
  0
LINE
  5
C32
100
AcDbEntity
  8
V0-OBRYS
100
AcDbLine
 10
-330.74418
 20
-684.307143
 30
0.0
 11
-36.165044
 21
-684.307143
 31
0.0
  0
LINE
  5
C37
100
AcDbEntity
  8
V0-OBRYS
100
AcDbLine
 10
-140.73864
 20
-754.271017
 30
0.0
 11
-226.170583
 21
-754.271017
 31
0.0
  0
LINE
  5
C38
100
AcDbEntity
  8
V0-OBRYS
100
AcDbLine
 10
-226.170583
 20
-747.570813
 30
0.0
 11
-140.73864
 21
-747.570813
 31
0.0
  0
LINE
  5
C39
100
AcDbEntity
  8
V0-OBRYS
100
AcDbLine
 10
49.782834
 20
-674.570393
 30
0.0
 11
-447.320727
 21
-674.570393
 31
0.0
  0
LINE
  5
C3D
100
AcDbEntity
  8
V0-OBRYS
100
AcDbLine
 10
-12.880188
 20
-674.570393
 30
0.0
 11
-140.73864
 21
-750.655037
 31
0.0
  0
LINE
  5
C3E
100
AcDbEntity
  8
V0-OBRYS
100
AcDbLine
 10
-140.73864
 20
-750.655037
 30
0.0
 11
-65.776205
 21
-682.599136
 31
0.0
  0
LINE
  5
C3F
100
AcDbEntity
  8
V0-OBRYS
100
AcDbLine
 10
-140.73864
 20
-754.271017
 30
0.0
 11
-140.73864
 21
-684.307143
 31
0.0
  0
LINE
  5
C4F
100
AcDbEntity
  8
V0-OBRYS
100
AcDbLine
 10
-447.320727
 20
-674.570393
 30
0.0
 11
-447.320727
 21
-365.612121
 31
0.0
  0
LINE
  5
C56
100
AcDbEntity
  8
V0-OBRYS
100
AcDbLine
 10
-226.170583
 20
-754.271017
 30
0.0
 11
-226.170583
 21
-684.307143
 31
0.0
  0
LINE
  5
C57
100
AcDbEntity
  8
V0-OBRYS
100
AcDbLine
 10
-226.170583
 20
-750.655037
 30
0.0
 11
-301.133018
 21
-682.599136
 31
0.0
  0
LINE
  5
C58
100
AcDbEntity
  8
V0-OBRYS
100
AcDbLine
 10
-354.029035
 20
-674.570393
 30
0.0
 11
-226.170583
 21
-750.655037
 31
0.0
  0
LINE
  5
C59
100
AcDbEntity
  8
V0-OBRYS
100
AcDbLine
 10
-3.911871
 20
-365.612121
 30
0.0
 11
-3.911871
 21
-671.941812
 31
0.0
  0
LINE
  5
C5A
100
AcDbEntity
  8
V0-OBRYS
100
AcDbLine
 10
49.782834
 20
-365.612121
 30
0.0
 11
49.782834
 21
-674.570393
 31
0.0
  0
LINE
  5
C5B
100
AcDbEntity
  8
V0-VYPLNE
100
AcDbLine
 10
-183.309246
 20
-385.908501
 30
0.0
 11
-183.309246
 21
-663.64038
 31
0.0
  0
LINE
  5
C5C
100
AcDbEntity
  8
V0-OBRYS
100
AcDbLine
 10
577.344407
 20
60.421973
 30
0.0
 11
577.344407
 21
-18.05994
 31
0.0
  0
LINE
  5
C5D
100
AcDbEntity
  8
V0-OBRYS
100
AcDbLine
 10
577.344407
 20
-18.05994
 30
0.0
 11
592.542562
 21
-33.243099
 31
0.0
  0
LINE
  5
C5F
100
AcDbEntity
  8
V0-OBRYS
100
AcDbLine
 10
363.39061
 20
60.421973
 30
0.0
 11
363.39061
 21
-18.05994
 31
0.0
  0
LINE
  5
C60
100
AcDbEntity
  8
V0-OBRYS
100
AcDbLine
 10
363.39061
 20
-18.05994
 30
0.0
 11
348.192454
 21
-33.243099
 31
0.0
  0
DIMENSION
  5
C7A
100
AcDbEntity
  8
V0-VYPLNE
  6
CONTINUOUS
 62
    41
100
AcDbDimension
  2
*D1
 10
-500.530643
 20
-160.593506
 30
0.0
 11
-517.530643
 21
96.998245
 31
0.0
 70
    32
  3
ED30
100
AcDbAlignedDimension
 13
-269.857979
 23
354.589996
 33
0.0
 14
-269.857979
 24
-160.593506
 34
0.0
 50
90.0
100
AcDbRotatedDimension
1001
ACAD
1000
DSTYLE
1002
{
1070
    40
1040
1.0
1002
}
  0
DIMENSION
  5
C87
100
AcDbEntity
  8
V0-VYPLNE
  6
CONTINUOUS
 62
    41
100
AcDbDimension
  2
*D2
 10
46.476033
 20
-225.733451
 30
0.0
 11
-199.908915
 21
-208.733451
 31
0.0
 70
    32
  3
ED30
100
AcDbAlignedDimension
 13
-446.293863
 23
100.183454
 33
0.0
 14
46.476033
 24
-160.392616
 34
0.0
100
AcDbRotatedDimension
1001
ACAD
1000
DSTYLE
1002
{
1070
    40
1040
1.0
1002
}
  0
DIMENSION
  5
C94
100
AcDbEntity
  8
V0-VYPLNE
  6
CONTINUOUS
 62
    41
100
AcDbDimension
  2
*D3
 10
136.604928
 20
-160.392616
 30
0.0
 11
136.604928
 21
8.165581
 31
0.0
 70
   160
  3
ED30
100
AcDbAlignedDimension
 13
46.476033
 23
180.473432
 33
0.0
 14
46.476033
 24
-160.392616
 34
0.0
 50
90.0
100
AcDbRotatedDimension
1001
ACAD
1000
DSTYLE
1002
{
1070
    40
1040
1.0
1002
}
  0
DIMENSION
  5
CA1
100
AcDbEntity
  8
V0-VYPLNE
  6
CONTINUOUS
 62
    41
100
AcDbDimension
  2
*D4
 10
46.476033
 20
398.820971
 30
0.0
 11
-68.380407
 21
415.823924
 31
0.0
 70
    32
  3
ED30
100
AcDbAlignedDimension
 13
-183.236847
 23
352.29533
 33
0.0
 14
46.476033
 24
180.473432
 34
0.0
100
AcDbRotatedDimension
1001
ACAD
1000
DSTYLE
1002
{
1070
    40
1040
1.0
1002
}
  0
DIMENSION
  5
CAE
100
AcDbEntity
  8
V0-VYPLNE
  6
CONTINUOUS
 62
    41
100
AcDbDimension
  2
*D5
 10
624.846644
 20
398.177971
 30
0.0
 11
430.206796
 21
415.177971
 31
0.0
 70
    32
  3
ED30
100
AcDbAlignedDimension
 13
235.566948
 23
151.382401
 33
0.0
 14
624.846644
 24
346.729533
 34
0.0
100
AcDbRotatedDimension
1001
ACAD
1000
DSTYLE
1002
{
1070
    40
1040
1.0
1002
}
  0
DIMENSION
  5
CBB
100
AcDbEntity
  8
V0-VYPLNE
  6
CONTINUOUS
 62
    41
100
AcDbDimension
  2
*D6
 10
624.846644
 20
-226.247229
 30
0.0
 11
470.367508
 21
-209.247229
 31
0.0
 70
    32
  3
ED30
100
AcDbAlignedDimension
 13
315.888372
 23
-166.999683
 33
0.0
 14
624.846644
 24
-166.999683
 34
0.0
100
AcDbRotatedDimension
1001
ACAD
1000
DSTYLE
1002
{
1070
    40
1040
1.0
1002
}
  0
MTEXT
  5
CC3
100
AcDbEntity
  8
V0-ZBYTEK
 62
    51
100
AcDbMText
 10
422.115653
 20
-502.193041
 30
0.0
 40
33.297264
 41
943.245846
 71
     5
 72
     5
  1
SPECIALNI RADIALNI\PVENTILATOR
  7
ED10
  0
MTEXT
  5
CC5
100
AcDbEntity
  8
V0-NAZVY
100
AcDbMText
 10
406.855614
 20
-388.607955
 30
0.0
 40
59.4594
 41
489.0905
 71
     5
 72
     5
  1
CBM-320-240
  7
ED10
  0
MTEXT
  5
CC8
100
AcDbEntity
  8
V0-NAZVY
100
AcDbMText
 10
471.821938
 20
265.631547
 30
0.0
 40
35.67564
 41
293.4543
 71
     5
 72
     5
  1
CBM-320-240
  7
ED10
  0
MTEXT
  5
CC9
100
AcDbEntity
  8
V0-NAZVY
100
AcDbMText
 10
-184.981814
 20
-551.786675
 30
0.0
 40
35.67564
 41
293.4543
 71
     5
 72
     5
  1
CBM-320-240
  7
ED10
  0
MTEXT
  5
CCA
100
AcDbEntity
  8
V0-NAZVY
100
AcDbMText
 10
-189.222774
 20
-48.204178
 30
0.0
 40
35.67564
 41
293.4543
 71
     5
 72
     5
  1
CBM-320-240
  7
ED10
  0
LINE
  5
FE0
100
AcDbEntity
  8
V0-VYPLNE
100
AcDbLine
 10
-183.363977
 20
411.786644
 30
0.0
 11
-183.363977
 21
138.427279
 31
0.0
  0
LINE
  5
FE1
100
AcDbEntity
  8
V0-VYPLNE
100
AcDbLine
 10
-454.282277
 20
140.868344
 30
0.0
 11
-180.922912
 21
140.868344
 31
0.0
  0
LINE
  5
FE2
100
AcDbEntity
  8
V0-VYPLNE
100
AcDbLine
 10
-183.363977
 20
-130.049957
 30
0.0
 11
-183.363977
 21
143.309409
 31
0.0
  0
POINT
  5
1040
100
AcDbEntity
  8
0
  6
CONTINUOUS
 62
     7
100
AcDbPoint
 10
49.782834
 20
-520.091257
 30
0.0
  0
POINT
  5
1041
100
AcDbEntity
  8
0
  6
CONTINUOUS
 62
     7
100
AcDbPoint
 10
46.476033
 20
10.040408
 30
0.0
  0
POINT
  5
1043
100
AcDbEntity
  8
0
  6
CONTINUOUS
 62
     7
100
AcDbPoint
 10
470.367508
 20
15.746002
 30
0.0
  0
VIEWPORT
  5
22
100
AcDbEntity
 67
     1
  8
0
100
AcDbViewport
 10
261.517699
 20
148.5
 30
0.0
 40
523.035398
 41
297.0
 68
    -1
 69
     1
1001
ACAD
1000
MVIEW
1002
{
1070
    16
1010
0.0
1020
0.0
1030
0.0
1010
0.0
1020
0.0
1030
1.0
1040
0.0
1040
297.0
1040
261.517699
1040
148.5
1040
50.0
1040
0.0
1040
0.0
1070
     0
1070
   100
1070
     1
1070
     1
1070
     0
1070
     0
1070
     0
1070
     0
1040
0.0
1040
0.0
1040
0.0
1040
1.0
1040
1.0
1040
10.0
1040
10.0
1070
     0
1002
{
1002
}
1002
}
  0
ENDSEC
  0
SECTION
  2
OBJECTS
  0
DICTIONARY
  5
C
100
AcDbDictionary
  3
ACAD_GROUP
350
D
  3
ACAD_MLINESTYLE
350
E
  3
ACDBVARIABLEDICTIONARY
350
5D
  0
DICTIONARY
  5
D
102
{ACAD_REACTORS
330
C
102
}
100
AcDbDictionary
  0
DICTIONARY
  5
E
102
{ACAD_REACTORS
330
C
102
}
100
AcDbDictionary
  3
STANDARD
350
13
  0
DICTIONARY
  5
5D
102
{ACAD_REACTORS
330
C
102
}
100
AcDbDictionary
  3
DIMADEC
350
5E
  3
SORTENTS
350
3D8
  0
MLINESTYLE
  5
13
102
{ACAD_REACTORS
330
E
102
}
100
AcDbMlineStyle
  2
STANDARD
 70
     0
  3

 62
     0
 51
90.0
 52
90.0
 71
     2
 49
0.5
 62
   256
  6
BYLAYER
 49
-0.5
 62
   256
  6
BYLAYER
  0
DICTIONARYVAR
  5
5E
102
{ACAD_REACTORS
330
5D
102
}
100
DictionaryVariables
280
     0
  1
0
  0
DICTIONARYVAR
  5
3D8
102
{ACAD_REACTORS
330
5D
102
}
100
DictionaryVariables
280
     0
  1
96
  0
ENDSEC
  0
EOF
