  0
SECTION
  2
HEADER
  9
$ACADVER
  1
AC1014
  9
$ACADMAINTVER
 70
     0
  9
$DWGCODEPAGE
  3
ANSI_1250
  9
$INSBASE
 10
0.0
 20
0.0
 30
0.0
  9
$EXTMIN
 10
-29.165382
 20
-627.663642
 30
0.0
  9
$EXTMAX
 10
851.40893
 20
301.284164
 30
0.0
  9
$LIMMIN
 10
0.0
 20
0.0
  9
$LIMMAX
 10
420.0
 20
297.0
  9
$ORTHOMODE
 70
     0
  9
$REGENMODE
 70
     1
  9
$FILLMODE
 70
     1
  9
$QTEXTMODE
 70
     0
  9
$MIRRTEXT
 70
     1
  9
$DRAGMODE
 70
     2
  9
$LTSCALE
 40
1.0
  9
$OSMODE
 70
    15
  9
$ATTMODE
 70
     1
  9
$TEXTSIZE
 40
20.0
  9
$TRACEWID
 40
1.0
  9
$TEXTSTYLE
  7
ED20
  9
$CLAYER
  8
V0-VYPLNE
  9
$CELTYPE
  6
CONTINUOUS
  9
$CECOLOR
 62
    41
  9
$CELTSCALE
 40
3.0
  9
$DELOBJ
 70
     1
  9
$DISPSILH
 70
     0
  9
$DIMSCALE
 40
1.0
  9
$DIMASZ
 40
30.0
  9
$DIMEXO
 40
0.625
  9
$DIMDLI
 40
3.75
  9
$DIMRND
 40
0.0
  9
$DIMDLE
 40
0.0
  9
$DIMEXE
 40
1.25
  9
$DIMTP
 40
0.0
  9
$DIMTM
 40
0.0
  9
$DIMTXT
 40
25.0
  9
$DIMCEN
 40
50.0
  9
$DIMTSZ
 40
0.0
  9
$DIMTOL
 70
     0
  9
$DIMLIM
 70
     0
  9
$DIMTIH
 70
     0
  9
$DIMTOH
 70
     0
  9
$DIMSE1
 70
     0
  9
$DIMSE2
 70
     0
  9
$DIMTAD
 70
     1
  9
$DIMZIN
 70
     8
  9
$DIMBLK
  1

  9
$DIMASO
 70
     1
  9
$DIMSHO
 70
     1
  9
$DIMPOST
  1

  9
$DIMAPOST
  1

  9
$DIMALT
 70
     0
  9
$DIMALTD
 70
     4
  9
$DIMALTF
 40
0.0394
  9
$DIMLFAC
 40
1.0
  9
$DIMTOFL
 70
     1
  9
$DIMTVP
 40
0.0
  9
$DIMTIX
 70
     0
  9
$DIMSOXD
 70
     0
  9
$DIMSAH
 70
     1
  9
$DIMBLK1
  1
_OPEN
  9
$DIMBLK2
  1
_OPEN
  9
$DIMSTYLE
  2
ED20
  9
$DIMCLRD
 70
     0
  9
$DIMCLRE
 70
     0
  9
$DIMCLRT
 70
     0
  9
$DIMTFAC
 40
1.0
  9
$DIMGAP
 40
3.0
  9
$DIMJUST
 70
     0
  9
$DIMSD1
 70
     0
  9
$DIMSD2
 70
     0
  9
$DIMTOLJ
 70
     1
  9
$DIMTZIN
 70
     8
  9
$DIMALTZ
 70
     0
  9
$DIMALTTZ
 70
     0
  9
$DIMFIT
 70
     3
  9
$DIMUPT
 70
     0
  9
$DIMUNIT
 70
     2
  9
$DIMDEC
 70
     0
  9
$DIMTDEC
 70
     1
  9
$DIMALTU
 70
     8
  9
$DIMALTTD
 70
     4
  9
$DIMTXSTY
  7
ED20
  9
$DIMAUNIT
 70
     0
  9
$LUNITS
 70
     2
  9
$LUPREC
 70
     4
  9
$SKETCHINC
 40
1.0
  9
$FILLETRAD
 40
5.0
  9
$AUNITS
 70
     0
  9
$AUPREC
 70
     0
  9
$MENU
  1
.
  9
$ELEVATION
 40
0.0
  9
$PELEVATION
 40
0.0
  9
$THICKNESS
 40
0.0
  9
$LIMCHECK
 70
     0
  9
$BLIPMODE
 70
     0
  9
$CHAMFERA
 40
10.0
  9
$CHAMFERB
 40
10.0
  9
$CHAMFERC
 40
20.0
  9
$CHAMFERD
 40
0.0
  9
$SKPOLY
 70
     1
  9
$TDCREATE
 40
2451196.643769328
  9
$TDUPDATE
 40
2453318.429500312
  9
$TDINDWG
 40
0.3724870833
  9
$TDUSRTIMER
 40
0.3724870833
  9
$USRTIMER
 70
     1
  9
$ANGBASE
 50
0.0
  9
$ANGDIR
 70
     0
  9
$PDMODE
 70
     3
  9
$PDSIZE
 40
15.0
  9
$PLINEWID
 40
0.0
  9
$COORDS
 70
     1
  9
$SPLFRAME
 70
     0
  9
$SPLINETYPE
 70
     6
  9
$SPLINESEGS
 70
     8
  9
$ATTDIA
 70
     0
  9
$ATTREQ
 70
     1
  9
$HANDLING
 70
     1
  9
$HANDSEED
  5
661
  9
$SURFTAB1
 70
     6
  9
$SURFTAB2
 70
     6
  9
$SURFTYPE
 70
     6
  9
$SURFU
 70
     6
  9
$SURFV
 70
     6
  9
$UCSNAME
  2

  9
$UCSORG
 10
714.2644724051949
 20
-1.205727925487281
 30
0.0
  9
$UCSXDIR
 10
1.0
 20
0.0
 30
0.0
  9
$UCSYDIR
 10
0.0
 20
1.0
 30
0.0
  9
$PUCSNAME
  2

  9
$PUCSORG
 10
0.0
 20
0.0
 30
0.0
  9
$PUCSXDIR
 10
1.0
 20
0.0
 30
0.0
  9
$PUCSYDIR
 10
0.0
 20
1.0
 30
0.0
  9
$USERI1
 70
     0
  9
$USERI2
 70
     0
  9
$USERI3
 70
     0
  9
$USERI4
 70
     0
  9
$USERI5
 70
     0
  9
$USERR1
 40
0.0
  9
$USERR2
 40
0.0
  9
$USERR3
 40
0.0
  9
$USERR4
 40
0.0
  9
$USERR5
 40
0.0
  9
$WORLDVIEW
 70
     1
  9
$SHADEDGE
 70
     3
  9
$SHADEDIF
 70
    70
  9
$TILEMODE
 70
     1
  9
$MAXACTVP
 70
    48
  9
$PINSBASE
 10
0.0
 20
0.0
 30
0.0
  9
$PLIMCHECK
 70
     0
  9
$PEXTMIN
 10
1.000000E+20
 20
1.000000E+20
 30
1.000000E+20
  9
$PEXTMAX
 10
-1.000000E+20
 20
-1.000000E+20
 30
-1.000000E+20
  9
$PLIMMIN
 10
0.0
 20
0.0
  9
$PLIMMAX
 10
420.0
 20
297.0
  9
$UNITMODE
 70
     0
  9
$VISRETAIN
 70
     1
  9
$PLINEGEN
 70
     0
  9
$PSLTSCALE
 70
     0
  9
$TREEDEPTH
 70
  3020
  9
$PICKSTYLE
 70
     1
  9
$CMLSTYLE
  2
STANDARD
  9
$CMLJUST
 70
     0
  9
$CMLSCALE
 40
1.0
  9
$PROXYGRAPHICS
 70
     1
  9
$MEASUREMENT
 70
     0
  0
ENDSEC
  0
SECTION
  2
CLASSES
  0
CLASS
  1
DICTIONARYVAR
  2
AcDbDictionaryVar
  3
"AutoCAD"
 90
        0
280
     0
281
     0
  0
CLASS
  1
LWPOLYLINE
  2
AcDbPolyline
  3
"AutoCAD"
 90
        0
280
     0
281
     1
  0
CLASS
  1
HATCH
  2
AcDbHatch
  3
"ACAD_SEDONA"
 90
        0
280
     0
281
     1
  0
ENDSEC
  0
SECTION
  2
TABLES
  0
TABLE
  2
VPORT
  5
12
100
AcDbSymbolTable
 70
     2
  0
VPORT
  5
660
100
AcDbSymbolTableRecord
100
AcDbViewportTableRecord
  2
*ACTIVE
 70
     0
 10
0.0
 20
0.0
 11
1.0
 21
1.0
 12
398.266977
 22
-74.533572
 13
0.0
 23
0.0
 14
10.0
 24
10.0
 15
10.0
 25
10.0
 16
0.0
 26
0.0
 36
1.0
 17
0.0
 27
0.0
 37
0.0
 40
1155.471622
 41
1.585567
 42
50.0
 43
0.0
 44
0.0
 50
0.0
 51
0.0
 71
     0
 72
   100
 73
     1
 74
     1
 75
     0
 76
     0
 77
     0
 78
     0
  0
ENDTAB
  0
TABLE
  2
LTYPE
  5
D
100
AcDbSymbolTable
 70
     2
  0
LTYPE
  5
E
100
AcDbSymbolTableRecord
100
AcDbLinetypeTableRecord
  2
BYBLOCK
 70
     0
  3

 72
    65
 73
     0
 40
0.0
  0
LTYPE
  5
F
100
AcDbSymbolTableRecord
100
AcDbLinetypeTableRecord
  2
BYLAYER
 70
     0
  3

 72
    65
 73
     0
 40
0.0
  0
LTYPE
  5
5
100
AcDbSymbolTableRecord
100
AcDbLinetypeTableRecord
  2
CONTINUOUS
 70
     0
  3
Solid line
 72
    65
 73
     0
 40
0.0
  0
LTYPE
  5
2E
100
AcDbSymbolTableRecord
100
AcDbLinetypeTableRecord
  2
DASHDOT
 70
     0
  3
Dash dot __ . __ . __ . __ . __ . __ . __ . __
 72
    65
 73
     4
 40
25.4
 49
12.7
 74
     0
 49
-6.35
 74
     0
 49
0.0
 74
     0
 49
-6.35
 74
     0
  0
ENDTAB
  0
TABLE
  2
LAYER
  5
A
100
AcDbSymbolTable
 70
     6
  0
LAYER
  5
4
100
AcDbSymbolTableRecord
100
AcDbLayerTableRecord
  2
0
 70
     0
 62
     7
  6
CONTINUOUS
  0
LAYER
  5
27
100
AcDbSymbolTableRecord
100
AcDbLayerTableRecord
  2
V0-OBRYS
 70
     0
 62
    90
  6
CONTINUOUS
  0
LAYER
  5
2D
100
AcDbSymbolTableRecord
100
AcDbLayerTableRecord
  2
V0-VYPLNE
 70
     0
 62
    52
  6
CONTINUOUS
  0
LAYER
  5
31
100
AcDbSymbolTableRecord
100
AcDbLayerTableRecord
  2
V0-NAZVY
 70
     0
 62
   210
  6
CONTINUOUS
  0
LAYER
  5
1B
100
AcDbSymbolTableRecord
100
AcDbLayerTableRecord
  2
V0-ZBYTEK
 70
     0
 62
    51
  6
CONTINUOUS
  0
LAYER
  5
193
100
AcDbSymbolTableRecord
100
AcDbLayerTableRecord
  2
DEFPOINTS
 70
     0
 62
     7
  6
CONTINUOUS
  0
ENDTAB
  0
TABLE
  2
STYLE
  5
B
100
AcDbSymbolTable
 70
     5
  0
STYLE
  5
C
100
AcDbSymbolTableRecord
100
AcDbTextStyleTableRecord
  2
STANDARD
 70
     0
 40
0.0
 41
1.0
 50
0.0
 71
     0
 42
2.5
  3
ISOCP
  4

  0
STYLE
  5
1F
100
AcDbSymbolTableRecord
100
AcDbTextStyleTableRecord
  2
ED
 70
     0
 40
20.0
 41
1.0
 50
0.0
 71
     0
 42
2.5
  3
ISOCP.shx
  4

  0
STYLE
  5
1C
100
AcDbSymbolTableRecord
100
AcDbTextStyleTableRecord
  2
ED40
 70
     0
 40
50.0
 41
1.0
 50
0.0
 71
     0
 42
25.0
  3
ISOCP.shx
  4

  0
STYLE
  5
31F
100
AcDbSymbolTableRecord
100
AcDbTextStyleTableRecord
  2
ED10
 70
     0
 40
10.0
 41
1.0
 50
0.0
 71
     0
 42
10.0
  3
ISOCP.shx
  4

  0
STYLE
  5
449
100
AcDbSymbolTableRecord
100
AcDbTextStyleTableRecord
  2
ED20
 70
     0
 40
25.0
 41
1.0
 50
0.0
 71
     0
 42
20.0
  3
ISOCP.shx
  4

  0
ENDTAB
  0
TABLE
  2
VIEW
  5
10
100
AcDbSymbolTable
 70
     0
  0
ENDTAB
  0
TABLE
  2
UCS
  5
11
100
AcDbSymbolTable
 70
     0
  0
ENDTAB
  0
TABLE
  2
APPID
  5
14
100
AcDbSymbolTable
 70
     3
  0
APPID
  5
15
100
AcDbSymbolTableRecord
100
AcDbRegAppTableRecord
  2
ACAD
 70
     0
  0
APPID
  5
531
100
AcDbSymbolTableRecord
100
AcDbRegAppTableRecord
  2
CONTENTBLOCKICON
 70
     0
  0
APPID
  5
532
100
AcDbSymbolTableRecord
100
AcDbRegAppTableRecord
  2
CONTENTBLOCKDESCRIPTION
 70
     0
  0
ENDTAB
  0
TABLE
  2
DIMSTYLE
  5
16
100
AcDbSymbolTable
 70
     3
  0
DIMSTYLE
105
1E
100
AcDbSymbolTableRecord
100
AcDbDimStyleTableRecord
  2
ED40
 70
     0
  3

  4

  5

  6
_OPEN
  7
_OPEN
 40
1.0
 41
50.0
 42
0.625
 43
3.75
 44
1.25
 45
0.0
 46
0.0
 47
0.0
 48
0.0
140
50.0
141
50.0
142
0.0
143
0.0394
144
1.0
145
0.0
146
1.0
147
3.0
 71
     0
 72
     0
 73
     0
 74
     0
 75
     0
 76
     0
 77
     1
 78
     8
170
     0
171
     4
172
     1
173
     1
174
     0
175
     0
176
     0
177
     0
178
     0
270
     2
271
     0
272
     1
273
     8
274
     4
340
1F
275
     0
280
     0
281
     0
282
     0
283
     1
284
     8
285
     0
286
     0
287
     3
288
     0
  0
DIMSTYLE
105
284
102
{ACAD_REACTORS
330
2AB
330
2B8
330
2D1
330
307
330
398
330
3BB
102
}
100
AcDbSymbolTableRecord
100
AcDbDimStyleTableRecord
  2
ED20
 70
     0
  3

  4

  5

  6
_OPEN
  7
_OPEN
 40
1.0
 41
50.0
 42
0.625
 43
3.75
 44
1.25
 45
0.0
 46
0.0
 47
0.0
 48
0.0
140
50.0
141
50.0
142
0.0
143
0.0394
144
1.0
145
0.0
146
1.0
147
3.0
 71
     0
 72
     0
 73
     0
 74
     0
 75
     0
 76
     0
 77
     1
 78
     8
170
     0
171
     4
172
     1
173
     1
174
     0
175
     0
176
     0
177
     0
178
     0
270
     2
271
     0
272
     1
273
     8
274
     4
340
1C
275
     0
280
     0
281
     0
282
     0
283
     1
284
     8
285
     0
286
     0
287
     3
288
     0
  0
DIMSTYLE
105
320
100
AcDbSymbolTableRecord
100
AcDbDimStyleTableRecord
  2
ED10
 70
     0
  3

  4

  5

  6
_OPEN
  7
_OPEN
 40
1.0
 41
10.0
 42
1.0
 43
3.75
 44
1.25
 45
0.0
 46
0.0
 47
0.0
 48
0.0
140
10.0
141
2.0
142
0.0
143
0.0394
144
1.0
145
0.0
146
1.0
147
1.5
 71
     0
 72
     0
 73
     0
 74
     0
 75
     0
 76
     0
 77
     1
 78
     8
170
     0
171
     4
172
     1
173
     1
174
     0
175
     0
176
     0
177
     0
178
     0
270
     2
271
     0
272
     1
273
     8
274
     4
340
31F
275
     0
280
     0
281
     0
282
     0
283
     1
284
     8
285
     0
286
     0
287
     3
288
     0
  0
ENDTAB
  0
TABLE
  2
BLOCK_RECORD
  5
1
100
AcDbSymbolTable
 70
     7
  0
BLOCK_RECORD
  5
2
100
AcDbSymbolTableRecord
100
AcDbBlockTableRecord
  2
*MODEL_SPACE
  0
BLOCK_RECORD
  5
7
100
AcDbSymbolTableRecord
100
AcDbBlockTableRecord
  2
*PAPER_SPACE
  0
BLOCK_RECORD
  5
20
100
AcDbSymbolTableRecord
100
AcDbBlockTableRecord
  2
_OPEN
  0
BLOCK_RECORD
  5
29F
100
AcDbSymbolTableRecord
100
AcDbBlockTableRecord
  2
*D1
  0
BLOCK_RECORD
  5
2AC
100
AcDbSymbolTableRecord
100
AcDbBlockTableRecord
  2
*D2
  0
BLOCK_RECORD
  5
2C5
100
AcDbSymbolTableRecord
100
AcDbBlockTableRecord
  2
*D3
  0
BLOCK_RECORD
  5
2FB
100
AcDbSymbolTableRecord
100
AcDbBlockTableRecord
  2
*D4
  0
BLOCK_RECORD
  5
38D
100
AcDbSymbolTableRecord
100
AcDbBlockTableRecord
  2
*D5
  0
BLOCK_RECORD
  5
3AF
100
AcDbSymbolTableRecord
100
AcDbBlockTableRecord
  2
*D6
  0
ENDTAB
  0
ENDSEC
  0
SECTION
  2
BLOCKS
  0
BLOCK
  5
3
100
AcDbEntity
  8
0
100
AcDbBlockBegin
  2
*MODEL_SPACE
 70
     0
 10
0.0
 20
0.0
 30
0.0
  3
*MODEL_SPACE
  1

  0
ENDBLK
  5
6
100
AcDbEntity
  8
0
100
AcDbBlockEnd
  0
BLOCK
  5
8
100
AcDbEntity
 67
     1
  8
0
100
AcDbBlockBegin
  2
*PAPER_SPACE
 70
     0
 10
0.0
 20
0.0
 30
0.0
  3
*PAPER_SPACE
  1

  0
ENDBLK
  5
9
100
AcDbEntity
 67
     1
  8
0
100
AcDbBlockEnd
  0
BLOCK
  5
24
100
AcDbEntity
  8
0
100
AcDbBlockBegin
  2
_OPEN
 70
     0
 10
0.0
 20
0.0
 30
0.0
  3
_OPEN
  1

  0
LINE
  5
21
100
AcDbEntity
  8
0
  6
BYBLOCK
 62
     0
100
AcDbLine
 10
-1.0
 20
0.166667
 30
0.0
 11
0.0
 21
0.0
 31
0.0
  0
LINE
  5
22
100
AcDbEntity
  8
0
  6
BYBLOCK
 62
     0
100
AcDbLine
 10
0.0
 20
0.0
 30
0.0
 11
-1.0
 21
-0.166667
 31
0.0
  0
LINE
  5
23
100
AcDbEntity
  8
0
  6
BYBLOCK
 62
     0
100
AcDbLine
 10
0.0
 20
0.0
 30
0.0
 11
-1.0
 21
0.0
 31
0.0
  0
ENDBLK
  5
25
100
AcDbEntity
  8
0
100
AcDbBlockEnd
  0
BLOCK
  5
48C
100
AcDbEntity
  8
0
 48
3.0
100
AcDbBlockBegin
  2
*D1
 70
     1
 10
0.0
 20
0.0
 30
0.0
  3
*D1
  1

  0
LINE
  5
48D
100
AcDbEntity
  8
0
  6
BYBLOCK
 62
     0
 48
3.0
100
AcDbLine
 10
222.83855
 20
228.269463
 30
0.0
 11
-3.665382
 21
228.269463
 31
0.0
  0
LINE
  5
48E
100
AcDbEntity
  8
0
  6
BYBLOCK
 62
     0
 48
3.0
100
AcDbLine
 10
37.591432
 20
-219.412901
 30
0.0
 11
-3.665382
 21
-219.412901
 31
0.0
  0
LINE
  5
48F
100
AcDbEntity
  8
0
  6
BYBLOCK
 62
     0
 48
3.0
100
AcDbLine
 10
-2.415382
 20
198.269463
 30
0.0
 11
-2.415382
 21
-189.412901
 31
0.0
  0
INSERT
  5
490
100
AcDbEntity
  8
0
  6
BYBLOCK
 62
     0
 48
3.0
100
AcDbBlockReference
  2
_OPEN
 10
-2.415382
 20
228.269463
 30
0.0
 41
30.0
 42
30.0
 43
30.0
 50
90.0
  0
INSERT
  5
491
100
AcDbEntity
  8
0
  6
BYBLOCK
 62
     0
 48
3.0
100
AcDbBlockReference
  2
_OPEN
 10
-2.415382
 20
-219.412901
 30
0.0
 41
30.0
 42
30.0
 43
30.0
 50
270.0
  0
MTEXT
  5
492
100
AcDbEntity
  8
0
  6
BYBLOCK
 62
     0
 48
3.0
100
AcDbMText
 10
-17.915382
 20
4.428281
 30
0.0
 40
25.0
 41
0.0
 71
     5
 72
     1
  1
\A1;448
  7
ED20
 11
0.0
 21
1.0
 31
0.0
  0
POINT
  5
493
100
AcDbEntity
  8
DEFPOINTS
  6
BYBLOCK
 62
     0
 48
3.0
100
AcDbPoint
 10
223.46355
 20
228.269463
 30
0.0
  0
POINT
  5
494
100
AcDbEntity
  8
DEFPOINTS
  6
BYBLOCK
 62
     0
 48
3.0
100
AcDbPoint
 10
38.216432
 20
-219.412901
 30
0.0
  0
POINT
  5
495
100
AcDbEntity
  8
DEFPOINTS
  6
BYBLOCK
 62
     0
 48
3.0
100
AcDbPoint
 10
-2.415382
 20
-219.412901
 30
0.0
  0
ENDBLK
  5
496
100
AcDbEntity
  8
0
 48
3.0
100
AcDbBlockEnd
  0
BLOCK
  5
4A2
100
AcDbEntity
  8
0
 48
3.0
100
AcDbBlockBegin
  2
*D2
 70
     1
 10
0.0
 20
0.0
 30
0.0
  3
*D2
  1

  0
LINE
  5
4A3
100
AcDbEntity
  8
0
  6
BYBLOCK
 62
     0
 48
3.0
100
AcDbLine
 10
541.920134
 20
44.799569
 30
0.0
 11
541.920134
 21
274.526782
 31
0.0
  0
LINE
  5
4A4
100
AcDbEntity
  8
0
  6
BYBLOCK
 62
     0
 48
3.0
100
AcDbLine
 10
763.520134
 20
44.799564
 30
0.0
 11
763.520134
 21
274.526782
 31
0.0
  0
LINE
  5
4A5
100
AcDbEntity
  8
0
  6
BYBLOCK
 62
     0
 48
3.0
100
AcDbLine
 10
571.920134
 20
273.276782
 30
0.0
 11
733.520134
 21
273.276782
 31
0.0
  0
INSERT
  5
4A6
100
AcDbEntity
  8
0
  6
BYBLOCK
 62
     0
 48
3.0
100
AcDbBlockReference
  2
_OPEN
 10
541.920134
 20
273.276782
 30
0.0
 41
30.0
 42
30.0
 43
30.0
 50
180.0
  0
INSERT
  5
4A7
100
AcDbEntity
  8
0
  6
BYBLOCK
 62
     0
 48
3.0
100
AcDbBlockReference
  2
_OPEN
 10
763.520134
 20
273.276782
 30
0.0
 41
30.0
 42
30.0
 43
30.0
  0
MTEXT
  5
4A8
100
AcDbEntity
  8
0
  6
BYBLOCK
 62
     0
 48
3.0
100
AcDbMText
 10
652.720134
 20
288.779243
 30
0.0
 40
25.0
 41
0.0
 71
     5
 72
     1
  1
\A1;222
  7
ED20
  0
POINT
  5
4A9
100
AcDbEntity
  8
DEFPOINTS
  6
BYBLOCK
 62
     0
 48
3.0
100
AcDbPoint
 10
541.920134
 20
44.174569
 30
0.0
  0
POINT
  5
4AA
100
AcDbEntity
  8
DEFPOINTS
  6
BYBLOCK
 62
     0
 48
3.0
100
AcDbPoint
 10
763.520134
 20
44.174564
 30
0.0
  0
POINT
  5
4AB
100
AcDbEntity
  8
DEFPOINTS
  6
BYBLOCK
 62
     0
 48
3.0
100
AcDbPoint
 10
763.520134
 20
273.276782
 30
0.0
  0
ENDBLK
  5
4AC
100
AcDbEntity
  8
0
 48
3.0
100
AcDbBlockEnd
  0
BLOCK
  5
4C2
100
AcDbEntity
  8
0
 48
3.0
100
AcDbBlockBegin
  2
*D3
 70
     1
 10
0.0
 20
0.0
 30
0.0
  3
*D3
  1

  0
LINE
  5
4C3
100
AcDbEntity
  8
0
  6
BYBLOCK
 62
     0
 48
3.0
100
AcDbLine
 10
780.867617
 20
-225.194338
 30
0.0
 11
780.867617
 21
-273.470714
 31
0.0
  0
LINE
  5
4C4
100
AcDbEntity
  8
0
  6
BYBLOCK
 62
     0
 48
3.0
100
AcDbLine
 10
616.747617
 20
-225.194338
 30
0.0
 11
616.747617
 21
-273.470714
 31
0.0
  0
LINE
  5
4C5
100
AcDbEntity
  8
0
  6
BYBLOCK
 62
     0
 48
3.0
100
AcDbLine
 10
750.867617
 20
-272.220714
 30
0.0
 11
646.747617
 21
-272.220714
 31
0.0
  0
INSERT
  5
4C6
100
AcDbEntity
  8
0
  6
BYBLOCK
 62
     0
 48
3.0
100
AcDbBlockReference
  2
_OPEN
 10
780.867617
 20
-272.220714
 30
0.0
 41
30.0
 42
30.0
 43
30.0
  0
INSERT
  5
4C7
100
AcDbEntity
  8
0
  6
BYBLOCK
 62
     0
 48
3.0
100
AcDbBlockReference
  2
_OPEN
 10
616.747617
 20
-272.220714
 30
0.0
 41
30.0
 42
30.0
 43
30.0
 50
180.0
  0
MTEXT
  5
4C8
100
AcDbEntity
  8
0
  6
BYBLOCK
 62
     0
 48
3.0
100
AcDbMText
 10
698.807617
 20
-256.720714
 30
0.0
 40
25.0
 41
0.0
 71
     5
 72
     1
  1
\A1;164
  7
ED20
  0
POINT
  5
4C9
100
AcDbEntity
  8
DEFPOINTS
  6
BYBLOCK
 62
     0
 48
3.0
100
AcDbPoint
 10
780.867617
 20
-224.569338
 30
0.0
  0
POINT
  5
4CA
100
AcDbEntity
  8
DEFPOINTS
  6
BYBLOCK
 62
     0
 48
3.0
100
AcDbPoint
 10
616.747617
 20
-224.569338
 30
0.0
  0
POINT
  5
4CB
100
AcDbEntity
  8
DEFPOINTS
  6
BYBLOCK
 62
     0
 48
3.0
100
AcDbPoint
 10
616.747617
 20
-272.220714
 30
0.0
  0
ENDBLK
  5
4CC
100
AcDbEntity
  8
0
 48
3.0
100
AcDbBlockEnd
  0
BLOCK
  5
4AD
100
AcDbEntity
  8
0
 48
3.0
100
AcDbBlockBegin
  2
*D4
 70
     1
 10
0.0
 20
0.0
 30
0.0
  3
*D4
  1

  0
LINE
  5
4AE
100
AcDbEntity
  8
0
  6
BYBLOCK
 62
     0
 48
3.0
100
AcDbLine
 10
165.757677
 20
20.835616
 30
0.0
 11
166.002884
 21
20.206966
 31
0.0
  0
LINE
  5
4AF
100
AcDbEntity
  8
0
  6
BYBLOCK
 62
     0
 48
3.0
100
AcDbLine
 10
281.950542
 20
66.156996
 30
0.0
 11
282.195749
 21
65.528346
 31
0.0
  0
LINE
  5
4B0
100
AcDbEntity
  8
0
  6
BYBLOCK
 62
     0
 48
3.0
100
AcDbLine
 10
193.497784
 20
32.273158
 30
0.0
 11
253.792379
 21
55.791248
 31
0.0
  0
INSERT
  5
4B1
100
AcDbEntity
  8
0
  6
BYBLOCK
 62
     0
 48
3.0
100
AcDbBlockReference
  2
_OPEN
 10
165.548649
 20
21.371513
 30
0.0
 41
30.0
 42
30.0
 43
30.0
 50
201.308421
  0
INSERT
  5
4B2
100
AcDbEntity
  8
0
  6
BYBLOCK
 62
     0
 48
3.0
100
AcDbBlockReference
  2
_OPEN
 10
281.741514
 20
66.692893
 30
0.0
 41
30.0
 42
30.0
 43
30.0
 50
21.308421
  0
MTEXT
  5
4B3
100
AcDbEntity
  8
0
  6
BYBLOCK
 62
     0
 48
3.0
100
AcDbMText
 10
218.011671
 20
58.474882
 30
0.0
 40
25.0
 41
0.0
 71
     5
 72
     1
  1
\A1;\U+2205125
  7
ED20
 11
0.931638
 21
0.363388
 31
0.0
  0
POINT
  5
4B4
100
AcDbEntity
  8
DEFPOINTS
  6
BYBLOCK
 62
     0
 48
3.0
100
AcDbPoint
 10
165.53056
 20
21.417889
 30
0.0
  0
POINT
  5
4B5
100
AcDbEntity
  8
DEFPOINTS
  6
BYBLOCK
 62
     0
 48
3.0
100
AcDbPoint
 10
281.723425
 20
66.739269
 30
0.0
  0
POINT
  5
4B6
100
AcDbEntity
  8
DEFPOINTS
  6
BYBLOCK
 62
     0
 48
3.0
100
AcDbPoint
 10
281.741514
 20
66.692893
 30
0.0
  0
ENDBLK
  5
4B7
100
AcDbEntity
  8
0
 48
3.0
100
AcDbBlockEnd
  0
BLOCK
  5
4B8
100
AcDbEntity
  8
0
 48
3.0
100
AcDbBlockBegin
  2
*D5
 70
     1
 10
0.0
 20
0.0
 30
0.0
  3
*D5
  1

  0
LINE
  5
4B9
100
AcDbEntity
  8
0
  6
BYBLOCK
 62
     0
 48
3.0
100
AcDbLine
 10
539.645368
 20
-195.08936
 30
0.0
 11
649.847437
 21
-168.708542
 31
0.0
  0
LINE
  5
4BA
100
AcDbEntity
  8
0
  6
BYBLOCK
 62
     0
 48
3.0
100
AcDbLine
 10
785.992831
 20
-136.117259
 30
0.0
 11
815.168511
 21
-129.133014
 31
0.0
  0
MTEXT
  5
4BB
100
AcDbEntity
  8
0
  6
BYBLOCK
 62
     0
 48
3.0
100
AcDbMText
 10
563.277048
 20
-173.494338
 30
0.0
 40
25.0
 41
0.0
 71
     5
 72
     1
  1
\A1;\U+220580
  7
ED20
 11
0.972523
 21
0.232808
 31
0.0
  0
LINE
  5
4BC
100
AcDbEntity
  8
0
  6
BYBLOCK
 62
     0
 48
3.0
100
AcDbLine
 10
756.817151
 20
-143.101505
 30
0.0
 11
679.023117
 21
-161.724297
 31
0.0
  0
INSERT
  5
4BD
100
AcDbEntity
  8
0
  6
BYBLOCK
 62
     0
 48
3.0
100
AcDbBlockReference
  2
_OPEN
 10
756.817151
 20
-143.101505
 30
0.0
 41
30.0
 42
30.0
 43
30.0
 50
193.462458
  0
INSERT
  5
4BE
100
AcDbEntity
  8
0
  6
BYBLOCK
 62
     0
 48
3.0
100
AcDbBlockReference
  2
_OPEN
 10
679.023117
 20
-161.724297
 30
0.0
 41
30.0
 42
30.0
 43
30.0
 50
13.462458
  0
POINT
  5
4BF
100
AcDbEntity
  8
DEFPOINTS
  6
BYBLOCK
 62
     0
 48
3.0
100
AcDbPoint
 10
679.023117
 20
-161.724297
 30
0.0
  0
POINT
  5
4C0
100
AcDbEntity
  8
DEFPOINTS
  6
BYBLOCK
 62
     0
 48
3.0
100
AcDbPoint
 10
756.817151
 20
-143.101505
 30
0.0
  0
ENDBLK
  5
4C1
100
AcDbEntity
  8
0
 48
3.0
100
AcDbBlockEnd
  0
BLOCK
  5
497
100
AcDbEntity
  8
0
 48
3.0
100
AcDbBlockBegin
  2
*D6
 70
     1
 10
0.0
 20
0.0
 30
0.0
  3
*D6
  1

  0
LINE
  5
498
100
AcDbEntity
  8
0
  6
BYBLOCK
 62
     0
 48
3.0
100
AcDbLine
 10
38.742948
 20
44.799564
 30
0.0
 11
38.742948
 21
274.946247
 31
0.0
  0
LINE
  5
499
100
AcDbEntity
  8
0
  6
BYBLOCK
 62
     0
 48
3.0
100
AcDbLine
 10
429.014346
 20
16.483016
 30
0.0
 11
429.014346
 21
274.946247
 31
0.0
  0
LINE
  5
49A
100
AcDbEntity
  8
0
  6
BYBLOCK
 62
     0
 48
3.0
100
AcDbLine
 10
68.742948
 20
273.696247
 30
0.0
 11
399.014346
 21
273.696247
 31
0.0
  0
INSERT
  5
49B
100
AcDbEntity
  8
0
  6
BYBLOCK
 62
     0
 48
3.0
100
AcDbBlockReference
  2
_OPEN
 10
38.742948
 20
273.696247
 30
0.0
 41
30.0
 42
30.0
 43
30.0
 50
180.0
  0
INSERT
  5
49C
100
AcDbEntity
  8
0
  6
BYBLOCK
 62
     0
 48
3.0
100
AcDbBlockReference
  2
_OPEN
 10
429.014346
 20
273.696247
 30
0.0
 41
30.0
 42
30.0
 43
30.0
  0
MTEXT
  5
49D
100
AcDbEntity
  8
0
  6
BYBLOCK
 62
     0
 48
3.0
100
AcDbMText
 10
241.946353
 20
289.196247
 30
0.0
 40
25.0
 41
0.0
 71
     5
 72
     1
  1
\A1;390
  7
ED20
  0
POINT
  5
49E
100
AcDbEntity
  8
DEFPOINTS
  6
BYBLOCK
 62
     0
 48
3.0
100
AcDbPoint
 10
38.742948
 20
44.174564
 30
0.0
  0
POINT
  5
49F
100
AcDbEntity
  8
DEFPOINTS
  6
BYBLOCK
 62
     0
 48
3.0
100
AcDbPoint
 10
429.014346
 20
15.858016
 30
0.0
  0
POINT
  5
4A0
100
AcDbEntity
  8
DEFPOINTS
  6
BYBLOCK
 62
     0
 48
3.0
100
AcDbPoint
 10
429.014346
 20
273.696247
 30
0.0
  0
ENDBLK
  5
4A1
100
AcDbEntity
  8
0
 48
3.0
100
AcDbBlockEnd
  0
ENDSEC
  0
SECTION
  2
ENTITIES
  0
ARC
  5
84
100
AcDbEntity
  8
V0-OBRYS
  6
CONTINUOUS
 62
    90
 48
3.0
100
AcDbCircle
 10
225.1189
 20
24.786196
 30
0.0
 40
203.49
100
AcDbArc
 50
2.408095
 51
92.408095
  0
ARC
  5
85
100
AcDbEntity
  8
V0-OBRYS
  6
CONTINUOUS
 62
    90
 48
3.0
100
AcDbCircle
 10
225.1189
 20
41.886196
 30
0.0
 40
186.39
100
AcDbArc
 50
92.629169
 51
182.629169
  0
ARC
  5
87
100
AcDbEntity
  8
V0-OBRYS
  6
CONTINUOUS
 62
    90
 48
3.0
100
AcDbCircle
 10
208.0189
 20
41.886196
 30
0.0
 40
169.29
100
AcDbArc
 50
182.894958
 51
231.424018
  0
LINE
  5
88
100
AcDbEntity
  8
V0-OBRYS
  6
CONTINUOUS
 62
    90
 48
3.0
100
AcDbLine
 10
222.816246
 20
-196.638044
 30
0.0
 11
49.616432
 21
-196.638044
 31
0.0
  0
LINE
  5
89
100
AcDbEntity
  8
V0-OBRYS
  6
CONTINUOUS
 62
    90
 48
3.0
100
AcDbLine
 10
130.98197
 20
-108.187757
 30
0.0
 11
49.616432
 21
-108.187757
 31
0.0
  0
LINE
  5
8D
100
AcDbEntity
  8
V0-OBRYS
  6
CONTINUOUS
 62
    90
 48
3.0
100
AcDbLine
 10
38.216432
 20
-85.412901
 30
0.0
 11
38.216432
 21
-219.412901
 31
0.0
  0
CIRCLE
  5
8E
100
AcDbEntity
  8
V0-OBRYS
  6
CONTINUOUS
 62
    90
 48
3.0
100
AcDbCircle
 10
223.46355
 20
44.174564
 30
0.0
 40
149.172673
  0
CIRCLE
  5
8F
100
AcDbEntity
  8
V0-OBRYS
  6
CONTINUOUS
 62
    90
 48
3.0
100
AcDbCircle
 10
223.46355
 20
44.174564
 30
0.0
 40
140.397806
  0
CIRCLE
  5
90
100
AcDbEntity
  8
V0-OBRYS
  6
CONTINUOUS
 62
    90
 48
3.0
100
AcDbCircle
 10
223.46355
 20
44.174564
 30
0.0
 40
87.385815
  0
CIRCLE
  5
91
100
AcDbEntity
  8
V0-OBRYS
  6
CONTINUOUS
 62
    90
 48
3.0
100
AcDbCircle
 10
223.46355
 20
44.174564
 30
0.0
 40
62.52314
  0
LINE
  5
92
100
AcDbEntity
  8
V0-VYPLNE
  6
DASHDOT
 62
    63
 48
3.0
100
AcDbLine
 10
38.742948
 20
44.174564
 30
0.0
 11
451.888559
 21
44.174564
 31
0.0
  0
LINE
  5
93
100
AcDbEntity
  8
V0-VYPLNE
  6
DASHDOT
 62
    63
 48
3.0
100
AcDbLine
 10
223.46355
 20
-196.26246
 30
0.0
 11
223.46355
 21
243.153524
 31
0.0
  0
CIRCLE
  5
94
100
AcDbEntity
  8
V0-VYPLNE
  6
DASHDOT
 62
    63
 48
3.0
100
AcDbCircle
 10
223.46355
 20
44.174564
 30
0.0
 40
76.289208
  0
ARC
  5
95
100
AcDbEntity
  8
V0-OBRYS
  6
CONTINUOUS
 62
    90
 48
3.0
100
AcDbCircle
 10
207.108094
 20
24.642797
 30
0.0
 40
221.505706
100
AcDbArc
 50
273.952306
 51
2.249256
  0
LINE
  5
9A
100
AcDbEntity
  8
V0-OBRYS
  6
CONTINUOUS
 62
    90
 48
3.0
100
AcDbLine
 10
49.616432
 20
-85.412901
 30
0.0
 11
49.616432
 21
-219.412901
 31
0.0
  0
LINE
  5
9E
100
AcDbEntity
  8
V0-VYPLNE
  6
DASHDOT
 62
    63
 48
3.0
100
AcDbLine
 10
223.46355
 20
-152.412901
 30
0.0
 11
11.376997
 21
-152.412901
 31
0.0
  0
LINE
  5
9F
100
AcDbEntity
  8
V0-OBRYS
  6
CONTINUOUS
 62
    90
 48
3.0
100
AcDbLine
 10
49.616432
 20
-85.412901
 30
0.0
 11
38.216432
 21
-85.412901
 31
0.0
  0
LINE
  5
A0
100
AcDbEntity
  8
V0-OBRYS
  6
CONTINUOUS
 62
    90
 48
3.0
100
AcDbLine
 10
49.616432
 20
-219.412901
 30
0.0
 11
38.216432
 21
-219.412901
 31
0.0
  0
LINE
  5
A1
100
AcDbEntity
  8
V0-OBRYS
  6
CONTINUOUS
 62
    90
 48
3.0
100
AcDbLine
 10
88.146683
 20
-104.647604
 30
0.0
 11
103.984856
 21
-93.171366
 31
0.0
  0
ARC
  5
A2
100
AcDbEntity
  8
V0-OBRYS
  6
CONTINUOUS
 62
    90
 48
3.0
100
AcDbCircle
 10
103.962402
 20
-91.39888
 30
0.0
 40
1.772628
100
AcDbArc
 50
270.725778
 51
148.081438
  0
ARC
  5
A3
100
AcDbEntity
  8
V0-OBRYS
  6
CONTINUOUS
 62
    90
 48
3.0
100
AcDbCircle
 10
80.932828
 20
-99.067757
 30
0.0
 40
9.12
100
AcDbArc
 50
270.0
 51
322.278394
  0
LINE
  5
A5
100
AcDbEntity
  8
V0-OBRYS
  6
CONTINUOUS
 62
    90
 48
3.0
100
AcDbLine
 10
112.036712
 20
-218.420155
 30
0.0
 11
273.605624
 21
-218.420155
 31
0.0
  0
LINE
  5
A7
100
AcDbEntity
  8
V0-OBRYS
  6
CONTINUOUS
 62
    90
 48
3.0
100
AcDbLine
 10
273.605624
 20
-218.420155
 30
0.0
 11
313.811431
 21
-169.468449
 31
0.0
  0
LINE
  5
A8
100
AcDbEntity
  8
V0-OBRYS
  6
CONTINUOUS
 62
    90
 48
3.0
100
AcDbLine
 10
112.036712
 20
-218.420155
 30
0.0
 11
112.036712
 21
-197.548237
 31
0.0
  0
LINE
  5
A9
100
AcDbEntity
  8
V0-OBRYS
  6
CONTINUOUS
 62
    90
 48
3.0
100
AcDbLine
 10
112.036712
 20
-218.420155
 30
0.0
 11
112.036712
 21
-224.569338
 31
0.0
  0
LINE
  5
AA
100
AcDbEntity
  8
V0-OBRYS
  6
CONTINUOUS
 62
    90
 48
3.0
100
AcDbLine
 10
112.036712
 20
-224.569338
 30
0.0
 11
143.18878
 21
-224.569338
 31
0.0
  0
LINE
  5
AB
100
AcDbEntity
  8
V0-OBRYS
  6
CONTINUOUS
 62
    90
 48
3.0
100
AcDbLine
 10
274.07228
 20
-224.569338
 30
0.0
 11
274.07228
 21
-218.465271
 31
0.0
  0
LINE
  5
AC
100
AcDbEntity
  8
V0-OBRYS
  6
CONTINUOUS
 62
    90
 48
3.0
100
AcDbLine
 10
143.087118
 20
-224.187835
 30
0.0
 11
143.087118
 21
-221.135801
 31
0.0
  0
LINE
  5
AD
100
AcDbEntity
  8
V0-OBRYS
  6
CONTINUOUS
 62
    90
 48
3.0
100
AcDbLine
 10
143.087118
 20
-221.135801
 30
0.0
 11
170.200664
 21
-221.135801
 31
0.0
  0
LINE
  5
AE
100
AcDbEntity
  8
V0-OBRYS
  6
CONTINUOUS
 62
    90
 48
3.0
100
AcDbLine
 10
170.200664
 20
-221.135801
 30
0.0
 11
170.200664
 21
-224.569338
 31
0.0
  0
LINE
  5
AF
100
AcDbEntity
  8
V0-OBRYS
  6
CONTINUOUS
 62
    90
 48
3.0
100
AcDbLine
 10
242.555217
 20
-221.135801
 30
0.0
 11
215.441671
 21
-221.135801
 31
0.0
  0
LINE
  5
B0
100
AcDbEntity
  8
V0-OBRYS
  6
CONTINUOUS
 62
    90
 48
3.0
100
AcDbLine
 10
242.555217
 20
-224.187835
 30
0.0
 11
242.555217
 21
-221.135801
 31
0.0
  0
LINE
  5
B1
100
AcDbEntity
  8
V0-OBRYS
  6
CONTINUOUS
 62
    90
 48
3.0
100
AcDbLine
 10
215.441671
 20
-221.135801
 30
0.0
 11
215.441671
 21
-224.569338
 31
0.0
  0
LINE
  5
B2
100
AcDbEntity
  8
V0-OBRYS
  6
CONTINUOUS
 62
    90
 48
3.0
100
AcDbLine
 10
170.200664
 20
-224.569338
 30
0.0
 11
215.441671
 21
-224.569338
 31
0.0
  0
LINE
  5
B3
100
AcDbEntity
  8
V0-OBRYS
  6
CONTINUOUS
 62
    90
 48
3.0
100
AcDbLine
 10
242.433511
 20
-224.569338
 30
0.0
 11
274.07228
 21
-224.569338
 31
0.0
  0
CIRCLE
  5
B4
100
AcDbEntity
  8
V0-OBRYS
  6
CONTINUOUS
 62
    90
 48
3.0
100
AcDbCircle
 10
169.518934
 20
98.11918
 30
0.0
 40
5.676432
  0
CIRCLE
  5
B5
100
AcDbEntity
  8
V0-OBRYS
  6
CONTINUOUS
 62
    90
 48
3.0
100
AcDbCircle
 10
169.518934
 20
-9.770052
 30
0.0
 40
5.676432
  0
CIRCLE
  5
B6
100
AcDbEntity
  8
V0-OBRYS
  6
CONTINUOUS
 62
    90
 48
3.0
100
AcDbCircle
 10
277.408166
 20
-9.770052
 30
0.0
 40
5.676432
  0
CIRCLE
  5
B7
100
AcDbEntity
  8
V0-OBRYS
  6
CONTINUOUS
 62
    90
 48
3.0
100
AcDbCircle
 10
277.408166
 20
98.11918
 30
0.0
 40
5.676432
  0
LINE
  5
B9
100
AcDbEntity
  8
V0-VYPLNE
  6
DASHDOT
 62
    63
 48
3.0
100
AcDbLine
 10
717.920134
 20
-207.530039
 30
0.0
 11
717.920134
 21
243.153524
 31
0.0
  0
LINE
  5
BA
100
AcDbEntity
  8
V0-VYPLNE
  6
DASHDOT
 62
    63
 48
3.0
100
AcDbLine
 10
528.199532
 20
44.17457
 30
0.0
 11
782.809954
 21
44.174564
 31
0.0
  0
LINE
  5
BB
100
AcDbEntity
  8
V0-VYPLNE
  6
DASHDOT
 62
    63
 48
3.0
100
AcDbLine
 10
815.418613
 20
-152.412901
 30
0.0
 11
603.33206
 21
-152.412901
 31
0.0
  0
CIRCLE
  5
BD
100
AcDbEntity
  8
V0-OBRYS
  6
CONTINUOUS
 62
    90
 48
3.0
100
AcDbCircle
 10
717.920134
 20
-152.412901
 30
0.0
 40
63.327
  0
LINE
  5
C0
100
AcDbEntity
  8
V0-OBRYS
  6
CONTINUOUS
 62
    90
 48
3.0
100
AcDbLine
 10
554.743349
 20
128.062267
 30
0.0
 11
672.320132
 21
128.062262
 31
0.0
  0
LINE
  5
C2
100
AcDbEntity
  8
V0-OBRYS
  6
CONTINUOUS
 62
    90
 48
3.0
100
AcDbLine
 10
589.608045
 20
128.062262
 30
0.0
 11
589.608045
 21
44.174561
 31
0.0
  0
ARC
  5
C4
100
AcDbEntity
  8
V0-OBRYS
  6
CONTINUOUS
 62
    90
 48
3.0
100
AcDbCircle
 10
965.557411
 20
45.517276
 30
0.0
 40
423.639405
100
AcDbArc
 50
169.404955
 51
180.181597
  0
ARC
  5
C5
100
AcDbEntity
  8
V0-OBRYS
  6
CONTINUOUS
 62
    90
 48
3.0
100
AcDbCircle
 10
554.743349
 20
122.362267
 30
0.0
 40
5.7
100
AcDbArc
 50
90.0
 51
169.404955
  0
ARC
  5
C6
100
AcDbEntity
  8
V0-OBRYS
  6
CONTINUOUS
 62
    90
 48
3.0
100
AcDbCircle
 10
965.557411
 20
42.83187
 30
0.0
 40
423.639405
100
AcDbArc
 50
179.818405
 51
190.595047
  0
LINE
  5
C7
100
AcDbEntity
  8
V0-OBRYS
  6
CONTINUOUS
 62
    90
 48
3.0
100
AcDbLine
 10
589.608048
 20
-39.713138
 30
0.0
 11
589.608045
 21
44.174563
 31
0.0
  0
LINE
  5
C8
100
AcDbEntity
  8
V0-VYPLNE
  6
DASHDOT
 62
    63
 48
3.0
100
AcDbLine
 10
528.199532
 20
44.174564
 30
0.0
 11
672.320134
 21
44.174562
 31
0.0
  0
LINE
  5
C9
100
AcDbEntity
  8
V0-OBRYS
  6
CONTINUOUS
 62
    90
 48
3.0
100
AcDbLine
 10
554.743352
 20
-39.713133
 30
0.0
 11
672.320136
 21
-39.713136
 31
0.0
  0
ARC
  5
CA
100
AcDbEntity
  8
V0-OBRYS
  6
CONTINUOUS
 62
    90
 48
3.0
100
AcDbCircle
 10
554.743352
 20
-34.013133
 30
0.0
 40
5.7
100
AcDbArc
 50
190.595047
 51
270.000002
  0
LINE
  5
CB
100
AcDbEntity
  8
V0-OBRYS
  6
CONTINUOUS
 62
    90
 48
3.0
100
AcDbLine
 10
678.020129
 20
212.757566
 30
0.0
 11
678.020139
 21
-111.706754
 31
0.0
  0
LINE
  5
CE
100
AcDbEntity
  8
V0-OBRYS
  6
CONTINUOUS
 62
    90
 48
3.0
100
AcDbLine
 10
757.820139
 20
212.757566
 30
0.0
 11
757.820129
 21
-111.706754
 31
0.0
  0
ARC
  5
D4
100
AcDbEntity
  8
V0-OBRYS
  6
CONTINUOUS
 62
    90
 48
3.0
100
AcDbCircle
 10
717.920134
 20
144.359773
 30
0.0
 40
84.124445
100
AcDbArc
 50
65.771559
 51
114.228441
  0
ARC
  5
D7
100
AcDbEntity
  8
V0-OBRYS
  6
CONTINUOUS
 62
    90
 48
3.0
100
AcDbCircle
 10
687.140129
 20
212.757566
 30
0.0
 40
9.12
100
AcDbArc
 50
114.228441
 51
180.000002
  0
ARC
  5
D8
100
AcDbEntity
  8
V0-OBRYS
  6
CONTINUOUS
 62
    90
 48
3.0
100
AcDbCircle
 10
748.700139
 20
212.757566
 30
0.0
 40
9.12
100
AcDbArc
 50
359.999998
 51
65.771559
  0
LINE
  5
E5
100
AcDbEntity
  8
V0-OBRYS
  6
CONTINUOUS
 62
    90
 48
3.0
100
AcDbLine
 10
589.608045
 20
122.446474
 30
0.0
 11
672.320132
 21
122.446474
 31
0.0
  0
LINE
  5
E6
100
AcDbEntity
  8
V0-OBRYS
  6
CONTINUOUS
 62
    90
 48
3.0
100
AcDbLine
 10
589.608045
 20
116.830686
 30
0.0
 11
672.320132
 21
116.830686
 31
0.0
  0
LINE
  5
E7
100
AcDbEntity
  8
V0-OBRYS
  6
CONTINUOUS
 62
    90
 48
3.0
100
AcDbLine
 10
589.608045
 20
105.59911
 30
0.0
 11
672.320132
 21
105.59911
 31
0.0
  0
LINE
  5
E8
100
AcDbEntity
  8
V0-OBRYS
  6
CONTINUOUS
 62
    90
 48
3.0
100
AcDbLine
 10
589.608045
 20
111.214898
 30
0.0
 11
672.320132
 21
111.214898
 31
0.0
  0
LINE
  5
E9
100
AcDbEntity
  8
V0-OBRYS
  6
CONTINUOUS
 62
    90
 48
3.0
100
AcDbLine
 10
589.608045
 20
88.751745
 30
0.0
 11
672.320133
 21
88.751745
 31
0.0
  0
LINE
  5
EA
100
AcDbEntity
  8
V0-OBRYS
  6
CONTINUOUS
 62
    90
 48
3.0
100
AcDbLine
 10
589.608045
 20
83.135957
 30
0.0
 11
672.320133
 21
83.135957
 31
0.0
  0
LINE
  5
EB
100
AcDbEntity
  8
V0-OBRYS
  6
CONTINUOUS
 62
    90
 48
3.0
100
AcDbLine
 10
589.608045
 20
94.367533
 30
0.0
 11
672.320133
 21
94.367533
 31
0.0
  0
LINE
  5
EC
100
AcDbEntity
  8
V0-OBRYS
  6
CONTINUOUS
 62
    90
 48
3.0
100
AcDbLine
 10
589.608045
 20
99.983321
 30
0.0
 11
672.320133
 21
99.983321
 31
0.0
  0
LINE
  5
ED
100
AcDbEntity
  8
V0-OBRYS
  6
CONTINUOUS
 62
    90
 48
3.0
100
AcDbLine
 10
589.608045
 20
55.057017
 30
0.0
 11
672.320134
 21
55.057017
 31
0.0
  0
LINE
  5
EE
100
AcDbEntity
  8
V0-OBRYS
  6
CONTINUOUS
 62
    90
 48
3.0
100
AcDbLine
 10
589.608045
 20
49.441229
 30
0.0
 11
672.320134
 21
49.441229
 31
0.0
  0
LINE
  5
F0
100
AcDbEntity
  8
V0-OBRYS
  6
CONTINUOUS
 62
    90
 48
3.0
100
AcDbLine
 10
589.608045
 20
43.825441
 30
0.0
 11
677.736389
 21
43.825441
 31
0.0
  0
LINE
  5
F1
100
AcDbEntity
  8
V0-OBRYS
  6
CONTINUOUS
 62
    90
 48
3.0
100
AcDbLine
 10
589.608045
 20
66.288593
 30
0.0
 11
672.320133
 21
66.288593
 31
0.0
  0
LINE
  5
F2
100
AcDbEntity
  8
V0-OBRYS
  6
CONTINUOUS
 62
    90
 48
3.0
100
AcDbLine
 10
589.608045
 20
60.672805
 30
0.0
 11
672.320134
 21
60.672805
 31
0.0
  0
LINE
  5
F3
100
AcDbEntity
  8
V0-OBRYS
  6
CONTINUOUS
 62
    90
 48
3.0
100
AcDbLine
 10
589.608045
 20
71.904381
 30
0.0
 11
672.320133
 21
71.904381
 31
0.0
  0
LINE
  5
F4
100
AcDbEntity
  8
V0-OBRYS
  6
CONTINUOUS
 62
    90
 48
3.0
100
AcDbLine
 10
589.608045
 20
77.520169
 30
0.0
 11
672.320133
 21
77.520169
 31
0.0
  0
LINE
  5
F5
100
AcDbEntity
  8
V0-OBRYS
  6
CONTINUOUS
 62
    90
 48
3.0
100
AcDbLine
 10
589.608045
 20
-6.716652
 30
0.0
 11
664.050522
 21
-6.716652
 31
0.0
  0
LINE
  5
F6
100
AcDbEntity
  8
V0-OBRYS
  6
CONTINUOUS
 62
    90
 48
3.0
100
AcDbLine
 10
589.608045
 20
-12.33244
 30
0.0
 11
662.508991
 21
-12.33244
 31
0.0
  0
LINE
  5
F7
100
AcDbEntity
  8
V0-OBRYS
  6
CONTINUOUS
 62
    90
 48
3.0
100
AcDbLine
 10
589.608045
 20
-23.564016
 30
0.0
 11
659.425929
 21
-23.564016
 31
0.0
  0
LINE
  5
F8
100
AcDbEntity
  8
V0-OBRYS
  6
CONTINUOUS
 62
    90
 48
3.0
100
AcDbLine
 10
589.608045
 20
-17.948228
 30
0.0
 11
660.96746
 21
-17.948228
 31
0.0
  0
LINE
  5
F9
100
AcDbEntity
  8
V0-OBRYS
  6
CONTINUOUS
 62
    90
 48
3.0
100
AcDbLine
 10
589.608045
 20
-34.795593
 30
0.0
 11
656.342867
 21
-34.795593
 31
0.0
  0
LINE
  5
FA
100
AcDbEntity
  8
V0-OBRYS
  6
CONTINUOUS
 62
    90
 48
3.0
100
AcDbLine
 10
589.608045
 20
-29.179804
 30
0.0
 11
657.884398
 21
-29.179804
 31
0.0
  0
LINE
  5
FB
100
AcDbEntity
  8
V0-OBRYS
  6
CONTINUOUS
 62
    90
 48
3.0
100
AcDbLine
 10
589.608045
 20
15.7465
 30
0.0
 11
670.216646
 21
15.7465
 31
0.0
  0
LINE
  5
FC
100
AcDbEntity
  8
V0-OBRYS
  6
CONTINUOUS
 62
    90
 48
3.0
100
AcDbLine
 10
589.608045
 20
10.130712
 30
0.0
 11
668.675115
 21
10.130712
 31
0.0
  0
LINE
  5
FD
100
AcDbEntity
  8
V0-OBRYS
  6
CONTINUOUS
 62
    90
 48
3.0
100
AcDbLine
 10
589.608045
 20
-1.100864
 30
0.0
 11
665.592053
 21
-1.100864
 31
0.0
  0
LINE
  5
FE
100
AcDbEntity
  8
V0-OBRYS
  6
CONTINUOUS
 62
    90
 48
3.0
100
AcDbLine
 10
589.608045
 20
4.514924
 30
0.0
 11
667.133584
 21
4.514924
 31
0.0
  0
LINE
  5
FF
100
AcDbEntity
  8
V0-OBRYS
  6
CONTINUOUS
 62
    90
 48
3.0
100
AcDbLine
 10
589.608045
 20
26.978076
 30
0.0
 11
672.320135
 21
26.978076
 31
0.0
  0
LINE
  5
100
100
AcDbEntity
  8
V0-OBRYS
  6
CONTINUOUS
 62
    90
 48
3.0
100
AcDbLine
 10
589.608045
 20
21.362288
 30
0.0
 11
671.758177
 21
21.362288
 31
0.0
  0
LINE
  5
101
100
AcDbEntity
  8
V0-OBRYS
  6
CONTINUOUS
 62
    90
 48
3.0
100
AcDbLine
 10
589.608045
 20
32.593864
 30
0.0
 11
672.320134
 21
32.593864
 31
0.0
  0
LINE
  5
102
100
AcDbEntity
  8
V0-OBRYS
  6
CONTINUOUS
 62
    90
 48
3.0
100
AcDbLine
 10
589.608045
 20
38.209653
 30
0.0
 11
672.320134
 21
38.209653
 31
0.0
  0
CIRCLE
  5
103
100
AcDbEntity
  8
V0-OBRYS
  6
CONTINUOUS
 62
    90
 48
3.0
100
AcDbCircle
 10
682.120997
 20
-116.613767
 30
0.0
 40
6.3327
  0
CIRCLE
  5
104
100
AcDbEntity
  8
V0-OBRYS
  6
CONTINUOUS
 62
    90
 48
3.0
100
AcDbCircle
 10
682.121
 20
-189.560809
 30
0.0
 40
6.3327
  0
CIRCLE
  5
105
100
AcDbEntity
  8
V0-OBRYS
  6
CONTINUOUS
 62
    90
 48
3.0
100
AcDbCircle
 10
753.719271
 20
-189.560806
 30
0.0
 40
6.3327
  0
CIRCLE
  5
106
100
AcDbEntity
  8
V0-OBRYS
  6
CONTINUOUS
 62
    90
 48
3.0
100
AcDbCircle
 10
753.719268
 20
-116.613763
 30
0.0
 40
6.3327
  0
CIRCLE
  5
107
100
AcDbEntity
  8
V0-VYPLNE
  6
DASHDOT
 62
    63
 48
3.0
100
AcDbCircle
 10
717.920134
 20
-152.412901
 30
0.0
 40
50.627623
  0
LINE
  5
10C
100
AcDbEntity
  8
V0-OBRYS
  6
CONTINUOUS
 62
    90
 48
3.0
100
AcDbLine
 10
616.747617
 20
-218.465271
 30
0.0
 11
781.24713
 21
-218.465271
 31
0.0
  0
LINE
  5
10D
100
AcDbEntity
  8
V0-OBRYS
  6
CONTINUOUS
 62
    90
 48
3.0
100
AcDbLine
 10
616.747617
 20
-224.569338
 30
0.0
 11
780.867617
 21
-224.569338
 31
0.0
  0
LINE
  5
10F
100
AcDbEntity
  8
V0-OBRYS
  6
CONTINUOUS
 62
    90
 48
3.0
100
AcDbLine
 10
764.716701
 20
-198.308216
 30
0.0
 11
777.585381
 21
-217.71567
 31
0.0
  0
LINE
  5
110
100
AcDbEntity
  8
V0-OBRYS
  6
CONTINUOUS
 62
    90
 48
3.0
100
AcDbLine
 10
781.24713
 20
-217.73346
 30
0.0
 11
781.24713
 21
-224.515079
 31
0.0
  0
LINE
  5
111
100
AcDbEntity
  8
V0-OBRYS
  6
CONTINUOUS
 62
    90
 48
3.0
100
AcDbLine
 10
616.747617
 20
-218.465271
 30
0.0
 11
616.747617
 21
-224.569338
 31
0.0
  0
LINE
  5
113
100
AcDbEntity
  8
V0-OBRYS
  6
CONTINUOUS
 62
    90
 48
3.0
100
AcDbLine
 10
616.747617
 20
-218.465271
 30
0.0
 11
672.320135
 21
23.409498
 31
0.0
  0
LINE
  5
114
100
AcDbEntity
  8
V0-OBRYS
  6
CONTINUOUS
 62
    90
 48
3.0
100
AcDbLine
 10
672.32013
 20
204.56165
 30
0.0
 11
672.320139
 21
-107.212528
 31
0.0
  0
LINE
  5
116
100
AcDbEntity
  8
V0-OBRYS
  6
CONTINUOUS
 62
    90
 48
3.0
100
AcDbLine
 10
672.32013
 20
204.56165
 30
0.0
 11
678.277918
 21
204.56165
 31
0.0
  0
LINE
  5
117
100
AcDbEntity
  8
V0-OBRYS
  6
CONTINUOUS
 62
    90
 48
3.0
100
AcDbLine
 10
667.258539
 20
-102.195286
 30
0.0
 11
673.877636
 21
-102.195286
 31
0.0
  0
LINE
  5
125
100
AcDbEntity
  8
V0-OBRYS
  6
CONTINUOUS
 62
    90
 48
3.0
100
AcDbLine
 10
412.566551
 20
-490.14204
 30
0.0
 11
58.582232
 21
-490.14205
 31
0.0
  0
LINE
  5
126
100
AcDbEntity
  8
V0-OBRYS
  6
CONTINUOUS
 62
    90
 48
3.0
100
AcDbLine
 10
404.370635
 20
-484.442041
 30
0.0
 11
63.076458
 21
-484.44205
 31
0.0
  0
LINE
  5
127
100
AcDbEntity
  8
V0-VYPLNE
  6
DASHDOT
 62
    63
 48
3.0
100
AcDbLine
 10
21.320479
 20
-530.042045
 30
0.0
 11
442.96251
 21
-530.042045
 31
0.0
  0
LINE
  5
128
100
AcDbEntity
  8
V0-OBRYS
  6
CONTINUOUS
 62
    90
 48
3.0
100
AcDbLine
 10
412.566551
 20
-569.94205
 30
0.0
 11
58.582232
 21
-569.94204
 31
0.0
  0
ARC
  5
129
100
AcDbEntity
  8
V0-OBRYS
  6
CONTINUOUS
 62
    90
 48
3.0
100
AcDbCircle
 10
224.806256
 20
-777.379322
 30
0.0
 40
423.639405
100
AcDbArc
 50
79.404955
 51
90.181597
  0
LINE
  5
12A
100
AcDbEntity
  8
V0-OBRYS
  6
CONTINUOUS
 62
    90
 48
3.0
100
AcDbLine
 10
307.351248
 20
-402.043866
 30
0.0
 11
223.463547
 21
-402.043866
 31
0.0
  0
LINE
  5
133
100
AcDbEntity
  8
V0-VYPLNE
  6
DASHDOT
 62
    63
 48
3.0
100
AcDbLine
 10
223.46355
 20
-340.021443
 30
0.0
 11
223.46355
 21
-595.218871
 31
0.0
  0
LINE
  5
13A
100
AcDbEntity
  8
V0-OBRYS
  6
CONTINUOUS
 62
    90
 48
3.0
100
AcDbLine
 10
63.076458
 20
-484.44205
 30
0.0
 11
63.076458
 21
-490.399833
 31
0.0
  0
LINE
  5
13B
100
AcDbEntity
  8
V0-VYPLNE
  6
DASHDOT
 62
    63
 48
3.0
100
AcDbLine
 10
223.463544
 20
-340.021443
 30
0.0
 11
223.463548
 21
-484.442045
 31
0.0
  0
LINE
  5
13C
100
AcDbEntity
  8
V0-OBRYS
  6
CONTINUOUS
 62
    90
 48
3.0
100
AcDbLine
 10
139.575847
 20
-366.565263
 30
0.0
 11
139.57585
 21
-484.442048
 31
0.0
  0
ARC
  5
13D
100
AcDbEntity
  8
V0-OBRYS
  6
CONTINUOUS
 62
    90
 48
3.0
100
AcDbCircle
 10
222.12085
 20
-777.379322
 30
0.0
 40
423.639405
100
AcDbArc
 50
89.818405
 51
100.595047
  0
ARC
  5
13E
100
AcDbEntity
  8
V0-OBRYS
  6
CONTINUOUS
 62
    90
 48
3.0
100
AcDbCircle
 10
145.275847
 20
-366.565263
 30
0.0
 40
5.7
100
AcDbArc
 50
100.595047
 51
180.000002
  0
LINE
  5
13F
100
AcDbEntity
  8
V0-OBRYS
  6
CONTINUOUS
 62
    90
 48
3.0
100
AcDbLine
 10
139.575848
 20
-402.043868
 30
0.0
 11
223.463549
 21
-402.043866
 31
0.0
  0
LINE
  5
140
100
AcDbEntity
  8
V0-OBRYS
  6
CONTINUOUS
 62
    90
 48
3.0
100
AcDbLine
 10
155.724969
 20
-402.043866
 30
0.0
 11
155.724969
 21
-484.442047
 31
0.0
  0
LINE
  5
141
100
AcDbEntity
  8
V0-OBRYS
  6
CONTINUOUS
 62
    90
 48
3.0
100
AcDbLine
 10
150.109181
 20
-402.043866
 30
0.0
 11
150.109181
 21
-484.442047
 31
0.0
  0
LINE
  5
142
100
AcDbEntity
  8
V0-OBRYS
  6
CONTINUOUS
 62
    90
 48
3.0
100
AcDbLine
 10
144.493393
 20
-402.043866
 30
0.0
 11
144.493393
 21
-484.442047
 31
0.0
  0
LINE
  5
143
100
AcDbEntity
  8
V0-OBRYS
  6
CONTINUOUS
 62
    90
 48
3.0
100
AcDbLine
 10
206.267062
 20
-402.043866
 30
0.0
 11
206.267062
 21
-484.442046
 31
0.0
  0
LINE
  5
144
100
AcDbEntity
  8
V0-OBRYS
  6
CONTINUOUS
 62
    90
 48
3.0
100
AcDbLine
 10
211.88285
 20
-402.043866
 30
0.0
 11
211.88285
 21
-484.442045
 31
0.0
  0
LINE
  5
145
100
AcDbEntity
  8
V0-OBRYS
  6
CONTINUOUS
 62
    90
 48
3.0
100
AcDbLine
 10
217.498638
 20
-402.043866
 30
0.0
 11
217.498638
 21
-484.442045
 31
0.0
  0
LINE
  5
146
100
AcDbEntity
  8
V0-OBRYS
  6
CONTINUOUS
 62
    90
 48
3.0
100
AcDbLine
 10
228.730214
 20
-402.043866
 30
0.0
 11
228.730214
 21
-484.442045
 31
0.0
  0
LINE
  5
147
100
AcDbEntity
  8
V0-OBRYS
  6
CONTINUOUS
 62
    90
 48
3.0
100
AcDbLine
 10
234.346003
 20
-402.043866
 30
0.0
 11
234.346003
 21
-484.442045
 31
0.0
  0
LINE
  5
148
100
AcDbEntity
  8
V0-OBRYS
  6
CONTINUOUS
 62
    90
 48
3.0
100
AcDbLine
 10
239.961791
 20
-402.043866
 30
0.0
 11
239.961791
 21
-484.442045
 31
0.0
  0
LINE
  5
149
100
AcDbEntity
  8
V0-OBRYS
  6
CONTINUOUS
 62
    90
 48
3.0
100
AcDbLine
 10
245.577579
 20
-402.043866
 30
0.0
 11
245.577579
 21
-484.442044
 31
0.0
  0
LINE
  5
14A
100
AcDbEntity
  8
V0-OBRYS
  6
CONTINUOUS
 62
    90
 48
3.0
100
AcDbLine
 10
251.193367
 20
-402.043866
 30
0.0
 11
251.193367
 21
-484.442044
 31
0.0
  0
LINE
  5
14B
100
AcDbEntity
  8
V0-OBRYS
  6
CONTINUOUS
 62
    90
 48
3.0
100
AcDbLine
 10
200.651274
 20
-402.043866
 30
0.0
 11
200.651274
 21
-483.880088
 31
0.0
  0
LINE
  5
14C
100
AcDbEntity
  8
V0-OBRYS
  6
CONTINUOUS
 62
    90
 48
3.0
100
AcDbLine
 10
195.035486
 20
-402.043866
 30
0.0
 11
195.035486
 21
-484.442046
 31
0.0
  0
LINE
  5
14D
100
AcDbEntity
  8
V0-OBRYS
  6
CONTINUOUS
 62
    90
 48
3.0
100
AcDbLine
 10
189.419698
 20
-402.043866
 30
0.0
 11
189.419698
 21
-484.442046
 31
0.0
  0
LINE
  5
14E
100
AcDbEntity
  8
V0-OBRYS
  6
CONTINUOUS
 62
    90
 48
3.0
100
AcDbLine
 10
223.114426
 20
-402.043866
 30
0.0
 11
223.114426
 21
-489.8583
 31
0.0
  0
LINE
  5
14F
100
AcDbEntity
  8
V0-OBRYS
  6
CONTINUOUS
 62
    90
 48
3.0
100
AcDbLine
 10
183.80391
 20
-402.043866
 30
0.0
 11
183.80391
 21
-484.442046
 31
0.0
  0
LINE
  5
150
100
AcDbEntity
  8
V0-OBRYS
  6
CONTINUOUS
 62
    90
 48
3.0
100
AcDbLine
 10
178.188122
 20
-402.043866
 30
0.0
 11
178.188122
 21
-484.442047
 31
0.0
  0
LINE
  5
151
100
AcDbEntity
  8
V0-OBRYS
  6
CONTINUOUS
 62
    90
 48
3.0
100
AcDbLine
 10
172.572334
 20
-402.043866
 30
0.0
 11
172.572334
 21
-484.442047
 31
0.0
  0
LINE
  5
152
100
AcDbEntity
  8
V0-OBRYS
  6
CONTINUOUS
 62
    90
 48
3.0
100
AcDbLine
 10
166.956546
 20
-402.043866
 30
0.0
 11
166.956546
 21
-484.442047
 31
0.0
  0
LINE
  5
153
100
AcDbEntity
  8
V0-OBRYS
  6
CONTINUOUS
 62
    90
 48
3.0
100
AcDbLine
 10
161.340757
 20
-402.043866
 30
0.0
 11
161.340757
 21
-484.442047
 31
0.0
  0
ARC
  5
156
100
AcDbEntity
  8
V0-OBRYS
  6
CONTINUOUS
 62
    90
 48
3.0
100
AcDbCircle
 10
344.168759
 20
-530.042045
 30
0.0
 40
84.124445
100
AcDbArc
 50
335.771559
 51
24.228441
  0
LINE
  5
157
100
AcDbEntity
  8
V0-OBRYS
  6
CONTINUOUS
 62
    90
 48
3.0
100
AcDbLine
 10
307.351248
 20
-366.56526
 30
0.0
 11
307.351248
 21
-484.442043
 31
0.0
  0
ARC
  5
158
100
AcDbEntity
  8
V0-OBRYS
  6
CONTINUOUS
 62
    90
 48
3.0
100
AcDbCircle
 10
301.651248
 20
-366.56526
 30
0.0
 40
5.7
100
AcDbArc
 50
0.0
 51
79.404955
  0
LINE
  5
159
100
AcDbEntity
  8
V0-OBRYS
  6
CONTINUOUS
 62
    90
 48
3.0
100
AcDbLine
 10
256.809155
 20
-402.043866
 30
0.0
 11
256.809155
 21
-484.442044
 31
0.0
  0
LINE
  5
15A
100
AcDbEntity
  8
V0-OBRYS
  6
CONTINUOUS
 62
    90
 48
3.0
100
AcDbLine
 10
262.424943
 20
-402.043866
 30
0.0
 11
262.424943
 21
-484.442044
 31
0.0
  0
LINE
  5
15B
100
AcDbEntity
  8
V0-OBRYS
  6
CONTINUOUS
 62
    90
 48
3.0
100
AcDbLine
 10
268.040731
 20
-402.043866
 30
0.0
 11
268.040731
 21
-484.442044
 31
0.0
  0
LINE
  5
15C
100
AcDbEntity
  8
V0-OBRYS
  6
CONTINUOUS
 62
    90
 48
3.0
100
AcDbLine
 10
273.656519
 20
-402.043866
 30
0.0
 11
273.656519
 21
-484.442044
 31
0.0
  0
LINE
  5
15D
100
AcDbEntity
  8
V0-OBRYS
  6
CONTINUOUS
 62
    90
 48
3.0
100
AcDbLine
 10
279.272307
 20
-402.043866
 30
0.0
 11
279.272307
 21
-484.442044
 31
0.0
  0
LINE
  5
15E
100
AcDbEntity
  8
V0-OBRYS
  6
CONTINUOUS
 62
    90
 48
3.0
100
AcDbLine
 10
284.888095
 20
-402.043866
 30
0.0
 11
284.888095
 21
-484.442043
 31
0.0
  0
LINE
  5
15F
100
AcDbEntity
  8
V0-OBRYS
  6
CONTINUOUS
 62
    90
 48
3.0
100
AcDbLine
 10
290.503883
 20
-402.043866
 30
0.0
 11
290.503883
 21
-484.442043
 31
0.0
  0
LINE
  5
160
100
AcDbEntity
  8
V0-OBRYS
  6
CONTINUOUS
 62
    90
 48
3.0
100
AcDbLine
 10
296.119671
 20
-402.043866
 30
0.0
 11
296.119671
 21
-484.442043
 31
0.0
  0
LINE
  5
161
100
AcDbEntity
  8
V0-OBRYS
  6
CONTINUOUS
 62
    90
 48
3.0
100
AcDbLine
 10
301.73546
 20
-402.043866
 30
0.0
 11
301.73546
 21
-484.442043
 31
0.0
  0
ARC
  5
162
100
AcDbEntity
  8
V0-OBRYS
  6
CONTINUOUS
 62
    90
 48
3.0
100
AcDbCircle
 10
412.566552
 20
-499.26204
 30
0.0
 40
9.12
100
AcDbArc
 50
24.228441
 51
90.000002
  0
LINE
  5
163
100
AcDbEntity
  8
V0-OBRYS
  6
CONTINUOUS
 62
    90
 48
3.0
100
AcDbLine
 10
404.370635
 20
-484.442041
 30
0.0
 11
404.370635
 21
-490.399829
 31
0.0
  0
ARC
  5
164
100
AcDbEntity
  8
V0-OBRYS
  6
CONTINUOUS
 62
    90
 48
3.0
100
AcDbCircle
 10
412.566552
 20
-560.82205
 30
0.0
 40
9.12
100
AcDbArc
 50
269.999998
 51
335.771559
  0
ARC
  5
16D
100
AcDbEntity
  8
V0-OBRYS
  6
CONTINUOUS
 62
    90
 48
3.0
100
AcDbCircle
 10
58.582232
 20
-560.82205
 30
0.0
 40
9.12
100
AcDbArc
 50
204.228441
 51
270.000002
  0
ARC
  5
16E
100
AcDbEntity
  8
V0-OBRYS
  6
CONTINUOUS
 62
    90
 48
3.0
100
AcDbCircle
 10
126.980024
 20
-530.042045
 30
0.0
 40
84.124445
100
AcDbArc
 50
155.771559
 51
204.228441
  0
ARC
  5
16F
100
AcDbEntity
  8
V0-OBRYS
  6
CONTINUOUS
 62
    90
 48
3.0
100
AcDbCircle
 10
58.582232
 20
-499.26204
 30
0.0
 40
9.12
100
AcDbArc
 50
89.999998
 51
155.771559
  0
LINE
  5
172
100
AcDbEntity
  8
V0-OBRYS
  6
CONTINUOUS
 62
    90
 48
3.0
100
AcDbLine
 10
112.794269
 20
-411.000077
 30
0.0
 11
112.794269
 21
-483.764985
 31
0.0
  0
LINE
  5
173
100
AcDbEntity
  8
V0-OBRYS
  6
CONTINUOUS
 62
    90
 48
3.0
100
AcDbLine
 10
328.431771
 20
-411.000077
 30
0.0
 11
328.431771
 21
-484.442043
 31
0.0
  0
LINE
  5
174
100
AcDbEntity
  8
V0-OBRYS
  6
CONTINUOUS
 62
    90
 48
3.0
100
AcDbLine
 10
325.011771
 20
-407.580077
 30
0.0
 11
307.351248
 21
-407.580077
 31
0.0
  0
LINE
  5
175
100
AcDbEntity
  8
V0-OBRYS
  6
CONTINUOUS
 62
    90
 48
3.0
100
AcDbLine
 10
118.494269
 20
-407.580077
 30
0.0
 11
118.494269
 21
-483.764985
 31
0.0
  0
LINE
  5
176
100
AcDbEntity
  8
V0-OBRYS
  6
CONTINUOUS
 62
    90
 48
3.0
100
AcDbLine
 10
322.731771
 20
-407.580077
 30
0.0
 11
322.731771
 21
-484.442043
 31
0.0
  0
LINE
  5
177
100
AcDbEntity
  8
V0-OBRYS
  6
CONTINUOUS
 62
    90
 48
3.0
100
AcDbLine
 10
139.575848
 20
-407.580077
 30
0.0
 11
116.214269
 21
-407.580077
 31
0.0
  0
ARC
  5
17A
100
AcDbEntity
  8
V0-OBRYS
  6
CONTINUOUS
 62
    90
 48
3.0
100
AcDbCircle
 10
116.214269
 20
-411.000077
 30
0.0
 40
3.42
100
AcDbArc
 50
90.0
 51
180.0
  0
ARC
  5
17B
100
AcDbEntity
  8
V0-OBRYS
  6
CONTINUOUS
 62
    90
 48
3.0
100
AcDbCircle
 10
325.011771
 20
-411.000077
 30
0.0
 40
3.42
100
AcDbArc
 50
0.0
 51
90.0
  0
LINE
  5
17C
100
AcDbEntity
  8
V0-OBRYS
  6
CONTINUOUS
 62
    90
 48
3.0
100
AcDbLine
 10
307.351248
 20
-575.642047
 30
0.0
 11
139.575853
 21
-575.642043
 31
0.0
  0
LINE
  5
180
100
AcDbEntity
  8
V0-OBRYS
  6
CONTINUOUS
 62
    90
 48
3.0
100
AcDbLine
 10
139.575853
 20
-569.942043
 30
0.0
 11
139.575853
 21
-575.642043
 31
0.0
  0
LINE
  5
181
100
AcDbEntity
  8
V0-OBRYS
  6
CONTINUOUS
 62
    90
 48
3.0
100
AcDbLine
 10
307.351248
 20
-569.942047
 30
0.0
 11
307.351248
 21
-575.642047
 31
0.0
  0
LINE
  5
182
100
AcDbEntity
  8
V0-OBRYS
  6
CONTINUOUS
 62
    90
 48
3.0
100
AcDbLine
 10
672.32013
 20
204.56165
 30
0.0
 11
672.320139
 21
-107.212528
 31
0.0
  0
LINE
  5
183
100
AcDbEntity
  8
V0-OBRYS
  6
CONTINUOUS
 62
    90
 48
3.0
100
AcDbLine
 10
763.520136
 20
128.062262
 30
0.0
 11
763.520132
 21
-39.713133
 31
0.0
  0
LINE
  5
184
100
AcDbEntity
  8
V0-OBRYS
  6
CONTINUOUS
 62
    90
 48
3.0
100
AcDbLine
 10
757.820136
 20
128.062262
 30
0.0
 11
763.520136
 21
128.062262
 31
0.0
  0
LINE
  5
185
100
AcDbEntity
  8
V0-OBRYS
  6
CONTINUOUS
 62
    90
 48
3.0
100
AcDbLine
 10
757.820132
 20
-39.713133
 30
0.0
 11
763.520132
 21
-39.713133
 31
0.0
  0
ARC
  5
188
100
AcDbEntity
  8
V0-OBRYS
  6
CONTINUOUS
 62
    90
 48
3.0
100
AcDbCircle
 10
130.98197
 20
-102.487757
 30
0.0
 40
5.7
100
AcDbArc
 50
270.0
 51
0.0
  0
CIRCLE
  5
277
100
AcDbEntity
  8
V0-OBRYS
  6
CONTINUOUS
 62
    90
 48
3.0
100
AcDbCircle
 10
717.920134
 20
-152.412901
 30
0.0
 40
39.996
  0
DIMENSION
  5
2AB
100
AcDbEntity
  8
V0-VYPLNE
  6
CONTINUOUS
 62
    41
 48
3.0
100
AcDbDimension
  2
*D1
 10
-2.415382
 20
-219.412901
 30
0.0
 11
-17.915382
 21
4.428281
 31
0.0
 70
    32
  3
ED20
100
AcDbAlignedDimension
 13
223.46355
 23
228.269463
 33
0.0
 14
38.216432
 24
-219.412901
 34
0.0
 50
90.0
100
AcDbRotatedDimension
1001
ACAD
1000
DSTYLE
1002
{
1070
   140
1040
25.0
1070
   340
1005
449
1070
    41
1040
30.0
1002
}
  0
DIMENSION
  5
2B8
100
AcDbEntity
  8
V0-VYPLNE
  6
CONTINUOUS
 62
    41
 48
3.0
100
AcDbDimension
  2
*D2
 10
763.520134
 20
273.276782
 30
0.0
 11
652.720134
 21
273.276782
 31
0.0
 70
   160
  3
ED20
100
AcDbAlignedDimension
 13
541.920134
 23
44.174569
 33
0.0
 14
763.520134
 24
44.174564
 34
0.0
100
AcDbRotatedDimension
1001
ACAD
1000
DSTYLE
1002
{
1070
   140
1040
25.0
1070
   340
1005
449
1070
    41
1040
30.0
1002
}
  0
DIMENSION
  5
2D1
100
AcDbEntity
  8
V0-VYPLNE
  6
CONTINUOUS
 62
    41
 48
3.0
100
AcDbDimension
  2
*D3
 10
616.747617
 20
-272.220714
 30
0.0
 11
698.807617
 21
-256.720714
 31
0.0
 70
    32
  3
ED20
100
AcDbAlignedDimension
 13
780.867617
 23
-224.569338
 33
0.0
 14
616.747617
 24
-224.569338
 34
0.0
100
AcDbRotatedDimension
1001
ACAD
1000
DSTYLE
1002
{
1070
   140
1040
25.0
1070
   340
1005
449
1070
    41
1040
30.0
1002
}
  0
DIMENSION
  5
307
100
AcDbEntity
  8
V0-VYPLNE
  6
CONTINUOUS
 62
    41
 48
3.0
100
AcDbDimension
  2
*D4
 10
281.741514
 20
66.692893
 30
0.0
 11
218.011671
 21
58.474882
 31
0.0
 70
    33
  1
%%c<>
  3
ED20
100
AcDbAlignedDimension
 13
165.53056
 23
21.417889
 33
0.0
 14
281.723425
 24
66.739269
 34
0.0
1001
ACAD
1000
DSTYLE
1002
{
1070
   140
1040
25.0
1070
   340
1005
449
1070
    41
1040
30.0
1002
}
  0
MTEXT
  5
329
100
AcDbEntity
  8
V0-ZBYTEK
 62
    51
100
AcDbMText
 10
697.416939
 20
-491.328228
 30
0.0
 40
26.46
 41
749.5596
 71
     5
 72
     5
  1
SPECIALNI RADIALNI\PVENTILATOR
  7
ED10
  0
MTEXT
  5
32A
100
AcDbEntity
  8
V0-NAZVY
100
AcDbMText
 10
685.290398
 20
-400.511439
 30
0.0
 40
47.25
 41
388.6606
 71
     5
 72
     5
  1
CBB/CBT-80
  7
ED10
  0
MTEXT
  5
32B
100
AcDbEntity
  8
V0-NAZVY
100
AcDbMText
 10
616.121755
 20
166.416484
 30
0.0
 40
33.075
 41
272.0624
 71
     5
 72
     5
  1
CBB/CBT-80
  7
ED20
  0
DIMENSION
  5
398
100
AcDbEntity
  8
V0-VYPLNE
  6
CONTINUOUS
 62
    41
 48
3.0
100
AcDbDimension
  2
*D5
 10
756.817151
 20
-143.101505
 30
0.0
 11
566.885575
 21
-188.568439
 31
0.0
 70
   163
  3
ED20
100
AcDbDiametricDimension
 15
679.023117
 25
-161.724297
 35
0.0
 40
0.0
1001
ACAD
1000
DSTYLE
1002
{
1070
   140
1040
25.0
1070
   340
1005
449
1070
    41
1040
30.0
1002
}
  0
DIMENSION
  5
3BB
100
AcDbEntity
  8
V0-VYPLNE
  6
CONTINUOUS
 62
    41
 48
3.0
100
AcDbDimension
  2
*D6
 10
429.014346
 20
273.696247
 30
0.0
 11
241.946353
 21
273.696247
 31
0.0
 70
   160
  3
ED20
100
AcDbAlignedDimension
 13
38.742948
 23
44.174564
 33
0.0
 14
429.014346
 24
15.858016
 34
0.0
100
AcDbRotatedDimension
1001
ACAD
1000
DSTYLE
1002
{
1070
   140
1040
25.0
1070
   340
1005
449
1070
    41
1040
30.0
1002
}
  0
LINE
  5
3EA
100
AcDbEntity
  8
V0-OBRYS
  6
CONTINUOUS
 62
    90
 48
3.0
100
AcDbLine
 10
37.591432
 20
-463.042045
 30
0.0
 11
37.591432
 21
-597.042045
 31
0.0
  0
LINE
  5
3EB
100
AcDbEntity
  8
V0-OBRYS
  6
CONTINUOUS
 62
    90
 48
3.0
100
AcDbLine
 10
48.991432
 20
-463.042045
 30
0.0
 11
48.991432
 21
-498.503154
 31
0.0
  0
LINE
  5
3EC
100
AcDbEntity
  8
V0-OBRYS
  6
CONTINUOUS
 62
    90
 48
3.0
100
AcDbLine
 10
48.991432
 20
-597.042045
 30
0.0
 11
37.591432
 21
-597.042045
 31
0.0
  0
LINE
  5
3ED
100
AcDbEntity
  8
V0-OBRYS
  6
CONTINUOUS
 62
    90
 48
3.0
100
AcDbLine
 10
48.991432
 20
-463.042045
 30
0.0
 11
37.591432
 21
-463.042045
 31
0.0
  0
LINE
  5
3EE
100
AcDbEntity
  8
V0-OBRYS
  6
CONTINUOUS
 62
    90
 48
3.0
100
AcDbLine
 10
48.991432
 20
-561.580936
 30
0.0
 11
48.991432
 21
-597.042045
 31
0.0
  0
POINT
  5
4D2
100
AcDbEntity
  8
V0-VYPLNE
  6
CONTINUOUS
 62
    41
 48
3.0
100
AcDbPoint
 10
37.591432
 20
-530.042045
 30
0.0
  0
POINT
  5
4D3
100
AcDbEntity
  8
V0-VYPLNE
  6
CONTINUOUS
 62
    41
 48
3.0
100
AcDbPoint
 10
38.216432
 20
-152.412901
 30
0.0
  0
POINT
  5
4D4
100
AcDbEntity
  8
V0-VYPLNE
  6
CONTINUOUS
 62
    41
 48
3.0
100
AcDbPoint
 10
717.920134
 20
-152.412901
 30
0.0
  0
MTEXT
  5
65A
100
AcDbEntity
  8
V0-NAZVY
100
AcDbMText
 10
207.462821
 20
-257.967573
 30
0.0
 40
33.075
 41
272.0624
 71
     5
 72
     5
  1
CBB/CBT-80
  7
ED20
  0
MTEXT
  5
65B
100
AcDbEntity
  8
V0-NAZVY
100
AcDbMText
 10
225.829512
 20
-611.238629
 30
0.0
 40
33.075
 41
272.0624
 71
     5
 72
     5
  1
CBB/CBT-80
  7
ED20
  0
ENDSEC
  0
SECTION
  2
OBJECTS
  0
DICTIONARY
  5
1A
100
AcDbDictionary
  3
ACAD_GROUP
350
18
  3
ACAD_MLINESTYLE
350
19
  3
ACDBVARIABLEDICTIONARY
350
D9
  0
DICTIONARY
  5
18
102
{ACAD_REACTORS
330
1A
102
}
100
AcDbDictionary
  0
DICTIONARY
  5
19
102
{ACAD_REACTORS
330
1A
102
}
100
AcDbDictionary
  3
STANDARD
350
1D
  0
DICTIONARY
  5
D9
102
{ACAD_REACTORS
330
1A
102
}
100
AcDbDictionary
  3
SORTENTS
350
DA
  0
MLINESTYLE
  5
1D
102
{ACAD_REACTORS
330
19
102
}
100
AcDbMlineStyle
  2
STANDARD
 70
     0
  3

 62
     0
 51
90.0
 52
90.0
 71
     2
 49
0.5
 62
   256
  6
BYLAYER
 49
-0.5
 62
   256
  6
BYLAYER
  0
DICTIONARYVAR
  5
DA
102
{ACAD_REACTORS
330
D9
102
}
100
DictionaryVariables
280
     0
  1
96
  0
ENDSEC
  0
EOF
