  0
SECTION
  2
HEADER
  9
$ACADVER
  1
AC1014
  9
$ACADMAINTVER
 70
     0
  9
$DWGCODEPAGE
  3
ANSI_1250
  9
$INSBASE
 10
0.0
 20
0.0
 30
0.0
  9
$EXTMIN
 10
-18.397194
 20
-1993.673439
 30
0.0
  9
$EXTMAX
 10
1970.070078
 20
175.163798
 30
0.0
  9
$LIMMIN
 10
0.0
 20
0.0
  9
$LIMMAX
 10
420.0
 20
297.0
  9
$ORTHOMODE
 70
     1
  9
$REGENMODE
 70
     1
  9
$FILLMODE
 70
     1
  9
$QTEXTMODE
 70
     0
  9
$MIRRTEXT
 70
     1
  9
$DRAGMODE
 70
     2
  9
$LTSCALE
 40
1.0
  9
$OSMODE
 70
    36
  9
$ATTMODE
 70
     1
  9
$TEXTSIZE
 40
30.0
  9
$TRACEWID
 40
1.0
  9
$TEXTSTYLE
  7
ED30
  9
$CLAYER
  8
V0-VYPLNE
  9
$CELTYPE
  6
CONTINUOUS
  9
$CECOLOR
 62
    41
  9
$CELTSCALE
 40
3.0
  9
$DELOBJ
 70
     1
  9
$DISPSILH
 70
     0
  9
$DIMSCALE
 40
0.0
  9
$DIMASZ
 40
25.0
  9
$DIMEXO
 40
1.0
  9
$DIMDLI
 40
3.75
  9
$DIMRND
 40
0.0
  9
$DIMDLE
 40
0.0
  9
$DIMEXE
 40
1.25
  9
$DIMTP
 40
0.0
  9
$DIMTM
 40
0.0
  9
$DIMTXT
 40
30.0
  9
$DIMCEN
 40
3.0
  9
$DIMTSZ
 40
0.0
  9
$DIMTOL
 70
     0
  9
$DIMLIM
 70
     0
  9
$DIMTIH
 70
     0
  9
$DIMTOH
 70
     0
  9
$DIMSE1
 70
     0
  9
$DIMSE2
 70
     0
  9
$DIMTAD
 70
     1
  9
$DIMZIN
 70
     8
  9
$DIMBLK
  1

  9
$DIMASO
 70
     1
  9
$DIMSHO
 70
     1
  9
$DIMPOST
  1

  9
$DIMAPOST
  1

  9
$DIMALT
 70
     0
  9
$DIMALTD
 70
     4
  9
$DIMALTF
 40
0.0394
  9
$DIMLFAC
 40
1.0
  9
$DIMTOFL
 70
     1
  9
$DIMTVP
 40
0.0
  9
$DIMTIX
 70
     0
  9
$DIMSOXD
 70
     0
  9
$DIMSAH
 70
     1
  9
$DIMBLK1
  1
_OPEN
  9
$DIMBLK2
  1
_OPEN
  9
$DIMSTYLE
  2
ED30
  9
$DIMCLRD
 70
     1
  9
$DIMCLRE
 70
     1
  9
$DIMCLRT
 70
     1
  9
$DIMTFAC
 40
1.0
  9
$DIMGAP
 40
4.0
  9
$DIMJUST
 70
     0
  9
$DIMSD1
 70
     0
  9
$DIMSD2
 70
     0
  9
$DIMTOLJ
 70
     1
  9
$DIMTZIN
 70
     8
  9
$DIMALTZ
 70
     0
  9
$DIMALTTZ
 70
     0
  9
$DIMFIT
 70
     3
  9
$DIMUPT
 70
     0
  9
$DIMUNIT
 70
     2
  9
$DIMDEC
 70
     1
  9
$DIMTDEC
 70
     1
  9
$DIMALTU
 70
     8
  9
$DIMALTTD
 70
     4
  9
$DIMTXSTY
  7
ED30
  9
$DIMAUNIT
 70
     0
  9
$LUNITS
 70
     2
  9
$LUPREC
 70
     2
  9
$SKETCHINC
 40
1.0
  9
$FILLETRAD
 40
0.0
  9
$AUNITS
 70
     0
  9
$AUPREC
 70
     0
  9
$MENU
  1
.
  9
$ELEVATION
 40
0.0
  9
$PELEVATION
 40
0.0
  9
$THICKNESS
 40
0.0
  9
$LIMCHECK
 70
     0
  9
$BLIPMODE
 70
     0
  9
$CHAMFERA
 40
0.0
  9
$CHAMFERB
 40
0.0
  9
$CHAMFERC
 40
20.0
  9
$CHAMFERD
 40
0.0
  9
$SKPOLY
 70
     1
  9
$TDCREATE
 40
2451196.643769328
  9
$TDUPDATE
 40
2452932.433010532
  9
$TDINDWG
 40
0.4390567130
  9
$TDUSRTIMER
 40
0.4390567130
  9
$USRTIMER
 70
     1
  9
$ANGBASE
 50
0.0
  9
$ANGDIR
 70
     0
  9
$PDMODE
 70
     3
  9
$PDSIZE
 40
20.0
  9
$PLINEWID
 40
0.0
  9
$COORDS
 70
     1
  9
$SPLFRAME
 70
     0
  9
$SPLINETYPE
 70
     6
  9
$SPLINESEGS
 70
     8
  9
$ATTDIA
 70
     0
  9
$ATTREQ
 70
     1
  9
$HANDLING
 70
     1
  9
$HANDSEED
  5
22C5
  9
$SURFTAB1
 70
     6
  9
$SURFTAB2
 70
     6
  9
$SURFTYPE
 70
     6
  9
$SURFU
 70
     6
  9
$SURFV
 70
     6
  9
$UCSNAME
  2

  9
$UCSORG
 10
263.1832125521595
 20
-860.8362015275439
 30
0.0
  9
$UCSXDIR
 10
1.0
 20
0.0
 30
0.0
  9
$UCSYDIR
 10
0.0
 20
1.0
 30
0.0
  9
$PUCSNAME
  2

  9
$PUCSORG
 10
0.0
 20
0.0
 30
0.0
  9
$PUCSXDIR
 10
1.0
 20
0.0
 30
0.0
  9
$PUCSYDIR
 10
0.0
 20
1.0
 30
0.0
  9
$USERI1
 70
     0
  9
$USERI2
 70
     0
  9
$USERI3
 70
     2
  9
$USERI4
 70
     2
  9
$USERI5
 70
     6
  9
$USERR1
 40
281.0
  9
$USERR2
 40
321.0
  9
$USERR3
 40
0.0
  9
$USERR4
 40
0.0
  9
$USERR5
 40
0.0
  9
$WORLDVIEW
 70
     1
  9
$SHADEDGE
 70
     3
  9
$SHADEDIF
 70
    70
  9
$TILEMODE
 70
     1
  9
$MAXACTVP
 70
    48
  9
$PINSBASE
 10
0.0
 20
0.0
 30
0.0
  9
$PLIMCHECK
 70
     0
  9
$PEXTMIN
 10
1.000000E+20
 20
1.000000E+20
 30
1.000000E+20
  9
$PEXTMAX
 10
-1.000000E+20
 20
-1.000000E+20
 30
-1.000000E+20
  9
$PLIMMIN
 10
0.0
 20
0.0
  9
$PLIMMAX
 10
420.0
 20
297.0
  9
$UNITMODE
 70
     0
  9
$VISRETAIN
 70
     1
  9
$PLINEGEN
 70
     0
  9
$PSLTSCALE
 70
     0
  9
$TREEDEPTH
 70
  3020
  9
$PICKSTYLE
 70
     1
  9
$CMLSTYLE
  2
STANDARD
  9
$CMLJUST
 70
     0
  9
$CMLSCALE
 40
1.0
  9
$PROXYGRAPHICS
 70
     1
  9
$MEASUREMENT
 70
     1
  0
ENDSEC
  0
SECTION
  2
CLASSES
  0
CLASS
  1
DICTIONARYVAR
  2
AcDbDictionaryVar
  3
"AutoCAD"
 90
        0
280
     0
281
     0
  0
CLASS
  1
LWPOLYLINE
  2
AcDbPolyline
  3
"AutoCAD"
 90
        0
280
     0
281
     1
  0
CLASS
  1
HATCH
  2
AcDbHatch
  3
"ACAD_SEDONA"
 90
        0
280
     0
281
     1
  0
ENDSEC
  0
SECTION
  2
TABLES
  0
TABLE
  2
VPORT
  5
8
100
AcDbSymbolTable
 70
     2
  0
VPORT
  5
22C4
100
AcDbSymbolTableRecord
100
AcDbViewportTableRecord
  2
*ACTIVE
 70
     0
 10
0.0
 20
0.0
 11
1.0
 21
1.0
 12
969.420767
 22
-872.661712
 13
0.0
 23
0.0
 14
10.0
 24
10.0
 15
10.0
 25
10.0
 16
0.0
 26
0.0
 36
1.0
 17
0.0
 27
0.0
 37
0.0
 40
2306.84946
 41
1.75
 42
50.0
 43
0.0
 44
0.0
 50
0.0
 51
0.0
 71
     0
 72
   100
 73
     1
 74
     1
 75
     0
 76
     0
 77
     0
 78
     0
  0
ENDTAB
  0
TABLE
  2
LTYPE
  5
5
100
AcDbSymbolTable
 70
     3
  0
LTYPE
  5
14
100
AcDbSymbolTableRecord
100
AcDbLinetypeTableRecord
  2
BYBLOCK
 70
     0
  3

 72
    65
 73
     0
 40
0.0
  0
LTYPE
  5
15
100
AcDbSymbolTableRecord
100
AcDbLinetypeTableRecord
  2
BYLAYER
 70
     0
  3

 72
    65
 73
     0
 40
0.0
  0
LTYPE
  5
16
100
AcDbSymbolTableRecord
100
AcDbLinetypeTableRecord
  2
CONTINUOUS
 70
     0
  3
Solid line
 72
    65
 73
     0
 40
0.0
  0
LTYPE
  5
7F
100
AcDbSymbolTableRecord
100
AcDbLinetypeTableRecord
  2
DASHDOT
 70
     0
  3
Dash dot __ . __ . __ . __ . __ . __ . __ . __
 72
    65
 73
     4
 40
25.4
 49
12.7
 74
     0
 49
-6.35
 74
     0
 49
0.0
 74
     0
 49
-6.35
 74
     0
  0
LTYPE
  5
80
100
AcDbSymbolTableRecord
100
AcDbLinetypeTableRecord
  2
DASHED
 70
     0
  3
Dashed __ __ __ __ __ __ __ __ __ __ __ __ __ _
 72
    65
 73
     2
 40
19.05
 49
12.7
 74
     0
 49
-6.35
 74
     0
  0
ENDTAB
  0
TABLE
  2
LAYER
  5
2
100
AcDbSymbolTable
 70
     6
  0
LAYER
  5
F
100
AcDbSymbolTableRecord
100
AcDbLayerTableRecord
  2
0
 70
     0
 62
     7
  6
CONTINUOUS
  0
LAYER
  5
9E
100
AcDbSymbolTableRecord
100
AcDbLayerTableRecord
  2
DEFPOINTS
 70
     0
 62
     7
  6
CONTINUOUS
  0
LAYER
  5
377
100
AcDbSymbolTableRecord
100
AcDbLayerTableRecord
  2
V0-OBRYS
 70
     0
 62
    90
  6
CONTINUOUS
  0
LAYER
  5
378
100
AcDbSymbolTableRecord
100
AcDbLayerTableRecord
  2
V0-VYPLNE
 70
     0
 62
    63
  6
DASHDOT
  0
LAYER
  5
37A
100
AcDbSymbolTableRecord
100
AcDbLayerTableRecord
  2
V0-NAZVY
 70
     0
 62
   210
  6
CONTINUOUS
  0
LAYER
  5
559
100
AcDbSymbolTableRecord
100
AcDbLayerTableRecord
  2
V0-ZBYTEK
 70
     0
 62
    51
  6
CONTINUOUS
  0
ENDTAB
  0
TABLE
  2
STYLE
  5
3
100
AcDbSymbolTable
 70
     5
  0
STYLE
  5
10
100
AcDbSymbolTableRecord
100
AcDbTextStyleTableRecord
  2
STANDARD
 70
     0
 40
7.0
 41
1.0
 50
0.0
 71
     0
 42
20.0
  3
ISOCP.shx
  4

  0
STYLE
  5
331
100
AcDbSymbolTableRecord
100
AcDbTextStyleTableRecord
  2
ED30
 70
     0
 40
30.0
 41
1.0
 50
0.0
 71
     0
 42
30.0
  3
ISOCP.shx
  4

  0
STYLE
  5
5D2
100
AcDbSymbolTableRecord
100
AcDbTextStyleTableRecord
  2
ED20
 70
     0
 40
20.0
 41
1.0
 50
0.0
 71
     0
 42
20.0
  3
isocp.shx
  4

  0
STYLE
  5
64F
100
AcDbSymbolTableRecord
100
AcDbTextStyleTableRecord
  2
ED40
 70
     0
 40
40.0
 41
1.0
 50
0.0
 71
     0
 42
20.0
  3
isocp.shx
  4

  0
STYLE
  5
650
100
AcDbSymbolTableRecord
100
AcDbTextStyleTableRecord
  2
ED10
 70
     0
 40
10.0
 41
1.0
 50
0.0
 71
     0
 42
20.0
  3
isocp.shx
  4

  0
ENDTAB
  0
TABLE
  2
VIEW
  5
6
100
AcDbSymbolTable
 70
     0
  0
ENDTAB
  0
TABLE
  2
UCS
  5
7
100
AcDbSymbolTable
 70
     0
  0
ENDTAB
  0
TABLE
  2
APPID
  5
9
100
AcDbSymbolTable
 70
     3
  0
APPID
  5
11
100
AcDbSymbolTableRecord
100
AcDbRegAppTableRecord
  2
ACAD
 70
     0
  0
APPID
  5
FAA
100
AcDbSymbolTableRecord
100
AcDbRegAppTableRecord
  2
CONTENTBLOCKICON
 70
     0
  0
APPID
  5
FAB
100
AcDbSymbolTableRecord
100
AcDbRegAppTableRecord
  2
CONTENTBLOCKDESCRIPTION
 70
     0
  0
ENDTAB
  0
TABLE
  2
DIMSTYLE
  5
A
100
AcDbSymbolTable
 70
     5
  0
DIMSTYLE
105
1D
100
AcDbSymbolTableRecord
100
AcDbDimStyleTableRecord
  2
STANDARD
 70
     0
  3

  4

  5

  6
_OPEN
  7
_OPEN
 40
0.0
 41
15.0
 42
0.625
 43
3.75
 44
1.25
 45
0.0
 46
0.0
 47
0.0
 48
0.0
140
15.0
141
2.5
142
0.0
143
0.0394
144
1.0
145
0.0
146
1.0
147
3.0
 71
     0
 72
     0
 73
     0
 74
     0
 75
     0
 76
     0
 77
     1
 78
     8
170
     0
171
     4
172
     1
173
     1
174
     0
175
     0
176
     0
177
     0
178
     0
270
     2
271
     0
272
     1
273
     8
274
     4
340
331
275
     0
280
     0
281
     0
282
     0
283
     1
284
     8
285
     0
286
     0
287
     3
288
     0
  0
DIMSTYLE
105
397
100
AcDbSymbolTableRecord
100
AcDbDimStyleTableRecord
  2
ED40
 70
     0
  3

  4

  5

  6
_OPEN
  7
_OPEN
 40
0.0
 41
35.0
 42
1.0
 43
3.75
 44
1.25
 45
0.0
 46
0.0
 47
0.0
 48
0.0
140
40.0
141
3.0
142
0.0
143
0.0394
144
1.0
145
0.0
146
1.0
147
4.0
 71
     0
 72
     0
 73
     0
 74
     0
 75
     0
 76
     0
 77
     1
 78
     8
170
     0
171
     4
172
     1
173
     1
174
     0
175
     0
176
     0
177
     0
178
     0
270
     2
271
     0
272
     1
273
     8
274
     4
340
64F
275
     0
280
     0
281
     0
282
     0
283
     1
284
     8
285
     0
286
     0
287
     3
288
     0
  0
DIMSTYLE
105
656
102
{ACAD_REACTORS
330
1160
330
1165
330
13FB
330
1746
330
1979
330
1986
330
1B9C
330
1BA9
102
}
100
AcDbSymbolTableRecord
100
AcDbDimStyleTableRecord
  2
ED30
 70
     0
  3

  4

  5

  6
_OPEN
  7
_OPEN
 40
0.0
 41
25.0
 42
1.0
 43
3.75
 44
1.25
 45
0.0
 46
0.0
 47
0.0
 48
0.0
140
30.0
141
3.0
142
0.0
143
0.0394
144
1.0
145
0.0
146
1.0
147
4.0
 71
     0
 72
     0
 73
     0
 74
     0
 75
     0
 76
     0
 77
     1
 78
     8
170
     0
171
     4
172
     1
173
     1
174
     0
175
     0
176
     0
177
     0
178
     0
270
     2
271
     0
272
     1
273
     8
274
     4
340
331
275
     0
280
     0
281
     0
282
     0
283
     1
284
     8
285
     0
286
     0
287
     3
288
     0
  0
DIMSTYLE
105
657
100
AcDbSymbolTableRecord
100
AcDbDimStyleTableRecord
  2
ED20
 70
     0
  3

  4

  5

  6
_OPEN
  7
_OPEN
 40
0.0
 41
20.0
 42
1.0
 43
3.75
 44
1.25
 45
0.0
 46
0.0
 47
0.0
 48
0.0
140
20.0
141
3.0
142
0.0
143
0.0394
144
1.0
145
0.0
146
1.0
147
2.0
 71
     0
 72
     0
 73
     0
 74
     0
 75
     0
 76
     0
 77
     1
 78
     8
170
     0
171
     4
172
     1
173
     1
174
     0
175
     0
176
     0
177
     0
178
     0
270
     2
271
     0
272
     1
273
     8
274
     4
340
5D2
275
     0
280
     0
281
     0
282
     0
283
     1
284
     8
285
     0
286
     0
287
     3
288
     0
  0
DIMSTYLE
105
658
100
AcDbSymbolTableRecord
100
AcDbDimStyleTableRecord
  2
ED10
 70
     0
  3

  4

  5

  6
_OPEN
  7
_OPEN
 40
0.0
 41
15.0
 42
1.0
 43
3.75
 44
1.25
 45
0.0
 46
0.0
 47
0.0
 48
0.0
140
10.0
141
3.0
142
0.0
143
0.0394
144
1.0
145
0.0
146
1.0
147
1.5
 71
     0
 72
     0
 73
     0
 74
     0
 75
     0
 76
     0
 77
     1
 78
     8
170
     0
171
     4
172
     1
173
     1
174
     0
175
     0
176
     0
177
     0
178
     0
270
     2
271
     0
272
     1
273
     8
274
     4
340
5D2
275
     0
280
     0
281
     0
282
     0
283
     1
284
     8
285
     0
286
     0
287
     3
288
     0
  0
ENDTAB
  0
TABLE
  2
BLOCK_RECORD
  5
1
100
AcDbSymbolTable
 70
    12
  0
BLOCK_RECORD
  5
1A
100
AcDbSymbolTableRecord
100
AcDbBlockTableRecord
  2
*MODEL_SPACE
  0
BLOCK_RECORD
  5
17
100
AcDbSymbolTableRecord
100
AcDbBlockTableRecord
  2
*PAPER_SPACE
  0
BLOCK_RECORD
  5
90
100
AcDbSymbolTableRecord
100
AcDbBlockTableRecord
  2
_OPEN
  0
BLOCK_RECORD
  5
108E
100
AcDbSymbolTableRecord
100
AcDbBlockTableRecord
  2
*D1
  0
BLOCK_RECORD
  5
10CA
100
AcDbSymbolTableRecord
100
AcDbBlockTableRecord
  2
*D2
  0
BLOCK_RECORD
  5
13EF
100
AcDbSymbolTableRecord
100
AcDbBlockTableRecord
  2
*D3
  0
BLOCK_RECORD
  5
173A
100
AcDbSymbolTableRecord
100
AcDbBlockTableRecord
  2
*D4
  0
BLOCK_RECORD
  5
189E
100
AcDbSymbolTableRecord
100
AcDbBlockTableRecord
  2
AZAVER-B
1001
CONTENTBLOCKICON
1071
        0
1004
2800000020000000200000000100040000000000000200000000000000000000000000000000000000000000000080000080000000808000800000008000800080800000C0C0C000808080000000FF0000FF000000FFFF00FF000000FF00FF00FFFF0000FFFFFF00FFFFFFFFFFFFFFFFFFFFFFFFFFFFFFFF
1004
FFFFFFFFFFFFFFAFFFFFFFFFFFFFFFFFFFFFFFFFFFFFFFAFFFFFFFFFFFFFFFFFFFFFFFFFFFFFFFAFFFFFFFFFFFFFFFFFFFFFFFFFFFFFFFAFFFFFFFFFFFFFFFFFFFFFFFFFFFFFFFAFFFFFFFFFFFFFFFFFFFFFFFFFFFFFFFAFFFFFFFFFFFFFFFFFFFFFFFFFFFFFFFAFFFFFFFFFFFFFFFFFFFFFFFFFFFFFFFAF
1004
FAFFFFFFFFFFFFFFFFFFFFFFFFFFFFAFFAFFFFFFFFFFFFFFFFFFFFFFFFFFFFAAAAFFFFFFFFFFFFFFFFFFFFFFFFFFFFAAAAFFFFFFFFFFFFFFFFFFFFFFFFFFFFAAAAFFFFFFFFFFFFFFFFFFFFFFFFFFFFAAAAFFFFFFFFFFFFFFFFFFFFFFFFFFFFFAAFFFFFFFFFFFFFFFFFFFFFFFFFFFFFFAAFFFFFFFFFFFFFFF
1004
FFFFFFFFFFFFFFFAAFFFFFFFFFFFFFFFFFFFFFFFFFFFFFFAAFFFFFFFFFFFFFFFFFFFFFFFFFFFFFFAAFFFFFFFFFFFFFFFFFFFFFFFFFFFFFFAAFFFFFFFFFFFFFFFFFFFFFFFFFFFFFAAAAFFFFFFFFFFFFFFFFFFFFFFFFFFFFAAAAFFFFFFFFFFFFFFFFFFFFFFFFFFFFAAAAFFFFFFFFFFFFFFFFFFFFFFFFFFFFFF
1004
FAFFFFFFFFFFFFFFFFFFFFFFFFFFFFFFFAFFFFFFFFFFFFFFFFFFFFFFFFFFFFFFFAFFFFFFFFFFFFFFFFFFFFFFFFFFFFFFFAFFFFFFFFFFFFFFFFFFFFFFFFFFFFFFFAFFFFFFFFFFFFFFFFFFFFFFFFFFFFFFFAFFFFFFFFFFFFFFFFFFFFFFFFFFFFFFFAFFFFFFFFFFFFFFFFFFFFFFFFFFFFFFFAFFFFFFFFFFFFFF
1004
FFFFFFFFFFFFFFFFFAFFFFFFFFFFFFFF
  0
BLOCK_RECORD
  5
196D
100
AcDbSymbolTableRecord
100
AcDbBlockTableRecord
  2
*D8
  0
BLOCK_RECORD
  5
197A
100
AcDbSymbolTableRecord
100
AcDbBlockTableRecord
  2
*D9
  0
BLOCK_RECORD
  5
1B90
100
AcDbSymbolTableRecord
100
AcDbBlockTableRecord
  2
*D10
  0
BLOCK_RECORD
  5
1B9D
100
AcDbSymbolTableRecord
100
AcDbBlockTableRecord
  2
*D11
  0
ENDTAB
  0
ENDSEC
  0
SECTION
  2
BLOCKS
  0
BLOCK
  5
1B
100
AcDbEntity
  8
0
100
AcDbBlockBegin
  2
*MODEL_SPACE
 70
     0
 10
0.0
 20
0.0
 30
0.0
  3
*MODEL_SPACE
  1

  0
ENDBLK
  5
1C
100
AcDbEntity
  8
0
100
AcDbBlockEnd
  0
BLOCK
  5
18
100
AcDbEntity
 67
     1
  8
0
100
AcDbBlockBegin
  2
*PAPER_SPACE
 70
     0
 10
0.0
 20
0.0
 30
0.0
  3
*PAPER_SPACE
  1

  0
ENDBLK
  5
19
100
AcDbEntity
 67
     1
  8
0
100
AcDbBlockEnd
  0
BLOCK
  5
91
100
AcDbEntity
  8
0
100
AcDbBlockBegin
  2
_OPEN
 70
     0
 10
0.0
 20
0.0
 30
0.0
  3
_OPEN
  1

  0
LINE
  5
92
100
AcDbEntity
  8
0
  6
BYBLOCK
 62
     0
100
AcDbLine
 10
-1.0
 20
0.166667
 30
0.0
 11
0.0
 21
0.0
 31
0.0
  0
LINE
  5
93
100
AcDbEntity
  8
0
  6
BYBLOCK
 62
     0
100
AcDbLine
 10
0.0
 20
0.0
 30
0.0
 11
-1.0
 21
-0.166667
 31
0.0
  0
LINE
  5
94
100
AcDbEntity
  8
0
  6
BYBLOCK
 62
     0
100
AcDbLine
 10
0.0
 20
0.0
 30
0.0
 11
-1.0
 21
0.0
 31
0.0
  0
ENDBLK
  5
95
100
AcDbEntity
  8
0
100
AcDbBlockEnd
  0
BLOCK
  5
2247
100
AcDbEntity
  8
0
 48
3.0
100
AcDbBlockBegin
  2
*D1
 70
     1
 10
0.0
 20
0.0
 30
0.0
  3
*D1
  1

  0
LINE
  5
2248
100
AcDbEntity
  8
0
  6
BYBLOCK
 62
     0
 48
3.0
100
AcDbLine
 10
75.183213
 20
-883.336202
 30
0.0
 11
75.183213
 21
-1136.775208
 31
0.0
  0
LINE
  5
2249
100
AcDbEntity
  8
0
  6
BYBLOCK
 62
     0
 48
3.0
100
AcDbLine
 10
823.183213
 20
-883.336202
 30
0.0
 11
823.183213
 21
-1136.775208
 31
0.0
  0
LINE
  5
224A
100
AcDbEntity
  8
0
  6
BYBLOCK
 62
     0
 48
3.0
100
AcDbLine
 10
110.183213
 20
-1135.525208
 30
0.0
 11
788.183213
 21
-1135.525208
 31
0.0
  0
INSERT
  5
224B
100
AcDbEntity
  8
0
  6
BYBLOCK
 62
     0
 48
3.0
100
AcDbBlockReference
  2
_OPEN
 10
75.183213
 20
-1135.525208
 30
0.0
 41
35.0
 42
35.0
 43
35.0
 50
180.0
  0
INSERT
  5
224C
100
AcDbEntity
  8
0
  6
BYBLOCK
 62
     0
 48
3.0
100
AcDbBlockReference
  2
_OPEN
 10
823.183213
 20
-1135.525208
 30
0.0
 41
35.0
 42
35.0
 43
35.0
  0
MTEXT
  5
224D
100
AcDbEntity
  8
0
  6
BYBLOCK
 62
     0
 48
3.0
100
AcDbMText
 10
446.304902
 20
-1111.525208
 30
0.0
 40
40.0
 41
0.0
 71
     5
 72
     1
  1
\A1;748
  7
ED40
  0
POINT
  5
224E
100
AcDbEntity
  8
DEFPOINTS
  6
BYBLOCK
 62
     0
 48
3.0
100
AcDbPoint
 10
75.183213
 20
-882.336202
 30
0.0
  0
POINT
  5
224F
100
AcDbEntity
  8
DEFPOINTS
  6
BYBLOCK
 62
     0
 48
3.0
100
AcDbPoint
 10
823.183213
 20
-882.336202
 30
0.0
  0
POINT
  5
2250
100
AcDbEntity
  8
DEFPOINTS
  6
BYBLOCK
 62
     0
 48
3.0
100
AcDbPoint
 10
823.183213
 20
-1135.525208
 30
0.0
  0
ENDBLK
  5
2251
100
AcDbEntity
  8
0
 48
3.0
100
AcDbBlockEnd
  0
BLOCK
  5
22B5
100
AcDbEntity
  8
0
 48
3.0
100
AcDbBlockBegin
  2
*D2
 70
     1
 10
0.0
 20
0.0
 30
0.0
  3
*D2
  1

  0
LINE
  5
22B6
100
AcDbEntity
  8
0
  6
BYBLOCK
 62
     0
 48
3.0
100
AcDbLine
 10
1229.349924
 20
-978.336202
 30
0.0
 11
1229.349924
 21
-1047.915491
 31
0.0
  0
LINE
  5
22B7
100
AcDbEntity
  8
0
  6
BYBLOCK
 62
     0
 48
3.0
100
AcDbLine
 10
1909.349924
 20
-978.336202
 30
0.0
 11
1909.349924
 21
-1047.915491
 31
0.0
  0
LINE
  5
22B8
100
AcDbEntity
  8
0
  6
BYBLOCK
 62
     0
 48
3.0
100
AcDbLine
 10
1264.349924
 20
-1046.665491
 30
0.0
 11
1874.349924
 21
-1046.665491
 31
0.0
  0
INSERT
  5
22B9
100
AcDbEntity
  8
0
  6
BYBLOCK
 62
     0
 48
3.0
100
AcDbBlockReference
  2
_OPEN
 10
1229.349924
 20
-1046.665491
 30
0.0
 41
35.0
 42
35.0
 43
35.0
 50
180.0
  0
INSERT
  5
22BA
100
AcDbEntity
  8
0
  6
BYBLOCK
 62
     0
 48
3.0
100
AcDbBlockReference
  2
_OPEN
 10
1909.349924
 20
-1046.665491
 30
0.0
 41
35.0
 42
35.0
 43
35.0
  0
MTEXT
  5
22BB
100
AcDbEntity
  8
0
  6
BYBLOCK
 62
     0
 48
3.0
100
AcDbMText
 10
1569.349924
 20
-1022.665491
 30
0.0
 40
40.0
 41
0.0
 71
     5
 72
     1
  1
\A1;680
  7
ED40
  0
POINT
  5
22BC
100
AcDbEntity
  8
DEFPOINTS
  6
BYBLOCK
 62
     0
 48
3.0
100
AcDbPoint
 10
1229.349924
 20
-977.336202
 30
0.0
  0
POINT
  5
22BD
100
AcDbEntity
  8
DEFPOINTS
  6
BYBLOCK
 62
     0
 48
3.0
100
AcDbPoint
 10
1909.349924
 20
-977.336202
 30
0.0
  0
POINT
  5
22BE
100
AcDbEntity
  8
DEFPOINTS
  6
BYBLOCK
 62
     0
 48
3.0
100
AcDbPoint
 10
1909.349924
 20
-1046.665491
 30
0.0
  0
ENDBLK
  5
22BF
100
AcDbEntity
  8
0
 48
3.0
100
AcDbBlockEnd
  0
BLOCK
  5
2289
100
AcDbEntity
  8
0
 48
3.0
100
AcDbBlockBegin
  2
*D3
 70
     1
 10
0.0
 20
0.0
 30
0.0
  3
*D3
  1

  0
LINE
  5
228A
100
AcDbEntity
  8
0
  6
BYBLOCK
 62
     0
 48
3.0
100
AcDbLine
 10
824.183213
 20
-485.836202
 30
0.0
 11
894.547541
 21
-485.836202
 31
0.0
  0
LINE
  5
228B
100
AcDbEntity
  8
0
  6
BYBLOCK
 62
     0
 48
3.0
100
AcDbLine
 10
824.183213
 20
-885.336202
 30
0.0
 11
894.547541
 21
-885.336202
 31
0.0
  0
LINE
  5
228C
100
AcDbEntity
  8
0
  6
BYBLOCK
 62
     0
 48
3.0
100
AcDbLine
 10
893.297541
 20
-520.836202
 30
0.0
 11
893.297541
 21
-850.336202
 31
0.0
  0
INSERT
  5
228D
100
AcDbEntity
  8
0
  6
BYBLOCK
 62
     0
 48
3.0
100
AcDbBlockReference
  2
_OPEN
 10
893.297541
 20
-485.836202
 30
0.0
 41
35.0
 42
35.0
 43
35.0
 50
90.0
  0
INSERT
  5
228E
100
AcDbEntity
  8
0
  6
BYBLOCK
 62
     0
 48
3.0
100
AcDbBlockReference
  2
_OPEN
 10
893.297541
 20
-885.336202
 30
0.0
 41
35.0
 42
35.0
 43
35.0
 50
270.0
  0
MTEXT
  5
228F
100
AcDbEntity
  8
0
  6
BYBLOCK
 62
     0
 48
3.0
100
AcDbMText
 10
869.297541
 20
-651.086202
 30
0.0
 40
40.0
 41
0.0
 71
     5
 72
     1
  1
\A1;\U+2205400
  7
ED40
 11
0.0
 21
1.0
 31
0.0
  0
POINT
  5
2290
100
AcDbEntity
  8
DEFPOINTS
  6
BYBLOCK
 62
     0
 48
3.0
100
AcDbPoint
 10
823.183213
 20
-485.836202
 30
0.0
  0
POINT
  5
2291
100
AcDbEntity
  8
DEFPOINTS
  6
BYBLOCK
 62
     0
 48
3.0
100
AcDbPoint
 10
823.183213
 20
-885.336202
 30
0.0
  0
POINT
  5
2292
100
AcDbEntity
  8
DEFPOINTS
  6
BYBLOCK
 62
     0
 48
3.0
100
AcDbPoint
 10
893.297541
 20
-885.336202
 30
0.0
  0
ENDBLK
  5
2293
100
AcDbEntity
  8
0
 48
3.0
100
AcDbBlockEnd
  0
BLOCK
  5
2231
100
AcDbEntity
  8
0
 48
3.0
100
AcDbBlockBegin
  2
*D4
 70
     1
 10
0.0
 20
0.0
 30
0.0
  3
*D4
  1

  0
LINE
  5
2232
100
AcDbEntity
  8
0
  6
BYBLOCK
 62
     0
 48
3.0
100
AcDbLine
 10
149.183213
 20
-978.336202
 30
0.0
 11
149.183213
 21
-1058.268435
 31
0.0
  0
LINE
  5
2233
100
AcDbEntity
  8
0
  6
BYBLOCK
 62
     0
 48
3.0
100
AcDbLine
 10
749.183213
 20
-978.336202
 30
0.0
 11
749.183213
 21
-1058.268435
 31
0.0
  0
LINE
  5
2234
100
AcDbEntity
  8
0
  6
BYBLOCK
 62
     0
 48
3.0
100
AcDbLine
 10
184.183213
 20
-1057.018435
 30
0.0
 11
714.183213
 21
-1057.018435
 31
0.0
  0
INSERT
  5
2235
100
AcDbEntity
  8
0
  6
BYBLOCK
 62
     0
 48
3.0
100
AcDbBlockReference
  2
_OPEN
 10
149.183213
 20
-1057.018435
 30
0.0
 41
35.0
 42
35.0
 43
35.0
 50
180.0
  0
INSERT
  5
2236
100
AcDbEntity
  8
0
  6
BYBLOCK
 62
     0
 48
3.0
100
AcDbBlockReference
  2
_OPEN
 10
749.183213
 20
-1057.018435
 30
0.0
 41
35.0
 42
35.0
 43
35.0
  0
MTEXT
  5
2237
100
AcDbEntity
  8
0
  6
BYBLOCK
 62
     0
 48
3.0
100
AcDbMText
 10
449.183213
 20
-1033.018435
 30
0.0
 40
40.0
 41
0.0
 71
     5
 72
     1
  1
\A1;600
  7
ED40
  0
POINT
  5
2238
100
AcDbEntity
  8
DEFPOINTS
  6
BYBLOCK
 62
     0
 48
3.0
100
AcDbPoint
 10
149.183213
 20
-977.336202
 30
0.0
  0
POINT
  5
2239
100
AcDbEntity
  8
DEFPOINTS
  6
BYBLOCK
 62
     0
 48
3.0
100
AcDbPoint
 10
749.183213
 20
-977.336202
 30
0.0
  0
POINT
  5
223A
100
AcDbEntity
  8
DEFPOINTS
  6
BYBLOCK
 62
     0
 48
3.0
100
AcDbPoint
 10
749.183213
 20
-1057.018435
 30
0.0
  0
ENDBLK
  5
223B
100
AcDbEntity
  8
0
 48
3.0
100
AcDbBlockEnd
  0
BLOCK
  5
189F
100
AcDbEntity
  8
0
 48
3.0
100
AcDbBlockBegin
  2
AZAVER-B
 70
     0
 10
0.0
 20
0.0
 30
0.0
  3
AZAVER-B
  1

  0
LINE
  5
18AE
100
AcDbEntity
  8
V0-OBRYS
  6
CONTINUOUS
 62
    90
 48
3.0
100
AcDbLine
 10
-7.466751
 20
-65.180052
 30
0.0
 11
-7.466751
 21
-78.057025
 31
0.0
  0
LINE
  5
18AF
100
AcDbEntity
  8
V0-OBRYS
  6
CONTINUOUS
 62
    90
 48
3.0
100
AcDbLine
 10
-3.324311
 20
-54.602539
 30
0.0
 11
-3.324311
 21
-25.629357
 31
0.0
  0
LINE
  5
18B0
100
AcDbEntity
  8
V0-OBRYS
  6
CONTINUOUS
 62
    90
 48
3.0
100
AcDbLine
 10
-5.625665
 20
-25.629357
 30
0.0
 11
-5.625665
 21
-54.602539
 31
0.0
  0
LINE
  5
18B1
100
AcDbEntity
  8
V0-OBRYS
  6
CONTINUOUS
 62
    90
 48
3.0
100
AcDbLine
 10
-5.625665
 20
-54.602539
 30
0.0
 11
-3.324311
 21
-54.602539
 31
0.0
  0
LINE
  5
18B2
100
AcDbEntity
  8
V0-OBRYS
  6
CONTINUOUS
 62
    90
 48
3.0
100
AcDbLine
 10
-1.483225
 20
-47.24427
 30
0.0
 11
-7.466751
 21
-47.24427
 31
0.0
  0
LINE
  5
18B3
100
AcDbEntity
  8
V0-OBRYS
  6
CONTINUOUS
 62
    90
 48
3.0
100
AcDbLine
 10
-7.466751
 20
-47.24427
 30
0.0
 11
-7.466751
 21
-65.180052
 31
0.0
  0
LINE
  5
18B4
100
AcDbEntity
  8
V0-OBRYS
  6
CONTINUOUS
 62
    90
 48
3.0
100
AcDbLine
 10
-1.483225
 20
-58.741568
 30
0.0
 11
-1.483225
 21
-47.24427
 31
0.0
  0
LINE
  5
18B5
100
AcDbEntity
  8
V0-OBRYS
  6
CONTINUOUS
 62
    90
 48
3.0
100
AcDbLine
 10
-3.324311
 20
-25.629357
 30
0.0
 11
-5.625665
 21
-25.629357
 31
0.0
  0
LINE
  5
18B6
100
AcDbEntity
  8
V0-OBRYS
  6
CONTINUOUS
 62
    90
 48
3.0
100
AcDbLine
 10
-1.483225
 20
-30.228273
 30
0.0
 11
-7.927024
 21
-30.228273
 31
0.0
  0
LINE
  5
18B7
100
AcDbEntity
  8
V0-OBRYS
  6
CONTINUOUS
 62
    90
 48
3.0
100
AcDbLine
 10
-7.927024
 20
-30.228273
 30
0.0
 11
-7.927024
 21
-24.249679
 31
0.0
  0
LINE
  5
18B8
100
AcDbEntity
  8
V0-OBRYS
  6
CONTINUOUS
 62
    90
 48
3.0
100
AcDbLine
 10
-1.483225
 20
-4.01444
 30
0.0
 11
-1.483225
 21
-30.228273
 31
0.0
  0
ENDBLK
  5
18AB
100
AcDbEntity
  8
0
 48
3.0
100
AcDbBlockEnd
  0
BLOCK
  5
2273
100
AcDbEntity
  8
0
 48
3.0
100
AcDbBlockBegin
  2
*D8
 70
     1
 10
0.0
 20
0.0
 30
0.0
  3
*D8
  1

  0
LINE
  5
2274
100
AcDbEntity
  8
0
  6
BYBLOCK
 62
     0
 48
3.0
100
AcDbLine
 10
146.183213
 20
175.163798
 30
0.0
 11
75.416771
 21
175.163798
 31
0.0
  0
LINE
  5
2275
100
AcDbEntity
  8
0
  6
BYBLOCK
 62
     0
 48
3.0
100
AcDbLine
 10
146.183213
 20
-464.336202
 30
0.0
 11
75.416771
 21
-464.336202
 31
0.0
  0
LINE
  5
2276
100
AcDbEntity
  8
0
  6
BYBLOCK
 62
     0
 48
3.0
100
AcDbLine
 10
76.666771
 20
140.163798
 30
0.0
 11
76.666771
 21
-429.336202
 31
0.0
  0
INSERT
  5
2277
100
AcDbEntity
  8
0
  6
BYBLOCK
 62
     0
 48
3.0
100
AcDbBlockReference
  2
_OPEN
 10
76.666771
 20
175.163798
 30
0.0
 41
35.0
 42
35.0
 43
35.0
 50
90.0
  0
INSERT
  5
2278
100
AcDbEntity
  8
0
  6
BYBLOCK
 62
     0
 48
3.0
100
AcDbBlockReference
  2
_OPEN
 10
76.666771
 20
-464.336202
 30
0.0
 41
35.0
 42
35.0
 43
35.0
 50
270.0
  0
MTEXT
  5
2279
100
AcDbEntity
  8
0
  6
BYBLOCK
 62
     0
 48
3.0
100
AcDbMText
 10
52.666771
 20
-144.586202
 30
0.0
 40
40.0
 41
0.0
 71
     5
 72
     1
  1
\A1;640
  7
ED40
 11
0.0
 21
1.0
 31
0.0
  0
POINT
  5
227A
100
AcDbEntity
  8
DEFPOINTS
  6
BYBLOCK
 62
     0
 48
3.0
100
AcDbPoint
 10
147.183213
 20
175.163798
 30
0.0
  0
POINT
  5
227B
100
AcDbEntity
  8
DEFPOINTS
  6
BYBLOCK
 62
     0
 48
3.0
100
AcDbPoint
 10
147.183213
 20
-464.336202
 30
0.0
  0
POINT
  5
227C
100
AcDbEntity
  8
DEFPOINTS
  6
BYBLOCK
 62
     0
 48
3.0
100
AcDbPoint
 10
76.666771
 20
-464.336202
 30
0.0
  0
ENDBLK
  5
227D
100
AcDbEntity
  8
0
 48
3.0
100
AcDbBlockEnd
  0
BLOCK
  5
221B
100
AcDbEntity
  8
0
 48
3.0
100
AcDbBlockBegin
  2
*D9
 70
     1
 10
0.0
 20
0.0
 30
0.0
  3
*D9
  1

  0
LINE
  5
221C
100
AcDbEntity
  8
0
  6
BYBLOCK
 62
     0
 48
3.0
100
AcDbLine
 10
1226.349924
 20
-463.336202
 30
0.0
 11
1226.349924
 21
-383.334851
 31
0.0
  0
LINE
  5
221D
100
AcDbEntity
  8
0
  6
BYBLOCK
 62
     0
 48
3.0
100
AcDbLine
 10
1912.349924
 20
-463.336202
 30
0.0
 11
1912.349924
 21
-383.334851
 31
0.0
  0
LINE
  5
221E
100
AcDbEntity
  8
0
  6
BYBLOCK
 62
     0
 48
3.0
100
AcDbLine
 10
1261.349924
 20
-384.584851
 30
0.0
 11
1877.349924
 21
-384.584851
 31
0.0
  0
INSERT
  5
221F
100
AcDbEntity
  8
0
  6
BYBLOCK
 62
     0
 48
3.0
100
AcDbBlockReference
  2
_OPEN
 10
1226.349924
 20
-384.584851
 30
0.0
 41
35.0
 42
35.0
 43
35.0
 50
180.0
  0
INSERT
  5
2220
100
AcDbEntity
  8
0
  6
BYBLOCK
 62
     0
 48
3.0
100
AcDbBlockReference
  2
_OPEN
 10
1912.349924
 20
-384.584851
 30
0.0
 41
35.0
 42
35.0
 43
35.0
  0
MTEXT
  5
2221
100
AcDbEntity
  8
0
  6
BYBLOCK
 62
     0
 48
3.0
100
AcDbMText
 10
1569.349924
 20
-360.584851
 30
0.0
 40
40.0
 41
0.0
 71
     5
 72
     1
  1
\A1;686
  7
ED40
  0
POINT
  5
2222
100
AcDbEntity
  8
DEFPOINTS
  6
BYBLOCK
 62
     0
 48
3.0
100
AcDbPoint
 10
1226.349924
 20
-464.336202
 30
0.0
  0
POINT
  5
2223
100
AcDbEntity
  8
DEFPOINTS
  6
BYBLOCK
 62
     0
 48
3.0
100
AcDbPoint
 10
1912.349924
 20
-464.336202
 30
0.0
  0
POINT
  5
2224
100
AcDbEntity
  8
DEFPOINTS
  6
BYBLOCK
 62
     0
 48
3.0
100
AcDbPoint
 10
1912.349924
 20
-384.584851
 30
0.0
  0
ENDBLK
  5
2225
100
AcDbEntity
  8
0
 48
3.0
100
AcDbBlockEnd
  0
BLOCK
  5
225D
100
AcDbEntity
  8
0
 48
3.0
100
AcDbBlockBegin
  2
*D10
 70
     1
 10
0.0
 20
0.0
 30
0.0
  3
*D10
  1

  0
LINE
  5
225E
100
AcDbEntity
  8
0
  6
BYBLOCK
 62
     0
 48
3.0
100
AcDbLine
 10
74.183213
 20
-682.336202
 30
0.0
 11
24.393619
 21
-682.336202
 31
0.0
  0
LINE
  5
225F
100
AcDbEntity
  8
0
  6
BYBLOCK
 62
     0
 48
3.0
100
AcDbLine
 10
148.183213
 20
-977.336202
 30
0.0
 11
24.393619
 21
-977.336202
 31
0.0
  0
LINE
  5
2260
100
AcDbEntity
  8
0
  6
BYBLOCK
 62
     0
 48
3.0
100
AcDbLine
 10
25.643619
 20
-717.336202
 30
0.0
 11
25.643619
 21
-942.336202
 31
0.0
  0
INSERT
  5
2261
100
AcDbEntity
  8
0
  6
BYBLOCK
 62
     0
 48
3.0
100
AcDbBlockReference
  2
_OPEN
 10
25.643619
 20
-682.336202
 30
0.0
 41
35.0
 42
35.0
 43
35.0
 50
90.0
  0
INSERT
  5
2262
100
AcDbEntity
  8
0
  6
BYBLOCK
 62
     0
 48
3.0
100
AcDbBlockReference
  2
_OPEN
 10
25.643619
 20
-977.336202
 30
0.0
 41
35.0
 42
35.0
 43
35.0
 50
270.0
  0
MTEXT
  5
2263
100
AcDbEntity
  8
0
  6
BYBLOCK
 62
     0
 48
3.0
100
AcDbMText
 10
1.630014
 20
-829.836202
 30
0.0
 40
40.0
 41
0.0
 71
     5
 72
     1
  1
\A1;292
  7
ED40
 11
0.0
 21
1.0
 31
0.0
  0
POINT
  5
2264
100
AcDbEntity
  8
DEFPOINTS
  6
BYBLOCK
 62
     0
 48
3.0
100
AcDbPoint
 10
75.183213
 20
-682.336202
 30
0.0
  0
POINT
  5
2265
100
AcDbEntity
  8
DEFPOINTS
  6
BYBLOCK
 62
     0
 48
3.0
100
AcDbPoint
 10
149.183213
 20
-977.336202
 30
0.0
  0
POINT
  5
2266
100
AcDbEntity
  8
DEFPOINTS
  6
BYBLOCK
 62
     0
 48
3.0
100
AcDbPoint
 10
25.643619
 20
-977.336202
 30
0.0
  0
ENDBLK
  5
2267
100
AcDbEntity
  8
0
 48
3.0
100
AcDbBlockEnd
  0
BLOCK
  5
229F
100
AcDbEntity
  8
0
 48
3.0
100
AcDbBlockBegin
  2
*D11
 70
     1
 10
0.0
 20
0.0
 30
0.0
  3
*D11
  1

  0
LINE
  5
22A0
100
AcDbEntity
  8
0
  6
BYBLOCK
 62
     0
 48
3.0
100
AcDbLine
 10
752.183213
 20
-464.336202
 30
0.0
 11
978.03753
 21
-464.336202
 31
0.0
  0
LINE
  5
22A1
100
AcDbEntity
  8
0
  6
BYBLOCK
 62
     0
 48
3.0
100
AcDbLine
 10
750.183213
 20
-977.336202
 30
0.0
 11
978.03753
 21
-977.336202
 31
0.0
  0
LINE
  5
22A2
100
AcDbEntity
  8
0
  6
BYBLOCK
 62
     0
 48
3.0
100
AcDbLine
 10
976.78753
 20
-499.336202
 30
0.0
 11
976.78753
 21
-942.336202
 31
0.0
  0
INSERT
  5
22A3
100
AcDbEntity
  8
0
  6
BYBLOCK
 62
     0
 48
3.0
100
AcDbBlockReference
  2
_OPEN
 10
976.78753
 20
-464.336202
 30
0.0
 41
35.0
 42
35.0
 43
35.0
 50
90.0
  0
INSERT
  5
22A4
100
AcDbEntity
  8
0
  6
BYBLOCK
 62
     0
 48
3.0
100
AcDbBlockReference
  2
_OPEN
 10
976.78753
 20
-977.336202
 30
0.0
 41
35.0
 42
35.0
 43
35.0
 50
270.0
  0
MTEXT
  5
22A5
100
AcDbEntity
  8
0
  6
BYBLOCK
 62
     0
 48
3.0
100
AcDbMText
 10
952.78753
 20
-720.836202
 30
0.0
 40
40.0
 41
0.0
 71
     5
 72
     1
  1
\A1;513
  7
ED40
 11
0.0
 21
1.0
 31
0.0
  0
POINT
  5
22A6
100
AcDbEntity
  8
DEFPOINTS
  6
BYBLOCK
 62
     0
 48
3.0
100
AcDbPoint
 10
751.183213
 20
-464.336202
 30
0.0
  0
POINT
  5
22A7
100
AcDbEntity
  8
DEFPOINTS
  6
BYBLOCK
 62
     0
 48
3.0
100
AcDbPoint
 10
749.183213
 20
-977.336202
 30
0.0
  0
POINT
  5
22A8
100
AcDbEntity
  8
DEFPOINTS
  6
BYBLOCK
 62
     0
 48
3.0
100
AcDbPoint
 10
976.78753
 20
-977.336202
 30
0.0
  0
ENDBLK
  5
22A9
100
AcDbEntity
  8
0
 48
3.0
100
AcDbBlockEnd
  0
ENDSEC
  0
SECTION
  2
ENTITIES
  0
LINE
  5
10EE
100
AcDbEntity
  8
V0-VYPLNE
 48
3.0
100
AcDbLine
 10
8.890924
 20
-682.414011
 30
0.0
 11
253.052052
 21
-682.414011
 31
0.0
  0
LINE
  5
10EF
100
AcDbEntity
  8
V0-VYPLNE
 48
3.0
100
AcDbLine
 10
1183.117139
 20
-682.336202
 30
0.0
 11
1970.070078
 21
-682.336202
 31
0.0
  0
LINE
  5
10F7
100
AcDbEntity
  8
V0-OBRYS
  6
CONTINUOUS
 62
    90
 48
3.0
100
AcDbLine
 10
149.183213
 20
-484.336202
 30
0.0
 11
149.183213
 21
-977.336202
 31
0.0
  0
LINE
  5
10F8
100
AcDbEntity
  8
V0-OBRYS
  6
CONTINUOUS
 62
    90
 48
3.0
100
AcDbLine
 10
147.183213
 20
-464.336202
 30
0.0
 11
751.183213
 21
-464.336202
 31
0.0
  0
LINE
  5
10F9
100
AcDbEntity
  8
V0-OBRYS
  6
CONTINUOUS
 62
    90
 48
3.0
100
AcDbLine
 10
149.183213
 20
-977.336202
 30
0.0
 11
749.183213
 21
-977.336202
 31
0.0
  0
LINE
  5
10FA
100
AcDbEntity
  8
V0-OBRYS
  6
CONTINUOUS
 62
    90
 48
3.0
100
AcDbLine
 10
749.183213
 20
-484.336202
 30
0.0
 11
749.183213
 21
-977.336202
 31
0.0
  0
LINE
  5
10FB
100
AcDbEntity
  8
V0-OBRYS
  6
CONTINUOUS
 62
    90
 48
3.0
100
AcDbLine
 10
1229.349924
 20
-484.336202
 30
0.0
 11
1229.349924
 21
-977.336202
 31
0.0
  0
LINE
  5
10FC
100
AcDbEntity
  8
V0-OBRYS
  6
CONTINUOUS
 62
    90
 48
3.0
100
AcDbLine
 10
1909.349924
 20
-484.336202
 30
0.0
 11
1909.349924
 21
-977.336202
 31
0.0
  0
LINE
  5
10FD
100
AcDbEntity
  8
V0-OBRYS
  6
CONTINUOUS
 62
    90
 48
3.0
100
AcDbLine
 10
1226.349924
 20
-464.336202
 30
0.0
 11
1912.349924
 21
-464.336202
 31
0.0
  0
LINE
  5
1122
100
AcDbEntity
  8
V0-OBRYS
 48
3.0
100
AcDbLine
 10
75.183213
 20
-885.336202
 30
0.0
 11
75.183213
 21
-485.836202
 31
0.0
  0
LINE
  5
1123
100
AcDbEntity
  8
V0-OBRYS
 48
3.0
100
AcDbLine
 10
75.183213
 20
-885.336202
 30
0.0
 11
85.183213
 21
-885.336202
 31
0.0
  0
LINE
  5
1124
100
AcDbEntity
  8
V0-OBRYS
 48
3.0
100
AcDbLine
 10
75.183213
 20
-485.836202
 30
0.0
 11
85.183213
 21
-485.836202
 31
0.0
  0
LINE
  5
1125
100
AcDbEntity
  8
V0-OBRYS
 48
3.0
100
AcDbLine
 10
85.183213
 20
-485.836202
 30
0.0
 11
85.183213
 21
-885.336202
 31
0.0
  0
LINE
  5
1126
100
AcDbEntity
  8
V0-OBRYS
 48
3.0
100
AcDbLine
 10
95.183213
 20
-885.336202
 30
0.0
 11
95.183213
 21
-485.836202
 31
0.0
  0
ARC
  5
1127
100
AcDbEntity
  8
V0-OBRYS
 48
3.0
100
AcDbCircle
 10
90.183213
 20
-485.836202
 30
0.0
 40
5.0
100
AcDbArc
 50
0.0
 51
180.0
  0
ARC
  5
1128
100
AcDbEntity
  8
V0-OBRYS
 48
3.0
100
AcDbCircle
 10
90.183213
 20
-885.336202
 30
0.0
 40
5.0
100
AcDbArc
 50
180.0
 51
0.0
  0
LINE
  5
1129
100
AcDbEntity
  8
V0-OBRYS
 48
3.0
100
AcDbLine
 10
95.183213
 20
-485.836202
 30
0.0
 11
147.183213
 21
-485.836202
 31
0.0
  0
LINE
  5
112A
100
AcDbEntity
  8
V0-OBRYS
 48
3.0
100
AcDbLine
 10
95.183213
 20
-885.336202
 30
0.0
 11
149.183213
 21
-885.336202
 31
0.0
  0
LINE
  5
112B
100
AcDbEntity
  8
V0-OBRYS
 48
3.0
100
AcDbLine
 10
803.183213
 20
-885.336202
 30
0.0
 11
803.183213
 21
-485.836202
 31
0.0
  0
LINE
  5
112C
100
AcDbEntity
  8
V0-OBRYS
 48
3.0
100
AcDbLine
 10
813.183213
 20
-485.836202
 30
0.0
 11
813.183213
 21
-885.336202
 31
0.0
  0
LINE
  5
112D
100
AcDbEntity
  8
V0-OBRYS
 48
3.0
100
AcDbLine
 10
823.183213
 20
-885.336202
 30
0.0
 11
823.183213
 21
-485.836202
 31
0.0
  0
LINE
  5
112E
100
AcDbEntity
  8
V0-OBRYS
 48
3.0
100
AcDbLine
 10
803.183213
 20
-882.336202
 30
0.0
 11
749.183213
 21
-882.336202
 31
0.0
  0
LINE
  5
112F
100
AcDbEntity
  8
V0-OBRYS
 48
3.0
100
AcDbLine
 10
823.183213
 20
-885.336202
 30
0.0
 11
813.183213
 21
-885.336202
 31
0.0
  0
ARC
  5
1130
100
AcDbEntity
  8
V0-OBRYS
 48
3.0
100
AcDbCircle
 10
808.183213
 20
-885.336202
 30
0.0
 40
5.0
100
AcDbArc
 50
180.0
 51
360.0
  0
LINE
  5
1131
100
AcDbEntity
  8
V0-OBRYS
 48
3.0
100
AcDbLine
 10
803.183213
 20
-482.836202
 30
0.0
 11
751.183213
 21
-482.836202
 31
0.0
  0
LINE
  5
1132
100
AcDbEntity
  8
V0-OBRYS
 48
3.0
100
AcDbLine
 10
823.183213
 20
-485.836202
 30
0.0
 11
813.183213
 21
-485.836202
 31
0.0
  0
ARC
  5
1133
100
AcDbEntity
  8
V0-OBRYS
 48
3.0
100
AcDbCircle
 10
808.183213
 20
-485.836202
 30
0.0
 40
5.0
100
AcDbArc
 50
360.0
 51
180.0
  0
LINE
  5
114B
100
AcDbEntity
  8
V0-VYPLNE
 48
3.0
100
AcDbLine
 10
53.352871
 20
-1650.673439
 30
0.0
 11
828.435856
 21
-1650.673439
 31
0.0
  0
LINE
  5
114D
100
AcDbEntity
  8
V0-OBRYS
 48
3.0
100
AcDbLine
 10
94.183213
 20
-1828.173439
 30
0.0
 11
94.183213
 21
-1473.173439
 31
0.0
  0
LINE
  5
114E
100
AcDbEntity
  8
V0-OBRYS
 48
3.0
100
AcDbLine
 10
84.183213
 20
-1473.173439
 30
0.0
 11
84.183213
 21
-1828.173439
 31
0.0
  0
LINE
  5
114F
100
AcDbEntity
  8
V0-OBRYS
 48
3.0
100
AcDbLine
 10
74.183213
 20
-1828.173439
 30
0.0
 11
74.183213
 21
-1473.173439
 31
0.0
  0
LINE
  5
1150
100
AcDbEntity
  8
V0-OBRYS
 48
3.0
100
AcDbLine
 10
94.183213
 20
-1828.173439
 30
0.0
 11
146.183213
 21
-1828.173439
 31
0.0
  0
LINE
  5
1151
100
AcDbEntity
  8
V0-OBRYS
 48
3.0
100
AcDbLine
 10
74.183213
 20
-1828.173439
 30
0.0
 11
84.183213
 21
-1828.173439
 31
0.0
  0
ARC
  5
1152
100
AcDbEntity
  8
V0-OBRYS
 48
3.0
100
AcDbCircle
 10
89.183213
 20
-1828.173439
 30
0.0
 40
5.0
100
AcDbArc
 50
180.0
 51
0.0
  0
LINE
  5
1153
100
AcDbEntity
  8
V0-OBRYS
 48
3.0
100
AcDbLine
 10
94.183213
 20
-1473.173439
 30
0.0
 11
146.183213
 21
-1473.173439
 31
0.0
  0
LINE
  5
1154
100
AcDbEntity
  8
V0-OBRYS
 48
3.0
100
AcDbLine
 10
74.183213
 20
-1473.173439
 30
0.0
 11
84.183213
 21
-1473.173439
 31
0.0
  0
ARC
  5
1155
100
AcDbEntity
  8
V0-OBRYS
 48
3.0
100
AcDbCircle
 10
89.183213
 20
-1473.173439
 30
0.0
 40
5.0
100
AcDbArc
 50
0.0
 51
180.0
  0
LINE
  5
1156
100
AcDbEntity
  8
V0-OBRYS
 48
3.0
100
AcDbLine
 10
822.183213
 20
-1828.173439
 30
0.0
 11
822.183213
 21
-1473.173439
 31
0.0
  0
LINE
  5
1157
100
AcDbEntity
  8
V0-OBRYS
 48
3.0
100
AcDbLine
 10
812.183213
 20
-1473.173439
 30
0.0
 11
812.183213
 21
-1828.173439
 31
0.0
  0
LINE
  5
1158
100
AcDbEntity
  8
V0-OBRYS
 48
3.0
100
AcDbLine
 10
802.183213
 20
-1828.173439
 30
0.0
 11
802.183213
 21
-1473.173439
 31
0.0
  0
LINE
  5
1159
100
AcDbEntity
  8
V0-OBRYS
 48
3.0
100
AcDbLine
 10
802.183213
 20
-1828.173439
 30
0.0
 11
752.183213
 21
-1828.173439
 31
0.0
  0
ARC
  5
115A
100
AcDbEntity
  8
V0-OBRYS
 48
3.0
100
AcDbCircle
 10
807.183213
 20
-1828.173439
 30
0.0
 40
5.0
100
AcDbArc
 50
180.0
 51
360.0
  0
LINE
  5
115B
100
AcDbEntity
  8
V0-OBRYS
 48
3.0
100
AcDbLine
 10
822.183213
 20
-1828.173439
 30
0.0
 11
812.183213
 21
-1828.173439
 31
0.0
  0
LINE
  5
115C
100
AcDbEntity
  8
V0-OBRYS
 48
3.0
100
AcDbLine
 10
802.183213
 20
-1473.173439
 30
0.0
 11
752.183213
 21
-1473.173439
 31
0.0
  0
ARC
  5
115D
100
AcDbEntity
  8
V0-OBRYS
 48
3.0
100
AcDbCircle
 10
807.183213
 20
-1473.173439
 30
0.0
 40
5.0
100
AcDbArc
 50
360.0
 51
180.0
  0
LINE
  5
115E
100
AcDbEntity
  8
V0-OBRYS
 48
3.0
100
AcDbLine
 10
822.183213
 20
-1473.173439
 30
0.0
 11
812.183213
 21
-1473.173439
 31
0.0
  0
DIMENSION
  5
1160
100
AcDbEntity
  8
V0-VYPLNE
  6
CONTINUOUS
 62
    41
 48
3.0
100
AcDbDimension
  2
*D1
 10
823.183213
 20
-1135.525208
 30
0.0
 11
446.304902
 21
-1135.525208
 31
0.0
 70
   160
  3
ED40
100
AcDbAlignedDimension
 13
75.183213
 23
-882.336202
 33
0.0
 14
823.183213
 24
-882.336202
 34
0.0
100
AcDbRotatedDimension
1001
ACAD
1000
DSTYLE
1002
{
1070
    40
1040
1.0
1002
}
  0
DIMENSION
  5
1165
100
AcDbEntity
  8
V0-VYPLNE
  6
CONTINUOUS
 62
    41
 48
3.0
100
AcDbDimension
  2
*D2
 10
1909.349924
 20
-1046.665491
 30
0.0
 11
1569.349924
 21
-1046.665491
 31
0.0
 70
   160
  3
ED40
100
AcDbAlignedDimension
 13
1229.349924
 23
-977.336202
 33
0.0
 14
1909.349924
 24
-977.336202
 34
0.0
100
AcDbRotatedDimension
1001
ACAD
1000
DSTYLE
1002
{
1070
    40
1040
1.0
1002
}
  0
MTEXT
  5
1166
100
AcDbEntity
  8
V0-ZBYTEK
100
AcDbMText
 10
1575.333277
 20
-1454.493535
 30
0.0
 40
29.25
 41
459.50437
 71
     5
 72
     5
  1
ZVUKOVE  IZOLOVANY
  7
ED10
  0
MTEXT
  5
1167
100
AcDbEntity
  8
V0-ZBYTEK
 62
    51
100
AcDbMText
 10
1579.995472
 20
-1365.853222
 30
0.0
 40
40.95
 41
1160.03277
 71
     5
 72
     5
  1
RADIALNI VENTILATOR
  7
ED10
  0
MTEXT
  5
1168
100
AcDbEntity
  8
V0-NAZVY
100
AcDbMText
 10
1561.228206
 20
-1258.665089
 30
0.0
 40
73.125
 41
601.5
 71
     5
 72
     5
  1
CAB-400
  7
ED10
  0
MTEXT
  5
116B
100
AcDbEntity
  8
V0-NAZVY
100
AcDbMText
 10
1578.380381
 20
-923.652902
 30
0.0
 40
42.525
 41
349.79
 71
     5
 72
     5
  1
CAB-400
  7
ED10
  0
LINE
  5
12E6
100
AcDbEntity
  8
V0-VYPLNE
  6
DASHDOT
 62
    63
 48
3.0
100
AcDbLine
 10
1569.349924
 20
-374.756854
 30
0.0
 11
1569.349924
 21
-931.663088
 31
0.0
  0
CIRCLE
  5
12F7
100
AcDbEntity
  8
V0-OBRYS
  6
CONTINUOUS
 62
    90
 48
3.0
100
AcDbCircle
 10
1569.349924
 20
-682.336202
 30
0.0
 40
198.8028
  0
CIRCLE
  5
12F8
100
AcDbEntity
  8
V0-OBRYS
  6
CONTINUOUS
 62
    90
 48
3.0
100
AcDbCircle
 10
1569.349924
 20
-682.336202
 30
0.0
 40
205.032665
  0
DIMENSION
  5
13FB
100
AcDbEntity
  8
V0-VYPLNE
  6
CONTINUOUS
 62
    41
 48
3.0
100
AcDbDimension
  2
*D3
 10
893.297541
 20
-885.336202
 30
0.0
 11
893.297541
 21
-651.086202
 31
0.0
 70
   160
  1
%%c<>
  3
ED40
100
AcDbAlignedDimension
 13
823.183213
 23
-485.836202
 33
0.0
 14
823.183213
 24
-885.336202
 34
0.0
 50
90.0
100
AcDbRotatedDimension
1001
ACAD
1000
DSTYLE
1002
{
1070
    40
1040
1.0
1002
}
  0
MTEXT
  5
1427
100
AcDbEntity
  8
V0-NAZVY
100
AcDbMText
 10
459.188886
 20
-525.567105
 30
0.0
 40
40.5
 41
333.14
 71
     5
 72
     5
  1
CAB-400
  7
ED10
  0
MTEXT
  5
1428
100
AcDbEntity
  8
V0-NAZVY
100
AcDbMText
 10
448.609211
 20
-1557.756106
 30
0.0
 40
40.5
 41
333.14
 71
     5
 72
     5
  1
CAB-400
  7
ED10
  0
POINT
  5
1447
100
AcDbEntity
  8
V0-VYPLNE
  6
CONTINUOUS
 62
    41
 48
3.0
100
AcDbPoint
 10
75.183213
 20
-685.336202
 30
0.0
  0
POINT
  5
1449
100
AcDbEntity
  8
V0-VYPLNE
  6
CONTINUOUS
 62
    41
 48
3.0
100
AcDbPoint
 10
823.183213
 20
-685.336202
 30
0.0
  0
POINT
  5
144A
100
AcDbEntity
  8
V0-VYPLNE
  6
CONTINUOUS
 62
    41
 48
3.0
100
AcDbPoint
 10
74.183213
 20
-1650.673439
 30
0.0
  0
POINT
  5
144B
100
AcDbEntity
  8
V0-VYPLNE
  6
CONTINUOUS
 62
    41
 48
3.0
100
AcDbPoint
 10
822.183213
 20
-1650.673439
 30
0.0
  0
DIMENSION
  5
1746
100
AcDbEntity
  8
V0-VYPLNE
  6
CONTINUOUS
 62
    41
 48
3.0
100
AcDbDimension
  2
*D4
 10
749.183213
 20
-1057.018435
 30
0.0
 11
449.183213
 21
-1057.018435
 31
0.0
 70
   160
  3
ED40
100
AcDbAlignedDimension
 13
149.183213
 23
-977.336202
 33
0.0
 14
749.183213
 24
-977.336202
 34
0.0
100
AcDbRotatedDimension
1001
ACAD
1000
DSTYLE
1002
{
1070
    40
1040
1.0
1002
}
  0
LINE
  5
177D
100
AcDbEntity
  8
V0-OBRYS
  6
CONTINUOUS
 62
    90
 48
3.0
100
AcDbLine
 10
147.183213
 20
-464.336202
 30
0.0
 11
147.183213
 21
-484.336202
 31
0.0
  0
LINE
  5
177E
100
AcDbEntity
  8
V0-OBRYS
  6
CONTINUOUS
 62
    90
 48
3.0
100
AcDbLine
 10
147.183213
 20
-484.336202
 30
0.0
 11
751.183213
 21
-484.336202
 31
0.0
  0
LINE
  5
177F
100
AcDbEntity
  8
V0-OBRYS
  6
CONTINUOUS
 62
    90
 48
3.0
100
AcDbLine
 10
751.183213
 20
-484.336202
 30
0.0
 11
749.386079
 21
-484.336202
 31
0.0
  0
LINE
  5
1780
100
AcDbEntity
  8
V0-OBRYS
  6
CONTINUOUS
 62
    90
 48
3.0
100
AcDbLine
 10
751.183213
 20
-484.336202
 30
0.0
 11
751.183213
 21
-464.336202
 31
0.0
  0
LINE
  5
1782
100
AcDbEntity
  8
V0-OBRYS
  6
CONTINUOUS
 62
    90
 48
3.0
100
AcDbLine
 10
1909.349924
 20
-977.336202
 30
0.0
 11
1228.099924
 21
-977.336202
 31
0.0
  0
LINE
  5
17AF
100
AcDbEntity
  8
V0-OBRYS
  6
CONTINUOUS
 62
    90
 48
3.0
100
AcDbLine
 10
1912.349924
 20
-464.336202
 30
0.0
 11
1912.349924
 21
-484.336202
 31
0.0
  0
LINE
  5
17B1
100
AcDbEntity
  8
V0-OBRYS
  6
CONTINUOUS
 62
    90
 48
3.0
100
AcDbLine
 10
1226.349924
 20
-464.336202
 30
0.0
 11
1226.349924
 21
-484.336202
 31
0.0
  0
LINE
  5
17B2
100
AcDbEntity
  8
V0-OBRYS
  6
CONTINUOUS
 62
    90
 48
3.0
100
AcDbLine
 10
1226.349924
 20
-484.336202
 30
0.0
 11
1337.47454
 21
-484.336202
 31
0.0
  0
LINE
  5
17B4
100
AcDbEntity
  8
V0-OBRYS
  6
CONTINUOUS
 62
    90
 48
3.0
100
AcDbLine
 10
1390.799362
 20
-599.486989
 30
0.0
 11
1569.349924
 21
-599.486989
 31
0.0
  0
LINE
  5
17B5
100
AcDbEntity
  8
V0-OBRYS
  6
CONTINUOUS
 62
    90
 48
3.0
100
AcDbLine
 10
1435.437005
 20
-787.168354
 30
0.0
 11
1435.437005
 21
-664.360962
 31
0.0
  0
LINE
  5
17B6
100
AcDbEntity
  8
V0-OBRYS
  6
CONTINUOUS
 62
    90
 48
3.0
100
AcDbLine
 10
1435.437005
 20
-664.360962
 30
0.0
 11
1569.349924
 21
-664.360962
 31
0.0
  0
LINE
  5
17B7
100
AcDbEntity
  8
V0-OBRYS
  6
CONTINUOUS
 62
    90
 48
3.0
100
AcDbLine
 10
1337.47454
 20
-469.210439
 30
0.0
 11
1337.47454
 21
-495.124344
 31
0.0
  0
LINE
  5
17B8
100
AcDbEntity
  8
V0-OBRYS
  6
CONTINUOUS
 62
    90
 48
3.0
100
AcDbLine
 10
1337.47454
 20
-495.124344
 30
0.0
 11
1362.689396
 21
-495.124344
 31
0.0
  0
LINE
  5
17B9
100
AcDbEntity
  8
V0-OBRYS
  6
CONTINUOUS
 62
    90
 48
3.0
100
AcDbLine
 10
1362.689396
 20
-495.124344
 30
0.0
 11
1362.689396
 21
-469.210439
 31
0.0
  0
LINE
  5
17BA
100
AcDbEntity
  8
V0-OBRYS
  6
CONTINUOUS
 62
    90
 48
3.0
100
AcDbLine
 10
1362.689396
 20
-484.336202
 30
0.0
 11
1516.110901
 21
-484.336202
 31
0.0
  0
LINE
  5
17BB
100
AcDbEntity
  8
V0-OBRYS
  6
CONTINUOUS
 62
    90
 48
3.0
100
AcDbLine
 10
1337.47454
 20
-512.400281
 30
0.0
 11
1362.689396
 21
-512.400281
 31
0.0
  0
LINE
  5
17BC
100
AcDbEntity
  8
V0-OBRYS
  6
CONTINUOUS
 62
    90
 48
3.0
100
AcDbLine
 10
1337.47454
 20
-543.353003
 30
0.0
 11
1337.47454
 21
-512.400281
 31
0.0
  0
LINE
  5
17BD
100
AcDbEntity
  8
V0-OBRYS
  6
CONTINUOUS
 62
    90
 48
3.0
100
AcDbLine
 10
1362.689396
 20
-512.400281
 30
0.0
 11
1362.689396
 21
-543.353003
 31
0.0
  0
LINE
  5
17BE
100
AcDbEntity
  8
V0-OBRYS
  6
CONTINUOUS
 62
    90
 48
3.0
100
AcDbLine
 10
1337.47454
 20
-543.353003
 30
0.0
 11
1362.689396
 21
-543.353003
 31
0.0
  0
LINE
  5
17BF
100
AcDbEntity
  8
V0-OBRYS
  6
CONTINUOUS
 62
    90
 48
3.0
100
AcDbLine
 10
1333.151996
 20
-490.80536
 30
0.0
 11
1367.01194
 21
-490.80536
 31
0.0
  0
LINE
  5
17C0
100
AcDbEntity
  8
V0-OBRYS
  6
CONTINUOUS
 62
    90
 48
3.0
100
AcDbLine
 10
1367.01194
 20
-490.80536
 30
0.0
 11
1367.01194
 21
-519.598586
 31
0.0
  0
LINE
  5
17C1
100
AcDbEntity
  8
V0-OBRYS
  6
CONTINUOUS
 62
    90
 48
3.0
100
AcDbLine
 10
1367.01194
 20
-519.598586
 30
0.0
 11
1362.689396
 21
-519.598586
 31
0.0
  0
LINE
  5
17C2
100
AcDbEntity
  8
V0-OBRYS
  6
CONTINUOUS
 62
    90
 48
3.0
100
AcDbLine
 10
1332.431573
 20
-490.80536
 30
0.0
 11
1332.431573
 21
-519.598586
 31
0.0
  0
LINE
  5
17C3
100
AcDbEntity
  8
V0-OBRYS
  6
CONTINUOUS
 62
    90
 48
3.0
100
AcDbLine
 10
1332.431573
 20
-519.598586
 30
0.0
 11
1336.754117
 21
-519.598586
 31
0.0
  0
LINE
  5
17C4
100
AcDbEntity
  8
V0-OBRYS
  6
CONTINUOUS
 62
    90
 48
3.0
100
AcDbLine
 10
1805.547852
 20
-490.80536
 30
0.0
 11
1771.687908
 21
-490.80536
 31
0.0
  0
LINE
  5
17C5
100
AcDbEntity
  8
V0-OBRYS
  6
CONTINUOUS
 62
    90
 48
3.0
100
AcDbLine
 10
1801.225308
 20
-543.353003
 30
0.0
 11
1776.010453
 21
-543.353003
 31
0.0
  0
LINE
  5
17C6
100
AcDbEntity
  8
V0-OBRYS
  6
CONTINUOUS
 62
    90
 48
3.0
100
AcDbLine
 10
1801.225308
 20
-512.400281
 30
0.0
 11
1776.010453
 21
-512.400281
 31
0.0
  0
LINE
  5
17C7
100
AcDbEntity
  8
V0-OBRYS
  6
CONTINUOUS
 62
    90
 48
3.0
100
AcDbLine
 10
1801.225308
 20
-495.124344
 30
0.0
 11
1776.010453
 21
-495.124344
 31
0.0
  0
LINE
  5
17C8
100
AcDbEntity
  8
V0-OBRYS
  6
CONTINUOUS
 62
    90
 48
3.0
100
AcDbLine
 10
1801.225308
 20
-543.353003
 30
0.0
 11
1801.225308
 21
-512.400281
 31
0.0
  0
LINE
  5
17C9
100
AcDbEntity
  8
V0-OBRYS
  6
CONTINUOUS
 62
    90
 48
3.0
100
AcDbLine
 10
1806.268276
 20
-490.80536
 30
0.0
 11
1806.268276
 21
-519.598586
 31
0.0
  0
LINE
  5
17CA
100
AcDbEntity
  8
V0-OBRYS
  6
CONTINUOUS
 62
    90
 48
3.0
100
AcDbLine
 10
1801.225308
 20
-469.210439
 30
0.0
 11
1801.225308
 21
-495.124344
 31
0.0
  0
LINE
  5
17CB
100
AcDbEntity
  8
V0-OBRYS
  6
CONTINUOUS
 62
    90
 48
3.0
100
AcDbLine
 10
1806.268276
 20
-519.598586
 30
0.0
 11
1801.945731
 21
-519.598586
 31
0.0
  0
LINE
  5
17CC
100
AcDbEntity
  8
V0-OBRYS
  6
CONTINUOUS
 62
    90
 48
3.0
100
AcDbLine
 10
1776.010453
 20
-512.400281
 30
0.0
 11
1776.010453
 21
-543.353003
 31
0.0
  0
LINE
  5
17CD
100
AcDbEntity
  8
V0-OBRYS
  6
CONTINUOUS
 62
    90
 48
3.0
100
AcDbLine
 10
1771.687908
 20
-490.80536
 30
0.0
 11
1771.687908
 21
-519.598586
 31
0.0
  0
LINE
  5
17CE
100
AcDbEntity
  8
V0-OBRYS
  6
CONTINUOUS
 62
    90
 48
3.0
100
AcDbLine
 10
1776.010453
 20
-495.124344
 30
0.0
 11
1776.010453
 21
-469.210439
 31
0.0
  0
LINE
  5
17CF
100
AcDbEntity
  8
V0-OBRYS
  6
CONTINUOUS
 62
    90
 48
3.0
100
AcDbLine
 10
1771.687908
 20
-519.598586
 30
0.0
 11
1776.010453
 21
-519.598586
 31
0.0
  0
LINE
  5
17D0
100
AcDbEntity
  8
V0-OBRYS
  6
CONTINUOUS
 62
    90
 48
3.0
100
AcDbLine
 10
1801.225308
 20
-484.336202
 30
0.0
 11
1912.349924
 21
-484.336202
 31
0.0
  0
LINE
  5
17D1
100
AcDbEntity
  8
V0-OBRYS
  6
CONTINUOUS
 62
    90
 48
3.0
100
AcDbLine
 10
1337.47454
 20
-469.210439
 30
0.0
 11
1362.689396
 21
-469.210439
 31
0.0
  0
LINE
  5
17D2
100
AcDbEntity
  8
V0-OBRYS
  6
CONTINUOUS
 62
    90
 48
3.0
100
AcDbLine
 10
1801.225308
 20
-469.210439
 30
0.0
 11
1776.010453
 21
-469.210439
 31
0.0
  0
LINE
  5
1834
100
AcDbEntity
  8
V0-OBRYS
  6
CONTINUOUS
 62
    90
 48
3.0
100
AcDbLine
 10
146.183213
 20
-1307.673439
 30
0.0
 11
752.183213
 21
-1307.673439
 31
0.0
  0
LINE
  5
1835
100
AcDbEntity
  8
V0-OBRYS
  6
CONTINUOUS
 62
    90
 48
3.0
100
AcDbLine
 10
752.183213
 20
-1307.673439
 30
0.0
 11
752.183213
 21
-1993.673439
 31
0.0
  0
LINE
  5
1836
100
AcDbEntity
  8
V0-OBRYS
  6
CONTINUOUS
 62
    90
 48
3.0
100
AcDbLine
 10
146.183213
 20
-1307.673439
 30
0.0
 11
146.183213
 21
-1993.673439
 31
0.0
  0
LINE
  5
1837
100
AcDbEntity
  8
V0-OBRYS
  6
CONTINUOUS
 62
    90
 48
3.0
100
AcDbLine
 10
146.183213
 20
-1993.673439
 30
0.0
 11
752.183213
 21
-1993.673439
 31
0.0
  0
LINE
  5
183A
100
AcDbEntity
  8
V0-OBRYS
  6
CONTINUOUS
 62
    90
 48
3.0
100
AcDbLine
 10
754.383979
 20
-1448.365727
 30
0.0
 11
754.383979
 21
-1419.063744
 31
0.0
  0
LINE
  5
183D
100
AcDbEntity
  8
V0-OBRYS
  6
CONTINUOUS
 62
    90
 48
3.0
100
AcDbLine
 10
758.702963
 20
-1444.180729
 30
0.0
 11
758.702963
 21
-1418.965873
 31
0.0
  0
LINE
  5
183F
100
AcDbEntity
  8
V0-OBRYS
  6
CONTINUOUS
 62
    90
 48
3.0
100
AcDbLine
 10
752.183213
 20
-1444.180729
 30
0.0
 11
754.375125
 21
-1444.180729
 31
0.0
  0
LINE
  5
1843
100
AcDbEntity
  8
V0-OBRYS
  6
CONTINUOUS
 62
    90
 48
3.0
100
AcDbLine
 10
758.702963
 20
-1418.965873
 30
0.0
 11
756.010297
 21
-1418.965873
 31
0.0
  0
LINE
  5
1846
100
AcDbEntity
  8
V0-OBRYS
  6
CONTINUOUS
 62
    90
 48
3.0
100
AcDbLine
 10
756.010297
 20
-1414.585275
 30
0.0
 11
756.010297
 21
-1448.365727
 31
0.0
  0
ARC
  5
1847
100
AcDbEntity
  8
V0-OBRYS
  6
CONTINUOUS
 62
    90
 48
3.0
100
AcDbCircle
 10
755.197138
 20
-1414.585275
 30
0.0
 40
0.813159
100
AcDbArc
 50
0.0
 51
180.0
  0
ARC
  5
1848
100
AcDbEntity
  8
V0-OBRYS
  6
CONTINUOUS
 62
    90
 48
3.0
100
AcDbCircle
 10
755.197138
 20
-1448.365727
 30
0.0
 40
0.813159
100
AcDbArc
 50
180.0
 51
0.0
  0
LINE
  5
1849
100
AcDbEntity
  8
V0-OBRYS
  6
CONTINUOUS
 62
    90
 48
3.0
100
AcDbLine
 10
754.383979
 20
-1419.063744
 30
0.0
 11
754.383979
 21
-1414.585275
 31
0.0
  0
LINE
  5
184A
100
AcDbEntity
  8
V0-OBRYS
  6
CONTINUOUS
 62
    90
 48
3.0
100
AcDbLine
 10
754.375125
 20
-1418.965873
 30
0.0
 11
752.183213
 21
-1418.965873
 31
0.0
  0
LINE
  5
184B
100
AcDbEntity
  8
V0-OBRYS
  6
CONTINUOUS
 62
    90
 48
3.0
100
AcDbLine
 10
756.010297
 20
-1444.180729
 30
0.0
 11
758.702963
 21
-1444.180729
 31
0.0
  0
LINE
  5
184C
100
AcDbEntity
  8
V0-OBRYS
  6
CONTINUOUS
 62
    90
 48
3.0
100
AcDbLine
 10
143.982446
 20
-1448.365727
 30
0.0
 11
143.982446
 21
-1419.063744
 31
0.0
  0
LINE
  5
184D
100
AcDbEntity
  8
V0-OBRYS
  6
CONTINUOUS
 62
    90
 48
3.0
100
AcDbLine
 10
142.356128
 20
-1414.585275
 30
0.0
 11
142.356128
 21
-1448.365727
 31
0.0
  0
ARC
  5
184E
100
AcDbEntity
  8
V0-OBRYS
  6
CONTINUOUS
 62
    90
 48
3.0
100
AcDbCircle
 10
143.169287
 20
-1448.365727
 30
0.0
 40
0.813159
100
AcDbArc
 50
180.0
 51
0.0
  0
LINE
  5
184F
100
AcDbEntity
  8
V0-OBRYS
  6
CONTINUOUS
 62
    90
 48
3.0
100
AcDbLine
 10
142.356128
 20
-1444.180729
 30
0.0
 11
139.663462
 21
-1444.180729
 31
0.0
  0
LINE
  5
1850
100
AcDbEntity
  8
V0-OBRYS
  6
CONTINUOUS
 62
    90
 48
3.0
100
AcDbLine
 10
139.663462
 20
-1418.965873
 30
0.0
 11
142.356128
 21
-1418.965873
 31
0.0
  0
LINE
  5
1851
100
AcDbEntity
  8
V0-OBRYS
  6
CONTINUOUS
 62
    90
 48
3.0
100
AcDbLine
 10
146.183213
 20
-1444.180729
 30
0.0
 11
143.991301
 21
-1444.180729
 31
0.0
  0
LINE
  5
1852
100
AcDbEntity
  8
V0-OBRYS
  6
CONTINUOUS
 62
    90
 48
3.0
100
AcDbLine
 10
143.991301
 20
-1418.965873
 30
0.0
 11
146.183213
 21
-1418.965873
 31
0.0
  0
LINE
  5
1853
100
AcDbEntity
  8
V0-OBRYS
  6
CONTINUOUS
 62
    90
 48
3.0
100
AcDbLine
 10
143.982446
 20
-1419.063744
 30
0.0
 11
143.982446
 21
-1414.585275
 31
0.0
  0
ARC
  5
1854
100
AcDbEntity
  8
V0-OBRYS
  6
CONTINUOUS
 62
    90
 48
3.0
100
AcDbCircle
 10
143.169287
 20
-1414.585275
 30
0.0
 40
0.813159
100
AcDbArc
 50
0.0
 51
180.0
  0
LINE
  5
1855
100
AcDbEntity
  8
V0-OBRYS
  6
CONTINUOUS
 62
    90
 48
3.0
100
AcDbLine
 10
139.663462
 20
-1444.180729
 30
0.0
 11
139.663462
 21
-1418.965873
 31
0.0
  0
LINE
  5
1856
100
AcDbEntity
  8
V0-OBRYS
  6
CONTINUOUS
 62
    90
 48
3.0
100
AcDbLine
 10
142.356128
 20
-1886.761602
 30
0.0
 11
142.356128
 21
-1852.981151
 31
0.0
  0
LINE
  5
1857
100
AcDbEntity
  8
V0-OBRYS
  6
CONTINUOUS
 62
    90
 48
3.0
100
AcDbLine
 10
143.982446
 20
-1852.981151
 30
0.0
 11
143.982446
 21
-1882.283134
 31
0.0
  0
ARC
  5
1858
100
AcDbEntity
  8
V0-OBRYS
  6
CONTINUOUS
 62
    90
 48
3.0
100
AcDbCircle
 10
143.169287
 20
-1852.981151
 30
0.0
 40
0.813159
100
AcDbArc
 50
0.0
 51
180.0
  0
LINE
  5
1859
100
AcDbEntity
  8
V0-OBRYS
  6
CONTINUOUS
 62
    90
 48
3.0
100
AcDbLine
 10
139.663462
 20
-1882.381004
 30
0.0
 11
142.356128
 21
-1882.381004
 31
0.0
  0
LINE
  5
185A
100
AcDbEntity
  8
V0-OBRYS
  6
CONTINUOUS
 62
    90
 48
3.0
100
AcDbLine
 10
142.356128
 20
-1857.166149
 30
0.0
 11
139.663462
 21
-1857.166149
 31
0.0
  0
LINE
  5
185B
100
AcDbEntity
  8
V0-OBRYS
  6
CONTINUOUS
 62
    90
 48
3.0
100
AcDbLine
 10
139.663462
 20
-1857.166149
 30
0.0
 11
139.663462
 21
-1882.381004
 31
0.0
  0
ARC
  5
185C
100
AcDbEntity
  8
V0-OBRYS
  6
CONTINUOUS
 62
    90
 48
3.0
100
AcDbCircle
 10
143.169287
 20
-1886.761602
 30
0.0
 40
0.813159
100
AcDbArc
 50
180.0
 51
0.0
  0
LINE
  5
185D
100
AcDbEntity
  8
V0-OBRYS
  6
CONTINUOUS
 62
    90
 48
3.0
100
AcDbLine
 10
143.982446
 20
-1882.283134
 30
0.0
 11
143.982446
 21
-1886.761602
 31
0.0
  0
LINE
  5
185E
100
AcDbEntity
  8
V0-OBRYS
  6
CONTINUOUS
 62
    90
 48
3.0
100
AcDbLine
 10
143.991301
 20
-1882.381004
 30
0.0
 11
146.183213
 21
-1882.381004
 31
0.0
  0
LINE
  5
185F
100
AcDbEntity
  8
V0-OBRYS
  6
CONTINUOUS
 62
    90
 48
3.0
100
AcDbLine
 10
146.183213
 20
-1857.166149
 30
0.0
 11
143.991301
 21
-1857.166149
 31
0.0
  0
LINE
  5
1860
100
AcDbEntity
  8
V0-OBRYS
  6
CONTINUOUS
 62
    90
 48
3.0
100
AcDbLine
 10
754.383979
 20
-1852.981151
 30
0.0
 11
754.383979
 21
-1882.283134
 31
0.0
  0
LINE
  5
1861
100
AcDbEntity
  8
V0-OBRYS
  6
CONTINUOUS
 62
    90
 48
3.0
100
AcDbLine
 10
756.010297
 20
-1886.761602
 30
0.0
 11
756.010297
 21
-1852.981151
 31
0.0
  0
ARC
  5
1862
100
AcDbEntity
  8
V0-OBRYS
  6
CONTINUOUS
 62
    90
 48
3.0
100
AcDbCircle
 10
755.197138
 20
-1852.981151
 30
0.0
 40
0.813159
100
AcDbArc
 50
0.0
 51
180.0
  0
LINE
  5
1863
100
AcDbEntity
  8
V0-OBRYS
  6
CONTINUOUS
 62
    90
 48
3.0
100
AcDbLine
 10
756.010297
 20
-1857.166149
 30
0.0
 11
758.702963
 21
-1857.166149
 31
0.0
  0
LINE
  5
1864
100
AcDbEntity
  8
V0-OBRYS
  6
CONTINUOUS
 62
    90
 48
3.0
100
AcDbLine
 10
758.702963
 20
-1882.381004
 30
0.0
 11
756.010297
 21
-1882.381004
 31
0.0
  0
LINE
  5
1865
100
AcDbEntity
  8
V0-OBRYS
  6
CONTINUOUS
 62
    90
 48
3.0
100
AcDbLine
 10
752.183213
 20
-1857.166149
 30
0.0
 11
754.375125
 21
-1857.166149
 31
0.0
  0
LINE
  5
1866
100
AcDbEntity
  8
V0-OBRYS
  6
CONTINUOUS
 62
    90
 48
3.0
100
AcDbLine
 10
754.375125
 20
-1882.381004
 30
0.0
 11
752.183213
 21
-1882.381004
 31
0.0
  0
LINE
  5
1867
100
AcDbEntity
  8
V0-OBRYS
  6
CONTINUOUS
 62
    90
 48
3.0
100
AcDbLine
 10
754.383979
 20
-1882.283134
 30
0.0
 11
754.383979
 21
-1886.761602
 31
0.0
  0
ARC
  5
1868
100
AcDbEntity
  8
V0-OBRYS
  6
CONTINUOUS
 62
    90
 48
3.0
100
AcDbCircle
 10
755.197138
 20
-1886.761602
 30
0.0
 40
0.813159
100
AcDbArc
 50
180.0
 51
0.0
  0
LINE
  5
1869
100
AcDbEntity
  8
V0-OBRYS
  6
CONTINUOUS
 62
    90
 48
3.0
100
AcDbLine
 10
758.702963
 20
-1857.166149
 30
0.0
 11
758.702963
 21
-1882.381004
 31
0.0
  0
LINE
  5
1885
100
AcDbEntity
  8
V0-OBRYS
  6
CONTINUOUS
 62
    90
 48
3.0
100
AcDbLine
 10
145.699988
 20
-468.350642
 30
0.0
 11
145.699988
 21
-494.564474
 31
0.0
  0
LINE
  5
1886
100
AcDbEntity
  8
V0-OBRYS
  6
CONTINUOUS
 62
    90
 48
3.0
100
AcDbLine
 10
145.699988
 20
-497.564474
 30
0.0
 11
139.256188
 21
-497.564474
 31
0.0
  0
LINE
  5
1887
100
AcDbEntity
  8
V0-OBRYS
  6
CONTINUOUS
 62
    90
 48
3.0
100
AcDbLine
 10
139.256188
 20
-497.564474
 30
0.0
 11
139.256188
 21
-491.58588
 31
0.0
  0
LINE
  5
1888
100
AcDbEntity
  8
V0-OBRYS
  6
CONTINUOUS
 62
    90
 48
3.0
100
AcDbLine
 10
145.699988
 20
-527.077769
 30
0.0
 11
145.699988
 21
-514.580472
 31
0.0
  0
LINE
  5
1889
100
AcDbEntity
  8
V0-OBRYS
  6
CONTINUOUS
 62
    90
 48
3.0
100
AcDbLine
 10
145.699988
 20
-514.580472
 30
0.0
 11
139.716461
 21
-514.580472
 31
0.0
  0
LINE
  5
188A
100
AcDbEntity
  8
V0-OBRYS
  6
CONTINUOUS
 62
    90
 48
3.0
100
AcDbLine
 10
139.716461
 20
-514.580472
 30
0.0
 11
139.716461
 21
-532.516254
 31
0.0
  0
LINE
  5
188B
100
AcDbEntity
  8
V0-OBRYS
  6
CONTINUOUS
 62
    90
 48
3.0
100
AcDbLine
 10
139.716461
 20
-532.516254
 30
0.0
 11
139.716461
 21
-545.393226
 31
0.0
  0
LINE
  5
188C
100
AcDbEntity
  8
V0-OBRYS
  6
CONTINUOUS
 62
    90
 48
3.0
100
AcDbLine
 10
141.557547
 20
-492.965558
 30
0.0
 11
141.557547
 21
-521.938741
 31
0.0
  0
LINE
  5
188D
100
AcDbEntity
  8
V0-OBRYS
  6
CONTINUOUS
 62
    90
 48
3.0
100
AcDbLine
 10
141.557547
 20
-521.938741
 30
0.0
 11
143.858901
 21
-521.938741
 31
0.0
  0
LINE
  5
188E
100
AcDbEntity
  8
V0-OBRYS
  6
CONTINUOUS
 62
    90
 48
3.0
100
AcDbLine
 10
143.858901
 20
-521.938741
 30
0.0
 11
143.858901
 21
-492.965558
 31
0.0
  0
LINE
  5
188F
100
AcDbEntity
  8
V0-OBRYS
  6
CONTINUOUS
 62
    90
 48
3.0
100
AcDbLine
 10
143.858901
 20
-492.965558
 30
0.0
 11
141.557547
 21
-492.965558
 31
0.0
  0
INSERT
  5
18BA
100
AcDbEntity
  8
V0-OBRYS
  6
CONTINUOUS
 62
    90
 48
3.0
100
AcDbBlockReference
  2
AZAVER-B
 10
750.939422
 20
-465.550884
 30
0.0
 41
-1.0
  0
LINE
  5
18C7
100
AcDbEntity
  8
V0-VYPLNE
  6
CONTINUOUS
 62
    41
 48
3.0
100
AcDbLine
 10
1435.890547
 20
-670.645628
 30
0.0
 11
1569.851212
 21
-670.645628
 31
0.0
  0
LINE
  5
18C8
100
AcDbEntity
  8
V0-VYPLNE
  6
CONTINUOUS
 62
    41
 48
3.0
100
AcDbLine
 10
1435.437005
 20
-682.336202
 30
0.0
 11
1571.307304
 21
-682.336202
 31
0.0
  0
LINE
  5
18C9
100
AcDbEntity
  8
V0-VYPLNE
  6
CONTINUOUS
 62
    41
 48
3.0
100
AcDbLine
 10
1435.890547
 20
-699.743513
 30
0.0
 11
1569.851212
 21
-699.743513
 31
0.0
  0
LINE
  5
18CA
100
AcDbEntity
  8
V0-VYPLNE
  6
CONTINUOUS
 62
    41
 48
3.0
100
AcDbLine
 10
1435.890547
 20
-725.931609
 30
0.0
 11
1569.851212
 21
-725.931609
 31
0.0
  0
LINE
  5
18CB
100
AcDbEntity
  8
V0-VYPLNE
  6
CONTINUOUS
 62
    41
 48
3.0
100
AcDbLine
 10
1435.890547
 20
-759.394177
 30
0.0
 11
1569.851212
 21
-759.394177
 31
0.0
  0
LINE
  5
18CC
100
AcDbEntity
  8
V0-OBRYS
  6
CONTINUOUS
 62
    90
 48
3.0
100
AcDbLine
 10
1400.433456
 20
-787.168354
 30
0.0
 11
1569.349924
 21
-787.168354
 31
0.0
  0
LINE
  5
18CD
100
AcDbEntity
  8
V0-OBRYS
  6
CONTINUOUS
 62
    90
 48
3.0
100
AcDbLine
 10
1738.266392
 20
-787.168354
 30
0.0
 11
1569.349924
 21
-787.168354
 31
0.0
  0
LINE
  5
18CE
100
AcDbEntity
  8
V0-VYPLNE
  6
CONTINUOUS
 62
    41
 48
3.0
100
AcDbLine
 10
1702.809301
 20
-759.394177
 30
0.0
 11
1568.848637
 21
-759.394177
 31
0.0
  0
LINE
  5
18CF
100
AcDbEntity
  8
V0-VYPLNE
  6
CONTINUOUS
 62
    41
 48
3.0
100
AcDbLine
 10
1702.809301
 20
-725.931609
 30
0.0
 11
1568.848637
 21
-725.931609
 31
0.0
  0
LINE
  5
18D0
100
AcDbEntity
  8
V0-VYPLNE
  6
CONTINUOUS
 62
    41
 48
3.0
100
AcDbLine
 10
1702.809301
 20
-699.743513
 30
0.0
 11
1568.848637
 21
-699.743513
 31
0.0
  0
LINE
  5
18D1
100
AcDbEntity
  8
V0-VYPLNE
  6
CONTINUOUS
 62
    41
 48
3.0
100
AcDbLine
 10
1703.262844
 20
-682.336202
 30
0.0
 11
1567.392545
 21
-682.336202
 31
0.0
  0
LINE
  5
18D2
100
AcDbEntity
  8
V0-VYPLNE
  6
CONTINUOUS
 62
    41
 48
3.0
100
AcDbLine
 10
1702.809301
 20
-670.645628
 30
0.0
 11
1568.848637
 21
-670.645628
 31
0.0
  0
LINE
  5
18D3
100
AcDbEntity
  8
V0-OBRYS
  6
CONTINUOUS
 62
    90
 48
3.0
100
AcDbLine
 10
1703.262844
 20
-664.360962
 30
0.0
 11
1569.349924
 21
-664.360962
 31
0.0
  0
LINE
  5
18D4
100
AcDbEntity
  8
V0-OBRYS
  6
CONTINUOUS
 62
    90
 48
3.0
100
AcDbLine
 10
1703.262844
 20
-787.168354
 30
0.0
 11
1703.262844
 21
-664.360962
 31
0.0
  0
LINE
  5
18D5
100
AcDbEntity
  8
V0-OBRYS
  6
CONTINUOUS
 62
    90
 48
3.0
100
AcDbLine
 10
1747.900486
 20
-599.486989
 30
0.0
 11
1569.349924
 21
-599.486989
 31
0.0
  0
LINE
  5
1924
100
AcDbEntity
  8
V0-VYPLNE
  6
DASHED
 62
    52
 48
2.0
100
AcDbLine
 10
480.93074
 20
-807.208728
 30
0.0
 11
571.208863
 21
-859.330827
 31
0.0
  0
ARC
  5
1925
100
AcDbEntity
  8
V0-VYPLNE
  6
DASHED
 62
    52
 48
2.0
100
AcDbCircle
 10
456.656592
 20
-796.790403
 30
0.0
 40
108.696391
100
AcDbArc
 50
331.719358
 51
88.362917
  0
ARC
  5
1926
100
AcDbEntity
  8
V0-VYPLNE
  6
DASHED
 62
    52
 48
2.0
100
AcDbCircle
 10
456.656592
 20
-796.790403
 30
0.0
 40
113.562841
100
AcDbArc
 50
331.519954
 51
88.371211
  0
ARC
  5
1927
100
AcDbEntity
  8
V0-VYPLNE
  6
DASHED
 62
    52
 48
2.0
100
AcDbCircle
 10
436.014224
 20
-777.361125
 30
0.0
 40
186.520904
100
AcDbArc
 50
272.315415
 51
344.441514
  0
LINE
  5
1928
100
AcDbEntity
  8
V0-VYPLNE
  6
DASHED
 62
    52
 48
2.0
100
AcDbLine
 10
457.686192
 20
-962.911606
 30
0.0
 11
456.656592
 21
-666.315013
 31
0.0
  0
LINE
  5
1929
100
AcDbEntity
  8
V0-VYPLNE
  6
DASHED
 62
    52
 48
2.0
100
AcDbLine
 10
477.8162
 20
-812.60327
 30
0.0
 11
568.094323
 21
-864.725368
 31
0.0
  0
ARC
  5
192A
100
AcDbEntity
  8
V0-VYPLNE
  6
DASHED
 62
    52
 48
2.0
100
AcDbCircle
 10
443.549784
 20
-775.611531
 30
0.0
 40
188.118216
100
AcDbArc
 50
177.083445
 51
270.0
  0
ARC
  5
192B
100
AcDbEntity
  8
V0-VYPLNE
  6
DASHED
 62
    52
 48
2.0
100
AcDbCircle
 10
456.656592
 20
-796.790403
 30
0.0
 40
108.696391
100
AcDbArc
 50
91.714912
 51
208.344087
  0
ARC
  5
192C
100
AcDbEntity
  8
V0-VYPLNE
  6
DASHED
 62
    52
 48
2.0
100
AcDbCircle
 10
456.656592
 20
-796.790403
 30
0.0
 40
113.562841
100
AcDbArc
 50
91.581613
 51
208.441599
  0
LINE
  5
192D
100
AcDbEntity
  8
V0-VYPLNE
  6
DASHED
 62
    52
 48
2.0
100
AcDbLine
 10
435.496983
 20
-812.60327
 30
0.0
 11
345.21886
 21
-864.725368
 31
0.0
  0
LINE
  5
192E
100
AcDbEntity
  8
V0-VYPLNE
  6
DASHED
 62
    52
 48
2.0
100
AcDbLine
 10
432.382443
 20
-807.208728
 30
0.0
 11
342.10432
 21
-859.330827
 31
0.0
  0
ARC
  5
192F
100
AcDbEntity
  8
V0-VYPLNE
  6
DASHED
 62
    52
 48
2.0
100
AcDbCircle
 10
456.656592
 20
-796.790403
 30
0.0
 40
69.409971
100
AcDbArc
 50
212.575428
 51
327.315954
  0
CIRCLE
  5
1930
100
AcDbEntity
  8
V0-VYPLNE
  6
DASHED
 62
    52
 48
2.0
100
AcDbCircle
 10
456.656592
 20
-796.790403
 30
0.0
 40
26.231192
  0
ARC
  5
1931
100
AcDbEntity
  8
V0-VYPLNE
  6
DASHED
 62
    52
 48
2.0
100
AcDbCircle
 10
456.656592
 20
-796.790403
 30
0.0
 40
69.409971
100
AcDbArc
 50
92.399561
 51
207.385177
  0
LINE
  5
1933
100
AcDbEntity
  8
V0-VYPLNE
  6
DASHED
 62
    52
 48
2.0
100
AcDbLine
 10
578.161608
 20
-796.790403
 30
0.0
 11
341.69804
 21
-796.790403
 31
0.0
  0
ARC
  5
1934
100
AcDbEntity
  8
V0-VYPLNE
  6
DASHED
 62
    52
 48
2.0
100
AcDbCircle
 10
444.30016
 20
-780.63014
 30
0.0
 40
189.229318
100
AcDbArc
 50
81.90155
 51
175.485336
  0
ARC
  5
1935
100
AcDbEntity
  8
V0-VYPLNE
  6
DASHED
 62
    52
 48
2.0
100
AcDbCircle
 10
470.957736
 20
-775.611531
 30
0.0
 40
215.526168
100
AcDbArc
 50
180.0
 51
180.271524
  0
LINE
  5
1936
100
AcDbEntity
  8
V0-VYPLNE
  6
DASHED
 62
    52
 48
2.0
100
AcDbLine
 10
432.382443
 20
-807.208728
 30
0.0
 11
435.496983
 21
-812.60327
 31
0.0
  0
LINE
  5
1937
100
AcDbEntity
  8
V0-VYPLNE
  6
DASHED
 62
    52
 48
2.0
100
AcDbLine
 10
470.957736
 20
-593.287918
 30
0.0
 11
661.566312
 21
-593.287918
 31
0.0
  0
LINE
  5
1938
100
AcDbEntity
  8
V0-VYPLNE
  6
DASHED
 62
    52
 48
2.0
100
AcDbLine
 10
459.771132
 20
-770.559211
 30
0.0
 11
459.771132
 21
-666.315013
 31
0.0
  0
LINE
  5
1939
100
AcDbEntity
  8
V0-VYPLNE
  6
DASHED
 62
    52
 48
2.0
100
AcDbLine
 10
453.542052
 20
-770.559211
 30
0.0
 11
453.542052
 21
-666.315013
 31
0.0
  0
LINE
  5
193B
100
AcDbEntity
  8
V0-VYPLNE
  6
DASHED
 62
    52
 48
2.0
100
AcDbLine
 10
459.745392
 20
-666.315013
 30
0.0
 11
459.745392
 21
-629.105251
 31
0.0
  0
ARC
  5
193C
100
AcDbEntity
  8
V0-VYPLNE
  6
DASHED
 62
    52
 48
2.0
100
AcDbCircle
 10
459.745392
 20
-666.315013
 30
0.0
 40
3.11454
100
AcDbArc
 50
0.0
 51
180.0
  0
ARC
  5
193D
100
AcDbEntity
  8
V0-VYPLNE
  6
DASHED
 62
    52
 48
2.0
100
AcDbCircle
 10
456.656592
 20
-796.790403
 30
0.0
 40
69.409971
100
AcDbArc
 50
332.562264
 51
87.434764
  0
LINE
  5
193E
100
AcDbEntity
  8
V0-VYPLNE
  6
DASHED
 62
    52
 48
2.0
100
AcDbLine
 10
459.771132
 20
-770.559211
 30
0.0
 11
453.542052
 21
-770.559211
 31
0.0
  0
LINE
  5
193F
100
AcDbEntity
  8
V0-VYPLNE
  6
DASHED
 62
    52
 48
2.0
100
AcDbLine
 10
477.8162
 20
-812.60327
 30
0.0
 11
480.93074
 21
-807.208728
 31
0.0
  0
LINE
  5
1941
100
AcDbEntity
  8
V0-VYPLNE
  6
DASHED
 62
    52
 48
2.0
100
AcDbLine
 10
661.566312
 20
-593.287918
 30
0.0
 11
661.566312
 21
-827.390115
 31
0.0
  0
LINE
  5
1942
100
AcDbEntity
  8
V0-VYPLNE
  6
DASHED
 62
    52
 48
2.0
100
AcDbLine
 10
615.700473
 20
-827.390115
 30
0.0
 11
615.700473
 21
-804.994176
 31
0.0
  0
LINE
  5
1943
100
AcDbEntity
  8
V0-VYPLNE
  6
DASHED
 62
    52
 48
2.0
100
AcDbLine
 10
615.700473
 20
-827.390115
 30
0.0
 11
661.566312
 21
-827.390115
 31
0.0
  0
ARC
  5
1944
100
AcDbEntity
  8
V0-VYPLNE
  6
DASHED
 62
    52
 48
2.0
100
AcDbCircle
 10
456.656592
 20
-796.790403
 30
0.0
 40
113.562841
100
AcDbArc
 50
211.485726
 51
328.390343
  0
ARC
  5
1945
100
AcDbEntity
  8
V0-VYPLNE
  6
DASHED
 62
    52
 48
2.0
100
AcDbCircle
 10
456.656592
 20
-796.790403
 30
0.0
 40
108.696391
100
AcDbArc
 50
211.549963
 51
328.272969
  0
ARC
  5
1946
100
AcDbEntity
  8
V0-VYPLNE
  6
DASHED
 62
    52
 48
2.0
100
AcDbCircle
 10
343.66159
 20
-862.028097
 30
0.0
 40
3.11454
100
AcDbArc
 50
120.0
 51
300.0
  0
ARC
  5
1947
100
AcDbEntity
  8
V0-VYPLNE
  6
DASHED
 62
    52
 48
2.0
100
AcDbCircle
 10
569.651593
 20
-862.028097
 30
0.0
 40
3.11454
100
AcDbArc
 50
240.0
 51
60.0
  0
LINE
  5
1948
100
AcDbEntity
  8
V0-VYPLNE
  6
DASHED
 62
    52
 48
2.0
100
AcDbLine
 10
615.700473
 20
-794.493345
 30
0.0
 11
615.700473
 21
-593.848984
 31
0.0
  0
LINE
  5
1961
100
AcDbEntity
  8
V0-VYPLNE
  6
DASHED
 62
    52
 48
3.0
100
AcDbLine
 10
147.183213
 20
-464.336202
 30
0.0
 11
147.183213
 21
175.163798
 31
0.0
  0
LINE
  5
1962
100
AcDbEntity
  8
V0-VYPLNE
  6
DASHED
 62
    52
 48
3.0
100
AcDbLine
 10
147.183213
 20
175.163798
 30
0.0
 11
751.183213
 21
175.163798
 31
0.0
  0
LINE
  5
1963
100
AcDbEntity
  8
V0-VYPLNE
  6
DASHED
 62
    52
 48
3.0
100
AcDbLine
 10
751.183213
 20
-464.336202
 30
0.0
 11
751.183213
 21
175.163798
 31
0.0
  0
LINE
  5
1964
100
AcDbEntity
  8
V0-VYPLNE
  6
DASHED
 62
    52
 48
3.0
100
AcDbLine
 10
1912.349924
 20
-464.336202
 30
0.0
 11
1912.349924
 21
175.163798
 31
0.0
  0
LINE
  5
1965
100
AcDbEntity
  8
V0-VYPLNE
  6
DASHED
 62
    52
 48
3.0
100
AcDbLine
 10
1226.349924
 20
-464.336202
 30
0.0
 11
1226.349924
 21
175.163798
 31
0.0
  0
LINE
  5
1966
100
AcDbEntity
  8
V0-VYPLNE
  6
DASHED
 62
    52
 48
3.0
100
AcDbLine
 10
1226.349924
 20
175.163798
 30
0.0
 11
1912.349924
 21
175.163798
 31
0.0
  0
LINE
  5
1967
100
AcDbEntity
  8
V0-VYPLNE
 48
3.0
100
AcDbLine
 10
629.916011
 20
-682.414011
 30
0.0
 11
836.446932
 21
-682.414011
 31
0.0
  0
DIMENSION
  5
1979
100
AcDbEntity
  8
V0-VYPLNE
  6
CONTINUOUS
 62
    41
 48
3.0
100
AcDbDimension
  2
*D8
 10
76.666771
 20
-464.336202
 30
0.0
 11
52.666771
 21
-144.586202
 31
0.0
 70
    32
  3
ED40
100
AcDbAlignedDimension
 13
147.183213
 23
175.163798
 33
0.0
 14
147.183213
 24
-464.336202
 34
0.0
 50
90.0
100
AcDbRotatedDimension
1001
ACAD
1000
DSTYLE
1002
{
1070
    40
1040
1.0
1002
}
  0
DIMENSION
  5
1986
100
AcDbEntity
  8
V0-VYPLNE
  6
CONTINUOUS
 62
    41
 48
3.0
100
AcDbDimension
  2
*D9
 10
1912.349924
 20
-384.584851
 30
0.0
 11
1569.349924
 21
-360.584851
 31
0.0
 70
    32
  3
ED40
100
AcDbAlignedDimension
 13
1226.349924
 23
-464.336202
 33
0.0
 14
1912.349924
 24
-464.336202
 34
0.0
100
AcDbRotatedDimension
1001
ACAD
1000
DSTYLE
1002
{
1070
    40
1040
1.0
1002
}
  0
POINT
  5
1998
100
AcDbEntity
  8
V0-VYPLNE
  6
CONTINUOUS
 62
    52
 48
3.0
100
AcDbPoint
 10
1569.349924
 20
-682.336202
 30
0.0
  0
DIMENSION
  5
1B9C
100
AcDbEntity
  8
V0-VYPLNE
  6
CONTINUOUS
 62
    41
 48
3.0
100
AcDbDimension
  2
*D10
 10
25.643619
 20
-977.336202
 30
0.0
 11
1.630014
 21
-829.836202
 31
0.0
 70
    32
  1
292
  3
ED40
100
AcDbAlignedDimension
 13
75.183213
 23
-682.336202
 33
0.0
 14
149.183213
 24
-977.336202
 34
0.0
 50
90.0
100
AcDbRotatedDimension
1001
ACAD
1000
DSTYLE
1002
{
1070
    40
1040
1.0
1070
   271
1070
     1
1002
}
  0
DIMENSION
  5
1BA9
100
AcDbEntity
  8
V0-VYPLNE
  6
CONTINUOUS
 62
    41
 48
3.0
100
AcDbDimension
  2
*D11
 10
976.78753
 20
-977.336202
 30
0.0
 11
976.78753
 21
-720.836202
 31
0.0
 70
   160
  3
ED40
100
AcDbAlignedDimension
 13
751.183213
 23
-464.336202
 33
0.0
 14
749.183213
 24
-977.336202
 34
0.0
 50
90.0
100
AcDbRotatedDimension
1001
ACAD
1000
DSTYLE
1002
{
1070
    40
1040
1.0
1070
   271
1070
     1
1002
}
  0
LINE
  5
1E1C
100
AcDbEntity
  8
V0-OBRYS
  6
CONTINUOUS
 62
    90
 48
3.0
100
AcDbLine
 10
1622.588947
 20
-484.336202
 30
0.0
 11
1776.010453
 21
-484.336202
 31
0.0
  0
VIEWPORT
  5
22
100
AcDbEntity
 67
     1
  8
0
100
AcDbViewport
 10
261.517699
 20
148.5
 30
0.0
 40
523.035398
 41
297.0
 68
    -1
 69
     1
1001
ACAD
1000
MVIEW
1002
{
1070
    16
1010
0.0
1020
0.0
1030
0.0
1010
0.0
1020
0.0
1030
1.0
1040
0.0
1040
297.0
1040
261.517699
1040
148.5
1040
50.0
1040
0.0
1040
0.0
1070
     0
1070
   100
1070
     1
1070
     1
1070
     0
1070
     0
1070
     0
1070
     0
1040
0.0
1040
0.0
1040
0.0
1040
1.0
1040
1.0
1040
10.0
1040
10.0
1070
     0
1002
{
1002
}
1002
}
  0
ENDSEC
  0
SECTION
  2
OBJECTS
  0
DICTIONARY
  5
C
100
AcDbDictionary
  3
ACAD_GROUP
350
D
  3
ACAD_MLINESTYLE
350
E
  3
ACDBVARIABLEDICTIONARY
350
5D
  0
DICTIONARY
  5
D
102
{ACAD_REACTORS
330
C
102
}
100
AcDbDictionary
  0
DICTIONARY
  5
E
102
{ACAD_REACTORS
330
C
102
}
100
AcDbDictionary
  3
STANDARD
350
13
  0
DICTIONARY
  5
5D
102
{ACAD_REACTORS
330
C
102
}
100
AcDbDictionary
  3
DIMADEC
350
5E
  3
SORTENTS
350
3D8
  0
MLINESTYLE
  5
13
102
{ACAD_REACTORS
330
E
102
}
100
AcDbMlineStyle
  2
STANDARD
 70
     0
  3

 62
     0
 51
90.0
 52
90.0
 71
     2
 49
0.5
 62
   256
  6
BYLAYER
 49
-0.5
 62
   256
  6
BYLAYER
  0
DICTIONARYVAR
  5
5E
102
{ACAD_REACTORS
330
5D
102
}
100
DictionaryVariables
280
     0
  1
0
  0
DICTIONARYVAR
  5
3D8
102
{ACAD_REACTORS
330
5D
102
}
100
DictionaryVariables
280
     0
  1
96
  0
ENDSEC
  0
EOF
