  0
SECTION
  2
HEADER
  9
$ACADVER
  1
AC1014
  9
$ACADMAINTVER
 70
     0
  9
$DWGCODEPAGE
  3
ANSI_1250
  9
$INSBASE
 10
0.0
 20
0.0
 30
0.0
  9
$EXTMIN
 10
66.13476
 20
-1795.142163
 30
0.0
  9
$EXTMAX
 10
1736.35586
 20
-4.836202
 30
0.0
  9
$LIMMIN
 10
0.0
 20
0.0
  9
$LIMMAX
 10
420.0
 20
297.0
  9
$ORTHOMODE
 70
     0
  9
$REGENMODE
 70
     1
  9
$FILLMODE
 70
     1
  9
$QTEXTMODE
 70
     0
  9
$MIRRTEXT
 70
     1
  9
$DRAGMODE
 70
     2
  9
$LTSCALE
 40
1.0
  9
$OSMODE
 70
    36
  9
$ATTMODE
 70
     1
  9
$TEXTSIZE
 40
30.0
  9
$TRACEWID
 40
1.0
  9
$TEXTSTYLE
  7
ED30
  9
$CLAYER
  8
V0-OBRYS
  9
$CELTYPE
  6
CONTINUOUS
  9
$CECOLOR
 62
    41
  9
$CELTSCALE
 40
3.0
  9
$DELOBJ
 70
     1
  9
$DISPSILH
 70
     0
  9
$DIMSCALE
 40
0.0
  9
$DIMASZ
 40
25.0
  9
$DIMEXO
 40
1.0
  9
$DIMDLI
 40
3.75
  9
$DIMRND
 40
0.0
  9
$DIMDLE
 40
0.0
  9
$DIMEXE
 40
1.25
  9
$DIMTP
 40
0.0
  9
$DIMTM
 40
0.0
  9
$DIMTXT
 40
30.0
  9
$DIMCEN
 40
3.0
  9
$DIMTSZ
 40
0.0
  9
$DIMTOL
 70
     0
  9
$DIMLIM
 70
     0
  9
$DIMTIH
 70
     0
  9
$DIMTOH
 70
     0
  9
$DIMSE1
 70
     0
  9
$DIMSE2
 70
     0
  9
$DIMTAD
 70
     1
  9
$DIMZIN
 70
     8
  9
$DIMBLK
  1

  9
$DIMASO
 70
     1
  9
$DIMSHO
 70
     1
  9
$DIMPOST
  1

  9
$DIMAPOST
  1

  9
$DIMALT
 70
     0
  9
$DIMALTD
 70
     4
  9
$DIMALTF
 40
0.0394
  9
$DIMLFAC
 40
1.0
  9
$DIMTOFL
 70
     1
  9
$DIMTVP
 40
0.0
  9
$DIMTIX
 70
     0
  9
$DIMSOXD
 70
     0
  9
$DIMSAH
 70
     1
  9
$DIMBLK1
  1
_OPEN
  9
$DIMBLK2
  1
_OPEN
  9
$DIMSTYLE
  2
ED30
  9
$DIMCLRD
 70
     1
  9
$DIMCLRE
 70
     1
  9
$DIMCLRT
 70
     1
  9
$DIMTFAC
 40
1.0
  9
$DIMGAP
 40
4.0
  9
$DIMJUST
 70
     0
  9
$DIMSD1
 70
     0
  9
$DIMSD2
 70
     0
  9
$DIMTOLJ
 70
     1
  9
$DIMTZIN
 70
     8
  9
$DIMALTZ
 70
     0
  9
$DIMALTTZ
 70
     0
  9
$DIMFIT
 70
     3
  9
$DIMUPT
 70
     0
  9
$DIMUNIT
 70
     2
  9
$DIMDEC
 70
     1
  9
$DIMTDEC
 70
     1
  9
$DIMALTU
 70
     8
  9
$DIMALTTD
 70
     4
  9
$DIMTXSTY
  7
ED30
  9
$DIMAUNIT
 70
     0
  9
$LUNITS
 70
     2
  9
$LUPREC
 70
     2
  9
$SKETCHINC
 40
1.0
  9
$FILLETRAD
 40
0.0
  9
$AUNITS
 70
     0
  9
$AUPREC
 70
     0
  9
$MENU
  1
.
  9
$ELEVATION
 40
0.0
  9
$PELEVATION
 40
0.0
  9
$THICKNESS
 40
0.0
  9
$LIMCHECK
 70
     0
  9
$BLIPMODE
 70
     0
  9
$CHAMFERA
 40
0.0
  9
$CHAMFERB
 40
0.0
  9
$CHAMFERC
 40
20.0
  9
$CHAMFERD
 40
0.0
  9
$SKPOLY
 70
     1
  9
$TDCREATE
 40
2451196.643769328
  9
$TDUPDATE
 40
2452932.432746065
  9
$TDINDWG
 40
0.4075363426
  9
$TDUSRTIMER
 40
0.4075363426
  9
$USRTIMER
 70
     1
  9
$ANGBASE
 50
0.0
  9
$ANGDIR
 70
     0
  9
$PDMODE
 70
     3
  9
$PDSIZE
 40
20.0
  9
$PLINEWID
 40
0.0
  9
$COORDS
 70
     1
  9
$SPLFRAME
 70
     0
  9
$SPLINETYPE
 70
     6
  9
$SPLINESEGS
 70
     8
  9
$ATTDIA
 70
     0
  9
$ATTREQ
 70
     1
  9
$HANDLING
 70
     1
  9
$HANDSEED
  5
1FBF
  9
$SURFTAB1
 70
     6
  9
$SURFTAB2
 70
     6
  9
$SURFTYPE
 70
     6
  9
$SURFU
 70
     6
  9
$SURFV
 70
     6
  9
$UCSNAME
  2

  9
$UCSORG
 10
263.1832125521595
 20
-860.8362015275439
 30
0.0
  9
$UCSXDIR
 10
1.0
 20
0.0
 30
0.0
  9
$UCSYDIR
 10
0.0
 20
1.0
 30
0.0
  9
$PUCSNAME
  2

  9
$PUCSORG
 10
0.0
 20
0.0
 30
0.0
  9
$PUCSXDIR
 10
1.0
 20
0.0
 30
0.0
  9
$PUCSYDIR
 10
0.0
 20
1.0
 30
0.0
  9
$USERI1
 70
     0
  9
$USERI2
 70
     0
  9
$USERI3
 70
     2
  9
$USERI4
 70
     2
  9
$USERI5
 70
     6
  9
$USERR1
 40
281.0
  9
$USERR2
 40
321.0
  9
$USERR3
 40
0.0
  9
$USERR4
 40
0.0
  9
$USERR5
 40
0.0
  9
$WORLDVIEW
 70
     1
  9
$SHADEDGE
 70
     3
  9
$SHADEDIF
 70
    70
  9
$TILEMODE
 70
     1
  9
$MAXACTVP
 70
    48
  9
$PINSBASE
 10
0.0
 20
0.0
 30
0.0
  9
$PLIMCHECK
 70
     0
  9
$PEXTMIN
 10
1.000000E+20
 20
1.000000E+20
 30
1.000000E+20
  9
$PEXTMAX
 10
-1.000000E+20
 20
-1.000000E+20
 30
-1.000000E+20
  9
$PLIMMIN
 10
0.0
 20
0.0
  9
$PLIMMAX
 10
420.0
 20
297.0
  9
$UNITMODE
 70
     0
  9
$VISRETAIN
 70
     1
  9
$PLINEGEN
 70
     0
  9
$PSLTSCALE
 70
     0
  9
$TREEDEPTH
 70
  3020
  9
$PICKSTYLE
 70
     1
  9
$CMLSTYLE
  2
STANDARD
  9
$CMLJUST
 70
     0
  9
$CMLSCALE
 40
1.0
  9
$PROXYGRAPHICS
 70
     1
  9
$MEASUREMENT
 70
     1
  0
ENDSEC
  0
SECTION
  2
CLASSES
  0
CLASS
  1
DICTIONARYVAR
  2
AcDbDictionaryVar
  3
"AutoCAD"
 90
        0
280
     0
281
     0
  0
CLASS
  1
LWPOLYLINE
  2
AcDbPolyline
  3
"AutoCAD"
 90
        0
280
     0
281
     1
  0
CLASS
  1
HATCH
  2
AcDbHatch
  3
"ACAD_SEDONA"
 90
        0
280
     0
281
     1
  0
ENDSEC
  0
SECTION
  2
TABLES
  0
TABLE
  2
VPORT
  5
8
100
AcDbSymbolTable
 70
     2
  0
VPORT
  5
1FBE
100
AcDbSymbolTableRecord
100
AcDbViewportTableRecord
  2
*ACTIVE
 70
     0
 10
0.0
 20
0.0
 11
1.0
 21
1.0
 12
896.732359
 22
-838.821888
 13
0.0
 23
0.0
 14
10.0
 24
10.0
 15
10.0
 25
10.0
 16
0.0
 26
0.0
 36
1.0
 17
0.0
 27
0.0
 37
0.0
 40
2005.956054
 41
1.75
 42
50.0
 43
0.0
 44
0.0
 50
0.0
 51
0.0
 71
     0
 72
   100
 73
     1
 74
     1
 75
     0
 76
     0
 77
     0
 78
     0
  0
ENDTAB
  0
TABLE
  2
LTYPE
  5
5
100
AcDbSymbolTable
 70
     3
  0
LTYPE
  5
14
100
AcDbSymbolTableRecord
100
AcDbLinetypeTableRecord
  2
BYBLOCK
 70
     0
  3

 72
    65
 73
     0
 40
0.0
  0
LTYPE
  5
15
100
AcDbSymbolTableRecord
100
AcDbLinetypeTableRecord
  2
BYLAYER
 70
     0
  3

 72
    65
 73
     0
 40
0.0
  0
LTYPE
  5
16
100
AcDbSymbolTableRecord
100
AcDbLinetypeTableRecord
  2
CONTINUOUS
 70
     0
  3
Solid line
 72
    65
 73
     0
 40
0.0
  0
LTYPE
  5
7F
100
AcDbSymbolTableRecord
100
AcDbLinetypeTableRecord
  2
DASHDOT
 70
     0
  3
Dash dot __ . __ . __ . __ . __ . __ . __ . __
 72
    65
 73
     4
 40
25.4
 49
12.7
 74
     0
 49
-6.35
 74
     0
 49
0.0
 74
     0
 49
-6.35
 74
     0
  0
LTYPE
  5
80
100
AcDbSymbolTableRecord
100
AcDbLinetypeTableRecord
  2
DASHED
 70
     0
  3
Dashed __ __ __ __ __ __ __ __ __ __ __ __ __ _
 72
    65
 73
     2
 40
19.05
 49
12.7
 74
     0
 49
-6.35
 74
     0
  0
ENDTAB
  0
TABLE
  2
LAYER
  5
2
100
AcDbSymbolTable
 70
     6
  0
LAYER
  5
F
100
AcDbSymbolTableRecord
100
AcDbLayerTableRecord
  2
0
 70
     0
 62
     7
  6
CONTINUOUS
  0
LAYER
  5
9E
100
AcDbSymbolTableRecord
100
AcDbLayerTableRecord
  2
DEFPOINTS
 70
     0
 62
     7
  6
CONTINUOUS
  0
LAYER
  5
377
100
AcDbSymbolTableRecord
100
AcDbLayerTableRecord
  2
V0-OBRYS
 70
     0
 62
    90
  6
CONTINUOUS
  0
LAYER
  5
378
100
AcDbSymbolTableRecord
100
AcDbLayerTableRecord
  2
V0-VYPLNE
 70
     0
 62
    63
  6
DASHDOT
  0
LAYER
  5
37A
100
AcDbSymbolTableRecord
100
AcDbLayerTableRecord
  2
V0-NAZVY
 70
     0
 62
   210
  6
CONTINUOUS
  0
LAYER
  5
559
100
AcDbSymbolTableRecord
100
AcDbLayerTableRecord
  2
V0-ZBYTEK
 70
     0
 62
    51
  6
CONTINUOUS
  0
ENDTAB
  0
TABLE
  2
STYLE
  5
3
100
AcDbSymbolTable
 70
     5
  0
STYLE
  5
10
100
AcDbSymbolTableRecord
100
AcDbTextStyleTableRecord
  2
STANDARD
 70
     0
 40
7.0
 41
1.0
 50
0.0
 71
     0
 42
20.0
  3
ISOCP.shx
  4

  0
STYLE
  5
331
100
AcDbSymbolTableRecord
100
AcDbTextStyleTableRecord
  2
ED30
 70
     0
 40
30.0
 41
1.0
 50
0.0
 71
     0
 42
30.0
  3
ISOCP.shx
  4

  0
STYLE
  5
5D2
100
AcDbSymbolTableRecord
100
AcDbTextStyleTableRecord
  2
ED20
 70
     0
 40
20.0
 41
1.0
 50
0.0
 71
     0
 42
20.0
  3
isocp.shx
  4

  0
STYLE
  5
64F
100
AcDbSymbolTableRecord
100
AcDbTextStyleTableRecord
  2
ED40
 70
     0
 40
40.0
 41
1.0
 50
0.0
 71
     0
 42
20.0
  3
isocp.shx
  4

  0
STYLE
  5
650
100
AcDbSymbolTableRecord
100
AcDbTextStyleTableRecord
  2
ED10
 70
     0
 40
10.0
 41
1.0
 50
0.0
 71
     0
 42
20.0
  3
isocp.shx
  4

  0
ENDTAB
  0
TABLE
  2
VIEW
  5
6
100
AcDbSymbolTable
 70
     0
  0
ENDTAB
  0
TABLE
  2
UCS
  5
7
100
AcDbSymbolTable
 70
     0
  0
ENDTAB
  0
TABLE
  2
APPID
  5
9
100
AcDbSymbolTable
 70
     3
  0
APPID
  5
11
100
AcDbSymbolTableRecord
100
AcDbRegAppTableRecord
  2
ACAD
 70
     0
  0
APPID
  5
FAA
100
AcDbSymbolTableRecord
100
AcDbRegAppTableRecord
  2
CONTENTBLOCKICON
 70
     0
  0
APPID
  5
FAB
100
AcDbSymbolTableRecord
100
AcDbRegAppTableRecord
  2
CONTENTBLOCKDESCRIPTION
 70
     0
  0
ENDTAB
  0
TABLE
  2
DIMSTYLE
  5
A
100
AcDbSymbolTable
 70
     5
  0
DIMSTYLE
105
1D
100
AcDbSymbolTableRecord
100
AcDbDimStyleTableRecord
  2
STANDARD
 70
     0
  3

  4

  5

  6
_OPEN
  7
_OPEN
 40
0.0
 41
15.0
 42
0.625
 43
3.75
 44
1.25
 45
0.0
 46
0.0
 47
0.0
 48
0.0
140
15.0
141
2.5
142
0.0
143
0.0394
144
1.0
145
0.0
146
1.0
147
3.0
 71
     0
 72
     0
 73
     0
 74
     0
 75
     0
 76
     0
 77
     1
 78
     8
170
     0
171
     4
172
     1
173
     1
174
     0
175
     0
176
     0
177
     0
178
     0
270
     2
271
     0
272
     1
273
     8
274
     4
340
331
275
     0
280
     0
281
     0
282
     0
283
     1
284
     8
285
     0
286
     0
287
     3
288
     0
  0
DIMSTYLE
105
397
100
AcDbSymbolTableRecord
100
AcDbDimStyleTableRecord
  2
ED40
 70
     0
  3

  4

  5

  6
_OPEN
  7
_OPEN
 40
0.0
 41
35.0
 42
1.0
 43
3.75
 44
1.25
 45
0.0
 46
0.0
 47
0.0
 48
0.0
140
40.0
141
3.0
142
0.0
143
0.0394
144
1.0
145
0.0
146
1.0
147
4.0
 71
     0
 72
     0
 73
     0
 74
     0
 75
     0
 76
     0
 77
     1
 78
     8
170
     0
171
     4
172
     1
173
     1
174
     0
175
     0
176
     0
177
     0
178
     0
270
     2
271
     0
272
     1
273
     8
274
     4
340
64F
275
     0
280
     0
281
     0
282
     0
283
     1
284
     8
285
     0
286
     0
287
     3
288
     0
  0
DIMSTYLE
105
656
102
{ACAD_REACTORS
330
1160
330
1165
330
13FB
330
1746
330
1979
330
1986
330
1B9C
330
1BA9
102
}
100
AcDbSymbolTableRecord
100
AcDbDimStyleTableRecord
  2
ED30
 70
     0
  3

  4

  5

  6
_OPEN
  7
_OPEN
 40
0.0
 41
25.0
 42
1.0
 43
3.75
 44
1.25
 45
0.0
 46
0.0
 47
0.0
 48
0.0
140
30.0
141
3.0
142
0.0
143
0.0394
144
1.0
145
0.0
146
1.0
147
4.0
 71
     0
 72
     0
 73
     0
 74
     0
 75
     0
 76
     0
 77
     1
 78
     8
170
     0
171
     4
172
     1
173
     1
174
     0
175
     0
176
     0
177
     0
178
     0
270
     2
271
     0
272
     1
273
     8
274
     4
340
331
275
     0
280
     0
281
     0
282
     0
283
     1
284
     8
285
     0
286
     0
287
     3
288
     0
  0
DIMSTYLE
105
657
100
AcDbSymbolTableRecord
100
AcDbDimStyleTableRecord
  2
ED20
 70
     0
  3

  4

  5

  6
_OPEN
  7
_OPEN
 40
0.0
 41
20.0
 42
1.0
 43
3.75
 44
1.25
 45
0.0
 46
0.0
 47
0.0
 48
0.0
140
20.0
141
3.0
142
0.0
143
0.0394
144
1.0
145
0.0
146
1.0
147
2.0
 71
     0
 72
     0
 73
     0
 74
     0
 75
     0
 76
     0
 77
     1
 78
     8
170
     0
171
     4
172
     1
173
     1
174
     0
175
     0
176
     0
177
     0
178
     0
270
     2
271
     0
272
     1
273
     8
274
     4
340
5D2
275
     0
280
     0
281
     0
282
     0
283
     1
284
     8
285
     0
286
     0
287
     3
288
     0
  0
DIMSTYLE
105
658
100
AcDbSymbolTableRecord
100
AcDbDimStyleTableRecord
  2
ED10
 70
     0
  3

  4

  5

  6
_OPEN
  7
_OPEN
 40
0.0
 41
15.0
 42
1.0
 43
3.75
 44
1.25
 45
0.0
 46
0.0
 47
0.0
 48
0.0
140
10.0
141
3.0
142
0.0
143
0.0394
144
1.0
145
0.0
146
1.0
147
1.5
 71
     0
 72
     0
 73
     0
 74
     0
 75
     0
 76
     0
 77
     1
 78
     8
170
     0
171
     4
172
     1
173
     1
174
     0
175
     0
176
     0
177
     0
178
     0
270
     2
271
     0
272
     1
273
     8
274
     4
340
5D2
275
     0
280
     0
281
     0
282
     0
283
     1
284
     8
285
     0
286
     0
287
     3
288
     0
  0
ENDTAB
  0
TABLE
  2
BLOCK_RECORD
  5
1
100
AcDbSymbolTable
 70
    13
  0
BLOCK_RECORD
  5
1A
100
AcDbSymbolTableRecord
100
AcDbBlockTableRecord
  2
*MODEL_SPACE
  0
BLOCK_RECORD
  5
17
100
AcDbSymbolTableRecord
100
AcDbBlockTableRecord
  2
*PAPER_SPACE
  0
BLOCK_RECORD
  5
90
100
AcDbSymbolTableRecord
100
AcDbBlockTableRecord
  2
_OPEN
  0
BLOCK_RECORD
  5
108E
100
AcDbSymbolTableRecord
100
AcDbBlockTableRecord
  2
*D1
  0
BLOCK_RECORD
  5
10CA
100
AcDbSymbolTableRecord
100
AcDbBlockTableRecord
  2
*D2
  0
BLOCK_RECORD
  5
13EF
100
AcDbSymbolTableRecord
100
AcDbBlockTableRecord
  2
*D3
  0
BLOCK_RECORD
  5
173A
100
AcDbSymbolTableRecord
100
AcDbBlockTableRecord
  2
*D4
  0
BLOCK_RECORD
  5
189E
100
AcDbSymbolTableRecord
100
AcDbBlockTableRecord
  2
AZAVER-B
1001
CONTENTBLOCKICON
1071
        0
1004
2800000020000000200000000100040000000000000200000000000000000000000000000000000000000000000080000080000000808000800000008000800080800000C0C0C000808080000000FF0000FF000000FFFF00FF000000FF00FF00FFFF0000FFFFFF00FFFFFFFFFFFFFFFFFFFFFFFFFFFFFFFF
1004
FFFFFFFFFFFFFFAFFFFFFFFFFFFFFFFFFFFFFFFFFFFFFFAFFFFFFFFFFFFFFFFFFFFFFFFFFFFFFFAFFFFFFFFFFFFFFFFFFFFFFFFFFFFFFFAFFFFFFFFFFFFFFFFFFFFFFFFFFFFFFFAFFFFFFFFFFFFFFFFFFFFFFFFFFFFFFFAFFFFFFFFFFFFFFFFFFFFFFFFFFFFFFFAFFFFFFFFFFFFFFFFFFFFFFFFFFFFFFFAF
1004
FAFFFFFFFFFFFFFFFFFFFFFFFFFFFFAFFAFFFFFFFFFFFFFFFFFFFFFFFFFFFFAAAAFFFFFFFFFFFFFFFFFFFFFFFFFFFFAAAAFFFFFFFFFFFFFFFFFFFFFFFFFFFFAAAAFFFFFFFFFFFFFFFFFFFFFFFFFFFFAAAAFFFFFFFFFFFFFFFFFFFFFFFFFFFFFAAFFFFFFFFFFFFFFFFFFFFFFFFFFFFFFAAFFFFFFFFFFFFFFF
1004
FFFFFFFFFFFFFFFAAFFFFFFFFFFFFFFFFFFFFFFFFFFFFFFAAFFFFFFFFFFFFFFFFFFFFFFFFFFFFFFAAFFFFFFFFFFFFFFFFFFFFFFFFFFFFFFAAFFFFFFFFFFFFFFFFFFFFFFFFFFFFFAAAAFFFFFFFFFFFFFFFFFFFFFFFFFFFFAAAAFFFFFFFFFFFFFFFFFFFFFFFFFFFFAAAAFFFFFFFFFFFFFFFFFFFFFFFFFFFFFF
1004
FAFFFFFFFFFFFFFFFFFFFFFFFFFFFFFFFAFFFFFFFFFFFFFFFFFFFFFFFFFFFFFFFAFFFFFFFFFFFFFFFFFFFFFFFFFFFFFFFAFFFFFFFFFFFFFFFFFFFFFFFFFFFFFFFAFFFFFFFFFFFFFFFFFFFFFFFFFFFFFFFAFFFFFFFFFFFFFFFFFFFFFFFFFFFFFFFAFFFFFFFFFFFFFFFFFFFFFFFFFFFFFFFAFFFFFFFFFFFFFF
1004
FFFFFFFFFFFFFFFFFAFFFFFFFFFFFFFF
  0
BLOCK_RECORD
  5
196D
100
AcDbSymbolTableRecord
100
AcDbBlockTableRecord
  2
*D8
  0
BLOCK_RECORD
  5
197A
100
AcDbSymbolTableRecord
100
AcDbBlockTableRecord
  2
*D9
  0
BLOCK_RECORD
  5
1B90
100
AcDbSymbolTableRecord
100
AcDbBlockTableRecord
  2
*D10
  0
BLOCK_RECORD
  5
1B9D
100
AcDbSymbolTableRecord
100
AcDbBlockTableRecord
  2
*D11
  0
ENDTAB
  0
ENDSEC
  0
SECTION
  2
BLOCKS
  0
BLOCK
  5
1B
100
AcDbEntity
  8
0
100
AcDbBlockBegin
  2
*MODEL_SPACE
 70
     0
 10
0.0
 20
0.0
 30
0.0
  3
*MODEL_SPACE
  1

  0
ENDBLK
  5
1C
100
AcDbEntity
  8
0
100
AcDbBlockEnd
  0
BLOCK
  5
18
100
AcDbEntity
 67
     1
  8
0
100
AcDbBlockBegin
  2
*PAPER_SPACE
 70
     0
 10
0.0
 20
0.0
 30
0.0
  3
*PAPER_SPACE
  1

  0
ENDBLK
  5
19
100
AcDbEntity
 67
     1
  8
0
100
AcDbBlockEnd
  0
BLOCK
  5
91
100
AcDbEntity
  8
0
100
AcDbBlockBegin
  2
_OPEN
 70
     0
 10
0.0
 20
0.0
 30
0.0
  3
_OPEN
  1

  0
LINE
  5
92
100
AcDbEntity
  8
0
  6
BYBLOCK
 62
     0
100
AcDbLine
 10
-1.0
 20
0.166667
 30
0.0
 11
0.0
 21
0.0
 31
0.0
  0
LINE
  5
93
100
AcDbEntity
  8
0
  6
BYBLOCK
 62
     0
100
AcDbLine
 10
0.0
 20
0.0
 30
0.0
 11
-1.0
 21
-0.166667
 31
0.0
  0
LINE
  5
94
100
AcDbEntity
  8
0
  6
BYBLOCK
 62
     0
100
AcDbLine
 10
0.0
 20
0.0
 30
0.0
 11
-1.0
 21
0.0
 31
0.0
  0
ENDBLK
  5
95
100
AcDbEntity
  8
0
100
AcDbBlockEnd
  0
BLOCK
  5
1FAE
100
AcDbEntity
  8
0
 48
3.0
100
AcDbBlockBegin
  2
*D1
 70
     1
 10
0.0
 20
0.0
 30
0.0
  3
*D1
  1

  0
LINE
  5
1FAF
100
AcDbEntity
  8
0
  6
BYBLOCK
 62
     0
 48
3.0
100
AcDbLine
 10
154.683213
 20
-871.836202
 30
0.0
 11
154.683213
 21
-1104.002465
 31
0.0
  0
LINE
  5
1FB0
100
AcDbEntity
  8
0
  6
BYBLOCK
 62
     0
 48
3.0
100
AcDbLine
 10
743.683213
 20
-871.836202
 30
0.0
 11
743.683213
 21
-1104.002465
 31
0.0
  0
LINE
  5
1FB1
100
AcDbEntity
  8
0
  6
BYBLOCK
 62
     0
 48
3.0
100
AcDbLine
 10
179.683213
 20
-1102.752465
 30
0.0
 11
718.683213
 21
-1102.752465
 31
0.0
  0
INSERT
  5
1FB2
100
AcDbEntity
  8
0
  6
BYBLOCK
 62
     0
 48
3.0
100
AcDbBlockReference
  2
_OPEN
 10
154.683213
 20
-1102.752465
 30
0.0
 41
25.0
 42
25.0
 43
25.0
 50
180.0
  0
INSERT
  5
1FB3
100
AcDbEntity
  8
0
  6
BYBLOCK
 62
     0
 48
3.0
100
AcDbBlockReference
  2
_OPEN
 10
743.683213
 20
-1102.752465
 30
0.0
 41
25.0
 42
25.0
 43
25.0
  0
MTEXT
  5
1FB4
100
AcDbEntity
  8
0
  6
BYBLOCK
 62
     0
 48
3.0
100
AcDbMText
 10
446.304902
 20
-1083.752465
 30
0.0
 40
30.0
 41
0.0
 71
     5
 72
     1
  1
\A1;583
  7
ED30
  0
POINT
  5
1FB5
100
AcDbEntity
  8
DEFPOINTS
  6
BYBLOCK
 62
     0
 48
3.0
100
AcDbPoint
 10
154.683213
 20
-870.836202
 30
0.0
  0
POINT
  5
1FB6
100
AcDbEntity
  8
DEFPOINTS
  6
BYBLOCK
 62
     0
 48
3.0
100
AcDbPoint
 10
743.683213
 20
-870.836202
 30
0.0
  0
POINT
  5
1FB7
100
AcDbEntity
  8
DEFPOINTS
  6
BYBLOCK
 62
     0
 48
3.0
100
AcDbPoint
 10
743.683213
 20
-1102.752465
 30
0.0
  0
ENDBLK
  5
1FB8
100
AcDbEntity
  8
0
 48
3.0
100
AcDbBlockEnd
  0
BLOCK
  5
1E8E
100
AcDbEntity
  8
0
 48
3.0
100
AcDbBlockBegin
  2
*D2
 70
     1
 10
0.0
 20
0.0
 30
0.0
  3
*D2
  1

  0
LINE
  5
1E8F
100
AcDbEntity
  8
0
  6
BYBLOCK
 62
     0
 48
3.0
100
AcDbLine
 10
1194.987812
 20
-978.336202
 30
0.0
 11
1194.987812
 21
-1047.915491
 31
0.0
  0
LINE
  5
1E90
100
AcDbEntity
  8
0
  6
BYBLOCK
 62
     0
 48
3.0
100
AcDbLine
 10
1719.987812
 20
-978.336202
 30
0.0
 11
1719.987812
 21
-1047.915491
 31
0.0
  0
LINE
  5
1E91
100
AcDbEntity
  8
0
  6
BYBLOCK
 62
     0
 48
3.0
100
AcDbLine
 10
1219.987812
 20
-1046.665491
 30
0.0
 11
1694.987812
 21
-1046.665491
 31
0.0
  0
INSERT
  5
1E92
100
AcDbEntity
  8
0
  6
BYBLOCK
 62
     0
 48
3.0
100
AcDbBlockReference
  2
_OPEN
 10
1194.987812
 20
-1046.665491
 30
0.0
 41
25.0
 42
25.0
 43
25.0
 50
180.0
  0
INSERT
  5
1E93
100
AcDbEntity
  8
0
  6
BYBLOCK
 62
     0
 48
3.0
100
AcDbBlockReference
  2
_OPEN
 10
1719.987812
 20
-1046.665491
 30
0.0
 41
25.0
 42
25.0
 43
25.0
  0
MTEXT
  5
1E94
100
AcDbEntity
  8
0
  6
BYBLOCK
 62
     0
 48
3.0
100
AcDbMText
 10
1457.487812
 20
-1027.662539
 30
0.0
 40
30.0
 41
0.0
 71
     5
 72
     1
  1
\A1;525
  7
ED30
  0
POINT
  5
1E95
100
AcDbEntity
  8
DEFPOINTS
  6
BYBLOCK
 62
     0
 48
3.0
100
AcDbPoint
 10
1194.987812
 20
-977.336202
 30
0.0
  0
POINT
  5
1E96
100
AcDbEntity
  8
DEFPOINTS
  6
BYBLOCK
 62
     0
 48
3.0
100
AcDbPoint
 10
1719.987812
 20
-977.336202
 30
0.0
  0
POINT
  5
1E97
100
AcDbEntity
  8
DEFPOINTS
  6
BYBLOCK
 62
     0
 48
3.0
100
AcDbPoint
 10
1719.987812
 20
-1046.665491
 30
0.0
  0
ENDBLK
  5
1E98
100
AcDbEntity
  8
0
 48
3.0
100
AcDbBlockEnd
  0
BLOCK
  5
1BCB
100
AcDbEntity
  8
0
 48
3.0
100
AcDbBlockBegin
  2
*D3
 70
     1
 10
0.0
 20
0.0
 30
0.0
  3
*D3
  1

  0
LINE
  5
1BCC
100
AcDbEntity
  8
0
  6
BYBLOCK
 62
     0
 48
3.0
100
AcDbLine
 10
763.183213
 20
-493.836202
 30
0.0
 11
820.69878
 21
-493.836202
 31
0.0
  0
LINE
  5
1BCD
100
AcDbEntity
  8
0
  6
BYBLOCK
 62
     0
 48
3.0
100
AcDbLine
 10
763.183213
 20
-808.336202
 30
0.0
 11
820.69878
 21
-808.336202
 31
0.0
  0
LINE
  5
1BCE
100
AcDbEntity
  8
0
  6
BYBLOCK
 62
     0
 48
3.0
100
AcDbLine
 10
819.44878
 20
-518.836202
 30
0.0
 11
819.44878
 21
-783.336202
 31
0.0
  0
INSERT
  5
1BCF
100
AcDbEntity
  8
0
  6
BYBLOCK
 62
     0
 48
3.0
100
AcDbBlockReference
  2
_OPEN
 10
819.44878
 20
-493.836202
 30
0.0
 41
25.0
 42
25.0
 43
25.0
 50
90.0
  0
INSERT
  5
1BD0
100
AcDbEntity
  8
0
  6
BYBLOCK
 62
     0
 48
3.0
100
AcDbBlockReference
  2
_OPEN
 10
819.44878
 20
-808.336202
 30
0.0
 41
25.0
 42
25.0
 43
25.0
 50
270.0
  0
MTEXT
  5
1BD1
100
AcDbEntity
  8
0
  6
BYBLOCK
 62
     0
 48
3.0
100
AcDbMText
 10
800.44878
 20
-651.086202
 30
0.0
 40
30.0
 41
0.0
 71
     5
 72
     1
  1
\A1;\U+2205315
  7
ED30
 11
0.0
 21
1.0
 31
0.0
  0
POINT
  5
1BD2
100
AcDbEntity
  8
DEFPOINTS
  6
BYBLOCK
 62
     0
 48
3.0
100
AcDbPoint
 10
762.183213
 20
-493.836202
 30
0.0
  0
POINT
  5
1BD3
100
AcDbEntity
  8
DEFPOINTS
  6
BYBLOCK
 62
     0
 48
3.0
100
AcDbPoint
 10
762.183213
 20
-808.336202
 30
0.0
  0
POINT
  5
1BD4
100
AcDbEntity
  8
DEFPOINTS
  6
BYBLOCK
 62
     0
 48
3.0
100
AcDbPoint
 10
819.44878
 20
-808.336202
 30
0.0
  0
ENDBLK
  5
1BD5
100
AcDbEntity
  8
0
 48
3.0
100
AcDbBlockEnd
  0
BLOCK
  5
1F51
100
AcDbEntity
  8
0
 48
3.0
100
AcDbBlockBegin
  2
*D4
 70
     1
 10
0.0
 20
0.0
 30
0.0
  3
*D4
  1

  0
LINE
  5
1F52
100
AcDbEntity
  8
0
  6
BYBLOCK
 62
     0
 48
3.0
100
AcDbLine
 10
197.683213
 20
-978.336202
 30
0.0
 11
197.683213
 21
-1047.915658
 31
0.0
  0
LINE
  5
1F53
100
AcDbEntity
  8
0
  6
BYBLOCK
 62
     0
 48
3.0
100
AcDbLine
 10
700.683213
 20
-978.336202
 30
0.0
 11
700.683213
 21
-1047.915658
 31
0.0
  0
LINE
  5
1F54
100
AcDbEntity
  8
0
  6
BYBLOCK
 62
     0
 48
3.0
100
AcDbLine
 10
222.683213
 20
-1046.665658
 30
0.0
 11
675.683213
 21
-1046.665658
 31
0.0
  0
INSERT
  5
1F55
100
AcDbEntity
  8
0
  6
BYBLOCK
 62
     0
 48
3.0
100
AcDbBlockReference
  2
_OPEN
 10
197.683213
 20
-1046.665658
 30
0.0
 41
25.0
 42
25.0
 43
25.0
 50
180.0
  0
INSERT
  5
1F56
100
AcDbEntity
  8
0
  6
BYBLOCK
 62
     0
 48
3.0
100
AcDbBlockReference
  2
_OPEN
 10
700.683213
 20
-1046.665658
 30
0.0
 41
25.0
 42
25.0
 43
25.0
  0
MTEXT
  5
1F57
100
AcDbEntity
  8
0
  6
BYBLOCK
 62
     0
 48
3.0
100
AcDbMText
 10
449.183213
 20
-1027.665658
 30
0.0
 40
30.0
 41
0.0
 71
     5
 72
     1
  1
\A1;503
  7
ED30
  0
POINT
  5
1F58
100
AcDbEntity
  8
DEFPOINTS
  6
BYBLOCK
 62
     0
 48
3.0
100
AcDbPoint
 10
197.683213
 20
-977.336202
 30
0.0
  0
POINT
  5
1F59
100
AcDbEntity
  8
DEFPOINTS
  6
BYBLOCK
 62
     0
 48
3.0
100
AcDbPoint
 10
700.683213
 20
-977.336202
 30
0.0
  0
POINT
  5
1F5A
100
AcDbEntity
  8
DEFPOINTS
  6
BYBLOCK
 62
     0
 48
3.0
100
AcDbPoint
 10
700.683213
 20
-1046.665658
 30
0.0
  0
ENDBLK
  5
1F5B
100
AcDbEntity
  8
0
 48
3.0
100
AcDbBlockEnd
  0
BLOCK
  5
189F
100
AcDbEntity
  8
0
 48
3.0
100
AcDbBlockBegin
  2
AZAVER-B
 70
     0
 10
0.0
 20
0.0
 30
0.0
  3
AZAVER-B
  1

  0
LINE
  5
18AE
100
AcDbEntity
  8
V0-OBRYS
  6
CONTINUOUS
 62
    90
 48
3.0
100
AcDbLine
 10
-7.466751
 20
-65.180052
 30
0.0
 11
-7.466751
 21
-78.057025
 31
0.0
  0
LINE
  5
18AF
100
AcDbEntity
  8
V0-OBRYS
  6
CONTINUOUS
 62
    90
 48
3.0
100
AcDbLine
 10
-3.324311
 20
-54.602539
 30
0.0
 11
-3.324311
 21
-25.629357
 31
0.0
  0
LINE
  5
18B0
100
AcDbEntity
  8
V0-OBRYS
  6
CONTINUOUS
 62
    90
 48
3.0
100
AcDbLine
 10
-5.625665
 20
-25.629357
 30
0.0
 11
-5.625665
 21
-54.602539
 31
0.0
  0
LINE
  5
18B1
100
AcDbEntity
  8
V0-OBRYS
  6
CONTINUOUS
 62
    90
 48
3.0
100
AcDbLine
 10
-5.625665
 20
-54.602539
 30
0.0
 11
-3.324311
 21
-54.602539
 31
0.0
  0
LINE
  5
18B2
100
AcDbEntity
  8
V0-OBRYS
  6
CONTINUOUS
 62
    90
 48
3.0
100
AcDbLine
 10
-1.483225
 20
-47.24427
 30
0.0
 11
-7.466751
 21
-47.24427
 31
0.0
  0
LINE
  5
18B3
100
AcDbEntity
  8
V0-OBRYS
  6
CONTINUOUS
 62
    90
 48
3.0
100
AcDbLine
 10
-7.466751
 20
-47.24427
 30
0.0
 11
-7.466751
 21
-65.180052
 31
0.0
  0
LINE
  5
18B4
100
AcDbEntity
  8
V0-OBRYS
  6
CONTINUOUS
 62
    90
 48
3.0
100
AcDbLine
 10
-1.483225
 20
-58.741568
 30
0.0
 11
-1.483225
 21
-47.24427
 31
0.0
  0
LINE
  5
18B5
100
AcDbEntity
  8
V0-OBRYS
  6
CONTINUOUS
 62
    90
 48
3.0
100
AcDbLine
 10
-3.324311
 20
-25.629357
 30
0.0
 11
-5.625665
 21
-25.629357
 31
0.0
  0
LINE
  5
18B6
100
AcDbEntity
  8
V0-OBRYS
  6
CONTINUOUS
 62
    90
 48
3.0
100
AcDbLine
 10
-1.483225
 20
-30.228273
 30
0.0
 11
-7.927024
 21
-30.228273
 31
0.0
  0
LINE
  5
18B7
100
AcDbEntity
  8
V0-OBRYS
  6
CONTINUOUS
 62
    90
 48
3.0
100
AcDbLine
 10
-7.927024
 20
-30.228273
 30
0.0
 11
-7.927024
 21
-24.249679
 31
0.0
  0
LINE
  5
18B8
100
AcDbEntity
  8
V0-OBRYS
  6
CONTINUOUS
 62
    90
 48
3.0
100
AcDbLine
 10
-1.483225
 20
-4.01444
 30
0.0
 11
-1.483225
 21
-30.228273
 31
0.0
  0
ENDBLK
  5
18AB
100
AcDbEntity
  8
0
 48
3.0
100
AcDbBlockEnd
  0
BLOCK
  5
1EF5
100
AcDbEntity
  8
0
 48
3.0
100
AcDbBlockBegin
  2
*D8
 70
     1
 10
0.0
 20
0.0
 30
0.0
  3
*D8
  1

  0
LINE
  5
1EF6
100
AcDbEntity
  8
0
  6
BYBLOCK
 62
     0
 48
3.0
100
AcDbLine
 10
176.183213
 20
-4.836202
 30
0.0
 11
105.416771
 21
-4.836202
 31
0.0
  0
LINE
  5
1EF7
100
AcDbEntity
  8
0
  6
BYBLOCK
 62
     0
 48
3.0
100
AcDbLine
 10
176.183213
 20
-534.336202
 30
0.0
 11
105.416771
 21
-534.336202
 31
0.0
  0
LINE
  5
1EF8
100
AcDbEntity
  8
0
  6
BYBLOCK
 62
     0
 48
3.0
100
AcDbLine
 10
106.666771
 20
-29.836202
 30
0.0
 11
106.666771
 21
-509.336202
 31
0.0
  0
INSERT
  5
1EF9
100
AcDbEntity
  8
0
  6
BYBLOCK
 62
     0
 48
3.0
100
AcDbBlockReference
  2
_OPEN
 10
106.666771
 20
-4.836202
 30
0.0
 41
25.0
 42
25.0
 43
25.0
 50
90.0
  0
INSERT
  5
1EFA
100
AcDbEntity
  8
0
  6
BYBLOCK
 62
     0
 48
3.0
100
AcDbBlockReference
  2
_OPEN
 10
106.666771
 20
-534.336202
 30
0.0
 41
25.0
 42
25.0
 43
25.0
 50
270.0
  0
MTEXT
  5
1EFB
100
AcDbEntity
  8
0
  6
BYBLOCK
 62
     0
 48
3.0
100
AcDbMText
 10
87.666771
 20
-269.586202
 30
0.0
 40
30.0
 41
0.0
 71
     5
 72
     1
  1
\A1;530
  7
ED30
 11
0.0
 21
1.0
 31
0.0
  0
POINT
  5
1EFC
100
AcDbEntity
  8
DEFPOINTS
  6
BYBLOCK
 62
     0
 48
3.0
100
AcDbPoint
 10
177.183213
 20
-4.836202
 30
0.0
  0
POINT
  5
1EFD
100
AcDbEntity
  8
DEFPOINTS
  6
BYBLOCK
 62
     0
 48
3.0
100
AcDbPoint
 10
177.183213
 20
-534.336202
 30
0.0
  0
POINT
  5
1EFE
100
AcDbEntity
  8
DEFPOINTS
  6
BYBLOCK
 62
     0
 48
3.0
100
AcDbPoint
 10
106.666771
 20
-534.336202
 30
0.0
  0
ENDBLK
  5
1EFF
100
AcDbEntity
  8
0
 48
3.0
100
AcDbBlockEnd
  0
BLOCK
  5
1E99
100
AcDbEntity
  8
0
 48
3.0
100
AcDbBlockBegin
  2
*D9
 70
     1
 10
0.0
 20
0.0
 30
0.0
  3
*D9
  1

  0
LINE
  5
1E9A
100
AcDbEntity
  8
0
  6
BYBLOCK
 62
     0
 48
3.0
100
AcDbLine
 10
1191.987812
 20
-431.836202
 30
0.0
 11
1191.987812
 21
-351.834851
 31
0.0
  0
LINE
  5
1E9B
100
AcDbEntity
  8
0
  6
BYBLOCK
 62
     0
 48
3.0
100
AcDbLine
 10
1722.987812
 20
-431.836202
 30
0.0
 11
1722.987812
 21
-351.834851
 31
0.0
  0
LINE
  5
1E9C
100
AcDbEntity
  8
0
  6
BYBLOCK
 62
     0
 48
3.0
100
AcDbLine
 10
1216.987812
 20
-353.084851
 30
0.0
 11
1697.987812
 21
-353.084851
 31
0.0
  0
INSERT
  5
1E9D
100
AcDbEntity
  8
0
  6
BYBLOCK
 62
     0
 48
3.0
100
AcDbBlockReference
  2
_OPEN
 10
1191.987812
 20
-353.084851
 30
0.0
 41
25.0
 42
25.0
 43
25.0
 50
180.0
  0
INSERT
  5
1E9E
100
AcDbEntity
  8
0
  6
BYBLOCK
 62
     0
 48
3.0
100
AcDbBlockReference
  2
_OPEN
 10
1722.987812
 20
-353.084851
 30
0.0
 41
25.0
 42
25.0
 43
25.0
  0
MTEXT
  5
1E9F
100
AcDbEntity
  8
0
  6
BYBLOCK
 62
     0
 48
3.0
100
AcDbMText
 10
1457.487812
 20
-334.084851
 30
0.0
 40
30.0
 41
0.0
 71
     5
 72
     1
  1
\A1;531
  7
ED30
  0
POINT
  5
1EA0
100
AcDbEntity
  8
DEFPOINTS
  6
BYBLOCK
 62
     0
 48
3.0
100
AcDbPoint
 10
1191.987812
 20
-432.836202
 30
0.0
  0
POINT
  5
1EA1
100
AcDbEntity
  8
DEFPOINTS
  6
BYBLOCK
 62
     0
 48
3.0
100
AcDbPoint
 10
1722.987812
 20
-432.836202
 30
0.0
  0
POINT
  5
1EA2
100
AcDbEntity
  8
DEFPOINTS
  6
BYBLOCK
 62
     0
 48
3.0
100
AcDbPoint
 10
1722.987812
 20
-353.084851
 30
0.0
  0
ENDBLK
  5
1EA3
100
AcDbEntity
  8
0
 48
3.0
100
AcDbBlockEnd
  0
BLOCK
  5
1F67
100
AcDbEntity
  8
0
 48
3.0
100
AcDbBlockBegin
  2
*D10
 70
     1
 10
0.0
 20
0.0
 30
0.0
  3
*D10
  1

  0
LINE
  5
1F68
100
AcDbEntity
  8
0
  6
BYBLOCK
 62
     0
 48
3.0
100
AcDbLine
 10
153.683213
 20
-713.336202
 30
0.0
 11
98.893619
 21
-713.336202
 31
0.0
  0
LINE
  5
1F69
100
AcDbEntity
  8
0
  6
BYBLOCK
 62
     0
 48
3.0
100
AcDbLine
 10
196.683213
 20
-977.336202
 30
0.0
 11
98.893619
 21
-977.336202
 31
0.0
  0
LINE
  5
1F6A
100
AcDbEntity
  8
0
  6
BYBLOCK
 62
     0
 48
3.0
100
AcDbLine
 10
100.143619
 20
-738.336202
 30
0.0
 11
100.143619
 21
-952.336202
 31
0.0
  0
INSERT
  5
1F6B
100
AcDbEntity
  8
0
  6
BYBLOCK
 62
     0
 48
3.0
100
AcDbBlockReference
  2
_OPEN
 10
100.143619
 20
-713.336202
 30
0.0
 41
25.0
 42
25.0
 43
25.0
 50
90.0
  0
INSERT
  5
1F6C
100
AcDbEntity
  8
0
  6
BYBLOCK
 62
     0
 48
3.0
100
AcDbBlockReference
  2
_OPEN
 10
100.143619
 20
-977.336202
 30
0.0
 41
25.0
 42
25.0
 43
25.0
 50
270.0
  0
MTEXT
  5
1F6D
100
AcDbEntity
  8
0
  6
BYBLOCK
 62
     0
 48
3.0
100
AcDbMText
 10
81.140666
 20
-845.336202
 30
0.0
 40
30.0
 41
0.0
 71
     5
 72
     1
  1
\A1;264
  7
ED30
 11
0.0
 21
1.0
 31
0.0
  0
POINT
  5
1F6E
100
AcDbEntity
  8
DEFPOINTS
  6
BYBLOCK
 62
     0
 48
3.0
100
AcDbPoint
 10
154.683213
 20
-713.336202
 30
0.0
  0
POINT
  5
1F6F
100
AcDbEntity
  8
DEFPOINTS
  6
BYBLOCK
 62
     0
 48
3.0
100
AcDbPoint
 10
197.683213
 20
-977.336202
 30
0.0
  0
POINT
  5
1F70
100
AcDbEntity
  8
DEFPOINTS
  6
BYBLOCK
 62
     0
 48
3.0
100
AcDbPoint
 10
100.143619
 20
-977.336202
 30
0.0
  0
ENDBLK
  5
1F71
100
AcDbEntity
  8
0
 48
3.0
100
AcDbBlockEnd
  0
BLOCK
  5
1F8A
100
AcDbEntity
  8
0
 48
3.0
100
AcDbBlockBegin
  2
*D11
 70
     1
 10
0.0
 20
0.0
 30
0.0
  3
*D11
  1

  0
LINE
  5
1F8B
100
AcDbEntity
  8
0
  6
BYBLOCK
 62
     0
 48
3.0
100
AcDbLine
 10
703.683213
 20
-534.336202
 30
0.0
 11
842.838131
 21
-534.336202
 31
0.0
  0
LINE
  5
1F8C
100
AcDbEntity
  8
0
  6
BYBLOCK
 62
     0
 48
3.0
100
AcDbLine
 10
701.683213
 20
-977.336202
 30
0.0
 11
842.838131
 21
-977.336202
 31
0.0
  0
LINE
  5
1F8D
100
AcDbEntity
  8
0
  6
BYBLOCK
 62
     0
 48
3.0
100
AcDbLine
 10
841.588131
 20
-559.336202
 30
0.0
 11
841.588131
 21
-952.336202
 31
0.0
  0
INSERT
  5
1F8E
100
AcDbEntity
  8
0
  6
BYBLOCK
 62
     0
 48
3.0
100
AcDbBlockReference
  2
_OPEN
 10
841.588131
 20
-534.336202
 30
0.0
 41
25.0
 42
25.0
 43
25.0
 50
90.0
  0
INSERT
  5
1F8F
100
AcDbEntity
  8
0
  6
BYBLOCK
 62
     0
 48
3.0
100
AcDbBlockReference
  2
_OPEN
 10
841.588131
 20
-977.336202
 30
0.0
 41
25.0
 42
25.0
 43
25.0
 50
270.0
  0
MTEXT
  5
1F90
100
AcDbEntity
  8
0
  6
BYBLOCK
 62
     0
 48
3.0
100
AcDbMText
 10
822.588131
 20
-767.586202
 30
0.0
 40
30.0
 41
0.0
 71
     5
 72
     1
  1
\A1;443
  7
ED30
 11
0.0
 21
1.0
 31
0.0
  0
POINT
  5
1F91
100
AcDbEntity
  8
DEFPOINTS
  6
BYBLOCK
 62
     0
 48
3.0
100
AcDbPoint
 10
702.683213
 20
-534.336202
 30
0.0
  0
POINT
  5
1F92
100
AcDbEntity
  8
DEFPOINTS
  6
BYBLOCK
 62
     0
 48
3.0
100
AcDbPoint
 10
700.683213
 20
-977.336202
 30
0.0
  0
POINT
  5
1F93
100
AcDbEntity
  8
DEFPOINTS
  6
BYBLOCK
 62
     0
 48
3.0
100
AcDbPoint
 10
841.588131
 20
-977.336202
 30
0.0
  0
ENDBLK
  5
1F94
100
AcDbEntity
  8
0
 48
3.0
100
AcDbBlockEnd
  0
ENDSEC
  0
SECTION
  2
ENTITIES
  0
LINE
  5
10EF
100
AcDbEntity
  8
V0-VYPLNE
 48
3.0
100
AcDbLine
 10
1214.454803
 20
-716.336202
 30
0.0
 11
1711.998328
 21
-716.336202
 31
0.0
  0
LINE
  5
10F7
100
AcDbEntity
  8
V0-OBRYS
  6
CONTINUOUS
 62
    90
 48
3.0
100
AcDbLine
 10
197.683213
 20
-554.336202
 30
0.0
 11
197.683213
 21
-977.336202
 31
0.0
  0
LINE
  5
10F8
100
AcDbEntity
  8
V0-OBRYS
  6
CONTINUOUS
 62
    90
 48
3.0
100
AcDbLine
 10
195.683213
 20
-534.336202
 30
0.0
 11
702.683213
 21
-534.336202
 31
0.0
  0
LINE
  5
10F9
100
AcDbEntity
  8
V0-OBRYS
  6
CONTINUOUS
 62
    90
 48
3.0
100
AcDbLine
 10
197.683213
 20
-977.336202
 30
0.0
 11
700.683213
 21
-977.336202
 31
0.0
  0
LINE
  5
10FA
100
AcDbEntity
  8
V0-OBRYS
  6
CONTINUOUS
 62
    90
 48
3.0
100
AcDbLine
 10
700.683213
 20
-554.336202
 30
0.0
 11
700.683213
 21
-977.336202
 31
0.0
  0
LINE
  5
10FB
100
AcDbEntity
  8
V0-OBRYS
  6
CONTINUOUS
 62
    90
 48
3.0
100
AcDbLine
 10
1194.987812
 20
-554.336202
 30
0.0
 11
1194.987812
 21
-977.336202
 31
0.0
  0
LINE
  5
10FC
100
AcDbEntity
  8
V0-OBRYS
  6
CONTINUOUS
 62
    90
 48
3.0
100
AcDbLine
 10
1719.987812
 20
-554.336202
 30
0.0
 11
1719.987812
 21
-977.336202
 31
0.0
  0
LINE
  5
10FD
100
AcDbEntity
  8
V0-OBRYS
  6
CONTINUOUS
 62
    90
 48
3.0
100
AcDbLine
 10
1191.987812
 20
-534.336202
 30
0.0
 11
1722.987812
 21
-534.336202
 31
0.0
  0
LINE
  5
1122
100
AcDbEntity
  8
V0-OBRYS
 48
3.0
100
AcDbLine
 10
154.683213
 20
-870.836202
 30
0.0
 11
154.683213
 21
-556.336202
 31
0.0
  0
LINE
  5
1123
100
AcDbEntity
  8
V0-OBRYS
 48
3.0
100
AcDbLine
 10
154.683213
 20
-870.836202
 30
0.0
 11
164.683213
 21
-870.836202
 31
0.0
  0
LINE
  5
1124
100
AcDbEntity
  8
V0-OBRYS
 48
3.0
100
AcDbLine
 10
154.683213
 20
-556.336202
 30
0.0
 11
164.683213
 21
-556.336202
 31
0.0
  0
LINE
  5
1125
100
AcDbEntity
  8
V0-OBRYS
 48
3.0
100
AcDbLine
 10
164.683213
 20
-556.336202
 30
0.0
 11
164.683213
 21
-870.836202
 31
0.0
  0
LINE
  5
1126
100
AcDbEntity
  8
V0-OBRYS
 48
3.0
100
AcDbLine
 10
174.683213
 20
-870.836202
 30
0.0
 11
174.683213
 21
-556.336202
 31
0.0
  0
ARC
  5
1127
100
AcDbEntity
  8
V0-OBRYS
 48
3.0
100
AcDbCircle
 10
169.683213
 20
-556.336202
 30
0.0
 40
5.0
100
AcDbArc
 50
0.0
 51
180.0
  0
ARC
  5
1128
100
AcDbEntity
  8
V0-OBRYS
 48
3.0
100
AcDbCircle
 10
169.683213
 20
-870.836202
 30
0.0
 40
5.0
100
AcDbArc
 50
180.0
 51
0.0
  0
LINE
  5
1129
100
AcDbEntity
  8
V0-OBRYS
 48
3.0
100
AcDbLine
 10
174.683213
 20
-556.336202
 30
0.0
 11
197.683213
 21
-556.336202
 31
0.0
  0
LINE
  5
112A
100
AcDbEntity
  8
V0-OBRYS
 48
3.0
100
AcDbLine
 10
174.683213
 20
-870.836202
 30
0.0
 11
197.683213
 21
-870.836202
 31
0.0
  0
LINE
  5
112B
100
AcDbEntity
  8
V0-OBRYS
 48
3.0
100
AcDbLine
 10
723.683213
 20
-870.836202
 30
0.0
 11
723.683213
 21
-556.336202
 31
0.0
  0
LINE
  5
112C
100
AcDbEntity
  8
V0-OBRYS
 48
3.0
100
AcDbLine
 10
733.683213
 20
-556.336202
 30
0.0
 11
733.683213
 21
-870.836202
 31
0.0
  0
LINE
  5
112D
100
AcDbEntity
  8
V0-OBRYS
 48
3.0
100
AcDbLine
 10
743.683213
 20
-870.836202
 30
0.0
 11
743.683213
 21
-556.336202
 31
0.0
  0
LINE
  5
112E
100
AcDbEntity
  8
V0-OBRYS
 48
3.0
100
AcDbLine
 10
723.683213
 20
-870.836202
 30
0.0
 11
700.683213
 21
-870.836202
 31
0.0
  0
LINE
  5
112F
100
AcDbEntity
  8
V0-OBRYS
 48
3.0
100
AcDbLine
 10
743.683213
 20
-870.836202
 30
0.0
 11
733.683213
 21
-870.836202
 31
0.0
  0
ARC
  5
1130
100
AcDbEntity
  8
V0-OBRYS
 48
3.0
100
AcDbCircle
 10
728.683213
 20
-870.836202
 30
0.0
 40
5.0
100
AcDbArc
 50
180.0
 51
360.0
  0
LINE
  5
1131
100
AcDbEntity
  8
V0-OBRYS
 48
3.0
100
AcDbLine
 10
723.683213
 20
-556.336202
 30
0.0
 11
700.683213
 21
-556.336202
 31
0.0
  0
LINE
  5
1132
100
AcDbEntity
  8
V0-OBRYS
 48
3.0
100
AcDbLine
 10
743.683213
 20
-556.336202
 30
0.0
 11
733.683213
 21
-556.336202
 31
0.0
  0
ARC
  5
1133
100
AcDbEntity
  8
V0-OBRYS
 48
3.0
100
AcDbCircle
 10
728.683213
 20
-556.336202
 30
0.0
 40
5.0
100
AcDbArc
 50
360.0
 51
180.0
  0
LINE
  5
114B
100
AcDbEntity
  8
V0-VYPLNE
 48
3.0
100
AcDbLine
 10
132.852871
 20
-1529.642163
 30
0.0
 11
747.935856
 21
-1529.642163
 31
0.0
  0
LINE
  5
114D
100
AcDbEntity
  8
V0-OBRYS
 48
3.0
100
AcDbLine
 10
174.683213
 20
-1687.142163
 30
0.0
 11
174.683213
 21
-1372.142163
 31
0.0
  0
LINE
  5
114E
100
AcDbEntity
  8
V0-OBRYS
 48
3.0
100
AcDbLine
 10
164.683213
 20
-1372.142163
 30
0.0
 11
164.683213
 21
-1687.142163
 31
0.0
  0
LINE
  5
114F
100
AcDbEntity
  8
V0-OBRYS
 48
3.0
100
AcDbLine
 10
154.683213
 20
-1687.142163
 30
0.0
 11
154.683213
 21
-1372.142163
 31
0.0
  0
LINE
  5
1150
100
AcDbEntity
  8
V0-OBRYS
 48
3.0
100
AcDbLine
 10
174.683213
 20
-1687.142163
 30
0.0
 11
195.683213
 21
-1687.142163
 31
0.0
  0
LINE
  5
1151
100
AcDbEntity
  8
V0-OBRYS
 48
3.0
100
AcDbLine
 10
154.683213
 20
-1687.142163
 30
0.0
 11
164.683213
 21
-1687.142163
 31
0.0
  0
ARC
  5
1152
100
AcDbEntity
  8
V0-OBRYS
 48
3.0
100
AcDbCircle
 10
169.683213
 20
-1687.142163
 30
0.0
 40
5.0
100
AcDbArc
 50
180.0
 51
0.0
  0
LINE
  5
1153
100
AcDbEntity
  8
V0-OBRYS
 48
3.0
100
AcDbLine
 10
174.683213
 20
-1372.142163
 30
0.0
 11
195.683213
 21
-1372.142163
 31
0.0
  0
LINE
  5
1154
100
AcDbEntity
  8
V0-OBRYS
 48
3.0
100
AcDbLine
 10
154.683213
 20
-1372.142163
 30
0.0
 11
164.683213
 21
-1372.142163
 31
0.0
  0
ARC
  5
1155
100
AcDbEntity
  8
V0-OBRYS
 48
3.0
100
AcDbCircle
 10
169.683213
 20
-1372.142163
 30
0.0
 40
5.0
100
AcDbArc
 50
0.0
 51
180.0
  0
LINE
  5
1156
100
AcDbEntity
  8
V0-OBRYS
 48
3.0
100
AcDbLine
 10
741.683213
 20
-1687.142163
 30
0.0
 11
741.683213
 21
-1372.142163
 31
0.0
  0
LINE
  5
1157
100
AcDbEntity
  8
V0-OBRYS
 48
3.0
100
AcDbLine
 10
731.683213
 20
-1372.142163
 30
0.0
 11
731.683213
 21
-1687.142163
 31
0.0
  0
LINE
  5
1158
100
AcDbEntity
  8
V0-OBRYS
 48
3.0
100
AcDbLine
 10
721.683213
 20
-1687.142163
 30
0.0
 11
721.683213
 21
-1372.142163
 31
0.0
  0
LINE
  5
1159
100
AcDbEntity
  8
V0-OBRYS
 48
3.0
100
AcDbLine
 10
721.683213
 20
-1687.142163
 30
0.0
 11
702.683213
 21
-1687.142163
 31
0.0
  0
ARC
  5
115A
100
AcDbEntity
  8
V0-OBRYS
 48
3.0
100
AcDbCircle
 10
726.683213
 20
-1687.142163
 30
0.0
 40
5.0
100
AcDbArc
 50
180.0
 51
360.0
  0
LINE
  5
115B
100
AcDbEntity
  8
V0-OBRYS
 48
3.0
100
AcDbLine
 10
741.683213
 20
-1687.142163
 30
0.0
 11
731.683213
 21
-1687.142163
 31
0.0
  0
LINE
  5
115C
100
AcDbEntity
  8
V0-OBRYS
 48
3.0
100
AcDbLine
 10
721.683213
 20
-1372.142163
 30
0.0
 11
702.683213
 21
-1372.142163
 31
0.0
  0
ARC
  5
115D
100
AcDbEntity
  8
V0-OBRYS
 48
3.0
100
AcDbCircle
 10
726.683213
 20
-1372.142163
 30
0.0
 40
5.0
100
AcDbArc
 50
360.0
 51
180.0
  0
LINE
  5
115E
100
AcDbEntity
  8
V0-OBRYS
 48
3.0
100
AcDbLine
 10
741.683213
 20
-1372.142163
 30
0.0
 11
731.683213
 21
-1372.142163
 31
0.0
  0
DIMENSION
  5
1160
100
AcDbEntity
  8
V0-VYPLNE
  6
CONTINUOUS
 62
    41
 48
3.0
100
AcDbDimension
  2
*D1
 10
743.683213
 20
-1102.752465
 30
0.0
 11
446.304902
 21
-1102.752465
 31
0.0
 70
   160
  1
583
  3
ED30
100
AcDbAlignedDimension
 13
154.683213
 23
-870.836202
 33
0.0
 14
743.683213
 24
-870.836202
 34
0.0
100
AcDbRotatedDimension
1001
ACAD
1000
DSTYLE
1002
{
1070
    40
1040
1.0
1002
}
  0
DIMENSION
  5
1165
100
AcDbEntity
  8
V0-VYPLNE
  6
CONTINUOUS
 62
    41
 48
3.0
100
AcDbDimension
  2
*D2
 10
1719.987812
 20
-1046.665491
 30
0.0
 11
1457.487812
 21
-1046.665491
 31
0.0
 70
   160
  3
ED30
100
AcDbAlignedDimension
 13
1194.987812
 23
-977.336202
 33
0.0
 14
1719.987812
 24
-977.336202
 34
0.0
100
AcDbRotatedDimension
1001
ACAD
1000
DSTYLE
1002
{
1070
    40
1040
1.0
1002
}
  0
MTEXT
  5
1166
100
AcDbEntity
  8
V0-ZBYTEK
100
AcDbMText
 10
1463.471165
 20
-1521.195851
 30
0.0
 40
29.25
 41
459.50437
 71
     5
 72
     5
  1
ZVUKOVE  IZOLOVANY
  7
ED10
  0
MTEXT
  5
1167
100
AcDbEntity
  8
V0-ZBYTEK
 62
    51
100
AcDbMText
 10
1468.13336
 20
-1432.555538
 30
0.0
 40
40.95
 41
1160.03277
 71
     5
 72
     5
  1
RADIALNI VENTILATOR
  7
ED10
  0
MTEXT
  5
1168
100
AcDbEntity
  8
V0-NAZVY
100
AcDbMText
 10
1449.366094
 20
-1325.367405
 30
0.0
 40
73.125
 41
601.5
 71
     5
 72
     5
  1
CAB-315
  7
ED10
  0
MTEXT
  5
116B
100
AcDbEntity
  8
V0-NAZVY
100
AcDbMText
 10
1466.518269
 20
-339.931734
 30
0.0
 40
42.525
 41
349.79
 71
     5
 72
     5
  1
CAB-315
  7
ED10
  0
LINE
  5
12E6
100
AcDbEntity
  8
V0-VYPLNE
  6
DASHDOT
 62
    63
 48
3.0
100
AcDbLine
 10
1457.487812
 20
-574.158813
 30
0.0
 11
1457.487812
 21
-913.863523
 31
0.0
  0
CIRCLE
  5
12F7
100
AcDbEntity
  8
V0-OBRYS
  6
CONTINUOUS
 62
    90
 48
3.0
100
AcDbCircle
 10
1457.487812
 20
-716.336202
 30
0.0
 40
157.5
  0
CIRCLE
  5
12F8
100
AcDbEntity
  8
V0-OBRYS
  6
CONTINUOUS
 62
    90
 48
3.0
100
AcDbCircle
 10
1457.487812
 20
-716.336202
 30
0.0
 40
167.459343
  0
DIMENSION
  5
13FB
100
AcDbEntity
  8
V0-VYPLNE
  6
CONTINUOUS
 62
    41
 48
3.0
100
AcDbDimension
  2
*D3
 10
800.94878
 20
-870.836202
 30
0.0
 11
800.44878
 21
-651.086202
 31
0.0
 12
-18.5
 22
-62.5
 32
0.0
 70
    32
  1
%%c<>
  3
ED30
100
AcDbAlignedDimension
 13
743.683213
 23
-556.336202
 33
0.0
 14
743.683213
 24
-870.836202
 34
0.0
 50
90.0
100
AcDbRotatedDimension
1001
ACAD
1000
DSTYLE
1002
{
1070
    40
1040
1.0
1002
}
  0
MTEXT
  5
1427
100
AcDbEntity
  8
V0-NAZVY
100
AcDbMText
 10
425.197188
 20
-413.333645
 30
0.0
 40
40.5
 41
333.14
 71
     5
 72
     5
  1
CAB-315
  7
ED10
  0
MTEXT
  5
1428
100
AcDbEntity
  8
V0-NAZVY
100
AcDbMText
 10
448.609211
 20
-1436.724829
 30
0.0
 40
40.5
 41
333.14
 71
     5
 72
     5
  1
CAB-315
  7
ED10
  0
POINT
  5
1447
100
AcDbEntity
  8
V0-VYPLNE
  6
CONTINUOUS
 62
    41
 48
3.0
100
AcDbPoint
 10
154.683213
 20
-713.336202
 30
0.0
  0
POINT
  5
1449
100
AcDbEntity
  8
V0-VYPLNE
  6
CONTINUOUS
 62
    41
 48
3.0
100
AcDbPoint
 10
743.683213
 20
-713.336202
 30
0.0
  0
POINT
  5
144A
100
AcDbEntity
  8
V0-VYPLNE
  6
CONTINUOUS
 62
    41
 48
3.0
100
AcDbPoint
 10
154.683213
 20
-1529.642163
 30
0.0
  0
POINT
  5
144B
100
AcDbEntity
  8
V0-VYPLNE
  6
CONTINUOUS
 62
    41
 48
3.0
100
AcDbPoint
 10
741.683213
 20
-1529.642163
 30
0.0
  0
DIMENSION
  5
1746
100
AcDbEntity
  8
V0-VYPLNE
  6
CONTINUOUS
 62
    41
 48
3.0
100
AcDbDimension
  2
*D4
 10
700.683213
 20
-1046.665658
 30
0.0
 11
449.183213
 21
-1027.665658
 31
0.0
 70
    32
  3
ED30
100
AcDbAlignedDimension
 13
197.683213
 23
-977.336202
 33
0.0
 14
700.683213
 24
-977.336202
 34
0.0
100
AcDbRotatedDimension
1001
ACAD
1000
DSTYLE
1002
{
1070
    40
1040
1.0
1002
}
  0
LINE
  5
177D
100
AcDbEntity
  8
V0-OBRYS
  6
CONTINUOUS
 62
    90
 48
3.0
100
AcDbLine
 10
195.683213
 20
-534.336202
 30
0.0
 11
195.683213
 21
-554.336202
 31
0.0
  0
LINE
  5
177E
100
AcDbEntity
  8
V0-OBRYS
  6
CONTINUOUS
 62
    90
 48
3.0
100
AcDbLine
 10
195.683213
 20
-554.336202
 30
0.0
 11
702.683213
 21
-554.336202
 31
0.0
  0
LINE
  5
177F
100
AcDbEntity
  8
V0-OBRYS
  6
CONTINUOUS
 62
    90
 48
3.0
100
AcDbLine
 10
702.683213
 20
-554.336202
 30
0.0
 11
700.886079
 21
-554.336202
 31
0.0
  0
LINE
  5
1780
100
AcDbEntity
  8
V0-OBRYS
  6
CONTINUOUS
 62
    90
 48
3.0
100
AcDbLine
 10
702.683213
 20
-554.336202
 30
0.0
 11
702.683213
 21
-534.336202
 31
0.0
  0
LINE
  5
1782
100
AcDbEntity
  8
V0-OBRYS
  6
CONTINUOUS
 62
    90
 48
3.0
100
AcDbLine
 10
1719.987812
 20
-977.336202
 30
0.0
 11
1193.737812
 21
-977.336202
 31
0.0
  0
LINE
  5
17AF
100
AcDbEntity
  8
V0-OBRYS
  6
CONTINUOUS
 62
    90
 48
3.0
100
AcDbLine
 10
1722.987812
 20
-534.336202
 30
0.0
 11
1722.987812
 21
-554.336202
 31
0.0
  0
LINE
  5
17B1
100
AcDbEntity
  8
V0-OBRYS
  6
CONTINUOUS
 62
    90
 48
3.0
100
AcDbLine
 10
1191.987812
 20
-534.336202
 30
0.0
 11
1191.987812
 21
-554.336202
 31
0.0
  0
LINE
  5
17B2
100
AcDbEntity
  8
V0-OBRYS
  6
CONTINUOUS
 62
    90
 48
3.0
100
AcDbLine
 10
1191.987812
 20
-554.336202
 30
0.0
 11
1233.112428
 21
-554.336202
 31
0.0
  0
LINE
  5
17B4
100
AcDbEntity
  8
V0-OBRYS
  6
CONTINUOUS
 62
    90
 48
3.0
100
AcDbLine
 10
1316.032493
 20
-650.699546
 30
0.0
 11
1457.487812
 21
-650.699546
 31
0.0
  0
LINE
  5
17B5
100
AcDbEntity
  8
V0-OBRYS
  6
CONTINUOUS
 62
    90
 48
3.0
100
AcDbLine
 10
1351.396324
 20
-799.388674
 30
0.0
 11
1351.396324
 21
-702.095455
 31
0.0
  0
LINE
  5
17B6
100
AcDbEntity
  8
V0-OBRYS
  6
CONTINUOUS
 62
    90
 48
3.0
100
AcDbLine
 10
1351.396324
 20
-702.095455
 30
0.0
 11
1457.487812
 21
-702.095455
 31
0.0
  0
LINE
  5
17B7
100
AcDbEntity
  8
V0-OBRYS
  6
CONTINUOUS
 62
    90
 48
3.0
100
AcDbLine
 10
1233.112428
 20
-539.210439
 30
0.0
 11
1233.112428
 21
-565.124344
 31
0.0
  0
LINE
  5
17B8
100
AcDbEntity
  8
V0-OBRYS
  6
CONTINUOUS
 62
    90
 48
3.0
100
AcDbLine
 10
1233.112428
 20
-565.124344
 30
0.0
 11
1258.327284
 21
-565.124344
 31
0.0
  0
LINE
  5
17B9
100
AcDbEntity
  8
V0-OBRYS
  6
CONTINUOUS
 62
    90
 48
3.0
100
AcDbLine
 10
1258.327284
 20
-565.124344
 30
0.0
 11
1258.327284
 21
-539.210439
 31
0.0
  0
LINE
  5
17BA
100
AcDbEntity
  8
V0-OBRYS
  6
CONTINUOUS
 62
    90
 48
3.0
100
AcDbLine
 10
1258.327284
 20
-554.336202
 30
0.0
 11
1415.077536
 21
-554.336202
 31
0.0
  0
LINE
  5
17BB
100
AcDbEntity
  8
V0-OBRYS
  6
CONTINUOUS
 62
    90
 48
3.0
100
AcDbLine
 10
1233.112428
 20
-582.400281
 30
0.0
 11
1258.327284
 21
-582.400281
 31
0.0
  0
LINE
  5
17BC
100
AcDbEntity
  8
V0-OBRYS
  6
CONTINUOUS
 62
    90
 48
3.0
100
AcDbLine
 10
1233.112428
 20
-613.353003
 30
0.0
 11
1233.112428
 21
-582.400281
 31
0.0
  0
LINE
  5
17BD
100
AcDbEntity
  8
V0-OBRYS
  6
CONTINUOUS
 62
    90
 48
3.0
100
AcDbLine
 10
1258.327284
 20
-582.400281
 30
0.0
 11
1258.327284
 21
-613.353003
 31
0.0
  0
LINE
  5
17BE
100
AcDbEntity
  8
V0-OBRYS
  6
CONTINUOUS
 62
    90
 48
3.0
100
AcDbLine
 10
1233.112428
 20
-613.353003
 30
0.0
 11
1258.327284
 21
-613.353003
 31
0.0
  0
LINE
  5
17BF
100
AcDbEntity
  8
V0-OBRYS
  6
CONTINUOUS
 62
    90
 48
3.0
100
AcDbLine
 10
1228.789884
 20
-560.80536
 30
0.0
 11
1262.649828
 21
-560.80536
 31
0.0
  0
LINE
  5
17C0
100
AcDbEntity
  8
V0-OBRYS
  6
CONTINUOUS
 62
    90
 48
3.0
100
AcDbLine
 10
1262.649828
 20
-560.80536
 30
0.0
 11
1262.649828
 21
-589.598586
 31
0.0
  0
LINE
  5
17C1
100
AcDbEntity
  8
V0-OBRYS
  6
CONTINUOUS
 62
    90
 48
3.0
100
AcDbLine
 10
1262.649828
 20
-589.598586
 30
0.0
 11
1258.327284
 21
-589.598586
 31
0.0
  0
LINE
  5
17C2
100
AcDbEntity
  8
V0-OBRYS
  6
CONTINUOUS
 62
    90
 48
3.0
100
AcDbLine
 10
1228.069461
 20
-560.80536
 30
0.0
 11
1228.069461
 21
-589.598586
 31
0.0
  0
LINE
  5
17C3
100
AcDbEntity
  8
V0-OBRYS
  6
CONTINUOUS
 62
    90
 48
3.0
100
AcDbLine
 10
1228.069461
 20
-589.598586
 30
0.0
 11
1232.392005
 21
-589.598586
 31
0.0
  0
LINE
  5
17C4
100
AcDbEntity
  8
V0-OBRYS
  6
CONTINUOUS
 62
    90
 48
3.0
100
AcDbLine
 10
1686.18574
 20
-560.80536
 30
0.0
 11
1652.325796
 21
-560.80536
 31
0.0
  0
LINE
  5
17C5
100
AcDbEntity
  8
V0-OBRYS
  6
CONTINUOUS
 62
    90
 48
3.0
100
AcDbLine
 10
1681.863196
 20
-613.353003
 30
0.0
 11
1656.64834
 21
-613.353003
 31
0.0
  0
LINE
  5
17C6
100
AcDbEntity
  8
V0-OBRYS
  6
CONTINUOUS
 62
    90
 48
3.0
100
AcDbLine
 10
1681.863196
 20
-582.400281
 30
0.0
 11
1656.64834
 21
-582.400281
 31
0.0
  0
LINE
  5
17C7
100
AcDbEntity
  8
V0-OBRYS
  6
CONTINUOUS
 62
    90
 48
3.0
100
AcDbLine
 10
1681.863196
 20
-565.124344
 30
0.0
 11
1656.64834
 21
-565.124344
 31
0.0
  0
LINE
  5
17C8
100
AcDbEntity
  8
V0-OBRYS
  6
CONTINUOUS
 62
    90
 48
3.0
100
AcDbLine
 10
1681.863196
 20
-613.353003
 30
0.0
 11
1681.863196
 21
-582.400281
 31
0.0
  0
LINE
  5
17C9
100
AcDbEntity
  8
V0-OBRYS
  6
CONTINUOUS
 62
    90
 48
3.0
100
AcDbLine
 10
1686.906164
 20
-560.80536
 30
0.0
 11
1686.906164
 21
-589.598586
 31
0.0
  0
LINE
  5
17CA
100
AcDbEntity
  8
V0-OBRYS
  6
CONTINUOUS
 62
    90
 48
3.0
100
AcDbLine
 10
1681.863196
 20
-539.210439
 30
0.0
 11
1681.863196
 21
-565.124344
 31
0.0
  0
LINE
  5
17CB
100
AcDbEntity
  8
V0-OBRYS
  6
CONTINUOUS
 62
    90
 48
3.0
100
AcDbLine
 10
1686.906164
 20
-589.598586
 30
0.0
 11
1682.583619
 21
-589.598586
 31
0.0
  0
LINE
  5
17CC
100
AcDbEntity
  8
V0-OBRYS
  6
CONTINUOUS
 62
    90
 48
3.0
100
AcDbLine
 10
1656.64834
 20
-582.400281
 30
0.0
 11
1656.64834
 21
-613.353003
 31
0.0
  0
LINE
  5
17CD
100
AcDbEntity
  8
V0-OBRYS
  6
CONTINUOUS
 62
    90
 48
3.0
100
AcDbLine
 10
1652.325796
 20
-560.80536
 30
0.0
 11
1652.325796
 21
-589.598586
 31
0.0
  0
LINE
  5
17CE
100
AcDbEntity
  8
V0-OBRYS
  6
CONTINUOUS
 62
    90
 48
3.0
100
AcDbLine
 10
1656.64834
 20
-565.124344
 30
0.0
 11
1656.64834
 21
-539.210439
 31
0.0
  0
LINE
  5
17CF
100
AcDbEntity
  8
V0-OBRYS
  6
CONTINUOUS
 62
    90
 48
3.0
100
AcDbLine
 10
1652.325796
 20
-589.598586
 30
0.0
 11
1656.64834
 21
-589.598586
 31
0.0
  0
LINE
  5
17D0
100
AcDbEntity
  8
V0-OBRYS
  6
CONTINUOUS
 62
    90
 48
3.0
100
AcDbLine
 10
1681.863196
 20
-554.336202
 30
0.0
 11
1722.987812
 21
-554.336202
 31
0.0
  0
LINE
  5
17D1
100
AcDbEntity
  8
V0-OBRYS
  6
CONTINUOUS
 62
    90
 48
3.0
100
AcDbLine
 10
1233.112428
 20
-539.210439
 30
0.0
 11
1258.327284
 21
-539.210439
 31
0.0
  0
LINE
  5
17D2
100
AcDbEntity
  8
V0-OBRYS
  6
CONTINUOUS
 62
    90
 48
3.0
100
AcDbLine
 10
1681.863196
 20
-539.210439
 30
0.0
 11
1656.64834
 21
-539.210439
 31
0.0
  0
LINE
  5
1834
100
AcDbEntity
  8
V0-OBRYS
  6
CONTINUOUS
 62
    90
 48
3.0
100
AcDbLine
 10
195.683213
 20
-1264.142163
 30
0.0
 11
702.683213
 21
-1264.142163
 31
0.0
  0
LINE
  5
1835
100
AcDbEntity
  8
V0-OBRYS
  6
CONTINUOUS
 62
    90
 48
3.0
100
AcDbLine
 10
702.683213
 20
-1264.142163
 30
0.0
 11
702.683213
 21
-1795.142163
 31
0.0
  0
LINE
  5
1836
100
AcDbEntity
  8
V0-OBRYS
  6
CONTINUOUS
 62
    90
 48
3.0
100
AcDbLine
 10
195.683213
 20
-1264.142163
 30
0.0
 11
195.683213
 21
-1795.142163
 31
0.0
  0
LINE
  5
1837
100
AcDbEntity
  8
V0-OBRYS
  6
CONTINUOUS
 62
    90
 48
3.0
100
AcDbLine
 10
195.683213
 20
-1795.142163
 30
0.0
 11
702.683213
 21
-1795.142163
 31
0.0
  0
LINE
  5
183A
100
AcDbEntity
  8
V0-OBRYS
  6
CONTINUOUS
 62
    90
 48
3.0
100
AcDbLine
 10
704.883979
 20
-1334.834451
 30
0.0
 11
704.883979
 21
-1305.532467
 31
0.0
  0
LINE
  5
183D
100
AcDbEntity
  8
V0-OBRYS
  6
CONTINUOUS
 62
    90
 48
3.0
100
AcDbLine
 10
709.202963
 20
-1330.649453
 30
0.0
 11
709.202963
 21
-1305.434597
 31
0.0
  0
LINE
  5
183F
100
AcDbEntity
  8
V0-OBRYS
  6
CONTINUOUS
 62
    90
 48
3.0
100
AcDbLine
 10
702.683213
 20
-1330.649453
 30
0.0
 11
704.875125
 21
-1330.649453
 31
0.0
  0
LINE
  5
1843
100
AcDbEntity
  8
V0-OBRYS
  6
CONTINUOUS
 62
    90
 48
3.0
100
AcDbLine
 10
709.202963
 20
-1305.434597
 30
0.0
 11
706.510297
 21
-1305.434597
 31
0.0
  0
LINE
  5
1846
100
AcDbEntity
  8
V0-OBRYS
  6
CONTINUOUS
 62
    90
 48
3.0
100
AcDbLine
 10
706.510297
 20
-1301.053999
 30
0.0
 11
706.510297
 21
-1334.834451
 31
0.0
  0
ARC
  5
1847
100
AcDbEntity
  8
V0-OBRYS
  6
CONTINUOUS
 62
    90
 48
3.0
100
AcDbCircle
 10
705.697138
 20
-1301.053999
 30
0.0
 40
0.813159
100
AcDbArc
 50
0.0
 51
180.0
  0
ARC
  5
1848
100
AcDbEntity
  8
V0-OBRYS
  6
CONTINUOUS
 62
    90
 48
3.0
100
AcDbCircle
 10
705.697138
 20
-1334.834451
 30
0.0
 40
0.813159
100
AcDbArc
 50
180.0
 51
0.0
  0
LINE
  5
1849
100
AcDbEntity
  8
V0-OBRYS
  6
CONTINUOUS
 62
    90
 48
3.0
100
AcDbLine
 10
704.883979
 20
-1305.532467
 30
0.0
 11
704.883979
 21
-1301.053999
 31
0.0
  0
LINE
  5
184A
100
AcDbEntity
  8
V0-OBRYS
  6
CONTINUOUS
 62
    90
 48
3.0
100
AcDbLine
 10
704.875125
 20
-1305.434597
 30
0.0
 11
702.683213
 21
-1305.434597
 31
0.0
  0
LINE
  5
184B
100
AcDbEntity
  8
V0-OBRYS
  6
CONTINUOUS
 62
    90
 48
3.0
100
AcDbLine
 10
706.510297
 20
-1330.649453
 30
0.0
 11
709.202963
 21
-1330.649453
 31
0.0
  0
LINE
  5
184C
100
AcDbEntity
  8
V0-OBRYS
  6
CONTINUOUS
 62
    90
 48
3.0
100
AcDbLine
 10
193.482446
 20
-1334.834451
 30
0.0
 11
193.482446
 21
-1305.532467
 31
0.0
  0
LINE
  5
184D
100
AcDbEntity
  8
V0-OBRYS
  6
CONTINUOUS
 62
    90
 48
3.0
100
AcDbLine
 10
191.856128
 20
-1301.053999
 30
0.0
 11
191.856128
 21
-1334.834451
 31
0.0
  0
ARC
  5
184E
100
AcDbEntity
  8
V0-OBRYS
  6
CONTINUOUS
 62
    90
 48
3.0
100
AcDbCircle
 10
192.669287
 20
-1334.834451
 30
0.0
 40
0.813159
100
AcDbArc
 50
180.0
 51
0.0
  0
LINE
  5
184F
100
AcDbEntity
  8
V0-OBRYS
  6
CONTINUOUS
 62
    90
 48
3.0
100
AcDbLine
 10
191.856128
 20
-1330.649453
 30
0.0
 11
189.163462
 21
-1330.649453
 31
0.0
  0
LINE
  5
1850
100
AcDbEntity
  8
V0-OBRYS
  6
CONTINUOUS
 62
    90
 48
3.0
100
AcDbLine
 10
189.163462
 20
-1305.434597
 30
0.0
 11
191.856128
 21
-1305.434597
 31
0.0
  0
LINE
  5
1851
100
AcDbEntity
  8
V0-OBRYS
  6
CONTINUOUS
 62
    90
 48
3.0
100
AcDbLine
 10
195.683213
 20
-1330.649453
 30
0.0
 11
193.491301
 21
-1330.649453
 31
0.0
  0
LINE
  5
1852
100
AcDbEntity
  8
V0-OBRYS
  6
CONTINUOUS
 62
    90
 48
3.0
100
AcDbLine
 10
193.491301
 20
-1305.434597
 30
0.0
 11
195.683213
 21
-1305.434597
 31
0.0
  0
LINE
  5
1853
100
AcDbEntity
  8
V0-OBRYS
  6
CONTINUOUS
 62
    90
 48
3.0
100
AcDbLine
 10
193.482446
 20
-1305.532467
 30
0.0
 11
193.482446
 21
-1301.053999
 31
0.0
  0
ARC
  5
1854
100
AcDbEntity
  8
V0-OBRYS
  6
CONTINUOUS
 62
    90
 48
3.0
100
AcDbCircle
 10
192.669287
 20
-1301.053999
 30
0.0
 40
0.813159
100
AcDbArc
 50
0.0
 51
180.0
  0
LINE
  5
1855
100
AcDbEntity
  8
V0-OBRYS
  6
CONTINUOUS
 62
    90
 48
3.0
100
AcDbLine
 10
189.163462
 20
-1330.649453
 30
0.0
 11
189.163462
 21
-1305.434597
 31
0.0
  0
LINE
  5
1856
100
AcDbEntity
  8
V0-OBRYS
  6
CONTINUOUS
 62
    90
 48
3.0
100
AcDbLine
 10
191.856128
 20
-1758.230326
 30
0.0
 11
191.856128
 21
-1724.449875
 31
0.0
  0
LINE
  5
1857
100
AcDbEntity
  8
V0-OBRYS
  6
CONTINUOUS
 62
    90
 48
3.0
100
AcDbLine
 10
193.482446
 20
-1724.449875
 30
0.0
 11
193.482446
 21
-1753.751858
 31
0.0
  0
ARC
  5
1858
100
AcDbEntity
  8
V0-OBRYS
  6
CONTINUOUS
 62
    90
 48
3.0
100
AcDbCircle
 10
192.669287
 20
-1724.449875
 30
0.0
 40
0.813159
100
AcDbArc
 50
0.0
 51
180.0
  0
LINE
  5
1859
100
AcDbEntity
  8
V0-OBRYS
  6
CONTINUOUS
 62
    90
 48
3.0
100
AcDbLine
 10
189.163462
 20
-1753.849728
 30
0.0
 11
191.856128
 21
-1753.849728
 31
0.0
  0
LINE
  5
185A
100
AcDbEntity
  8
V0-OBRYS
  6
CONTINUOUS
 62
    90
 48
3.0
100
AcDbLine
 10
191.856128
 20
-1728.634873
 30
0.0
 11
189.163462
 21
-1728.634873
 31
0.0
  0
LINE
  5
185B
100
AcDbEntity
  8
V0-OBRYS
  6
CONTINUOUS
 62
    90
 48
3.0
100
AcDbLine
 10
189.163462
 20
-1728.634873
 30
0.0
 11
189.163462
 21
-1753.849728
 31
0.0
  0
ARC
  5
185C
100
AcDbEntity
  8
V0-OBRYS
  6
CONTINUOUS
 62
    90
 48
3.0
100
AcDbCircle
 10
192.669287
 20
-1758.230326
 30
0.0
 40
0.813159
100
AcDbArc
 50
180.0
 51
0.0
  0
LINE
  5
185D
100
AcDbEntity
  8
V0-OBRYS
  6
CONTINUOUS
 62
    90
 48
3.0
100
AcDbLine
 10
193.482446
 20
-1753.751858
 30
0.0
 11
193.482446
 21
-1758.230326
 31
0.0
  0
LINE
  5
185E
100
AcDbEntity
  8
V0-OBRYS
  6
CONTINUOUS
 62
    90
 48
3.0
100
AcDbLine
 10
193.491301
 20
-1753.849728
 30
0.0
 11
195.683213
 21
-1753.849728
 31
0.0
  0
LINE
  5
185F
100
AcDbEntity
  8
V0-OBRYS
  6
CONTINUOUS
 62
    90
 48
3.0
100
AcDbLine
 10
195.683213
 20
-1728.634873
 30
0.0
 11
193.491301
 21
-1728.634873
 31
0.0
  0
LINE
  5
1860
100
AcDbEntity
  8
V0-OBRYS
  6
CONTINUOUS
 62
    90
 48
3.0
100
AcDbLine
 10
704.883979
 20
-1724.449875
 30
0.0
 11
704.883979
 21
-1753.751858
 31
0.0
  0
LINE
  5
1861
100
AcDbEntity
  8
V0-OBRYS
  6
CONTINUOUS
 62
    90
 48
3.0
100
AcDbLine
 10
706.510297
 20
-1758.230326
 30
0.0
 11
706.510297
 21
-1724.449875
 31
0.0
  0
ARC
  5
1862
100
AcDbEntity
  8
V0-OBRYS
  6
CONTINUOUS
 62
    90
 48
3.0
100
AcDbCircle
 10
705.697138
 20
-1724.449875
 30
0.0
 40
0.813159
100
AcDbArc
 50
0.0
 51
180.0
  0
LINE
  5
1863
100
AcDbEntity
  8
V0-OBRYS
  6
CONTINUOUS
 62
    90
 48
3.0
100
AcDbLine
 10
706.510297
 20
-1728.634873
 30
0.0
 11
709.202963
 21
-1728.634873
 31
0.0
  0
LINE
  5
1864
100
AcDbEntity
  8
V0-OBRYS
  6
CONTINUOUS
 62
    90
 48
3.0
100
AcDbLine
 10
709.202963
 20
-1753.849728
 30
0.0
 11
706.510297
 21
-1753.849728
 31
0.0
  0
LINE
  5
1865
100
AcDbEntity
  8
V0-OBRYS
  6
CONTINUOUS
 62
    90
 48
3.0
100
AcDbLine
 10
702.683213
 20
-1728.634873
 30
0.0
 11
704.875125
 21
-1728.634873
 31
0.0
  0
LINE
  5
1866
100
AcDbEntity
  8
V0-OBRYS
  6
CONTINUOUS
 62
    90
 48
3.0
100
AcDbLine
 10
704.875125
 20
-1753.849728
 30
0.0
 11
702.683213
 21
-1753.849728
 31
0.0
  0
LINE
  5
1867
100
AcDbEntity
  8
V0-OBRYS
  6
CONTINUOUS
 62
    90
 48
3.0
100
AcDbLine
 10
704.883979
 20
-1753.751858
 30
0.0
 11
704.883979
 21
-1758.230326
 31
0.0
  0
ARC
  5
1868
100
AcDbEntity
  8
V0-OBRYS
  6
CONTINUOUS
 62
    90
 48
3.0
100
AcDbCircle
 10
705.697138
 20
-1758.230326
 30
0.0
 40
0.813159
100
AcDbArc
 50
180.0
 51
0.0
  0
LINE
  5
1869
100
AcDbEntity
  8
V0-OBRYS
  6
CONTINUOUS
 62
    90
 48
3.0
100
AcDbLine
 10
709.202963
 20
-1728.634873
 30
0.0
 11
709.202963
 21
-1753.849728
 31
0.0
  0
LINE
  5
1885
100
AcDbEntity
  8
V0-OBRYS
  6
CONTINUOUS
 62
    90
 48
3.0
100
AcDbLine
 10
194.199988
 20
-538.350642
 30
0.0
 11
194.199988
 21
-564.564474
 31
0.0
  0
LINE
  5
1886
100
AcDbEntity
  8
V0-OBRYS
  6
CONTINUOUS
 62
    90
 48
3.0
100
AcDbLine
 10
194.199988
 20
-564.564474
 30
0.0
 11
187.756188
 21
-564.564474
 31
0.0
  0
LINE
  5
1887
100
AcDbEntity
  8
V0-OBRYS
  6
CONTINUOUS
 62
    90
 48
3.0
100
AcDbLine
 10
187.756188
 20
-564.564474
 30
0.0
 11
187.756188
 21
-558.58588
 31
0.0
  0
LINE
  5
1888
100
AcDbEntity
  8
V0-OBRYS
  6
CONTINUOUS
 62
    90
 48
3.0
100
AcDbLine
 10
194.199988
 20
-555.077769
 30
0.0
 11
194.199988
 21
-545.580472
 31
0.0
  0
LINE
  5
1889
100
AcDbEntity
  8
V0-OBRYS
  6
CONTINUOUS
 62
    90
 48
3.0
100
AcDbLine
 10
194.199988
 20
-545.580472
 30
0.0
 11
188.216461
 21
-545.580472
 31
0.0
  0
LINE
  5
188A
100
AcDbEntity
  8
V0-OBRYS
  6
CONTINUOUS
 62
    90
 48
3.0
100
AcDbLine
 10
188.216461
 20
-545.580472
 30
0.0
 11
188.216461
 21
-560.516254
 31
0.0
  0
LINE
  5
188B
100
AcDbEntity
  8
V0-OBRYS
  6
CONTINUOUS
 62
    90
 48
3.0
100
AcDbLine
 10
188.216461
 20
-560.516254
 30
0.0
 11
188.216461
 21
-573.393226
 31
0.0
  0
LINE
  5
188C
100
AcDbEntity
  8
V0-OBRYS
  6
CONTINUOUS
 62
    90
 48
3.0
100
AcDbLine
 10
190.057547
 20
-559.965558
 30
0.0
 11
190.057547
 21
-549.938741
 31
0.0
  0
LINE
  5
188D
100
AcDbEntity
  8
V0-OBRYS
  6
CONTINUOUS
 62
    90
 48
3.0
100
AcDbLine
 10
190.057547
 20
-549.938741
 30
0.0
 11
192.358901
 21
-549.938741
 31
0.0
  0
LINE
  5
188E
100
AcDbEntity
  8
V0-OBRYS
  6
CONTINUOUS
 62
    90
 48
3.0
100
AcDbLine
 10
192.358901
 20
-549.938741
 30
0.0
 11
192.358901
 21
-559.965558
 31
0.0
  0
LINE
  5
188F
100
AcDbEntity
  8
V0-OBRYS
  6
CONTINUOUS
 62
    90
 48
3.0
100
AcDbLine
 10
192.358901
 20
-559.965558
 30
0.0
 11
190.057547
 21
-559.965558
 31
0.0
  0
INSERT
  5
18BA
100
AcDbEntity
  8
V0-OBRYS
  6
CONTINUOUS
 62
    90
 48
3.0
100
AcDbBlockReference
  2
AZAVER-B
 10
702.439422
 20
-535.550884
 30
0.0
 41
-1.0
  0
LINE
  5
18C7
100
AcDbEntity
  8
V0-VYPLNE
  6
CONTINUOUS
 62
    41
 48
3.0
100
AcDbLine
 10
1351.75564
 20
-707.074434
 30
0.0
 11
1457.884953
 21
-707.074434
 31
0.0
  0
LINE
  5
18C8
100
AcDbEntity
  8
V0-VYPLNE
  6
CONTINUOUS
 62
    41
 48
3.0
100
AcDbLine
 10
1351.396324
 20
-716.336202
 30
0.0
 11
1459.038531
 21
-716.336202
 31
0.0
  0
LINE
  5
18C9
100
AcDbEntity
  8
V0-VYPLNE
  6
CONTINUOUS
 62
    41
 48
3.0
100
AcDbLine
 10
1351.75564
 20
-730.127011
 30
0.0
 11
1457.884953
 21
-730.127011
 31
0.0
  0
LINE
  5
18CA
100
AcDbEntity
  8
V0-VYPLNE
  6
CONTINUOUS
 62
    41
 48
3.0
100
AcDbLine
 10
1351.75564
 20
-750.874331
 30
0.0
 11
1457.884953
 21
-750.874331
 31
0.0
  0
LINE
  5
18CB
100
AcDbEntity
  8
V0-VYPLNE
  6
CONTINUOUS
 62
    41
 48
3.0
100
AcDbLine
 10
1351.75564
 20
-777.384794
 30
0.0
 11
1457.884953
 21
-777.384794
 31
0.0
  0
LINE
  5
18CC
100
AcDbEntity
  8
V0-OBRYS
  6
CONTINUOUS
 62
    90
 48
3.0
100
AcDbLine
 10
1323.665031
 20
-799.388674
 30
0.0
 11
1457.487812
 21
-799.388674
 31
0.0
  0
LINE
  5
18CD
100
AcDbEntity
  8
V0-OBRYS
  6
CONTINUOUS
 62
    90
 48
3.0
100
AcDbLine
 10
1591.310594
 20
-799.388674
 30
0.0
 11
1457.487812
 21
-799.388674
 31
0.0
  0
LINE
  5
18CE
100
AcDbEntity
  8
V0-VYPLNE
  6
CONTINUOUS
 62
    41
 48
3.0
100
AcDbLine
 10
1563.219985
 20
-777.384794
 30
0.0
 11
1457.090671
 21
-777.384794
 31
0.0
  0
LINE
  5
18CF
100
AcDbEntity
  8
V0-VYPLNE
  6
CONTINUOUS
 62
    41
 48
3.0
100
AcDbLine
 10
1563.219985
 20
-750.874331
 30
0.0
 11
1457.090671
 21
-750.874331
 31
0.0
  0
LINE
  5
18D0
100
AcDbEntity
  8
V0-VYPLNE
  6
CONTINUOUS
 62
    41
 48
3.0
100
AcDbLine
 10
1563.219985
 20
-730.127011
 30
0.0
 11
1457.090671
 21
-730.127011
 31
0.0
  0
LINE
  5
18D1
100
AcDbEntity
  8
V0-VYPLNE
  6
CONTINUOUS
 62
    41
 48
3.0
100
AcDbLine
 10
1563.5793
 20
-716.336202
 30
0.0
 11
1455.937093
 21
-716.336202
 31
0.0
  0
LINE
  5
18D2
100
AcDbEntity
  8
V0-VYPLNE
  6
CONTINUOUS
 62
    41
 48
3.0
100
AcDbLine
 10
1563.219985
 20
-707.074434
 30
0.0
 11
1457.090671
 21
-707.074434
 31
0.0
  0
LINE
  5
18D3
100
AcDbEntity
  8
V0-OBRYS
  6
CONTINUOUS
 62
    90
 48
3.0
100
AcDbLine
 10
1563.5793
 20
-702.095455
 30
0.0
 11
1457.487812
 21
-702.095455
 31
0.0
  0
LINE
  5
18D4
100
AcDbEntity
  8
V0-OBRYS
  6
CONTINUOUS
 62
    90
 48
3.0
100
AcDbLine
 10
1563.5793
 20
-799.388674
 30
0.0
 11
1563.5793
 21
-702.095455
 31
0.0
  0
LINE
  5
18D5
100
AcDbEntity
  8
V0-OBRYS
  6
CONTINUOUS
 62
    90
 48
3.0
100
AcDbLine
 10
1598.943131
 20
-650.699546
 30
0.0
 11
1457.487812
 21
-650.699546
 31
0.0
  0
LINE
  5
1924
100
AcDbEntity
  8
V0-VYPLNE
  6
DASHED
 62
    52
 48
2.0
100
AcDbLine
 10
464.021398
 20
-804.886673
 30
0.0
 11
554.299521
 21
-857.008771
 31
0.0
  0
ARC
  5
1925
100
AcDbEntity
  8
V0-VYPLNE
  6
DASHED
 62
    52
 48
2.0
100
AcDbCircle
 10
439.747249
 20
-794.468347
 30
0.0
 40
108.696391
100
AcDbArc
 50
331.719358
 51
88.362917
  0
ARC
  5
1926
100
AcDbEntity
  8
V0-VYPLNE
  6
DASHED
 62
    52
 48
2.0
100
AcDbCircle
 10
439.747249
 20
-794.468347
 30
0.0
 40
113.562841
100
AcDbArc
 50
331.519954
 51
88.371211
  0
ARC
  5
1927
100
AcDbEntity
  8
V0-VYPLNE
  6
DASHED
 62
    52
 48
2.0
100
AcDbCircle
 10
419.104882
 20
-775.03907
 30
0.0
 40
186.520904
100
AcDbArc
 50
272.315415
 51
344.441514
  0
LINE
  5
1928
100
AcDbEntity
  8
V0-VYPLNE
  6
DASHED
 62
    52
 48
2.0
100
AcDbLine
 10
440.776849
 20
-960.589551
 30
0.0
 11
439.747249
 21
-663.992958
 31
0.0
  0
LINE
  5
1929
100
AcDbEntity
  8
V0-VYPLNE
  6
DASHED
 62
    52
 48
2.0
100
AcDbLine
 10
460.906858
 20
-810.281214
 30
0.0
 11
551.184981
 21
-862.403313
 31
0.0
  0
ARC
  5
192A
100
AcDbEntity
  8
V0-VYPLNE
  6
DASHED
 62
    52
 48
2.0
100
AcDbCircle
 10
426.640441
 20
-773.289475
 30
0.0
 40
188.118216
100
AcDbArc
 50
177.083445
 51
270.0
  0
ARC
  5
192B
100
AcDbEntity
  8
V0-VYPLNE
  6
DASHED
 62
    52
 48
2.0
100
AcDbCircle
 10
439.747249
 20
-794.468347
 30
0.0
 40
108.696391
100
AcDbArc
 50
91.714912
 51
208.344087
  0
ARC
  5
192C
100
AcDbEntity
  8
V0-VYPLNE
  6
DASHED
 62
    52
 48
2.0
100
AcDbCircle
 10
439.747249
 20
-794.468347
 30
0.0
 40
113.562841
100
AcDbArc
 50
91.581613
 51
208.441599
  0
LINE
  5
192D
100
AcDbEntity
  8
V0-VYPLNE
  6
DASHED
 62
    52
 48
2.0
100
AcDbLine
 10
418.587641
 20
-810.281214
 30
0.0
 11
328.309518
 21
-862.403313
 31
0.0
  0
LINE
  5
192E
100
AcDbEntity
  8
V0-VYPLNE
  6
DASHED
 62
    52
 48
2.0
100
AcDbLine
 10
415.473101
 20
-804.886673
 30
0.0
 11
325.194978
 21
-857.008771
 31
0.0
  0
ARC
  5
192F
100
AcDbEntity
  8
V0-VYPLNE
  6
DASHED
 62
    52
 48
2.0
100
AcDbCircle
 10
439.747249
 20
-794.468347
 30
0.0
 40
69.409971
100
AcDbArc
 50
212.575428
 51
327.315954
  0
CIRCLE
  5
1930
100
AcDbEntity
  8
V0-VYPLNE
  6
DASHED
 62
    52
 48
2.0
100
AcDbCircle
 10
439.747249
 20
-794.468347
 30
0.0
 40
26.231192
  0
ARC
  5
1931
100
AcDbEntity
  8
V0-VYPLNE
  6
DASHED
 62
    52
 48
2.0
100
AcDbCircle
 10
439.747249
 20
-794.468347
 30
0.0
 40
69.409971
100
AcDbArc
 50
92.399561
 51
207.385177
  0
LINE
  5
1933
100
AcDbEntity
  8
V0-VYPLNE
  6
DASHED
 62
    52
 48
2.0
100
AcDbLine
 10
561.252266
 20
-794.468347
 30
0.0
 11
324.788698
 21
-794.468347
 31
0.0
  0
ARC
  5
1934
100
AcDbEntity
  8
V0-VYPLNE
  6
DASHED
 62
    52
 48
2.0
100
AcDbCircle
 10
431.133669
 20
-777.492091
 30
0.0
 40
192.899508
100
AcDbArc
 50
83.177668
 51
175.814463
  0
ARC
  5
1935
100
AcDbEntity
  8
V0-VYPLNE
  6
DASHED
 62
    52
 48
2.0
100
AcDbCircle
 10
454.048393
 20
-773.289475
 30
0.0
 40
215.526168
100
AcDbArc
 50
180.0
 51
180.271524
  0
LINE
  5
1936
100
AcDbEntity
  8
V0-VYPLNE
  6
DASHED
 62
    52
 48
2.0
100
AcDbLine
 10
415.473101
 20
-804.886673
 30
0.0
 11
418.587641
 21
-810.281214
 31
0.0
  0
LINE
  5
1937
100
AcDbEntity
  8
V0-VYPLNE
  6
DASHED
 62
    52
 48
2.0
100
AcDbLine
 10
454.048393
 20
-585.95845
 30
0.0
 11
644.656969
 21
-585.95845
 31
0.0
  0
LINE
  5
1938
100
AcDbEntity
  8
V0-VYPLNE
  6
DASHED
 62
    52
 48
2.0
100
AcDbLine
 10
442.861789
 20
-768.237155
 30
0.0
 11
442.861789
 21
-663.992958
 31
0.0
  0
LINE
  5
1939
100
AcDbEntity
  8
V0-VYPLNE
  6
DASHED
 62
    52
 48
2.0
100
AcDbLine
 10
436.632709
 20
-768.237155
 30
0.0
 11
436.632709
 21
-663.992958
 31
0.0
  0
LINE
  5
193B
100
AcDbEntity
  8
V0-VYPLNE
  6
DASHED
 62
    52
 48
2.0
100
AcDbLine
 10
442.836049
 20
-663.992958
 30
0.0
 11
442.836049
 21
-626.783196
 31
0.0
  0
ARC
  5
193C
100
AcDbEntity
  8
V0-VYPLNE
  6
DASHED
 62
    52
 48
2.0
100
AcDbCircle
 10
442.836049
 20
-663.992958
 30
0.0
 40
3.11454
100
AcDbArc
 50
0.0
 51
180.0
  0
ARC
  5
193D
100
AcDbEntity
  8
V0-VYPLNE
  6
DASHED
 62
    52
 48
2.0
100
AcDbCircle
 10
439.747249
 20
-794.468347
 30
0.0
 40
69.409971
100
AcDbArc
 50
332.562264
 51
87.434764
  0
LINE
  5
193E
100
AcDbEntity
  8
V0-VYPLNE
  6
DASHED
 62
    52
 48
2.0
100
AcDbLine
 10
442.861789
 20
-768.237155
 30
0.0
 11
436.632709
 21
-768.237155
 31
0.0
  0
LINE
  5
193F
100
AcDbEntity
  8
V0-VYPLNE
  6
DASHED
 62
    52
 48
2.0
100
AcDbLine
 10
460.906858
 20
-810.281214
 30
0.0
 11
464.021398
 21
-804.886673
 31
0.0
  0
LINE
  5
1941
100
AcDbEntity
  8
V0-VYPLNE
  6
DASHED
 62
    52
 48
2.0
100
AcDbLine
 10
644.656969
 20
-585.95845
 30
0.0
 11
644.656969
 21
-825.068059
 31
0.0
  0
LINE
  5
1942
100
AcDbEntity
  8
V0-VYPLNE
  6
DASHED
 62
    52
 48
2.0
100
AcDbLine
 10
598.79113
 20
-825.068059
 30
0.0
 11
598.79113
 21
-802.672121
 31
0.0
  0
LINE
  5
1943
100
AcDbEntity
  8
V0-VYPLNE
  6
DASHED
 62
    52
 48
2.0
100
AcDbLine
 10
598.79113
 20
-825.068059
 30
0.0
 11
644.656969
 21
-825.068059
 31
0.0
  0
ARC
  5
1944
100
AcDbEntity
  8
V0-VYPLNE
  6
DASHED
 62
    52
 48
2.0
100
AcDbCircle
 10
439.747249
 20
-794.468347
 30
0.0
 40
113.562841
100
AcDbArc
 50
211.485726
 51
328.390343
  0
ARC
  5
1945
100
AcDbEntity
  8
V0-VYPLNE
  6
DASHED
 62
    52
 48
2.0
100
AcDbCircle
 10
439.747249
 20
-794.468347
 30
0.0
 40
108.696391
100
AcDbArc
 50
211.549963
 51
328.272969
  0
ARC
  5
1946
100
AcDbEntity
  8
V0-VYPLNE
  6
DASHED
 62
    52
 48
2.0
100
AcDbCircle
 10
326.752248
 20
-859.706042
 30
0.0
 40
3.11454
100
AcDbArc
 50
120.0
 51
300.0
  0
ARC
  5
1947
100
AcDbEntity
  8
V0-VYPLNE
  6
DASHED
 62
    52
 48
2.0
100
AcDbCircle
 10
552.742251
 20
-859.706042
 30
0.0
 40
3.11454
100
AcDbArc
 50
240.0
 51
60.0
  0
LINE
  5
1948
100
AcDbEntity
  8
V0-VYPLNE
  6
DASHED
 62
    52
 48
2.0
100
AcDbLine
 10
598.79113
 20
-792.171289
 30
0.0
 11
598.79113
 21
-586.519516
 31
0.0
  0
LINE
  5
1961
100
AcDbEntity
  8
V0-VYPLNE
  6
DASHED
 62
    52
 48
3.0
100
AcDbLine
 10
195.683213
 20
-534.336202
 30
0.0
 11
195.683213
 21
-4.836202
 31
0.0
  0
LINE
  5
1962
100
AcDbEntity
  8
V0-VYPLNE
  6
DASHED
 62
    52
 48
3.0
100
AcDbLine
 10
195.683213
 20
-4.836202
 30
0.0
 11
702.683213
 21
-4.836202
 31
0.0
  0
LINE
  5
1963
100
AcDbEntity
  8
V0-VYPLNE
  6
DASHED
 62
    52
 48
3.0
100
AcDbLine
 10
702.683213
 20
-534.336202
 30
0.0
 11
702.683213
 21
-4.836202
 31
0.0
  0
LINE
  5
1964
100
AcDbEntity
  8
V0-VYPLNE
  6
DASHED
 62
    52
 48
3.0
100
AcDbLine
 10
1722.987812
 20
-534.336202
 30
0.0
 11
1722.987812
 21
-14.336202
 31
0.0
  0
LINE
  5
1965
100
AcDbEntity
  8
V0-VYPLNE
  6
DASHED
 62
    52
 48
3.0
100
AcDbLine
 10
1191.987812
 20
-534.336202
 30
0.0
 11
1191.987812
 21
-14.336202
 31
0.0
  0
LINE
  5
1966
100
AcDbEntity
  8
V0-VYPLNE
  6
DASHED
 62
    52
 48
3.0
100
AcDbLine
 10
1191.987812
 20
-14.336202
 30
0.0
 11
1722.987812
 21
-14.336202
 31
0.0
  0
DIMENSION
  5
1979
100
AcDbEntity
  8
V0-VYPLNE
  6
CONTINUOUS
 62
    41
 48
3.0
100
AcDbDimension
  2
*D8
 10
125.166771
 20
-534.336202
 30
0.0
 11
87.666771
 21
-269.586202
 31
0.0
 12
18.5
 22
0.0
 32
0.0
 70
    32
  3
ED30
100
AcDbAlignedDimension
 13
195.683213
 23
-4.836202
 33
0.0
 14
195.683213
 24
-534.336202
 34
0.0
 50
90.0
100
AcDbRotatedDimension
1001
ACAD
1000
DSTYLE
1002
{
1070
    40
1040
1.0
1002
}
  0
DIMENSION
  5
1986
100
AcDbEntity
  8
V0-VYPLNE
  6
CONTINUOUS
 62
    41
 48
3.0
100
AcDbDimension
  2
*D9
 10
1722.987812
 20
-454.584851
 30
0.0
 11
1457.487812
 21
-334.084851
 31
0.0
 12
0.0
 22
-101.5
 32
0.0
 70
    32
  3
ED30
100
AcDbAlignedDimension
 13
1191.987812
 23
-534.336202
 33
0.0
 14
1722.987812
 24
-534.336202
 34
0.0
100
AcDbRotatedDimension
1001
ACAD
1000
DSTYLE
1002
{
1070
    40
1040
1.0
1002
}
  0
POINT
  5
1998
100
AcDbEntity
  8
V0-VYPLNE
  6
CONTINUOUS
 62
    52
 48
3.0
100
AcDbPoint
 10
1457.487812
 20
-716.336202
 30
0.0
  0
DIMENSION
  5
1B9C
100
AcDbEntity
  8
V0-VYPLNE
  6
CONTINUOUS
 62
    41
 48
3.0
100
AcDbDimension
  2
*D10
 10
100.143619
 20
-977.336202
 30
0.0
 11
81.140666
 21
-845.336202
 31
0.0
 70
    32
  3
ED30
100
AcDbAlignedDimension
 13
154.683213
 23
-713.336202
 33
0.0
 14
197.683213
 24
-977.336202
 34
0.0
 50
90.0
100
AcDbRotatedDimension
1001
ACAD
1000
DSTYLE
1002
{
1070
    40
1040
1.0
1070
   271
1070
     1
1002
}
  0
DIMENSION
  5
1BA9
100
AcDbEntity
  8
V0-VYPLNE
  6
CONTINUOUS
 62
    41
 48
3.0
100
AcDbDimension
  2
*D11
 10
841.588131
 20
-977.336202
 30
0.0
 11
841.588131
 21
-767.586202
 31
0.0
 70
   160
  3
ED30
100
AcDbAlignedDimension
 13
702.683213
 23
-534.336202
 33
0.0
 14
700.683213
 24
-977.336202
 34
0.0
 50
90.0
100
AcDbRotatedDimension
1001
ACAD
1000
DSTYLE
1002
{
1070
    40
1040
1.0
1070
   271
1070
     1
1002
}
  0
LINE
  5
1FAD
100
AcDbEntity
  8
V0-OBRYS
  6
CONTINUOUS
 62
    90
 48
3.0
100
AcDbLine
 10
1499.898089
 20
-554.336202
 30
0.0
 11
1656.64834
 21
-554.336202
 31
0.0
  0
VIEWPORT
  5
22
100
AcDbEntity
 67
     1
  8
0
100
AcDbViewport
 10
261.517699
 20
148.5
 30
0.0
 40
523.035398
 41
297.0
 68
    -1
 69
     1
1001
ACAD
1000
MVIEW
1002
{
1070
    16
1010
0.0
1020
0.0
1030
0.0
1010
0.0
1020
0.0
1030
1.0
1040
0.0
1040
297.0
1040
261.517699
1040
148.5
1040
50.0
1040
0.0
1040
0.0
1070
     0
1070
   100
1070
     1
1070
     1
1070
     0
1070
     0
1070
     0
1070
     0
1040
0.0
1040
0.0
1040
0.0
1040
1.0
1040
1.0
1040
10.0
1040
10.0
1070
     0
1002
{
1002
}
1002
}
  0
ENDSEC
  0
SECTION
  2
OBJECTS
  0
DICTIONARY
  5
C
100
AcDbDictionary
  3
ACAD_GROUP
350
D
  3
ACAD_MLINESTYLE
350
E
  3
ACDBVARIABLEDICTIONARY
350
5D
  0
DICTIONARY
  5
D
102
{ACAD_REACTORS
330
C
102
}
100
AcDbDictionary
  0
DICTIONARY
  5
E
102
{ACAD_REACTORS
330
C
102
}
100
AcDbDictionary
  3
STANDARD
350
13
  0
DICTIONARY
  5
5D
102
{ACAD_REACTORS
330
C
102
}
100
AcDbDictionary
  3
DIMADEC
350
5E
  3
SORTENTS
350
3D8
  0
MLINESTYLE
  5
13
102
{ACAD_REACTORS
330
E
102
}
100
AcDbMlineStyle
  2
STANDARD
 70
     0
  3

 62
     0
 51
90.0
 52
90.0
 71
     2
 49
0.5
 62
   256
  6
BYLAYER
 49
-0.5
 62
   256
  6
BYLAYER
  0
DICTIONARYVAR
  5
5E
102
{ACAD_REACTORS
330
5D
102
}
100
DictionaryVariables
280
     0
  1
0
  0
DICTIONARYVAR
  5
3D8
102
{ACAD_REACTORS
330
5D
102
}
100
DictionaryVariables
280
     0
  1
96
  0
ENDSEC
  0
EOF
