  0
SECTION
  2
HEADER
  9
$ACADVER
  1
AC1014
  9
$ACADMAINTVER
 70
     0
  9
$DWGCODEPAGE
  3
ANSI_1250
  9
$INSBASE
 10
0.0
 20
0.0
 30
0.0
  9
$EXTMIN
 10
101.433726
 20
-1520.498366
 30
0.0
  9
$EXTMAX
 10
1359.829624
 20
-109.836202
 30
0.0
  9
$LIMMIN
 10
0.0
 20
0.0
  9
$LIMMAX
 10
420.0
 20
297.0
  9
$ORTHOMODE
 70
     1
  9
$REGENMODE
 70
     1
  9
$FILLMODE
 70
     1
  9
$QTEXTMODE
 70
     0
  9
$MIRRTEXT
 70
     1
  9
$DRAGMODE
 70
     2
  9
$LTSCALE
 40
1.0
  9
$OSMODE
 70
    36
  9
$ATTMODE
 70
     1
  9
$TEXTSIZE
 40
20.0
  9
$TRACEWID
 40
1.0
  9
$TEXTSTYLE
  7
ED30
  9
$CLAYER
  8
V0-VYPLNE
  9
$CELTYPE
  6
CONTINUOUS
  9
$CECOLOR
 62
    41
  9
$CELTSCALE
 40
3.0
  9
$DELOBJ
 70
     1
  9
$DISPSILH
 70
     0
  9
$DIMSCALE
 40
1.0
  9
$DIMASZ
 40
25.0
  9
$DIMEXO
 40
1.0
  9
$DIMDLI
 40
3.75
  9
$DIMRND
 40
0.0
  9
$DIMDLE
 40
0.0
  9
$DIMEXE
 40
1.25
  9
$DIMTP
 40
0.0
  9
$DIMTM
 40
0.0
  9
$DIMTXT
 40
30.0
  9
$DIMCEN
 40
3.0
  9
$DIMTSZ
 40
0.0
  9
$DIMTOL
 70
     0
  9
$DIMLIM
 70
     0
  9
$DIMTIH
 70
     0
  9
$DIMTOH
 70
     0
  9
$DIMSE1
 70
     0
  9
$DIMSE2
 70
     0
  9
$DIMTAD
 70
     1
  9
$DIMZIN
 70
     8
  9
$DIMBLK
  1

  9
$DIMASO
 70
     1
  9
$DIMSHO
 70
     1
  9
$DIMPOST
  1

  9
$DIMAPOST
  1

  9
$DIMALT
 70
     0
  9
$DIMALTD
 70
     4
  9
$DIMALTF
 40
0.0394
  9
$DIMLFAC
 40
1.0
  9
$DIMTOFL
 70
     1
  9
$DIMTVP
 40
0.0
  9
$DIMTIX
 70
     0
  9
$DIMSOXD
 70
     0
  9
$DIMSAH
 70
     1
  9
$DIMBLK1
  1
_OPEN
  9
$DIMBLK2
  1
_OPEN
  9
$DIMSTYLE
  2
ED30
  9
$DIMCLRD
 70
     1
  9
$DIMCLRE
 70
     1
  9
$DIMCLRT
 70
     1
  9
$DIMTFAC
 40
1.0
  9
$DIMGAP
 40
4.0
  9
$DIMJUST
 70
     0
  9
$DIMSD1
 70
     0
  9
$DIMSD2
 70
     0
  9
$DIMTOLJ
 70
     1
  9
$DIMTZIN
 70
     8
  9
$DIMALTZ
 70
     0
  9
$DIMALTTZ
 70
     0
  9
$DIMFIT
 70
     3
  9
$DIMUPT
 70
     0
  9
$DIMUNIT
 70
     2
  9
$DIMDEC
 70
     0
  9
$DIMTDEC
 70
     1
  9
$DIMALTU
 70
     8
  9
$DIMALTTD
 70
     4
  9
$DIMTXSTY
  7
ED30
  9
$DIMAUNIT
 70
     0
  9
$LUNITS
 70
     2
  9
$LUPREC
 70
     4
  9
$SKETCHINC
 40
1.0
  9
$FILLETRAD
 40
0.0
  9
$AUNITS
 70
     0
  9
$AUPREC
 70
     0
  9
$MENU
  1
.
  9
$ELEVATION
 40
0.0
  9
$PELEVATION
 40
0.0
  9
$THICKNESS
 40
0.0
  9
$LIMCHECK
 70
     0
  9
$BLIPMODE
 70
     0
  9
$CHAMFERA
 40
0.0
  9
$CHAMFERB
 40
0.0
  9
$CHAMFERC
 40
20.0
  9
$CHAMFERD
 40
0.0
  9
$SKPOLY
 70
     1
  9
$TDCREATE
 40
2451196.643769328
  9
$TDUPDATE
 40
2452932.432069097
  9
$TDINDWG
 40
0.4018815972
  9
$TDUSRTIMER
 40
0.4018815972
  9
$USRTIMER
 70
     1
  9
$ANGBASE
 50
0.0
  9
$ANGDIR
 70
     0
  9
$PDMODE
 70
     3
  9
$PDSIZE
 40
20.0
  9
$PLINEWID
 40
0.0
  9
$COORDS
 70
     1
  9
$SPLFRAME
 70
     0
  9
$SPLINETYPE
 70
     6
  9
$SPLINESEGS
 70
     8
  9
$ATTDIA
 70
     0
  9
$ATTREQ
 70
     1
  9
$HANDLING
 70
     1
  9
$HANDSEED
  5
1BD8
  9
$SURFTAB1
 70
     6
  9
$SURFTAB2
 70
     6
  9
$SURFTYPE
 70
     6
  9
$SURFU
 70
     6
  9
$SURFV
 70
     6
  9
$UCSNAME
  2

  9
$UCSORG
 10
263.1832125521595
 20
-860.8362015275439
 30
0.0
  9
$UCSXDIR
 10
1.0
 20
0.0
 30
0.0
  9
$UCSYDIR
 10
0.0
 20
1.0
 30
0.0
  9
$PUCSNAME
  2

  9
$PUCSORG
 10
0.0
 20
0.0
 30
0.0
  9
$PUCSXDIR
 10
1.0
 20
0.0
 30
0.0
  9
$PUCSYDIR
 10
0.0
 20
1.0
 30
0.0
  9
$USERI1
 70
     0
  9
$USERI2
 70
     0
  9
$USERI3
 70
     2
  9
$USERI4
 70
     2
  9
$USERI5
 70
     6
  9
$USERR1
 40
281.0
  9
$USERR2
 40
321.0
  9
$USERR3
 40
0.0
  9
$USERR4
 40
0.0
  9
$USERR5
 40
0.0
  9
$WORLDVIEW
 70
     1
  9
$SHADEDGE
 70
     3
  9
$SHADEDIF
 70
    70
  9
$TILEMODE
 70
     1
  9
$MAXACTVP
 70
    48
  9
$PINSBASE
 10
0.0
 20
0.0
 30
0.0
  9
$PLIMCHECK
 70
     0
  9
$PEXTMIN
 10
1.000000E+20
 20
1.000000E+20
 30
1.000000E+20
  9
$PEXTMAX
 10
-1.000000E+20
 20
-1.000000E+20
 30
-1.000000E+20
  9
$PLIMMIN
 10
0.0
 20
0.0
  9
$PLIMMAX
 10
420.0
 20
297.0
  9
$UNITMODE
 70
     0
  9
$VISRETAIN
 70
     1
  9
$PLINEGEN
 70
     0
  9
$PSLTSCALE
 70
     0
  9
$TREEDEPTH
 70
  3020
  9
$PICKSTYLE
 70
     1
  9
$CMLSTYLE
  2
STANDARD
  9
$CMLJUST
 70
     0
  9
$CMLSCALE
 40
1.0
  9
$PROXYGRAPHICS
 70
     1
  9
$MEASUREMENT
 70
     1
  0
ENDSEC
  0
SECTION
  2
CLASSES
  0
CLASS
  1
DICTIONARYVAR
  2
AcDbDictionaryVar
  3
"AutoCAD"
 90
        0
280
     0
281
     0
  0
CLASS
  1
LWPOLYLINE
  2
AcDbPolyline
  3
"AutoCAD"
 90
        0
280
     0
281
     1
  0
CLASS
  1
HATCH
  2
AcDbHatch
  3
"ACAD_SEDONA"
 90
        0
280
     0
281
     1
  0
ENDSEC
  0
SECTION
  2
TABLES
  0
TABLE
  2
VPORT
  5
8
100
AcDbSymbolTable
 70
     2
  0
VPORT
  5
1BD7
100
AcDbSymbolTableRecord
100
AcDbViewportTableRecord
  2
*ACTIVE
 70
     0
 10
0.0
 20
0.0
 11
1.0
 21
1.0
 12
765.890305
 22
-827.031941
 13
0.0
 23
0.0
 14
10.0
 24
10.0
 15
10.0
 25
10.0
 16
0.0
 26
0.0
 36
1.0
 17
0.0
 27
0.0
 37
0.0
 40
1464.550888
 41
1.75
 42
50.0
 43
0.0
 44
0.0
 50
0.0
 51
0.0
 71
     0
 72
   100
 73
     1
 74
     1
 75
     0
 76
     0
 77
     0
 78
     0
  0
ENDTAB
  0
TABLE
  2
LTYPE
  5
5
100
AcDbSymbolTable
 70
     3
  0
LTYPE
  5
14
100
AcDbSymbolTableRecord
100
AcDbLinetypeTableRecord
  2
BYBLOCK
 70
     0
  3

 72
    65
 73
     0
 40
0.0
  0
LTYPE
  5
15
100
AcDbSymbolTableRecord
100
AcDbLinetypeTableRecord
  2
BYLAYER
 70
     0
  3

 72
    65
 73
     0
 40
0.0
  0
LTYPE
  5
16
100
AcDbSymbolTableRecord
100
AcDbLinetypeTableRecord
  2
CONTINUOUS
 70
     0
  3
Solid line
 72
    65
 73
     0
 40
0.0
  0
LTYPE
  5
7F
100
AcDbSymbolTableRecord
100
AcDbLinetypeTableRecord
  2
DASHDOT
 70
     0
  3
Dash dot __ . __ . __ . __ . __ . __ . __ . __
 72
    65
 73
     4
 40
25.4
 49
12.7
 74
     0
 49
-6.35
 74
     0
 49
0.0
 74
     0
 49
-6.35
 74
     0
  0
LTYPE
  5
80
100
AcDbSymbolTableRecord
100
AcDbLinetypeTableRecord
  2
DASHED
 70
     0
  3
Dashed __ __ __ __ __ __ __ __ __ __ __ __ __ _
 72
    65
 73
     2
 40
19.05
 49
12.7
 74
     0
 49
-6.35
 74
     0
  0
ENDTAB
  0
TABLE
  2
LAYER
  5
2
100
AcDbSymbolTable
 70
     6
  0
LAYER
  5
F
100
AcDbSymbolTableRecord
100
AcDbLayerTableRecord
  2
0
 70
     0
 62
     7
  6
CONTINUOUS
  0
LAYER
  5
9E
100
AcDbSymbolTableRecord
100
AcDbLayerTableRecord
  2
DEFPOINTS
 70
     0
 62
     7
  6
CONTINUOUS
  0
LAYER
  5
377
100
AcDbSymbolTableRecord
100
AcDbLayerTableRecord
  2
V0-OBRYS
 70
     0
 62
    90
  6
CONTINUOUS
  0
LAYER
  5
378
100
AcDbSymbolTableRecord
100
AcDbLayerTableRecord
  2
V0-VYPLNE
 70
     0
 62
    63
  6
DASHDOT
  0
LAYER
  5
37A
100
AcDbSymbolTableRecord
100
AcDbLayerTableRecord
  2
V0-NAZVY
 70
     0
 62
   210
  6
CONTINUOUS
  0
LAYER
  5
559
100
AcDbSymbolTableRecord
100
AcDbLayerTableRecord
  2
V0-ZBYTEK
 70
     0
 62
    51
  6
CONTINUOUS
  0
ENDTAB
  0
TABLE
  2
STYLE
  5
3
100
AcDbSymbolTable
 70
     5
  0
STYLE
  5
10
100
AcDbSymbolTableRecord
100
AcDbTextStyleTableRecord
  2
STANDARD
 70
     0
 40
7.0
 41
1.0
 50
0.0
 71
     0
 42
20.0
  3
ISOCP.shx
  4

  0
STYLE
  5
331
100
AcDbSymbolTableRecord
100
AcDbTextStyleTableRecord
  2
ED30
 70
     0
 40
30.0
 41
1.0
 50
0.0
 71
     0
 42
2.5
  3
ISOCP.shx
  4

  0
STYLE
  5
5D2
100
AcDbSymbolTableRecord
100
AcDbTextStyleTableRecord
  2
ED20
 70
     0
 40
20.0
 41
1.0
 50
0.0
 71
     0
 42
20.0
  3
isocp.shx
  4

  0
STYLE
  5
64F
100
AcDbSymbolTableRecord
100
AcDbTextStyleTableRecord
  2
ED40
 70
     0
 40
40.0
 41
1.0
 50
0.0
 71
     0
 42
20.0
  3
isocp.shx
  4

  0
STYLE
  5
650
100
AcDbSymbolTableRecord
100
AcDbTextStyleTableRecord
  2
ED10
 70
     0
 40
10.0
 41
1.0
 50
0.0
 71
     0
 42
20.0
  3
isocp.shx
  4

  0
ENDTAB
  0
TABLE
  2
VIEW
  5
6
100
AcDbSymbolTable
 70
     0
  0
ENDTAB
  0
TABLE
  2
UCS
  5
7
100
AcDbSymbolTable
 70
     0
  0
ENDTAB
  0
TABLE
  2
APPID
  5
9
100
AcDbSymbolTable
 70
     3
  0
APPID
  5
11
100
AcDbSymbolTableRecord
100
AcDbRegAppTableRecord
  2
ACAD
 70
     0
  0
APPID
  5
FAA
100
AcDbSymbolTableRecord
100
AcDbRegAppTableRecord
  2
CONTENTBLOCKICON
 70
     0
  0
APPID
  5
FAB
100
AcDbSymbolTableRecord
100
AcDbRegAppTableRecord
  2
CONTENTBLOCKDESCRIPTION
 70
     0
  0
ENDTAB
  0
TABLE
  2
DIMSTYLE
  5
A
100
AcDbSymbolTable
 70
     5
  0
DIMSTYLE
105
1D
100
AcDbSymbolTableRecord
100
AcDbDimStyleTableRecord
  2
STANDARD
 70
     0
  3

  4

  5

  6
_OPEN
  7
_OPEN
 40
0.0
 41
15.0
 42
0.625
 43
3.75
 44
1.25
 45
0.0
 46
0.0
 47
0.0
 48
0.0
140
15.0
141
2.5
142
0.0
143
0.0394
144
1.0
145
0.0
146
1.0
147
3.0
 71
     0
 72
     0
 73
     0
 74
     0
 75
     0
 76
     0
 77
     1
 78
     8
170
     0
171
     4
172
     1
173
     1
174
     0
175
     0
176
     0
177
     0
178
     0
270
     2
271
     0
272
     1
273
     8
274
     4
340
331
275
     0
280
     0
281
     0
282
     0
283
     1
284
     8
285
     0
286
     0
287
     3
288
     0
  0
DIMSTYLE
105
397
100
AcDbSymbolTableRecord
100
AcDbDimStyleTableRecord
  2
ED40
 70
     0
  3

  4

  5

  6
_OPEN
  7
_OPEN
 40
0.0
 41
35.0
 42
1.0
 43
3.75
 44
1.25
 45
0.0
 46
0.0
 47
0.0
 48
0.0
140
40.0
141
3.0
142
0.0
143
0.0394
144
1.0
145
0.0
146
1.0
147
4.0
 71
     0
 72
     0
 73
     0
 74
     0
 75
     0
 76
     0
 77
     1
 78
     8
170
     0
171
     4
172
     1
173
     1
174
     0
175
     0
176
     0
177
     0
178
     0
270
     2
271
     0
272
     1
273
     8
274
     4
340
64F
275
     0
280
     0
281
     0
282
     0
283
     1
284
     8
285
     0
286
     0
287
     3
288
     0
  0
DIMSTYLE
105
656
102
{ACAD_REACTORS
330
1160
330
1162
330
1165
330
13FB
330
1746
330
1760
330
176F
330
1977
330
198F
330
19A7
330
15DF
102
}
100
AcDbSymbolTableRecord
100
AcDbDimStyleTableRecord
  2
ED30
 70
     0
  3

  4

  5

  6
_OPEN
  7
_OPEN
 40
0.0
 41
25.0
 42
1.0
 43
3.75
 44
1.25
 45
0.0
 46
0.0
 47
0.0
 48
0.0
140
30.0
141
3.0
142
0.0
143
0.0394
144
1.0
145
0.0
146
1.0
147
4.0
 71
     0
 72
     0
 73
     0
 74
     0
 75
     0
 76
     0
 77
     1
 78
     8
170
     0
171
     4
172
     1
173
     1
174
     0
175
     0
176
     0
177
     0
178
     0
270
     2
271
     0
272
     1
273
     8
274
     4
340
331
275
     0
280
     0
281
     0
282
     0
283
     1
284
     8
285
     0
286
     0
287
     3
288
     0
  0
DIMSTYLE
105
657
100
AcDbSymbolTableRecord
100
AcDbDimStyleTableRecord
  2
ED20
 70
     0
  3

  4

  5

  6
_OPEN
  7
_OPEN
 40
0.0
 41
20.0
 42
1.0
 43
3.75
 44
1.25
 45
0.0
 46
0.0
 47
0.0
 48
0.0
140
20.0
141
3.0
142
0.0
143
0.0394
144
1.0
145
0.0
146
1.0
147
2.0
 71
     0
 72
     0
 73
     0
 74
     0
 75
     0
 76
     0
 77
     1
 78
     8
170
     0
171
     4
172
     1
173
     1
174
     0
175
     0
176
     0
177
     0
178
     0
270
     2
271
     0
272
     1
273
     8
274
     4
340
5D2
275
     0
280
     0
281
     0
282
     0
283
     1
284
     8
285
     0
286
     0
287
     3
288
     0
  0
DIMSTYLE
105
658
100
AcDbSymbolTableRecord
100
AcDbDimStyleTableRecord
  2
ED10
 70
     0
  3

  4

  5

  6
_OPEN
  7
_OPEN
 40
0.0
 41
15.0
 42
1.0
 43
3.75
 44
1.25
 45
0.0
 46
0.0
 47
0.0
 48
0.0
140
10.0
141
3.0
142
0.0
143
0.0394
144
1.0
145
0.0
146
1.0
147
1.5
 71
     0
 72
     0
 73
     0
 74
     0
 75
     0
 76
     0
 77
     1
 78
     8
170
     0
171
     4
172
     1
173
     1
174
     0
175
     0
176
     0
177
     0
178
     0
270
     2
271
     0
272
     1
273
     8
274
     4
340
5D2
275
     0
280
     0
281
     0
282
     0
283
     1
284
     8
285
     0
286
     0
287
     3
288
     0
  0
ENDTAB
  0
TABLE
  2
BLOCK_RECORD
  5
1
100
AcDbSymbolTable
 70
    16
  0
BLOCK_RECORD
  5
1A
100
AcDbSymbolTableRecord
100
AcDbBlockTableRecord
  2
*MODEL_SPACE
  0
BLOCK_RECORD
  5
17
100
AcDbSymbolTableRecord
100
AcDbBlockTableRecord
  2
*PAPER_SPACE
  0
BLOCK_RECORD
  5
90
100
AcDbSymbolTableRecord
100
AcDbBlockTableRecord
  2
_OPEN
  0
BLOCK_RECORD
  5
108E
100
AcDbSymbolTableRecord
100
AcDbBlockTableRecord
  2
*D1
  0
BLOCK_RECORD
  5
10A6
100
AcDbSymbolTableRecord
100
AcDbBlockTableRecord
  2
*D2
  0
BLOCK_RECORD
  5
10CA
100
AcDbSymbolTableRecord
100
AcDbBlockTableRecord
  2
*D3
  0
BLOCK_RECORD
  5
13EF
100
AcDbSymbolTableRecord
100
AcDbBlockTableRecord
  2
*D4
  0
BLOCK_RECORD
  5
15D3
100
AcDbSymbolTableRecord
100
AcDbBlockTableRecord
  2
*D5
  0
BLOCK_RECORD
  5
173A
100
AcDbSymbolTableRecord
100
AcDbBlockTableRecord
  2
*D6
  0
BLOCK_RECORD
  5
1752
100
AcDbSymbolTableRecord
100
AcDbBlockTableRecord
  2
*D7
  0
BLOCK_RECORD
  5
1761
100
AcDbSymbolTableRecord
100
AcDbBlockTableRecord
  2
*D8
  0
BLOCK_RECORD
  5
17E3
100
AcDbSymbolTableRecord
100
AcDbBlockTableRecord
  2
AZAVER
1001
CONTENTBLOCKICON
1071
        0
1004
2800000020000000200000000100040000000000000200000000000000000000000000000000000000000000000080000080000000808000800000008000800080800000C0C0C000808080000000FF0000FF000000FFFF00FF000000FF00FF00FFFF0000FFFFFF00FFFFFFFFFFAAAAAAAAAAAFFFFFFFFFFF
1004
FFFFFFFFFFAFFFFFFFFFFAFFFFFFFFFFFFFFFFFFFFAFFFFFFFFFFAFFFFFFFFFFFFFFFFFFFFAFFFFFFFFFFAFFFFFFFFFFFFFFFFFFFFAFFFFFFFFFFAFFFFFFFFFFFFFFFFFFFFAFFFFFFFFFFAFFFFFFFFFFFFFFFFFFFFAFFFFFFFFFFAFFFFFFFFFFFFFFFFFFFFAFFFFFFFFFFAFFFFFFFFFFFFFFFFFFFFAFFFFF
1004
FFFFFAFFFFFFFFFFFFFFFFFFFFAFFFFFFFFFFAFFFFFFFFFFFFFFFFFFAAAFFFFFFFFFFAAFFFFFFFFFFFFFFFFFAFAFFFFFFFFFFAAFFFFFFFFFFFFFFFFFAFAFFFFFFFFFFAAFFFFFFFFFFFFFFFFFAFAAAAAAAAAAAAAFFFFFFFFFFFFFFFFFAFFFFFFFFFFFFFAFFFFFFFFFFFFFFFFFAFFFFFFFFFFFFFAFFFFFFFFF
1004
FFFFFFFFAFFFFFFFFFFFFFAFFFFFFFFFFFFFFFFFAFFFFFFFFFFFFFAFFFFFFFFFFFFFFFFFAFFFFFFFFFFFFFAFFFFFFFFFFFFFFFFFAFFFFFFFFFFFFFAFFFFFFFFFFFFFFFFFAFAAAAAAAAAAAAAFFFFFFFFFFFFFFFFFAFAFFFFFFFFFFAAFFFFFFFFFFFFFFFFFAAAAAAAAAAAAAAAFFFFFFFFFFFFFFFFFFFAFFFFF
1004
FFFFFAFFFFFFFFFFFFFFFFFFFFAFFFFFFFFFFAFFFFFFFFFFFFFFFFFFFFAFFFFFFFFFFAFFFFFFFFFFFFFFFFFFFFAFFFFFFFFFFAFFFFFFFFFFFFFFFFFFFFAFFFFFFFFFFAFFFFFFFFFFFFFFFFFFFFAFFFFFFFFFFAFFFFFFFFFFFFFFFFFFFFAFFFFFFFFFFAFFFFFFFFFFFFFFFFFFFFAFFFFFFFFFFAFFFFFFFFFF
1004
FFFFFFFFFFAAAAAAAAAAAFFFFFFFFFFF
  0
BLOCK_RECORD
  5
1877
100
AcDbSymbolTableRecord
100
AcDbBlockTableRecord
  2
AZAVER-P
1001
CONTENTBLOCKICON
1071
        0
1004
2800000020000000200000000100040000000000000200000000000000000000000000000000000000000000000080000080000000808000800000008000800080800000C0C0C000808080000000FF0000FF000000FFFF00FF000000FF00FF00FFFF0000FFFFFF00FFFFFFFFFFFFFFFFAAFFFFFFFFFFFFFF
1004
FFFFFFFFFFFFFFFAFAFFFFFFFFFFFFFFFFFFFFFFFFFFFFFAFAFFFFFFFFFFFFFFFFFFFFFFFFFFFFFAFAFFFFFFFFFFFFFFFFFFFFFFFFFFFAAAFAAAFFFFFFFFFFFFFFFFFFFFFFFFFAFAFAFFFFFFFFFFFFFFFFFFFFFFFFFFFAFAFAFFFFFFFFFFFFFFFFFFFFFFFFFFFAFAFAFFFFFFFFFFFFFFFFFFFFFFFFFFFAFA
1004
FAFFFFFFFFFFFFFFFFFFFFFFFFFFFAFAFAFFFFFFFFFFFFFFFFFFFFFFFFFFFAFAFAFFFFFFFFFFFFFFFFFFFFFFFFFFFAFAFAFFFFFFFFFFFFFFFFFFFFFFFFFFFAFAFAFFFFFFFFFFFFFFFFFFFFFFFFFFFAFAFAFFFFFFFFFFFFFFFFFFFFFFFFFFFAFAFAFFFFFFFFFFFFFFFFFFFFFFFFFFFAFAFAFFFFFFFFFFFFFF
1004
FFFFFFFFFFFFFAFAFAFFFFFFFFFFFFFFFFFFFFFFFFFFFAFAFAFFFFFFFFFFFFFFFFFFFFFFFFFFFAFAFAFFFFFFFFFFFFFFFFFFFFFFFFFFFAFAFAFFFFFFFFFFFFFFFFFFFFFFFFFFFAFAFAFFFFFFFFFFFFFFFFFFFFFFFFFFFAFAFAFFFFFFFFFFFFFFFFFFFFFFFFFFFAFAFAFFFFFFFFFFFFFFFFFFFFFFFFFFFAFA
1004
FAFFFFFFFFFFFFFFFFFFFFFFFFFFFAFAFAFFFFFFFFFFFFFFFFFFFFFFFFFFFAFAFAFFFFFFFFFFFFFFFFFFFFFFFFFFFAAAFAAFFFFFFFFFFFFFFFFFFFFFFFFFFFFAFAFFFFFFFFFFFFFFFFFFFFFFFFFFFFFAFAFFFFFFFFFFFFFFFFFFFFFFFFFFFFFAFAFFFFFFFFFFFFFFFFFFFFFFFFFFFFFAFAFFFFFFFFFFFFFF
1004
FFFFFFFFFFFFFFFFAAFFFFFFFFFFFFFF
  0
BLOCK_RECORD
  5
189E
100
AcDbSymbolTableRecord
100
AcDbBlockTableRecord
  2
AZAVER-B
1001
CONTENTBLOCKICON
1071
        0
1004
2800000020000000200000000100040000000000000200000000000000000000000000000000000000000000000080000080000000808000800000008000800080800000C0C0C000808080000000FF0000FF000000FFFF00FF000000FF00FF00FFFF0000FFFFFF00FFFFFFFFFFFFFFFFFFFFFFFFFFFFFFFF
1004
FFFFFFFFFFFFFFAFFFFFFFFFFFFFFFFFFFFFFFFFFFFFFFAFFFFFFFFFFFFFFFFFFFFFFFFFFFFFFFAFFFFFFFFFFFFFFFFFFFFFFFFFFFFFFFAFFFFFFFFFFFFFFFFFFFFFFFFFFFFFFFAFFFFFFFFFFFFFFFFFFFFFFFFFFFFFFFAFFFFFFFFFFFFFFFFFFFFFFFFFFFFFFFAFFFFFFFFFFFFFFFFFFFFFFFFFFFFFFFAF
1004
FAFFFFFFFFFFFFFFFFFFFFFFFFFFFFAFFAFFFFFFFFFFFFFFFFFFFFFFFFFFFFAAAAFFFFFFFFFFFFFFFFFFFFFFFFFFFFAAAAFFFFFFFFFFFFFFFFFFFFFFFFFFFFAAAAFFFFFFFFFFFFFFFFFFFFFFFFFFFFAAAAFFFFFFFFFFFFFFFFFFFFFFFFFFFFFAAFFFFFFFFFFFFFFFFFFFFFFFFFFFFFFAAFFFFFFFFFFFFFFF
1004
FFFFFFFFFFFFFFFAAFFFFFFFFFFFFFFFFFFFFFFFFFFFFFFAAFFFFFFFFFFFFFFFFFFFFFFFFFFFFFFAAFFFFFFFFFFFFFFFFFFFFFFFFFFFFFFAAFFFFFFFFFFFFFFFFFFFFFFFFFFFFFAAAAFFFFFFFFFFFFFFFFFFFFFFFFFFFFAAAAFFFFFFFFFFFFFFFFFFFFFFFFFFFFAAAAFFFFFFFFFFFFFFFFFFFFFFFFFFFFFF
1004
FAFFFFFFFFFFFFFFFFFFFFFFFFFFFFFFFAFFFFFFFFFFFFFFFFFFFFFFFFFFFFFFFAFFFFFFFFFFFFFFFFFFFFFFFFFFFFFFFAFFFFFFFFFFFFFFFFFFFFFFFFFFFFFFFAFFFFFFFFFFFFFFFFFFFFFFFFFFFFFFFAFFFFFFFFFFFFFFFFFFFFFFFFFFFFFFFAFFFFFFFFFFFFFFFFFFFFFFFFFFFFFFFAFFFFFFFFFFFFFF
1004
FFFFFFFFFFFFFFFFFAFFFFFFFFFFFFFF
  0
BLOCK_RECORD
  5
18D6
100
AcDbSymbolTableRecord
100
AcDbBlockTableRecord
  2
CMB-240-180-N
  0
BLOCK_RECORD
  5
196B
100
AcDbSymbolTableRecord
100
AcDbBlockTableRecord
  2
*D13
  0
BLOCK_RECORD
  5
1983
100
AcDbSymbolTableRecord
100
AcDbBlockTableRecord
  2
*D14
  0
BLOCK_RECORD
  5
199B
100
AcDbSymbolTableRecord
100
AcDbBlockTableRecord
  2
*D15
  0
ENDTAB
  0
ENDSEC
  0
SECTION
  2
BLOCKS
  0
BLOCK
  5
1B
100
AcDbEntity
  8
0
100
AcDbBlockBegin
  2
*MODEL_SPACE
 70
     0
 10
0.0
 20
0.0
 30
0.0
  3
*MODEL_SPACE
  1

  0
ENDBLK
  5
1C
100
AcDbEntity
  8
0
100
AcDbBlockEnd
  0
BLOCK
  5
18
100
AcDbEntity
 67
     1
  8
0
100
AcDbBlockBegin
  2
*PAPER_SPACE
 70
     0
 10
0.0
 20
0.0
 30
0.0
  3
*PAPER_SPACE
  1

  0
ENDBLK
  5
19
100
AcDbEntity
 67
     1
  8
0
100
AcDbBlockEnd
  0
BLOCK
  5
91
100
AcDbEntity
  8
0
100
AcDbBlockBegin
  2
_OPEN
 70
     0
 10
0.0
 20
0.0
 30
0.0
  3
_OPEN
  1

  0
LINE
  5
92
100
AcDbEntity
  8
0
  6
BYBLOCK
 62
     0
100
AcDbLine
 10
-1.0
 20
0.166667
 30
0.0
 11
0.0
 21
0.0
 31
0.0
  0
LINE
  5
93
100
AcDbEntity
  8
0
  6
BYBLOCK
 62
     0
100
AcDbLine
 10
0.0
 20
0.0
 30
0.0
 11
-1.0
 21
-0.166667
 31
0.0
  0
LINE
  5
94
100
AcDbEntity
  8
0
  6
BYBLOCK
 62
     0
100
AcDbLine
 10
0.0
 20
0.0
 30
0.0
 11
-1.0
 21
0.0
 31
0.0
  0
ENDBLK
  5
95
100
AcDbEntity
  8
0
100
AcDbBlockEnd
  0
BLOCK
  5
1BB9
100
AcDbEntity
  8
0
 48
3.0
100
AcDbBlockBegin
  2
*D1
 70
     1
 10
0.0
 20
0.0
 30
0.0
  3
*D1
  1

  0
LINE
  5
1BBA
100
AcDbEntity
  8
0
  6
BYBLOCK
 62
     0
 48
3.0
100
AcDbLine
 10
208.683213
 20
-748.836202
 30
0.0
 11
208.683213
 21
-987.502465
 31
0.0
  0
LINE
  5
1BBB
100
AcDbEntity
  8
0
  6
BYBLOCK
 62
     0
 48
3.0
100
AcDbLine
 10
689.683213
 20
-748.836202
 30
0.0
 11
689.683213
 21
-987.502465
 31
0.0
  0
LINE
  5
1BBC
100
AcDbEntity
  8
0
  6
BYBLOCK
 62
     0
 48
3.0
100
AcDbLine
 10
233.683213
 20
-986.252465
 30
0.0
 11
664.683213
 21
-986.252465
 31
0.0
  0
INSERT
  5
1BBD
100
AcDbEntity
  8
0
  6
BYBLOCK
 62
     0
 48
3.0
100
AcDbBlockReference
  2
_OPEN
 10
208.683213
 20
-986.252465
 30
0.0
 41
25.0
 42
25.0
 43
25.0
 50
180.0
  0
INSERT
  5
1BBE
100
AcDbEntity
  8
0
  6
BYBLOCK
 62
     0
 48
3.0
100
AcDbBlockReference
  2
_OPEN
 10
689.683213
 20
-986.252465
 30
0.0
 41
25.0
 42
25.0
 43
25.0
  0
MTEXT
  5
1BBF
100
AcDbEntity
  8
0
  6
BYBLOCK
 62
     0
 48
3.0
100
AcDbMText
 10
446.304902
 20
-967.249513
 30
0.0
 40
30.0
 41
0.0
 71
     5
 72
     1
  1
\A1;482
  7
ED30
  0
POINT
  5
1BC0
100
AcDbEntity
  8
DEFPOINTS
  6
BYBLOCK
 62
     0
 48
3.0
100
AcDbPoint
 10
208.683213
 20
-747.836202
 30
0.0
  0
POINT
  5
1BC1
100
AcDbEntity
  8
DEFPOINTS
  6
BYBLOCK
 62
     0
 48
3.0
100
AcDbPoint
 10
689.683213
 20
-747.836202
 30
0.0
  0
POINT
  5
1BC2
100
AcDbEntity
  8
DEFPOINTS
  6
BYBLOCK
 62
     0
 48
3.0
100
AcDbPoint
 10
689.683213
 20
-986.252465
 30
0.0
  0
ENDBLK
  5
1BC3
100
AcDbEntity
  8
0
 48
3.0
100
AcDbBlockEnd
  0
BLOCK
  5
1BC4
100
AcDbEntity
  8
0
 48
3.0
100
AcDbBlockBegin
  2
*D2
 70
     1
 10
0.0
 20
0.0
 30
0.0
  3
*D2
  1

  0
LINE
  5
1BC5
100
AcDbEntity
  8
0
  6
BYBLOCK
 62
     0
 48
3.0
100
AcDbLine
 10
647.683213
 20
-529.836202
 30
0.0
 11
798.490711
 21
-529.836202
 31
0.0
  0
LINE
  5
1BC6
100
AcDbEntity
  8
0
  6
BYBLOCK
 62
     0
 48
3.0
100
AcDbLine
 10
647.683213
 20
-857.836202
 30
0.0
 11
798.490711
 21
-857.836202
 31
0.0
  0
LINE
  5
1BC7
100
AcDbEntity
  8
0
  6
BYBLOCK
 62
     0
 48
3.0
100
AcDbLine
 10
797.240711
 20
-554.836202
 30
0.0
 11
797.240711
 21
-832.836202
 31
0.0
  0
INSERT
  5
1BC8
100
AcDbEntity
  8
0
  6
BYBLOCK
 62
     0
 48
3.0
100
AcDbBlockReference
  2
_OPEN
 10
797.240711
 20
-529.836202
 30
0.0
 41
25.0
 42
25.0
 43
25.0
 50
90.0
  0
INSERT
  5
1BC9
100
AcDbEntity
  8
0
  6
BYBLOCK
 62
     0
 48
3.0
100
AcDbBlockReference
  2
_OPEN
 10
797.240711
 20
-857.836202
 30
0.0
 41
25.0
 42
25.0
 43
25.0
 50
270.0
  0
MTEXT
  5
1BCA
100
AcDbEntity
  8
0
  6
BYBLOCK
 62
     0
 48
3.0
100
AcDbMText
 10
778.237758
 20
-685.521078
 30
0.0
 40
30.0
 41
0.0
 71
     5
 72
     1
  1
\A1;328
  7
ED30
 11
0.0
 21
1.0
 31
0.0
  0
POINT
  5
1BCB
100
AcDbEntity
  8
DEFPOINTS
  6
BYBLOCK
 62
     0
 48
3.0
100
AcDbPoint
 10
646.683213
 20
-529.836202
 30
0.0
  0
POINT
  5
1BCC
100
AcDbEntity
  8
DEFPOINTS
  6
BYBLOCK
 62
     0
 48
3.0
100
AcDbPoint
 10
646.683213
 20
-857.836202
 30
0.0
  0
POINT
  5
1BCD
100
AcDbEntity
  8
DEFPOINTS
  6
BYBLOCK
 62
     0
 48
3.0
100
AcDbPoint
 10
797.240711
 20
-857.836202
 30
0.0
  0
ENDBLK
  5
1BCE
100
AcDbEntity
  8
0
 48
3.0
100
AcDbBlockEnd
  0
BLOCK
  5
1A9C
100
AcDbEntity
  8
0
 48
3.0
100
AcDbBlockBegin
  2
*D3
 70
     1
 10
0.0
 20
0.0
 30
0.0
  3
*D3
  1

  0
LINE
  5
1A9D
100
AcDbEntity
  8
0
  6
BYBLOCK
 62
     0
 48
3.0
100
AcDbLine
 10
927.829624
 20
-861.836202
 30
0.0
 11
927.829624
 21
-931.415491
 31
0.0
  0
LINE
  5
1A9E
100
AcDbEntity
  8
0
  6
BYBLOCK
 62
     0
 48
3.0
100
AcDbLine
 10
1357.829624
 20
-861.836202
 30
0.0
 11
1357.829624
 21
-931.415491
 31
0.0
  0
LINE
  5
1A9F
100
AcDbEntity
  8
0
  6
BYBLOCK
 62
     0
 48
3.0
100
AcDbLine
 10
952.829624
 20
-930.165491
 30
0.0
 11
1332.829624
 21
-930.165491
 31
0.0
  0
INSERT
  5
1AA0
100
AcDbEntity
  8
0
  6
BYBLOCK
 62
     0
 48
3.0
100
AcDbBlockReference
  2
_OPEN
 10
927.829624
 20
-930.165491
 30
0.0
 41
25.0
 42
25.0
 43
25.0
 50
180.0
  0
INSERT
  5
1AA1
100
AcDbEntity
  8
0
  6
BYBLOCK
 62
     0
 48
3.0
100
AcDbBlockReference
  2
_OPEN
 10
1357.829624
 20
-930.165491
 30
0.0
 41
25.0
 42
25.0
 43
25.0
  0
MTEXT
  5
1AA2
100
AcDbEntity
  8
0
  6
BYBLOCK
 62
     0
 48
3.0
100
AcDbMText
 10
1142.829624
 20
-911.165491
 30
0.0
 40
30.0
 41
0.0
 71
     5
 72
     1
  1
\A1;430
  7
ED30
  0
POINT
  5
1AA3
100
AcDbEntity
  8
DEFPOINTS
  6
BYBLOCK
 62
     0
 48
3.0
100
AcDbPoint
 10
927.829624
 20
-860.836202
 30
0.0
  0
POINT
  5
1AA4
100
AcDbEntity
  8
DEFPOINTS
  6
BYBLOCK
 62
     0
 48
3.0
100
AcDbPoint
 10
1357.829624
 20
-860.836202
 30
0.0
  0
POINT
  5
1AA5
100
AcDbEntity
  8
DEFPOINTS
  6
BYBLOCK
 62
     0
 48
3.0
100
AcDbPoint
 10
1357.829624
 20
-930.165491
 30
0.0
  0
ENDBLK
  5
1AA6
100
AcDbEntity
  8
0
 48
3.0
100
AcDbBlockEnd
  0
BLOCK
  5
19EE
100
AcDbEntity
  8
0
 48
3.0
100
AcDbBlockBegin
  2
*D4
 70
     1
 10
0.0
 20
0.0
 30
0.0
  3
*D4
  1

  0
LINE
  5
19EF
100
AcDbEntity
  8
0
  6
BYBLOCK
 62
     0
 48
3.0
100
AcDbLine
 10
679.183213
 20
-550.836202
 30
0.0
 11
736.69878
 21
-550.836202
 31
0.0
  0
LINE
  5
19F0
100
AcDbEntity
  8
0
  6
BYBLOCK
 62
     0
 48
3.0
100
AcDbLine
 10
679.183213
 20
-750.836202
 30
0.0
 11
736.69878
 21
-750.836202
 31
0.0
  0
LINE
  5
19F1
100
AcDbEntity
  8
0
  6
BYBLOCK
 62
     0
 48
3.0
100
AcDbLine
 10
735.44878
 20
-575.836202
 30
0.0
 11
735.44878
 21
-725.836202
 31
0.0
  0
INSERT
  5
19F2
100
AcDbEntity
  8
0
  6
BYBLOCK
 62
     0
 48
3.0
100
AcDbBlockReference
  2
_OPEN
 10
735.44878
 20
-550.836202
 30
0.0
 41
25.0
 42
25.0
 43
25.0
 50
90.0
  0
INSERT
  5
19F3
100
AcDbEntity
  8
0
  6
BYBLOCK
 62
     0
 48
3.0
100
AcDbBlockReference
  2
_OPEN
 10
735.44878
 20
-750.836202
 30
0.0
 41
25.0
 42
25.0
 43
25.0
 50
270.0
  0
MTEXT
  5
19F4
100
AcDbEntity
  8
0
  6
BYBLOCK
 62
     0
 48
3.0
100
AcDbMText
 10
716.445827
 20
-650.836202
 30
0.0
 40
30.0
 41
0.0
 71
     5
 72
     1
  1
\A1;\U+2205200
  7
ED30
 11
0.0
 21
1.0
 31
0.0
  0
POINT
  5
19F5
100
AcDbEntity
  8
DEFPOINTS
  6
BYBLOCK
 62
     0
 48
3.0
100
AcDbPoint
 10
678.183213
 20
-550.836202
 30
0.0
  0
POINT
  5
19F6
100
AcDbEntity
  8
DEFPOINTS
  6
BYBLOCK
 62
     0
 48
3.0
100
AcDbPoint
 10
678.183213
 20
-750.836202
 30
0.0
  0
POINT
  5
19F7
100
AcDbEntity
  8
DEFPOINTS
  6
BYBLOCK
 62
     0
 48
3.0
100
AcDbPoint
 10
735.44878
 20
-750.836202
 30
0.0
  0
ENDBLK
  5
19F8
100
AcDbEntity
  8
0
 48
3.0
100
AcDbBlockEnd
  0
BLOCK
  5
1B1D
100
AcDbEntity
  8
0
 48
3.0
100
AcDbBlockBegin
  2
*D5
 70
     1
 10
0.0
 20
0.0
 30
0.0
  3
*D5
  1

  0
LINE
  5
1B1E
100
AcDbEntity
  8
0
  6
BYBLOCK
 62
     0
 48
3.0
100
AcDbLine
 10
219.183213
 20
-647.836202
 30
0.0
 11
155.771546
 21
-647.836202
 31
0.0
  0
LINE
  5
1B1F
100
AcDbEntity
  8
0
  6
BYBLOCK
 62
     0
 48
3.0
100
AcDbLine
 10
262.183213
 20
-857.836202
 30
0.0
 11
155.771546
 21
-857.836202
 31
0.0
  0
LINE
  5
1B20
100
AcDbEntity
  8
0
  6
BYBLOCK
 62
     0
 48
3.0
100
AcDbLine
 10
157.021546
 20
-672.836202
 30
0.0
 11
157.021546
 21
-832.836202
 31
0.0
  0
INSERT
  5
1B21
100
AcDbEntity
  8
0
  6
BYBLOCK
 62
     0
 48
3.0
100
AcDbBlockReference
  2
_OPEN
 10
157.021546
 20
-647.836202
 30
0.0
 41
25.0
 42
25.0
 43
25.0
 50
90.0
  0
INSERT
  5
1B22
100
AcDbEntity
  8
0
  6
BYBLOCK
 62
     0
 48
3.0
100
AcDbBlockReference
  2
_OPEN
 10
157.021546
 20
-857.836202
 30
0.0
 41
25.0
 42
25.0
 43
25.0
 50
270.0
  0
MTEXT
  5
1B23
100
AcDbEntity
  8
0
  6
BYBLOCK
 62
     0
 48
3.0
100
AcDbMText
 10
138.018594
 20
-752.836202
 30
0.0
 40
30.0
 41
0.0
 71
     5
 72
     1
  1
\A1;210
  7
ED30
 11
0.0
 21
1.0
 31
0.0
  0
POINT
  5
1B24
100
AcDbEntity
  8
DEFPOINTS
  6
BYBLOCK
 62
     0
 48
3.0
100
AcDbPoint
 10
220.183213
 20
-647.836202
 30
0.0
  0
POINT
  5
1B25
100
AcDbEntity
  8
DEFPOINTS
  6
BYBLOCK
 62
     0
 48
3.0
100
AcDbPoint
 10
263.183213
 20
-857.836202
 30
0.0
  0
POINT
  5
1B26
100
AcDbEntity
  8
DEFPOINTS
  6
BYBLOCK
 62
     0
 48
3.0
100
AcDbPoint
 10
157.021546
 20
-857.836202
 30
0.0
  0
ENDBLK
  5
1B27
100
AcDbEntity
  8
0
 48
3.0
100
AcDbBlockEnd
  0
BLOCK
  5
1B98
100
AcDbEntity
  8
0
 48
3.0
100
AcDbBlockBegin
  2
*D6
 70
     1
 10
0.0
 20
0.0
 30
0.0
  3
*D6
  1

  0
LINE
  5
1B99
100
AcDbEntity
  8
0
  6
BYBLOCK
 62
     0
 48
3.0
100
AcDbLine
 10
251.683213
 20
-858.836202
 30
0.0
 11
251.683213
 21
-931.415658
 31
0.0
  0
LINE
  5
1B9A
100
AcDbEntity
  8
0
  6
BYBLOCK
 62
     0
 48
3.0
100
AcDbLine
 10
646.683213
 20
-858.836202
 30
0.0
 11
646.683213
 21
-931.415658
 31
0.0
  0
LINE
  5
1B9B
100
AcDbEntity
  8
0
  6
BYBLOCK
 62
     0
 48
3.0
100
AcDbLine
 10
276.683213
 20
-930.165658
 30
0.0
 11
621.683213
 21
-930.165658
 31
0.0
  0
INSERT
  5
1B9C
100
AcDbEntity
  8
0
  6
BYBLOCK
 62
     0
 48
3.0
100
AcDbBlockReference
  2
_OPEN
 10
251.683213
 20
-930.165658
 30
0.0
 41
25.0
 42
25.0
 43
25.0
 50
180.0
  0
INSERT
  5
1B9D
100
AcDbEntity
  8
0
  6
BYBLOCK
 62
     0
 48
3.0
100
AcDbBlockReference
  2
_OPEN
 10
646.683213
 20
-930.165658
 30
0.0
 41
25.0
 42
25.0
 43
25.0
  0
MTEXT
  5
1B9E
100
AcDbEntity
  8
0
  6
BYBLOCK
 62
     0
 48
3.0
100
AcDbMText
 10
449.183213
 20
-911.165658
 30
0.0
 40
30.0
 41
0.0
 71
     5
 72
     1
  1
\A1;395
  7
ED30
  0
POINT
  5
1B9F
100
AcDbEntity
  8
DEFPOINTS
  6
BYBLOCK
 62
     0
 48
3.0
100
AcDbPoint
 10
251.683213
 20
-857.836202
 30
0.0
  0
POINT
  5
1BA0
100
AcDbEntity
  8
DEFPOINTS
  6
BYBLOCK
 62
     0
 48
3.0
100
AcDbPoint
 10
646.683213
 20
-857.836202
 30
0.0
  0
POINT
  5
1BA1
100
AcDbEntity
  8
DEFPOINTS
  6
BYBLOCK
 62
     0
 48
3.0
100
AcDbPoint
 10
646.683213
 20
-930.165658
 30
0.0
  0
ENDBLK
  5
1BA2
100
AcDbEntity
  8
0
 48
3.0
100
AcDbBlockEnd
  0
BLOCK
  5
1B10
100
AcDbEntity
  8
0
 48
3.0
100
AcDbBlockBegin
  2
*D7
 70
     1
 10
0.0
 20
0.0
 30
0.0
  3
*D7
  1

  0
LINE
  5
1B11
100
AcDbEntity
  8
0
  6
BYBLOCK
 62
     0
 48
3.0
100
AcDbLine
 10
220.183213
 20
-748.836202
 30
0.0
 11
220.183213
 21
-931.415658
 31
0.0
  0
LINE
  5
1B12
100
AcDbEntity
  8
0
  6
BYBLOCK
 62
     0
 48
3.0
100
AcDbLine
 10
263.183213
 20
-748.836202
 30
0.0
 11
263.183213
 21
-931.415658
 31
0.0
  0
LINE
  5
1B13
100
AcDbEntity
  8
0
  6
BYBLOCK
 62
     0
 48
3.0
100
AcDbLine
 10
288.183213
 20
-930.165658
 30
0.0
 11
313.183213
 21
-930.165658
 31
0.0
  0
LINE
  5
1B14
100
AcDbEntity
  8
0
  6
BYBLOCK
 62
     0
 48
3.0
100
AcDbLine
 10
195.183213
 20
-930.165658
 30
0.0
 11
124.940572
 21
-930.165658
 31
0.0
  0
LINE
  5
1B15
100
AcDbEntity
  8
0
  6
BYBLOCK
 62
     0
 48
3.0
100
AcDbLine
 10
263.183213
 20
-930.165658
 30
0.0
 11
220.183213
 21
-930.165658
 31
0.0
  0
INSERT
  5
1B16
100
AcDbEntity
  8
0
  6
BYBLOCK
 62
     0
 48
3.0
100
AcDbBlockReference
  2
_OPEN
 10
263.183213
 20
-930.165658
 30
0.0
 41
25.0
 42
25.0
 43
25.0
 50
180.0
  0
INSERT
  5
1B17
100
AcDbEntity
  8
0
  6
BYBLOCK
 62
     0
 48
3.0
100
AcDbBlockReference
  2
_OPEN
 10
220.183213
 20
-930.165658
 30
0.0
 41
25.0
 42
25.0
 43
25.0
  0
MTEXT
  5
1B18
100
AcDbEntity
  8
0
  6
BYBLOCK
 62
     0
 48
3.0
100
AcDbMText
 10
147.561892
 20
-911.165658
 30
0.0
 40
30.0
 41
0.0
 71
     5
 72
     1
  1
\A1;43
  7
ED30
  0
POINT
  5
1B19
100
AcDbEntity
  8
DEFPOINTS
  6
BYBLOCK
 62
     0
 48
3.0
100
AcDbPoint
 10
220.183213
 20
-747.836202
 30
0.0
  0
POINT
  5
1B1A
100
AcDbEntity
  8
DEFPOINTS
  6
BYBLOCK
 62
     0
 48
3.0
100
AcDbPoint
 10
263.183213
 20
-747.836202
 30
0.0
  0
POINT
  5
1B1B
100
AcDbEntity
  8
DEFPOINTS
  6
BYBLOCK
 62
     0
 48
3.0
100
AcDbPoint
 10
263.183213
 20
-930.165658
 30
0.0
  0
ENDBLK
  5
1B1C
100
AcDbEntity
  8
0
 48
3.0
100
AcDbBlockEnd
  0
BLOCK
  5
1B28
100
AcDbEntity
  8
0
 48
3.0
100
AcDbBlockBegin
  2
*D8
 70
     1
 10
0.0
 20
0.0
 30
0.0
  3
*D8
  1

  0
LINE
  5
1B29
100
AcDbEntity
  8
0
  6
BYBLOCK
 62
     0
 48
3.0
100
AcDbLine
 10
635.183213
 20
-858.836202
 30
0.0
 11
635.183213
 21
-931.415658
 31
0.0
  0
LINE
  5
1B2A
100
AcDbEntity
  8
0
  6
BYBLOCK
 62
     0
 48
3.0
100
AcDbLine
 10
678.183213
 20
-748.836202
 30
0.0
 11
678.183213
 21
-931.415658
 31
0.0
  0
LINE
  5
1B2B
100
AcDbEntity
  8
0
  6
BYBLOCK
 62
     0
 48
3.0
100
AcDbLine
 10
610.183213
 20
-930.165658
 30
0.0
 11
585.183213
 21
-930.165658
 31
0.0
  0
LINE
  5
1B2C
100
AcDbEntity
  8
0
  6
BYBLOCK
 62
     0
 48
3.0
100
AcDbLine
 10
703.183213
 20
-930.165658
 30
0.0
 11
773.425853
 21
-930.165658
 31
0.0
  0
LINE
  5
1B2D
100
AcDbEntity
  8
0
  6
BYBLOCK
 62
     0
 48
3.0
100
AcDbLine
 10
635.183213
 20
-930.165658
 30
0.0
 11
678.183213
 21
-930.165658
 31
0.0
  0
INSERT
  5
1B2E
100
AcDbEntity
  8
0
  6
BYBLOCK
 62
     0
 48
3.0
100
AcDbBlockReference
  2
_OPEN
 10
635.183213
 20
-930.165658
 30
0.0
 41
25.0
 42
25.0
 43
25.0
  0
INSERT
  5
1B2F
100
AcDbEntity
  8
0
  6
BYBLOCK
 62
     0
 48
3.0
100
AcDbBlockReference
  2
_OPEN
 10
678.183213
 20
-930.165658
 30
0.0
 41
25.0
 42
25.0
 43
25.0
 50
180.0
  0
MTEXT
  5
1B30
100
AcDbEntity
  8
0
  6
BYBLOCK
 62
     0
 48
3.0
100
AcDbMText
 10
750.804533
 20
-911.165658
 30
0.0
 40
30.0
 41
0.0
 71
     5
 72
     1
  1
\A1;43
  7
ED30
  0
POINT
  5
1B31
100
AcDbEntity
  8
DEFPOINTS
  6
BYBLOCK
 62
     0
 48
3.0
100
AcDbPoint
 10
635.183213
 20
-857.836202
 30
0.0
  0
POINT
  5
1B32
100
AcDbEntity
  8
DEFPOINTS
  6
BYBLOCK
 62
     0
 48
3.0
100
AcDbPoint
 10
678.183213
 20
-747.836202
 30
0.0
  0
POINT
  5
1B33
100
AcDbEntity
  8
DEFPOINTS
  6
BYBLOCK
 62
     0
 48
3.0
100
AcDbPoint
 10
678.183213
 20
-930.165658
 30
0.0
  0
ENDBLK
  5
1B34
100
AcDbEntity
  8
0
 48
3.0
100
AcDbBlockEnd
  0
BLOCK
  5
17E4
100
AcDbEntity
  8
0
 48
3.0
100
AcDbBlockBegin
  2
AZAVER
 70
     0
 10
0.0
 20
0.0
 30
0.0
  3
AZAVER
  1

  0
LINE
  5
1817
100
AcDbEntity
  8
V0-OBRYS
  6
CONTINUOUS
 62
    90
 48
3.0
100
AcDbLine
 10
40.124616
 20
15.125763
 30
0.0
 11
65.339471
 21
15.125763
 31
0.0
  0
LINE
  5
1818
100
AcDbEntity
  8
V0-OBRYS
  6
CONTINUOUS
 62
    90
 48
3.0
100
AcDbLine
 10
35.802071
 20
-6.469158
 30
0.0
 11
69.662016
 21
-6.469158
 31
0.0
  0
LINE
  5
1819
100
AcDbEntity
  8
V0-OBRYS
  6
CONTINUOUS
 62
    90
 48
3.0
100
AcDbLine
 10
40.124616
 20
-59.016801
 30
0.0
 11
65.339471
 21
-59.016801
 31
0.0
  0
LINE
  5
181A
100
AcDbEntity
  8
V0-OBRYS
  6
CONTINUOUS
 62
    90
 48
3.0
100
AcDbLine
 10
40.124616
 20
-28.06408
 30
0.0
 11
65.339471
 21
-28.06408
 31
0.0
  0
LINE
  5
181B
100
AcDbEntity
  8
V0-OBRYS
  6
CONTINUOUS
 62
    90
 48
3.0
100
AcDbLine
 10
40.124616
 20
-10.788143
 30
0.0
 11
65.339471
 21
-10.788143
 31
0.0
  0
LINE
  5
181C
100
AcDbEntity
  8
V0-OBRYS
  6
CONTINUOUS
 62
    90
 48
3.0
100
AcDbLine
 10
40.124616
 20
-59.016801
 30
0.0
 11
40.124616
 21
-28.06408
 31
0.0
  0
LINE
  5
181D
100
AcDbEntity
  8
V0-OBRYS
  6
CONTINUOUS
 62
    90
 48
3.0
100
AcDbLine
 10
40.124616
 20
15.125763
 30
0.0
 11
40.124616
 21
-10.788143
 31
0.0
  0
LINE
  5
181E
100
AcDbEntity
  8
V0-OBRYS
  6
CONTINUOUS
 62
    90
 48
3.0
100
AcDbLine
 10
35.081648
 20
-6.469158
 30
0.0
 11
35.081648
 21
-35.262385
 31
0.0
  0
LINE
  5
181F
100
AcDbEntity
  8
V0-OBRYS
  6
CONTINUOUS
 62
    90
 48
3.0
100
AcDbLine
 10
35.081648
 20
-35.262385
 30
0.0
 11
39.404193
 21
-35.262385
 31
0.0
  0
LINE
  5
1820
100
AcDbEntity
  8
V0-OBRYS
  6
CONTINUOUS
 62
    90
 48
3.0
100
AcDbLine
 10
65.339471
 20
-28.06408
 30
0.0
 11
65.339471
 21
-59.016801
 31
0.0
  0
LINE
  5
1821
100
AcDbEntity
  8
V0-OBRYS
  6
CONTINUOUS
 62
    90
 48
3.0
100
AcDbLine
 10
65.339471
 20
-10.788143
 30
0.0
 11
65.339471
 21
15.125763
 31
0.0
  0
LINE
  5
1822
100
AcDbEntity
  8
V0-OBRYS
  6
CONTINUOUS
 62
    90
 48
3.0
100
AcDbLine
 10
69.662016
 20
-6.469158
 30
0.0
 11
69.662016
 21
-35.262385
 31
0.0
  0
LINE
  5
1823
100
AcDbEntity
  8
V0-OBRYS
  6
CONTINUOUS
 62
    90
 48
3.0
100
AcDbLine
 10
69.662016
 20
-35.262385
 30
0.0
 11
65.339471
 21
-35.262385
 31
0.0
  0
ENDBLK
  5
17F2
100
AcDbEntity
  8
0
 48
3.0
100
AcDbBlockEnd
  0
BLOCK
  5
1878
100
AcDbEntity
  8
0
 48
3.0
100
AcDbBlockBegin
  2
AZAVER-P
 70
     0
 10
0.0
 20
0.0
 30
0.0
  3
AZAVER-P
  1

  0
LINE
  5
1879
100
AcDbEntity
  8
V0-OBRYS
  6
CONTINUOUS
 62
    90
 48
3.0
100
AcDbLine
 10
-3.827085
 20
-36.911801
 30
0.0
 11
-3.827085
 21
-70.692253
 31
0.0
  0
LINE
  5
187A
100
AcDbEntity
  8
V0-OBRYS
  6
CONTINUOUS
 62
    90
 48
3.0
100
AcDbLine
 10
-2.200766
 20
-70.692253
 30
0.0
 11
-2.200766
 21
-41.390269
 31
0.0
  0
ARC
  5
187B
100
AcDbEntity
  8
V0-OBRYS
  6
CONTINUOUS
 62
    90
 48
3.0
100
AcDbCircle
 10
-3.013925
 20
-70.692253
 30
0.0
 40
0.813159
100
AcDbArc
 50
180.0
 51
0.0
  0
LINE
  5
187C
100
AcDbEntity
  8
V0-OBRYS
  6
CONTINUOUS
 62
    90
 48
3.0
100
AcDbLine
 10
-6.519751
 20
-41.292399
 30
0.0
 11
-3.827085
 21
-41.292399
 31
0.0
  0
LINE
  5
187D
100
AcDbEntity
  8
V0-OBRYS
  6
CONTINUOUS
 62
    90
 48
3.0
100
AcDbLine
 10
-3.827085
 20
-66.507255
 30
0.0
 11
-6.519751
 21
-66.507255
 31
0.0
  0
LINE
  5
187E
100
AcDbEntity
  8
V0-OBRYS
  6
CONTINUOUS
 62
    90
 48
3.0
100
AcDbLine
 10
-6.519751
 20
-66.507255
 30
0.0
 11
-6.519751
 21
-41.292399
 31
0.0
  0
ARC
  5
187F
100
AcDbEntity
  8
V0-OBRYS
  6
CONTINUOUS
 62
    90
 48
3.0
100
AcDbCircle
 10
-3.013925
 20
-36.911801
 30
0.0
 40
0.813159
100
AcDbArc
 50
0.0
 51
180.0
  0
LINE
  5
1880
100
AcDbEntity
  8
V0-OBRYS
  6
CONTINUOUS
 62
    90
 48
3.0
100
AcDbLine
 10
-2.200766
 20
-41.390269
 30
0.0
 11
-2.200766
 21
-36.911801
 31
0.0
  0
LINE
  5
1881
100
AcDbEntity
  8
V0-OBRYS
  6
CONTINUOUS
 62
    90
 48
3.0
100
AcDbLine
 10
-2.191912
 20
-41.292399
 30
0.0
 11
0.0
 21
-41.292399
 31
0.0
  0
LINE
  5
1882
100
AcDbEntity
  8
V0-OBRYS
  6
CONTINUOUS
 62
    90
 48
3.0
100
AcDbLine
 10
0.0
 20
-66.507255
 30
0.0
 11
-2.191912
 21
-66.507255
 31
0.0
  0
ENDBLK
  5
1883
100
AcDbEntity
  8
0
 48
3.0
100
AcDbBlockEnd
  0
BLOCK
  5
189F
100
AcDbEntity
  8
0
 48
3.0
100
AcDbBlockBegin
  2
AZAVER-B
 70
     0
 10
0.0
 20
0.0
 30
0.0
  3
AZAVER-B
  1

  0
LINE
  5
18AE
100
AcDbEntity
  8
V0-OBRYS
  6
CONTINUOUS
 62
    90
 48
3.0
100
AcDbLine
 10
-7.466751
 20
-65.180052
 30
0.0
 11
-7.466751
 21
-78.057025
 31
0.0
  0
LINE
  5
18AF
100
AcDbEntity
  8
V0-OBRYS
  6
CONTINUOUS
 62
    90
 48
3.0
100
AcDbLine
 10
-3.324311
 20
-54.602539
 30
0.0
 11
-3.324311
 21
-25.629357
 31
0.0
  0
LINE
  5
18B0
100
AcDbEntity
  8
V0-OBRYS
  6
CONTINUOUS
 62
    90
 48
3.0
100
AcDbLine
 10
-5.625665
 20
-25.629357
 30
0.0
 11
-5.625665
 21
-54.602539
 31
0.0
  0
LINE
  5
18B1
100
AcDbEntity
  8
V0-OBRYS
  6
CONTINUOUS
 62
    90
 48
3.0
100
AcDbLine
 10
-5.625665
 20
-54.602539
 30
0.0
 11
-3.324311
 21
-54.602539
 31
0.0
  0
LINE
  5
18B2
100
AcDbEntity
  8
V0-OBRYS
  6
CONTINUOUS
 62
    90
 48
3.0
100
AcDbLine
 10
-1.483225
 20
-47.24427
 30
0.0
 11
-7.466751
 21
-47.24427
 31
0.0
  0
LINE
  5
18B3
100
AcDbEntity
  8
V0-OBRYS
  6
CONTINUOUS
 62
    90
 48
3.0
100
AcDbLine
 10
-7.466751
 20
-47.24427
 30
0.0
 11
-7.466751
 21
-65.180052
 31
0.0
  0
LINE
  5
18B4
100
AcDbEntity
  8
V0-OBRYS
  6
CONTINUOUS
 62
    90
 48
3.0
100
AcDbLine
 10
-1.483225
 20
-58.741568
 30
0.0
 11
-1.483225
 21
-47.24427
 31
0.0
  0
LINE
  5
18B5
100
AcDbEntity
  8
V0-OBRYS
  6
CONTINUOUS
 62
    90
 48
3.0
100
AcDbLine
 10
-3.324311
 20
-25.629357
 30
0.0
 11
-5.625665
 21
-25.629357
 31
0.0
  0
LINE
  5
18B6
100
AcDbEntity
  8
V0-OBRYS
  6
CONTINUOUS
 62
    90
 48
3.0
100
AcDbLine
 10
-1.483225
 20
-30.228273
 30
0.0
 11
-7.927024
 21
-30.228273
 31
0.0
  0
LINE
  5
18B7
100
AcDbEntity
  8
V0-OBRYS
  6
CONTINUOUS
 62
    90
 48
3.0
100
AcDbLine
 10
-7.927024
 20
-30.228273
 30
0.0
 11
-7.927024
 21
-24.249679
 31
0.0
  0
LINE
  5
18B8
100
AcDbEntity
  8
V0-OBRYS
  6
CONTINUOUS
 62
    90
 48
3.0
100
AcDbLine
 10
-1.483225
 20
-4.01444
 30
0.0
 11
-1.483225
 21
-30.228273
 31
0.0
  0
ENDBLK
  5
18AB
100
AcDbEntity
  8
0
 48
3.0
100
AcDbBlockEnd
  0
BLOCK
  5
18FC
100
AcDbEntity
  8
0
 62
    41
 48
3.0
100
AcDbBlockBegin
  2
CMB-240-180-N
 70
     0
 10
0.0
 20
0.0
 30
0.0
  3
CMB-240-180-N
  1

  0
LINE
  5
18D7
100
AcDbEntity
  8
V0-VYPLNE
100
AcDbLine
 10
-181.44995
 20
-26.63432
 30
0.0
 11
-181.44995
 21
-139.133702
 31
0.0
  0
ARC
  5
18D8
100
AcDbEntity
  8
V0-OBRYS
100
AcDbCircle
 10
-170.55995
 20
79.520028
 30
0.0
 40
209.33
100
AcDbArc
 50
182.626485
 51
270.0
  0
MTEXT
  5
18D9
100
AcDbEntity
  8
V0-NAZVY
100
AcDbMText
 10
-250.860869
 20
-44.196084
 30
0.0
 40
27.225
 41
223.9425
 71
     5
 72
     5
  1
CBM-240-180
  7
ED10
  0
LINE
  5
18DA
100
AcDbEntity
  8
V0-VYPLNE
100
AcDbLine
 10
25.866213
 20
100.090028
 30
0.0
 11
-335.743575
 21
100.090028
 31
0.0
  0
LWPOLYLINE
  5
18DB
100
AcDbEntity
  8
V0-OBRYS
100
AcDbPolyline
 90
        4
 70
     1
 43
0.0
 10
-252.833381
 20
-106.848253
 10
-182.833381
 20
-106.848253
 10
-182.833381
 20
-86.848253
 10
-252.833381
 20
-86.848253
  0
ARC
  5
18DC
100
AcDbEntity
  8
V0-OBRYS
100
AcDbCircle
 10
-184.44995
 20
100.090028
 30
0.0
 40
67.414501
100
AcDbArc
 50
32.684046
 51
147.424572
  0
ARC
  5
18DD
100
AcDbEntity
  8
V0-OBRYS
100
AcDbCircle
 10
-184.44995
 20
100.090028
 30
0.0
 40
105.571475
100
AcDbArc
 50
31.727031
 51
148.450037
  0
ARC
  5
18DE
100
AcDbEntity
  8
V0-OBRYS
100
AcDbCircle
 10
-184.44995
 20
100.090028
 30
0.0
 40
110.298019
100
AcDbArc
 50
31.609657
 51
148.514274
  0
LINE
  5
18DF
100
AcDbEntity
  8
V0-OBRYS
100
AcDbLine
 10
-208.026241
 20
110.208837
 30
0.0
 11
-295.708955
 21
160.832476
 31
0.0
  0
LINE
  5
18E0
100
AcDbEntity
  8
V0-OBRYS
100
AcDbLine
 10
-205.001241
 20
115.44829
 30
0.0
 11
-292.683955
 21
166.071929
 31
0.0
  0
ARC
  5
18E1
100
AcDbEntity
  8
V0-OBRYS
100
AcDbCircle
 10
-184.44995
 20
100.090028
 30
0.0
 40
110.298019
100
AcDbArc
 50
151.558401
 51
268.418387
  0
ARC
  5
18E2
100
AcDbEntity
  8
V0-OBRYS
100
AcDbCircle
 10
-184.44995
 20
100.090028
 30
0.0
 40
105.571475
100
AcDbArc
 50
151.655913
 51
268.285088
  0
ARC
  5
18E3
100
AcDbEntity
  8
V0-OBRYS
100
AcDbCircle
 10
-184.44995
 20
100.090028
 30
0.0
 40
67.414501
100
AcDbArc
 50
152.614823
 51
267.600439
  0
ARC
  5
18E4
100
AcDbEntity
  8
V0-OBRYS
100
AcDbCircle
 10
-197.17995
 20
79.520028
 30
0.0
 40
182.71
100
AcDbArc
 50
90.0
 51
182.916555
  0
ARC
  5
18E5
100
AcDbEntity
  8
V0-OBRYS
100
AcDbCircle
 10
-294.196455
 20
163.452203
 30
0.0
 40
3.025
100
AcDbArc
 50
60.0
 51
240.0
  0
ARC
  5
18E6
100
AcDbEntity
  8
V0-OBRYS
100
AcDbCircle
 10
-170.55995
 20
79.520028
 30
0.0
 40
209.33
100
AcDbArc
 50
179.728476
 51
180.0
  0
ARC
  5
18E7
100
AcDbEntity
  8
V0-OBRYS
100
AcDbCircle
 10
-74.703445
 20
163.452203
 30
0.0
 40
3.025
100
AcDbArc
 50
300.0
 51
120.0
  0
LINE
  5
18E8
100
AcDbEntity
  8
V0-OBRYS
100
AcDbLine
 10
-163.89866
 20
115.44829
 30
0.0
 11
-76.215945
 21
166.071929
 31
0.0
  0
LINE
  5
18E9
100
AcDbEntity
  8
V0-VYPLNE
100
AcDbLine
 10
-183.44995
 20
261.435409
 30
0.0
 11
-184.44995
 21
-26.63432
 31
0.0
  0
ARC
  5
18EA
100
AcDbEntity
  8
V0-OBRYS
100
AcDbCircle
 10
-205.836025
 20
98.077269
 30
0.0
 40
164.380826
100
AcDbArc
 50
11.130492
 51
86.981485
  0
ARC
  5
18EB
100
AcDbEntity
  8
V0-OBRYS
100
AcDbCircle
 10
-184.44995
 20
100.090028
 30
0.0
 40
110.298019
100
AcDbArc
 50
271.628789
 51
28.480046
  0
ARC
  5
18EC
100
AcDbEntity
  8
V0-OBRYS
100
AcDbCircle
 10
-184.44995
 20
100.090028
 30
0.0
 40
105.571475
100
AcDbArc
 50
271.637083
 51
28.280642
  0
LINE
  5
18ED
100
AcDbEntity
  8
V0-OBRYS
100
AcDbLine
 10
-187.47495
 20
74.612957
 30
0.0
 11
-187.47495
 21
-26.63432
 31
0.0
  0
LINE
  5
18EE
100
AcDbEntity
  8
V0-OBRYS
100
AcDbLine
 10
-181.42495
 20
74.612957
 30
0.0
 11
-181.42495
 21
-26.63432
 31
0.0
  0
LINE
  5
18EF
100
AcDbEntity
  8
V0-OBRYS
100
AcDbLine
 10
-44.547191
 20
129.810028
 30
0.0
 11
-44.547191
 21
-129.265036
 31
0.0
  0
LINE
  5
18F0
100
AcDbEntity
  8
V0-OBRYS
100
AcDbLine
 10
0.00005
 20
-129.809972
 30
0.0
 11
0.00005
 21
129.810028
 31
0.0
  0
LWPOLYLINE
  5
18F1
100
AcDbEntity
  8
V0-OBRYS
100
AcDbPolyline
 90
        4
 70
     1
 43
0.0
 10
-147.266717
 20
-120.838177
 10
-87.266717
 20
-120.838177
 10
-87.266717
 20
-60.838177
 10
-147.266717
 20
-60.838177
  0
LINE
  5
18F2
100
AcDbEntity
  8
V0-OBRYS
100
AcDbLine
 10
-170.55995
 20
-129.809972
 30
0.0
 11
0.00005
 21
-129.809972
 31
0.0
  0
ARC
  5
18F3
100
AcDbEntity
  8
V0-OBRYS
100
AcDbCircle
 10
-181.44995
 20
-26.63432
 30
0.0
 40
3.025
100
AcDbArc
 50
180.0
 51
0.0
  0
POINT
  5
18F4
100
AcDbEntity
  8
0
  6
CONTINUOUS
 62
     7
100
AcDbPoint
 10
0.00005
 20
0.000028
 30
0.0
  0
ARC
  5
18F5
100
AcDbEntity
  8
V0-OBRYS
100
AcDbCircle
 10
-184.44995
 20
100.090028
 30
0.0
 40
67.414501
100
AcDbArc
 50
272.565236
 51
27.437736
  0
LINE
  5
18F6
100
AcDbEntity
  8
V0-OBRYS
100
AcDbLine
 10
-160.87366
 20
110.208837
 30
0.0
 11
-73.190945
 21
160.832476
 31
0.0
  0
CIRCLE
  5
18F7
100
AcDbEntity
  8
V0-OBRYS
100
AcDbCircle
 10
-184.44995
 20
100.090028
 30
0.0
 40
25.477071
  0
LINE
  5
18F8
100
AcDbEntity
  8
V0-OBRYS
100
AcDbLine
 10
-181.42495
 20
74.612957
 30
0.0
 11
-187.47495
 21
74.612957
 31
0.0
  0
LINE
  5
18F9
100
AcDbEntity
  8
V0-OBRYS
100
AcDbLine
 10
-208.026241
 20
110.208837
 30
0.0
 11
-205.001241
 21
115.44829
 31
0.0
  0
LINE
  5
18FA
100
AcDbEntity
  8
V0-OBRYS
100
AcDbLine
 10
-163.89866
 20
115.44829
 30
0.0
 11
-160.87366
 21
110.208837
 31
0.0
  0
LINE
  5
18FB
100
AcDbEntity
  8
V0-OBRYS
100
AcDbLine
 10
-44.547191
 20
129.810028
 30
0.0
 11
0.00005
 21
129.810028
 31
0.0
  0
ENDBLK
  5
18FD
100
AcDbEntity
  8
0
 62
    41
 48
3.0
100
AcDbBlockEnd
  0
BLOCK
  5
1BAE
100
AcDbEntity
  8
0
 48
3.0
100
AcDbBlockBegin
  2
*D13
 70
     1
 10
0.0
 20
0.0
 30
0.0
  3
*D13
  1

  0
LINE
  5
1BAF
100
AcDbEntity
  8
0
  6
BYBLOCK
 62
     0
 48
3.0
100
AcDbLine
 10
648.683213
 20
-528.836202
 30
0.0
 11
648.683213
 21
-453.821054
 31
0.0
  0
LINE
  5
1BB0
100
AcDbEntity
  8
0
  6
BYBLOCK
 62
     0
 48
3.0
100
AcDbLine
 10
249.683213
 20
-528.836202
 30
0.0
 11
249.683213
 21
-453.821054
 31
0.0
  0
LINE
  5
1BB1
100
AcDbEntity
  8
0
  6
BYBLOCK
 62
     0
 48
3.0
100
AcDbLine
 10
623.683213
 20
-455.071054
 30
0.0
 11
274.683213
 21
-455.071054
 31
0.0
  0
INSERT
  5
1BB2
100
AcDbEntity
  8
0
  6
BYBLOCK
 62
     0
 48
3.0
100
AcDbBlockReference
  2
_OPEN
 10
648.683213
 20
-455.071054
 30
0.0
 41
25.0
 42
25.0
 43
25.0
  0
INSERT
  5
1BB3
100
AcDbEntity
  8
0
  6
BYBLOCK
 62
     0
 48
3.0
100
AcDbBlockReference
  2
_OPEN
 10
249.683213
 20
-455.071054
 30
0.0
 41
25.0
 42
25.0
 43
25.0
 50
180.0
  0
MTEXT
  5
1BB4
100
AcDbEntity
  8
0
  6
BYBLOCK
 62
     0
 48
3.0
100
AcDbMText
 10
449.183213
 20
-436.071054
 30
0.0
 40
30.0
 41
0.0
 71
     5
 72
     1
  1
\A1;399
  7
ED30
  0
POINT
  5
1BB5
100
AcDbEntity
  8
DEFPOINTS
  6
BYBLOCK
 62
     0
 48
3.0
100
AcDbPoint
 10
648.683213
 20
-529.836202
 30
0.0
  0
POINT
  5
1BB6
100
AcDbEntity
  8
DEFPOINTS
  6
BYBLOCK
 62
     0
 48
3.0
100
AcDbPoint
 10
249.683213
 20
-529.836202
 30
0.0
  0
POINT
  5
1BB7
100
AcDbEntity
  8
DEFPOINTS
  6
BYBLOCK
 62
     0
 48
3.0
100
AcDbPoint
 10
249.683213
 20
-455.071054
 30
0.0
  0
ENDBLK
  5
1BB8
100
AcDbEntity
  8
0
 48
3.0
100
AcDbBlockEnd
  0
BLOCK
  5
1B61
100
AcDbEntity
  8
0
 48
3.0
100
AcDbBlockBegin
  2
*D14
 70
     1
 10
0.0
 20
0.0
 30
0.0
  3
*D14
  1

  0
LINE
  5
1B62
100
AcDbEntity
  8
0
  6
BYBLOCK
 62
     0
 48
3.0
100
AcDbLine
 10
925.829624
 20
-528.836202
 30
0.0
 11
925.829624
 21
-444.398395
 31
0.0
  0
LINE
  5
1B63
100
AcDbEntity
  8
0
  6
BYBLOCK
 62
     0
 48
3.0
100
AcDbLine
 10
1359.829624
 20
-528.836202
 30
0.0
 11
1359.829624
 21
-444.398395
 31
0.0
  0
LINE
  5
1B64
100
AcDbEntity
  8
0
  6
BYBLOCK
 62
     0
 48
3.0
100
AcDbLine
 10
950.829624
 20
-445.648395
 30
0.0
 11
1334.829624
 21
-445.648395
 31
0.0
  0
INSERT
  5
1B65
100
AcDbEntity
  8
0
  6
BYBLOCK
 62
     0
 48
3.0
100
AcDbBlockReference
  2
_OPEN
 10
925.829624
 20
-445.648395
 30
0.0
 41
25.0
 42
25.0
 43
25.0
 50
180.0
  0
INSERT
  5
1B66
100
AcDbEntity
  8
0
  6
BYBLOCK
 62
     0
 48
3.0
100
AcDbBlockReference
  2
_OPEN
 10
1359.829624
 20
-445.648395
 30
0.0
 41
25.0
 42
25.0
 43
25.0
  0
MTEXT
  5
1B67
100
AcDbEntity
  8
0
  6
BYBLOCK
 62
     0
 48
3.0
100
AcDbMText
 10
1142.829624
 20
-426.648395
 30
0.0
 40
30.0
 41
0.0
 71
     5
 72
     1
  1
\A1;434
  7
ED30
  0
POINT
  5
1B68
100
AcDbEntity
  8
DEFPOINTS
  6
BYBLOCK
 62
     0
 48
3.0
100
AcDbPoint
 10
925.829624
 20
-529.836202
 30
0.0
  0
POINT
  5
1B69
100
AcDbEntity
  8
DEFPOINTS
  6
BYBLOCK
 62
     0
 48
3.0
100
AcDbPoint
 10
1359.829624
 20
-529.836202
 30
0.0
  0
POINT
  5
1B6A
100
AcDbEntity
  8
DEFPOINTS
  6
BYBLOCK
 62
     0
 48
3.0
100
AcDbPoint
 10
1359.829624
 20
-445.648395
 30
0.0
  0
ENDBLK
  5
1B6B
100
AcDbEntity
  8
0
 48
3.0
100
AcDbBlockEnd
  0
BLOCK
  5
1B6C
100
AcDbEntity
  8
0
 48
3.0
100
AcDbBlockBegin
  2
*D15
 70
     1
 10
0.0
 20
0.0
 30
0.0
  3
*D15
  1

  0
LINE
  5
1B6D
100
AcDbEntity
  8
0
  6
BYBLOCK
 62
     0
 48
3.0
100
AcDbLine
 10
260.183213
 20
-109.836202
 30
0.0
 11
170.555914
 21
-109.836202
 31
0.0
  0
LINE
  5
1B6E
100
AcDbEntity
  8
0
  6
BYBLOCK
 62
     0
 48
3.0
100
AcDbLine
 10
260.183213
 20
-529.836202
 30
0.0
 11
170.555914
 21
-529.836202
 31
0.0
  0
LINE
  5
1B6F
100
AcDbEntity
  8
0
  6
BYBLOCK
 62
     0
 48
3.0
100
AcDbLine
 10
171.805914
 20
-134.836202
 30
0.0
 11
171.805914
 21
-504.836202
 31
0.0
  0
INSERT
  5
1B70
100
AcDbEntity
  8
0
  6
BYBLOCK
 62
     0
 48
3.0
100
AcDbBlockReference
  2
_OPEN
 10
171.805914
 20
-109.836202
 30
0.0
 41
25.0
 42
25.0
 43
25.0
 50
90.0
  0
INSERT
  5
1B71
100
AcDbEntity
  8
0
  6
BYBLOCK
 62
     0
 48
3.0
100
AcDbBlockReference
  2
_OPEN
 10
171.805914
 20
-529.836202
 30
0.0
 41
25.0
 42
25.0
 43
25.0
 50
270.0
  0
MTEXT
  5
1B72
100
AcDbEntity
  8
0
  6
BYBLOCK
 62
     0
 48
3.0
100
AcDbMText
 10
152.802962
 20
-319.836202
 30
0.0
 40
30.0
 41
0.0
 71
     5
 72
     1
  1
\A1;420
  7
ED30
 11
0.0
 21
1.0
 31
0.0
  0
POINT
  5
1B73
100
AcDbEntity
  8
DEFPOINTS
  6
BYBLOCK
 62
     0
 48
3.0
100
AcDbPoint
 10
261.183213
 20
-109.836202
 30
0.0
  0
POINT
  5
1B74
100
AcDbEntity
  8
DEFPOINTS
  6
BYBLOCK
 62
     0
 48
3.0
100
AcDbPoint
 10
261.183213
 20
-529.836202
 30
0.0
  0
POINT
  5
1B75
100
AcDbEntity
  8
DEFPOINTS
  6
BYBLOCK
 62
     0
 48
3.0
100
AcDbPoint
 10
171.805914
 20
-529.836202
 30
0.0
  0
ENDBLK
  5
1B76
100
AcDbEntity
  8
0
 48
3.0
100
AcDbBlockEnd
  0
ENDSEC
  0
SECTION
  2
ENTITIES
  0
LINE
  5
10EF
100
AcDbEntity
  8
V0-VYPLNE
 48
3.0
100
AcDbLine
 10
1005.761047
 20
-650.836202
 30
0.0
 11
1252.185507
 21
-650.836202
 31
0.0
  0
LINE
  5
10F7
100
AcDbEntity
  8
V0-OBRYS
  6
CONTINUOUS
 62
    90
 48
3.0
100
AcDbLine
 10
251.683213
 20
-532.836202
 30
0.0
 11
251.683213
 21
-857.836202
 31
0.0
  0
LINE
  5
10F8
100
AcDbEntity
  8
V0-OBRYS
  6
CONTINUOUS
 62
    90
 48
3.0
100
AcDbLine
 10
249.683213
 20
-529.836202
 30
0.0
 11
648.683213
 21
-529.836202
 31
0.0
  0
LINE
  5
10F9
100
AcDbEntity
  8
V0-OBRYS
  6
CONTINUOUS
 62
    90
 48
3.0
100
AcDbLine
 10
251.683213
 20
-857.836202
 30
0.0
 11
646.683213
 21
-857.836202
 31
0.0
  0
LINE
  5
10FA
100
AcDbEntity
  8
V0-OBRYS
  6
CONTINUOUS
 62
    90
 48
3.0
100
AcDbLine
 10
646.683213
 20
-532.836202
 30
0.0
 11
646.683213
 21
-857.836202
 31
0.0
  0
LINE
  5
10FB
100
AcDbEntity
  8
V0-OBRYS
  6
CONTINUOUS
 62
    90
 48
3.0
100
AcDbLine
 10
927.829624
 20
-532.836202
 30
0.0
 11
927.829624
 21
-860.836202
 31
0.0
  0
LINE
  5
10FC
100
AcDbEntity
  8
V0-OBRYS
  6
CONTINUOUS
 62
    90
 48
3.0
100
AcDbLine
 10
1357.829624
 20
-532.836202
 30
0.0
 11
1357.829624
 21
-860.836202
 31
0.0
  0
LINE
  5
10FD
100
AcDbEntity
  8
V0-OBRYS
  6
CONTINUOUS
 62
    90
 48
3.0
100
AcDbLine
 10
925.829624
 20
-529.836202
 30
0.0
 11
1359.829624
 21
-529.836202
 31
0.0
  0
LINE
  5
1122
100
AcDbEntity
  8
V0-OBRYS
 48
3.0
100
AcDbLine
 10
208.683213
 20
-747.836202
 30
0.0
 11
208.683213
 21
-547.836202
 31
0.0
  0
LINE
  5
1123
100
AcDbEntity
  8
V0-OBRYS
 48
3.0
100
AcDbLine
 10
208.683213
 20
-747.836202
 30
0.0
 11
218.683213
 21
-747.836202
 31
0.0
  0
LINE
  5
1124
100
AcDbEntity
  8
V0-OBRYS
 48
3.0
100
AcDbLine
 10
208.683213
 20
-547.836202
 30
0.0
 11
218.683213
 21
-547.836202
 31
0.0
  0
LINE
  5
1125
100
AcDbEntity
  8
V0-OBRYS
 48
3.0
100
AcDbLine
 10
218.683213
 20
-547.836202
 30
0.0
 11
218.683213
 21
-747.836202
 31
0.0
  0
LINE
  5
1126
100
AcDbEntity
  8
V0-OBRYS
 48
3.0
100
AcDbLine
 10
228.683213
 20
-747.836202
 30
0.0
 11
228.683213
 21
-547.836202
 31
0.0
  0
ARC
  5
1127
100
AcDbEntity
  8
V0-OBRYS
 48
3.0
100
AcDbCircle
 10
223.683213
 20
-547.836202
 30
0.0
 40
5.0
100
AcDbArc
 50
0.0
 51
180.0
  0
ARC
  5
1128
100
AcDbEntity
  8
V0-OBRYS
 48
3.0
100
AcDbCircle
 10
223.683213
 20
-747.836202
 30
0.0
 40
5.0
100
AcDbArc
 50
180.0
 51
0.0
  0
LINE
  5
1129
100
AcDbEntity
  8
V0-OBRYS
 48
3.0
100
AcDbLine
 10
228.683213
 20
-547.836202
 30
0.0
 11
251.683213
 21
-547.836202
 31
0.0
  0
LINE
  5
112A
100
AcDbEntity
  8
V0-OBRYS
 48
3.0
100
AcDbLine
 10
228.683213
 20
-747.836202
 30
0.0
 11
251.683213
 21
-747.836202
 31
0.0
  0
LINE
  5
112B
100
AcDbEntity
  8
V0-OBRYS
 48
3.0
100
AcDbLine
 10
669.683213
 20
-747.836202
 30
0.0
 11
669.683213
 21
-547.836202
 31
0.0
  0
LINE
  5
112C
100
AcDbEntity
  8
V0-OBRYS
 48
3.0
100
AcDbLine
 10
679.683213
 20
-547.836202
 30
0.0
 11
679.683213
 21
-747.836202
 31
0.0
  0
LINE
  5
112D
100
AcDbEntity
  8
V0-OBRYS
 48
3.0
100
AcDbLine
 10
689.683213
 20
-747.836202
 30
0.0
 11
689.683213
 21
-547.836202
 31
0.0
  0
LINE
  5
112E
100
AcDbEntity
  8
V0-OBRYS
 48
3.0
100
AcDbLine
 10
669.683213
 20
-747.836202
 30
0.0
 11
646.683213
 21
-747.836202
 31
0.0
  0
LINE
  5
112F
100
AcDbEntity
  8
V0-OBRYS
 48
3.0
100
AcDbLine
 10
689.683213
 20
-747.836202
 30
0.0
 11
679.683213
 21
-747.836202
 31
0.0
  0
ARC
  5
1130
100
AcDbEntity
  8
V0-OBRYS
 48
3.0
100
AcDbCircle
 10
674.683213
 20
-747.836202
 30
0.0
 40
5.0
100
AcDbArc
 50
180.0
 51
360.0
  0
LINE
  5
1131
100
AcDbEntity
  8
V0-OBRYS
 48
3.0
100
AcDbLine
 10
669.683213
 20
-547.836202
 30
0.0
 11
646.683213
 21
-547.836202
 31
0.0
  0
LINE
  5
1132
100
AcDbEntity
  8
V0-OBRYS
 48
3.0
100
AcDbLine
 10
689.683213
 20
-547.836202
 30
0.0
 11
679.683213
 21
-547.836202
 31
0.0
  0
ARC
  5
1133
100
AcDbEntity
  8
V0-OBRYS
 48
3.0
100
AcDbCircle
 10
674.683213
 20
-547.836202
 30
0.0
 40
5.0
100
AcDbArc
 50
360.0
 51
180.0
  0
LINE
  5
114B
100
AcDbEntity
  8
V0-VYPLNE
 48
3.0
100
AcDbLine
 10
186.852871
 20
-1303.498366
 30
0.0
 11
693.935856
 21
-1303.498366
 31
0.0
  0
LINE
  5
114D
100
AcDbEntity
  8
V0-OBRYS
 48
3.0
100
AcDbLine
 10
228.683213
 20
-1403.498366
 30
0.0
 11
228.683213
 21
-1203.498366
 31
0.0
  0
LINE
  5
114E
100
AcDbEntity
  8
V0-OBRYS
 48
3.0
100
AcDbLine
 10
218.683213
 20
-1203.498366
 30
0.0
 11
218.683213
 21
-1403.498366
 31
0.0
  0
LINE
  5
114F
100
AcDbEntity
  8
V0-OBRYS
 48
3.0
100
AcDbLine
 10
208.683213
 20
-1403.498366
 30
0.0
 11
208.683213
 21
-1203.498366
 31
0.0
  0
LINE
  5
1150
100
AcDbEntity
  8
V0-OBRYS
 48
3.0
100
AcDbLine
 10
228.683213
 20
-1403.498366
 30
0.0
 11
249.683213
 21
-1403.498366
 31
0.0
  0
LINE
  5
1151
100
AcDbEntity
  8
V0-OBRYS
 48
3.0
100
AcDbLine
 10
208.683213
 20
-1403.498366
 30
0.0
 11
218.683213
 21
-1403.498366
 31
0.0
  0
ARC
  5
1152
100
AcDbEntity
  8
V0-OBRYS
 48
3.0
100
AcDbCircle
 10
223.683213
 20
-1403.498366
 30
0.0
 40
5.0
100
AcDbArc
 50
180.0
 51
0.0
  0
LINE
  5
1153
100
AcDbEntity
  8
V0-OBRYS
 48
3.0
100
AcDbLine
 10
228.683213
 20
-1203.498366
 30
0.0
 11
249.683213
 21
-1203.498366
 31
0.0
  0
LINE
  5
1154
100
AcDbEntity
  8
V0-OBRYS
 48
3.0
100
AcDbLine
 10
208.683213
 20
-1203.498366
 30
0.0
 11
218.683213
 21
-1203.498366
 31
0.0
  0
ARC
  5
1155
100
AcDbEntity
  8
V0-OBRYS
 48
3.0
100
AcDbCircle
 10
223.683213
 20
-1203.498366
 30
0.0
 40
5.0
100
AcDbArc
 50
0.0
 51
180.0
  0
LINE
  5
1156
100
AcDbEntity
  8
V0-OBRYS
 48
3.0
100
AcDbLine
 10
687.683213
 20
-1403.498366
 30
0.0
 11
687.683213
 21
-1203.498366
 31
0.0
  0
LINE
  5
1157
100
AcDbEntity
  8
V0-OBRYS
 48
3.0
100
AcDbLine
 10
677.683213
 20
-1203.498366
 30
0.0
 11
677.683213
 21
-1403.498366
 31
0.0
  0
LINE
  5
1158
100
AcDbEntity
  8
V0-OBRYS
 48
3.0
100
AcDbLine
 10
667.683213
 20
-1403.498366
 30
0.0
 11
667.683213
 21
-1203.498366
 31
0.0
  0
LINE
  5
1159
100
AcDbEntity
  8
V0-OBRYS
 48
3.0
100
AcDbLine
 10
667.683213
 20
-1403.498366
 30
0.0
 11
648.683213
 21
-1403.498366
 31
0.0
  0
ARC
  5
115A
100
AcDbEntity
  8
V0-OBRYS
 48
3.0
100
AcDbCircle
 10
672.683213
 20
-1403.498366
 30
0.0
 40
5.0
100
AcDbArc
 50
180.0
 51
360.0
  0
LINE
  5
115B
100
AcDbEntity
  8
V0-OBRYS
 48
3.0
100
AcDbLine
 10
687.683213
 20
-1403.498366
 30
0.0
 11
677.683213
 21
-1403.498366
 31
0.0
  0
LINE
  5
115C
100
AcDbEntity
  8
V0-OBRYS
 48
3.0
100
AcDbLine
 10
667.683213
 20
-1203.498366
 30
0.0
 11
648.683213
 21
-1203.498366
 31
0.0
  0
ARC
  5
115D
100
AcDbEntity
  8
V0-OBRYS
 48
3.0
100
AcDbCircle
 10
672.683213
 20
-1203.498366
 30
0.0
 40
5.0
100
AcDbArc
 50
360.0
 51
180.0
  0
LINE
  5
115E
100
AcDbEntity
  8
V0-OBRYS
 48
3.0
100
AcDbLine
 10
687.683213
 20
-1203.498366
 30
0.0
 11
677.683213
 21
-1203.498366
 31
0.0
  0
DIMENSION
  5
1160
100
AcDbEntity
  8
V0-VYPLNE
  6
CONTINUOUS
 62
    41
 48
3.0
100
AcDbDimension
  2
*D1
 10
689.683213
 20
-986.252465
 30
0.0
 11
446.304902
 21
-986.252465
 31
0.0
 70
   160
  1
482
  3
ED30
100
AcDbAlignedDimension
 13
208.683213
 23
-747.836202
 33
0.0
 14
689.683213
 24
-747.836202
 34
0.0
100
AcDbRotatedDimension
1001
ACAD
1000
DSTYLE
1002
{
1070
    40
1040
1.0
1002
}
  0
DIMENSION
  5
1162
100
AcDbEntity
  8
V0-VYPLNE
  6
CONTINUOUS
 62
    41
 48
3.0
100
AcDbDimension
  2
*D2
 10
797.240711
 20
-857.836202
 30
0.0
 11
797.240711
 21
-685.521078
 31
0.0
 70
   160
  3
ED30
100
AcDbAlignedDimension
 13
646.683213
 23
-529.836202
 33
0.0
 14
646.683213
 24
-857.836202
 34
0.0
 50
90.0
100
AcDbRotatedDimension
1001
ACAD
1000
DSTYLE
1002
{
1070
    40
1040
1.0
1002
}
  0
DIMENSION
  5
1165
100
AcDbEntity
  8
V0-VYPLNE
  6
CONTINUOUS
 62
    41
 48
3.0
100
AcDbDimension
  2
*D3
 10
1357.829624
 20
-930.165491
 30
0.0
 11
1142.829624
 21
-930.165491
 31
0.0
 70
   160
  3
ED30
100
AcDbAlignedDimension
 13
927.829624
 23
-860.836202
 33
0.0
 14
1357.829624
 24
-860.836202
 34
0.0
100
AcDbRotatedDimension
1001
ACAD
1000
DSTYLE
1002
{
1070
    40
1040
1.0
1002
}
  0
MTEXT
  5
1166
100
AcDbEntity
  8
V0-ZBYTEK
100
AcDbMText
 10
1149.331052
 20
-1260.099802
 30
0.0
 40
22.5
 41
353.4649
 71
     5
 72
     5
  1
ZVUKOVE  IZOLOVANY
  7
ED10
  0
MTEXT
  5
1167
100
AcDbEntity
  8
V0-ZBYTEK
 62
    51
100
AcDbMText
 10
1152.917356
 20
-1191.914947
 30
0.0
 40
31.5
 41
892.3329
 71
     5
 72
     5
  1
RADIALNI VENTILATOR
  7
ED10
  0
MTEXT
  5
1168
100
AcDbEntity
  8
V0-NAZVY
100
AcDbMText
 10
1138.480998
 20
-1109.462536
 30
0.0
 40
56.25
 41
462.6911
 71
     5
 72
     5
  1
CAB-200
  7
ED10
  0
MTEXT
  5
116B
100
AcDbEntity
  8
V0-NAZVY
100
AcDbMText
 10
1141.897579
 20
-822.312664
 30
0.0
 40
33.75
 41
277.6147
 71
     5
 72
     5
  1
CAB-200
  7
ED10
  0
LINE
  5
12E6
100
AcDbEntity
  8
V0-VYPLNE
  6
DASHDOT
 62
    63
 48
3.0
100
AcDbLine
 10
1142.829624
 20
-533.720399
 30
0.0
 11
1142.829624
 21
-776.250374
 31
0.0
  0
CIRCLE
  5
12F7
100
AcDbEntity
  8
V0-OBRYS
  6
CONTINUOUS
 62
    90
 48
3.0
100
AcDbCircle
 10
1142.829624
 20
-650.836202
 30
0.0
 40
100.0
  0
CIRCLE
  5
12F8
100
AcDbEntity
  8
V0-OBRYS
  6
CONTINUOUS
 62
    90
 48
3.0
100
AcDbCircle
 10
1142.829624
 20
-650.836202
 30
0.0
 40
108.493258
  0
DIMENSION
  5
13FB
100
AcDbEntity
  8
V0-VYPLNE
  6
CONTINUOUS
 62
    41
 48
3.0
100
AcDbDimension
  2
*D4
 10
746.94878
 20
-747.836202
 30
0.0
 11
716.445827
 21
-650.836202
 31
0.0
 12
11.5
 22
3.0
 32
0.0
 70
    32
  1
%%c<>
  3
ED30
100
AcDbAlignedDimension
 13
689.683213
 23
-547.836202
 33
0.0
 14
689.683213
 24
-747.836202
 34
0.0
 50
90.0
100
AcDbRotatedDimension
1001
ACAD
1000
DSTYLE
1002
{
1070
    40
1040
1.0
1002
}
  0
MTEXT
  5
1427
100
AcDbEntity
  8
V0-NAZVY
100
AcDbMText
 10
433.692278
 20
-582.010188
 30
0.0
 40
33.75
 41
277.6147
 71
     5
 72
     5
  1
CAB-200
  7
ED10
  0
MTEXT
  5
1428
100
AcDbEntity
  8
V0-NAZVY
100
AcDbMText
 10
443.594288
 20
-1204.353274
 30
0.0
 40
33.75
 41
277.6147
 71
     5
 72
     5
  1
CAB-200
  7
ED10
  0
POINT
  5
1447
100
AcDbEntity
  8
V0-VYPLNE
  6
CONTINUOUS
 62
    41
 48
3.0
100
AcDbPoint
 10
208.683213
 20
-647.836202
 30
0.0
  0
POINT
  5
1449
100
AcDbEntity
  8
V0-VYPLNE
  6
CONTINUOUS
 62
    41
 48
3.0
100
AcDbPoint
 10
689.683213
 20
-647.836202
 30
0.0
  0
POINT
  5
144A
100
AcDbEntity
  8
V0-VYPLNE
  6
CONTINUOUS
 62
    41
 48
3.0
100
AcDbPoint
 10
208.683213
 20
-1303.498366
 30
0.0
  0
POINT
  5
144B
100
AcDbEntity
  8
V0-VYPLNE
  6
CONTINUOUS
 62
    41
 48
3.0
100
AcDbPoint
 10
687.683213
 20
-1303.498366
 30
0.0
  0
DIMENSION
  5
15DF
100
AcDbEntity
  8
V0-VYPLNE
  6
CONTINUOUS
 62
    41
 48
3.0
100
AcDbDimension
  2
*D5
 10
145.521546
 20
-857.836202
 30
0.0
 11
138.018594
 21
-752.836202
 31
0.0
 12
-11.5
 22
0.0
 32
0.0
 70
    32
  3
ED30
100
AcDbAlignedDimension
 13
208.683213
 23
-647.836202
 33
0.0
 14
251.683213
 24
-857.836202
 34
0.0
 50
90.0
100
AcDbRotatedDimension
1001
ACAD
1000
DSTYLE
1002
{
1070
    40
1040
1.0
1002
}
  0
DIMENSION
  5
1746
100
AcDbEntity
  8
V0-VYPLNE
  6
CONTINUOUS
 62
    41
 48
3.0
100
AcDbDimension
  2
*D6
 10
646.683213
 20
-930.165658
 30
0.0
 11
449.183213
 21
-911.165658
 31
0.0
 70
    32
  3
ED30
100
AcDbAlignedDimension
 13
251.683213
 23
-857.836202
 33
0.0
 14
646.683213
 24
-857.836202
 34
0.0
100
AcDbRotatedDimension
1001
ACAD
1000
DSTYLE
1002
{
1070
    40
1040
1.0
1002
}
  0
DIMENSION
  5
1760
100
AcDbEntity
  8
V0-VYPLNE
  6
CONTINUOUS
 62
    41
 48
3.0
100
AcDbDimension
  2
*D7
 10
251.683213
 20
-930.165658
 30
0.0
 11
136.061892
 21
-930.165658
 31
0.0
 12
-11.5
 22
0.0
 32
0.0
 70
   160
  3
ED30
100
AcDbAlignedDimension
 13
208.683213
 23
-747.836202
 33
0.0
 14
251.683213
 24
-747.836202
 34
0.0
100
AcDbRotatedDimension
1001
ACAD
1000
DSTYLE
1002
{
1070
    40
1040
1.0
1002
}
  0
DIMENSION
  5
176F
100
AcDbEntity
  8
V0-VYPLNE
  6
CONTINUOUS
 62
    41
 48
3.0
100
AcDbDimension
  2
*D8
 10
689.683213
 20
-930.165658
 30
0.0
 11
750.804533
 21
-911.165658
 31
0.0
 12
11.5
 22
0.0
 32
0.0
 70
    32
  3
ED30
100
AcDbAlignedDimension
 13
646.683213
 23
-857.836202
 33
0.0
 14
689.683213
 24
-747.836202
 34
0.0
100
AcDbRotatedDimension
1001
ACAD
1000
DSTYLE
1002
{
1070
    40
1040
1.0
1002
}
  0
LINE
  5
177D
100
AcDbEntity
  8
V0-OBRYS
  6
CONTINUOUS
 62
    90
 48
3.0
100
AcDbLine
 10
249.683213
 20
-529.836202
 30
0.0
 11
249.683213
 21
-532.836202
 31
0.0
  0
LINE
  5
177E
100
AcDbEntity
  8
V0-OBRYS
  6
CONTINUOUS
 62
    90
 48
3.0
100
AcDbLine
 10
249.683213
 20
-532.836202
 30
0.0
 11
648.683213
 21
-532.836202
 31
0.0
  0
LINE
  5
177F
100
AcDbEntity
  8
V0-OBRYS
  6
CONTINUOUS
 62
    90
 48
3.0
100
AcDbLine
 10
103.230859
 20
-499.836202
 30
0.0
 11
101.433726
 21
-499.836202
 31
0.0
  0
LINE
  5
1780
100
AcDbEntity
  8
V0-OBRYS
  6
CONTINUOUS
 62
    90
 48
3.0
100
AcDbLine
 10
648.683213
 20
-532.836202
 30
0.0
 11
648.683213
 21
-529.836202
 31
0.0
  0
LINE
  5
1782
100
AcDbEntity
  8
V0-OBRYS
  6
CONTINUOUS
 62
    90
 48
3.0
100
AcDbLine
 10
1357.829624
 20
-860.836202
 30
0.0
 11
926.579624
 21
-860.836202
 31
0.0
  0
LINE
  5
17AF
100
AcDbEntity
  8
V0-OBRYS
  6
CONTINUOUS
 62
    90
 48
3.0
100
AcDbLine
 10
1359.829624
 20
-529.836202
 30
0.0
 11
1359.829624
 21
-532.836202
 31
0.0
  0
LINE
  5
17B1
100
AcDbEntity
  8
V0-OBRYS
  6
CONTINUOUS
 62
    90
 48
3.0
100
AcDbLine
 10
925.829624
 20
-529.836202
 30
0.0
 11
925.829624
 21
-532.836202
 31
0.0
  0
LINE
  5
17B2
100
AcDbEntity
  8
V0-OBRYS
  6
CONTINUOUS
 62
    90
 48
3.0
100
AcDbLine
 10
925.829624
 20
-532.836202
 30
0.0
 11
973.45424
 21
-532.836202
 31
0.0
  0
LINE
  5
17B4
100
AcDbEntity
  8
V0-OBRYS
  6
CONTINUOUS
 62
    90
 48
3.0
100
AcDbLine
 10
1053.016723
 20
-609.162134
 30
0.0
 11
1142.829624
 21
-609.162134
 31
0.0
  0
LINE
  5
17B5
100
AcDbEntity
  8
V0-OBRYS
  6
CONTINUOUS
 62
    90
 48
3.0
100
AcDbLine
 10
1075.469949
 20
-703.56793
 30
0.0
 11
1075.469949
 21
-641.794458
 31
0.0
  0
LINE
  5
17B6
100
AcDbEntity
  8
V0-OBRYS
  6
CONTINUOUS
 62
    90
 48
3.0
100
AcDbLine
 10
1075.469949
 20
-641.794458
 30
0.0
 11
1142.829624
 21
-641.794458
 31
0.0
  0
LINE
  5
17B7
100
AcDbEntity
  8
V0-OBRYS
  6
CONTINUOUS
 62
    90
 48
3.0
100
AcDbLine
 10
973.377886
 20
-534.105034
 30
0.0
 11
973.377886
 21
-543.018939
 31
0.0
  0
LINE
  5
17B8
100
AcDbEntity
  8
V0-OBRYS
  6
CONTINUOUS
 62
    90
 48
3.0
100
AcDbLine
 10
973.377886
 20
-543.018939
 30
0.0
 11
998.592742
 21
-543.018939
 31
0.0
  0
LINE
  5
17B9
100
AcDbEntity
  8
V0-OBRYS
  6
CONTINUOUS
 62
    90
 48
3.0
100
AcDbLine
 10
998.592742
 20
-543.018939
 30
0.0
 11
998.592742
 21
-534.105034
 31
0.0
  0
LINE
  5
17BA
100
AcDbEntity
  8
V0-OBRYS
  6
CONTINUOUS
 62
    90
 48
3.0
100
AcDbLine
 10
998.669096
 20
-532.836202
 30
0.0
 11
1286.990153
 21
-532.836202
 31
0.0
  0
LINE
  5
17BB
100
AcDbEntity
  8
V0-OBRYS
  6
CONTINUOUS
 62
    90
 48
3.0
100
AcDbLine
 10
973.377886
 20
-560.294876
 30
0.0
 11
998.592742
 21
-560.294876
 31
0.0
  0
LINE
  5
17BC
100
AcDbEntity
  8
V0-OBRYS
  6
CONTINUOUS
 62
    90
 48
3.0
100
AcDbLine
 10
973.377886
 20
-591.247598
 30
0.0
 11
973.377886
 21
-560.294876
 31
0.0
  0
LINE
  5
17BD
100
AcDbEntity
  8
V0-OBRYS
  6
CONTINUOUS
 62
    90
 48
3.0
100
AcDbLine
 10
998.592742
 20
-560.294876
 30
0.0
 11
998.592742
 21
-591.247598
 31
0.0
  0
LINE
  5
17BE
100
AcDbEntity
  8
V0-OBRYS
  6
CONTINUOUS
 62
    90
 48
3.0
100
AcDbLine
 10
973.377886
 20
-591.247598
 30
0.0
 11
998.592742
 21
-591.247598
 31
0.0
  0
LINE
  5
17BF
100
AcDbEntity
  8
V0-OBRYS
  6
CONTINUOUS
 62
    90
 48
3.0
100
AcDbLine
 10
969.055342
 20
-538.699955
 30
0.0
 11
1002.915286
 21
-538.699955
 31
0.0
  0
LINE
  5
17C0
100
AcDbEntity
  8
V0-OBRYS
  6
CONTINUOUS
 62
    90
 48
3.0
100
AcDbLine
 10
1002.915286
 20
-538.699955
 30
0.0
 11
1002.915286
 21
-567.493181
 31
0.0
  0
LINE
  5
17C1
100
AcDbEntity
  8
V0-OBRYS
  6
CONTINUOUS
 62
    90
 48
3.0
100
AcDbLine
 10
1002.915286
 20
-567.493181
 30
0.0
 11
998.592742
 21
-567.493181
 31
0.0
  0
LINE
  5
17C2
100
AcDbEntity
  8
V0-OBRYS
  6
CONTINUOUS
 62
    90
 48
3.0
100
AcDbLine
 10
968.334919
 20
-538.699955
 30
0.0
 11
968.334919
 21
-567.493181
 31
0.0
  0
LINE
  5
17C3
100
AcDbEntity
  8
V0-OBRYS
  6
CONTINUOUS
 62
    90
 48
3.0
100
AcDbLine
 10
968.334919
 20
-567.493181
 30
0.0
 11
972.657463
 21
-567.493181
 31
0.0
  0
LINE
  5
17C4
100
AcDbEntity
  8
V0-OBRYS
  6
CONTINUOUS
 62
    90
 48
3.0
100
AcDbLine
 10
1316.451198
 20
-538.699955
 30
0.0
 11
1282.591254
 21
-538.699955
 31
0.0
  0
LINE
  5
17C5
100
AcDbEntity
  8
V0-OBRYS
  6
CONTINUOUS
 62
    90
 48
3.0
100
AcDbLine
 10
1312.128654
 20
-591.247598
 30
0.0
 11
1286.913799
 21
-591.247598
 31
0.0
  0
LINE
  5
17C6
100
AcDbEntity
  8
V0-OBRYS
  6
CONTINUOUS
 62
    90
 48
3.0
100
AcDbLine
 10
1312.128654
 20
-560.294876
 30
0.0
 11
1286.913799
 21
-560.294876
 31
0.0
  0
LINE
  5
17C7
100
AcDbEntity
  8
V0-OBRYS
  6
CONTINUOUS
 62
    90
 48
3.0
100
AcDbLine
 10
1312.128654
 20
-543.018939
 30
0.0
 11
1286.913799
 21
-543.018939
 31
0.0
  0
LINE
  5
17C8
100
AcDbEntity
  8
V0-OBRYS
  6
CONTINUOUS
 62
    90
 48
3.0
100
AcDbLine
 10
1312.128654
 20
-591.247598
 30
0.0
 11
1312.128654
 21
-560.294876
 31
0.0
  0
LINE
  5
17C9
100
AcDbEntity
  8
V0-OBRYS
  6
CONTINUOUS
 62
    90
 48
3.0
100
AcDbLine
 10
1317.171622
 20
-538.699955
 30
0.0
 11
1317.171622
 21
-567.493181
 31
0.0
  0
LINE
  5
17CA
100
AcDbEntity
  8
V0-OBRYS
  6
CONTINUOUS
 62
    90
 48
3.0
100
AcDbLine
 10
1312.128654
 20
-534.105034
 30
0.0
 11
1312.128654
 21
-543.018939
 31
0.0
  0
LINE
  5
17CB
100
AcDbEntity
  8
V0-OBRYS
  6
CONTINUOUS
 62
    90
 48
3.0
100
AcDbLine
 10
1317.171622
 20
-567.493181
 30
0.0
 11
1312.849077
 21
-567.493181
 31
0.0
  0
LINE
  5
17CC
100
AcDbEntity
  8
V0-OBRYS
  6
CONTINUOUS
 62
    90
 48
3.0
100
AcDbLine
 10
1286.913799
 20
-560.294876
 30
0.0
 11
1286.913799
 21
-591.247598
 31
0.0
  0
LINE
  5
17CD
100
AcDbEntity
  8
V0-OBRYS
  6
CONTINUOUS
 62
    90
 48
3.0
100
AcDbLine
 10
1282.591254
 20
-538.699955
 30
0.0
 11
1282.591254
 21
-567.493181
 31
0.0
  0
LINE
  5
17CE
100
AcDbEntity
  8
V0-OBRYS
  6
CONTINUOUS
 62
    90
 48
3.0
100
AcDbLine
 10
1286.913799
 20
-543.018939
 30
0.0
 11
1286.913799
 21
-534.105034
 31
0.0
  0
LINE
  5
17CF
100
AcDbEntity
  8
V0-OBRYS
  6
CONTINUOUS
 62
    90
 48
3.0
100
AcDbLine
 10
1282.591254
 20
-567.493181
 30
0.0
 11
1286.913799
 21
-567.493181
 31
0.0
  0
LINE
  5
17D0
100
AcDbEntity
  8
V0-OBRYS
  6
CONTINUOUS
 62
    90
 48
3.0
100
AcDbLine
 10
1312.205008
 20
-532.836202
 30
0.0
 11
1359.829624
 21
-532.836202
 31
0.0
  0
LINE
  5
17D1
100
AcDbEntity
  8
V0-OBRYS
  6
CONTINUOUS
 62
    90
 48
3.0
100
AcDbLine
 10
973.377886
 20
-534.105034
 30
0.0
 11
998.592742
 21
-534.105034
 31
0.0
  0
LINE
  5
17D2
100
AcDbEntity
  8
V0-OBRYS
  6
CONTINUOUS
 62
    90
 48
3.0
100
AcDbLine
 10
1312.128654
 20
-534.105034
 30
0.0
 11
1286.913799
 21
-534.105034
 31
0.0
  0
LINE
  5
1834
100
AcDbEntity
  8
V0-OBRYS
  6
CONTINUOUS
 62
    90
 48
3.0
100
AcDbLine
 10
249.683213
 20
-1086.498366
 30
0.0
 11
648.683213
 21
-1086.498366
 31
0.0
  0
LINE
  5
1835
100
AcDbEntity
  8
V0-OBRYS
  6
CONTINUOUS
 62
    90
 48
3.0
100
AcDbLine
 10
648.683213
 20
-1086.498366
 30
0.0
 11
648.683213
 21
-1520.498366
 31
0.0
  0
LINE
  5
1836
100
AcDbEntity
  8
V0-OBRYS
  6
CONTINUOUS
 62
    90
 48
3.0
100
AcDbLine
 10
249.683213
 20
-1086.498366
 30
0.0
 11
249.683213
 21
-1520.498366
 31
0.0
  0
LINE
  5
1837
100
AcDbEntity
  8
V0-OBRYS
  6
CONTINUOUS
 62
    90
 48
3.0
100
AcDbLine
 10
249.683213
 20
-1520.498366
 30
0.0
 11
648.683213
 21
-1520.498366
 31
0.0
  0
LINE
  5
183A
100
AcDbEntity
  8
V0-OBRYS
  6
CONTINUOUS
 62
    90
 48
3.0
100
AcDbLine
 10
650.883979
 20
-1164.690654
 30
0.0
 11
650.883979
 21
-1135.388671
 31
0.0
  0
LINE
  5
183D
100
AcDbEntity
  8
V0-OBRYS
  6
CONTINUOUS
 62
    90
 48
3.0
100
AcDbLine
 10
655.202963
 20
-1160.505656
 30
0.0
 11
655.202963
 21
-1135.290801
 31
0.0
  0
LINE
  5
183F
100
AcDbEntity
  8
V0-OBRYS
  6
CONTINUOUS
 62
    90
 48
3.0
100
AcDbLine
 10
648.683213
 20
-1160.505656
 30
0.0
 11
650.875125
 21
-1160.505656
 31
0.0
  0
LINE
  5
1843
100
AcDbEntity
  8
V0-OBRYS
  6
CONTINUOUS
 62
    90
 48
3.0
100
AcDbLine
 10
655.202963
 20
-1135.290801
 30
0.0
 11
652.510297
 21
-1135.290801
 31
0.0
  0
LINE
  5
1846
100
AcDbEntity
  8
V0-OBRYS
  6
CONTINUOUS
 62
    90
 48
3.0
100
AcDbLine
 10
652.510297
 20
-1130.910203
 30
0.0
 11
652.510297
 21
-1164.690654
 31
0.0
  0
ARC
  5
1847
100
AcDbEntity
  8
V0-OBRYS
  6
CONTINUOUS
 62
    90
 48
3.0
100
AcDbCircle
 10
651.697138
 20
-1130.910203
 30
0.0
 40
0.813159
100
AcDbArc
 50
0.0
 51
180.0
  0
ARC
  5
1848
100
AcDbEntity
  8
V0-OBRYS
  6
CONTINUOUS
 62
    90
 48
3.0
100
AcDbCircle
 10
651.697138
 20
-1164.690654
 30
0.0
 40
0.813159
100
AcDbArc
 50
180.0
 51
0.0
  0
LINE
  5
1849
100
AcDbEntity
  8
V0-OBRYS
  6
CONTINUOUS
 62
    90
 48
3.0
100
AcDbLine
 10
650.883979
 20
-1135.388671
 30
0.0
 11
650.883979
 21
-1130.910203
 31
0.0
  0
LINE
  5
184A
100
AcDbEntity
  8
V0-OBRYS
  6
CONTINUOUS
 62
    90
 48
3.0
100
AcDbLine
 10
650.875125
 20
-1135.290801
 30
0.0
 11
648.683213
 21
-1135.290801
 31
0.0
  0
LINE
  5
184B
100
AcDbEntity
  8
V0-OBRYS
  6
CONTINUOUS
 62
    90
 48
3.0
100
AcDbLine
 10
652.510297
 20
-1160.505656
 30
0.0
 11
655.202963
 21
-1160.505656
 31
0.0
  0
LINE
  5
184C
100
AcDbEntity
  8
V0-OBRYS
  6
CONTINUOUS
 62
    90
 48
3.0
100
AcDbLine
 10
247.482446
 20
-1164.690654
 30
0.0
 11
247.482446
 21
-1135.388671
 31
0.0
  0
LINE
  5
184D
100
AcDbEntity
  8
V0-OBRYS
  6
CONTINUOUS
 62
    90
 48
3.0
100
AcDbLine
 10
245.856128
 20
-1130.910203
 30
0.0
 11
245.856128
 21
-1164.690654
 31
0.0
  0
ARC
  5
184E
100
AcDbEntity
  8
V0-OBRYS
  6
CONTINUOUS
 62
    90
 48
3.0
100
AcDbCircle
 10
246.669287
 20
-1164.690654
 30
0.0
 40
0.813159
100
AcDbArc
 50
180.0
 51
0.0
  0
LINE
  5
184F
100
AcDbEntity
  8
V0-OBRYS
  6
CONTINUOUS
 62
    90
 48
3.0
100
AcDbLine
 10
245.856128
 20
-1160.505656
 30
0.0
 11
243.163462
 21
-1160.505656
 31
0.0
  0
LINE
  5
1850
100
AcDbEntity
  8
V0-OBRYS
  6
CONTINUOUS
 62
    90
 48
3.0
100
AcDbLine
 10
243.163462
 20
-1135.290801
 30
0.0
 11
245.856128
 21
-1135.290801
 31
0.0
  0
LINE
  5
1851
100
AcDbEntity
  8
V0-OBRYS
  6
CONTINUOUS
 62
    90
 48
3.0
100
AcDbLine
 10
249.683213
 20
-1160.505656
 30
0.0
 11
247.491301
 21
-1160.505656
 31
0.0
  0
LINE
  5
1852
100
AcDbEntity
  8
V0-OBRYS
  6
CONTINUOUS
 62
    90
 48
3.0
100
AcDbLine
 10
247.491301
 20
-1135.290801
 30
0.0
 11
249.683213
 21
-1135.290801
 31
0.0
  0
LINE
  5
1853
100
AcDbEntity
  8
V0-OBRYS
  6
CONTINUOUS
 62
    90
 48
3.0
100
AcDbLine
 10
247.482446
 20
-1135.388671
 30
0.0
 11
247.482446
 21
-1130.910203
 31
0.0
  0
ARC
  5
1854
100
AcDbEntity
  8
V0-OBRYS
  6
CONTINUOUS
 62
    90
 48
3.0
100
AcDbCircle
 10
246.669287
 20
-1130.910203
 30
0.0
 40
0.813159
100
AcDbArc
 50
0.0
 51
180.0
  0
LINE
  5
1855
100
AcDbEntity
  8
V0-OBRYS
  6
CONTINUOUS
 62
    90
 48
3.0
100
AcDbLine
 10
243.163462
 20
-1160.505656
 30
0.0
 11
243.163462
 21
-1135.290801
 31
0.0
  0
LINE
  5
1856
100
AcDbEntity
  8
V0-OBRYS
  6
CONTINUOUS
 62
    90
 48
3.0
100
AcDbLine
 10
245.856128
 20
-1476.08653
 30
0.0
 11
245.856128
 21
-1442.306079
 31
0.0
  0
LINE
  5
1857
100
AcDbEntity
  8
V0-OBRYS
  6
CONTINUOUS
 62
    90
 48
3.0
100
AcDbLine
 10
247.482446
 20
-1442.306079
 30
0.0
 11
247.482446
 21
-1471.608062
 31
0.0
  0
ARC
  5
1858
100
AcDbEntity
  8
V0-OBRYS
  6
CONTINUOUS
 62
    90
 48
3.0
100
AcDbCircle
 10
246.669287
 20
-1442.306079
 30
0.0
 40
0.813159
100
AcDbArc
 50
0.0
 51
180.0
  0
LINE
  5
1859
100
AcDbEntity
  8
V0-OBRYS
  6
CONTINUOUS
 62
    90
 48
3.0
100
AcDbLine
 10
243.163462
 20
-1471.705932
 30
0.0
 11
245.856128
 21
-1471.705932
 31
0.0
  0
LINE
  5
185A
100
AcDbEntity
  8
V0-OBRYS
  6
CONTINUOUS
 62
    90
 48
3.0
100
AcDbLine
 10
245.856128
 20
-1446.491077
 30
0.0
 11
243.163462
 21
-1446.491077
 31
0.0
  0
LINE
  5
185B
100
AcDbEntity
  8
V0-OBRYS
  6
CONTINUOUS
 62
    90
 48
3.0
100
AcDbLine
 10
243.163462
 20
-1446.491077
 30
0.0
 11
243.163462
 21
-1471.705932
 31
0.0
  0
ARC
  5
185C
100
AcDbEntity
  8
V0-OBRYS
  6
CONTINUOUS
 62
    90
 48
3.0
100
AcDbCircle
 10
246.669287
 20
-1476.08653
 30
0.0
 40
0.813159
100
AcDbArc
 50
180.0
 51
0.0
  0
LINE
  5
185D
100
AcDbEntity
  8
V0-OBRYS
  6
CONTINUOUS
 62
    90
 48
3.0
100
AcDbLine
 10
247.482446
 20
-1471.608062
 30
0.0
 11
247.482446
 21
-1476.08653
 31
0.0
  0
LINE
  5
185E
100
AcDbEntity
  8
V0-OBRYS
  6
CONTINUOUS
 62
    90
 48
3.0
100
AcDbLine
 10
247.491301
 20
-1471.705932
 30
0.0
 11
249.683213
 21
-1471.705932
 31
0.0
  0
LINE
  5
185F
100
AcDbEntity
  8
V0-OBRYS
  6
CONTINUOUS
 62
    90
 48
3.0
100
AcDbLine
 10
249.683213
 20
-1446.491077
 30
0.0
 11
247.491301
 21
-1446.491077
 31
0.0
  0
LINE
  5
1860
100
AcDbEntity
  8
V0-OBRYS
  6
CONTINUOUS
 62
    90
 48
3.0
100
AcDbLine
 10
650.883979
 20
-1442.306079
 30
0.0
 11
650.883979
 21
-1471.608062
 31
0.0
  0
LINE
  5
1861
100
AcDbEntity
  8
V0-OBRYS
  6
CONTINUOUS
 62
    90
 48
3.0
100
AcDbLine
 10
652.510297
 20
-1476.08653
 30
0.0
 11
652.510297
 21
-1442.306079
 31
0.0
  0
ARC
  5
1862
100
AcDbEntity
  8
V0-OBRYS
  6
CONTINUOUS
 62
    90
 48
3.0
100
AcDbCircle
 10
651.697138
 20
-1442.306079
 30
0.0
 40
0.813159
100
AcDbArc
 50
0.0
 51
180.0
  0
LINE
  5
1863
100
AcDbEntity
  8
V0-OBRYS
  6
CONTINUOUS
 62
    90
 48
3.0
100
AcDbLine
 10
652.510297
 20
-1446.491077
 30
0.0
 11
655.202963
 21
-1446.491077
 31
0.0
  0
LINE
  5
1864
100
AcDbEntity
  8
V0-OBRYS
  6
CONTINUOUS
 62
    90
 48
3.0
100
AcDbLine
 10
655.202963
 20
-1471.705932
 30
0.0
 11
652.510297
 21
-1471.705932
 31
0.0
  0
LINE
  5
1865
100
AcDbEntity
  8
V0-OBRYS
  6
CONTINUOUS
 62
    90
 48
3.0
100
AcDbLine
 10
648.683213
 20
-1446.491077
 30
0.0
 11
650.875125
 21
-1446.491077
 31
0.0
  0
LINE
  5
1866
100
AcDbEntity
  8
V0-OBRYS
  6
CONTINUOUS
 62
    90
 48
3.0
100
AcDbLine
 10
650.875125
 20
-1471.705932
 30
0.0
 11
648.683213
 21
-1471.705932
 31
0.0
  0
LINE
  5
1867
100
AcDbEntity
  8
V0-OBRYS
  6
CONTINUOUS
 62
    90
 48
3.0
100
AcDbLine
 10
650.883979
 20
-1471.608062
 30
0.0
 11
650.883979
 21
-1476.08653
 31
0.0
  0
ARC
  5
1868
100
AcDbEntity
  8
V0-OBRYS
  6
CONTINUOUS
 62
    90
 48
3.0
100
AcDbCircle
 10
651.697138
 20
-1476.08653
 30
0.0
 40
0.813159
100
AcDbArc
 50
180.0
 51
0.0
  0
LINE
  5
1869
100
AcDbEntity
  8
V0-OBRYS
  6
CONTINUOUS
 62
    90
 48
3.0
100
AcDbLine
 10
655.202963
 20
-1446.491077
 30
0.0
 11
655.202963
 21
-1471.705932
 31
0.0
  0
LINE
  5
1885
100
AcDbEntity
  8
V0-OBRYS
  6
CONTINUOUS
 62
    90
 48
3.0
100
AcDbLine
 10
248.757761
 20
-533.031325
 30
0.0
 11
248.757761
 21
-542.245158
 31
0.0
  0
LINE
  5
1886
100
AcDbEntity
  8
V0-OBRYS
  6
CONTINUOUS
 62
    90
 48
3.0
100
AcDbLine
 10
248.757761
 20
-542.245158
 30
0.0
 11
242.313962
 21
-542.245158
 31
0.0
  0
LINE
  5
1887
100
AcDbEntity
  8
V0-OBRYS
  6
CONTINUOUS
 62
    90
 48
3.0
100
AcDbLine
 10
242.313962
 20
-542.245158
 30
0.0
 11
242.313962
 21
-536.266564
 31
0.0
  0
LINE
  5
1888
100
AcDbEntity
  8
V0-OBRYS
  6
CONTINUOUS
 62
    90
 48
3.0
100
AcDbLine
 10
248.757761
 20
-567.758453
 30
0.0
 11
248.757761
 21
-556.261155
 31
0.0
  0
LINE
  5
1889
100
AcDbEntity
  8
V0-OBRYS
  6
CONTINUOUS
 62
    90
 48
3.0
100
AcDbLine
 10
248.757761
 20
-556.261155
 30
0.0
 11
242.774234
 21
-556.261155
 31
0.0
  0
LINE
  5
188A
100
AcDbEntity
  8
V0-OBRYS
  6
CONTINUOUS
 62
    90
 48
3.0
100
AcDbLine
 10
242.774234
 20
-556.261155
 30
0.0
 11
242.774234
 21
-574.196937
 31
0.0
  0
LINE
  5
188B
100
AcDbEntity
  8
V0-OBRYS
  6
CONTINUOUS
 62
    90
 48
3.0
100
AcDbLine
 10
242.774234
 20
-574.196937
 30
0.0
 11
242.774234
 21
-587.07391
 31
0.0
  0
LINE
  5
188C
100
AcDbEntity
  8
V0-OBRYS
  6
CONTINUOUS
 62
    90
 48
3.0
100
AcDbLine
 10
244.615321
 20
-537.646242
 30
0.0
 11
244.615321
 21
-563.619424
 31
0.0
  0
LINE
  5
188D
100
AcDbEntity
  8
V0-OBRYS
  6
CONTINUOUS
 62
    90
 48
3.0
100
AcDbLine
 10
244.615321
 20
-563.619424
 30
0.0
 11
246.916675
 21
-563.619424
 31
0.0
  0
LINE
  5
188E
100
AcDbEntity
  8
V0-OBRYS
  6
CONTINUOUS
 62
    90
 48
3.0
100
AcDbLine
 10
246.916675
 20
-563.619424
 30
0.0
 11
246.916675
 21
-537.646242
 31
0.0
  0
LINE
  5
188F
100
AcDbEntity
  8
V0-OBRYS
  6
CONTINUOUS
 62
    90
 48
3.0
100
AcDbLine
 10
246.916675
 20
-537.646242
 30
0.0
 11
244.615321
 21
-537.646242
 31
0.0
  0
INSERT
  5
18BA
100
AcDbEntity
  8
V0-OBRYS
  6
CONTINUOUS
 62
    90
 48
3.0
100
AcDbBlockReference
  2
AZAVER-B
 10
648.448939
 20
-530.231567
 30
0.0
 41
-1.0
  0
LINE
  5
18C7
100
AcDbEntity
  8
V0-VYPLNE
  6
CONTINUOUS
 62
    41
 48
3.0
100
AcDbLine
 10
1075.698086
 20
-644.955714
 30
0.0
 11
1143.081777
 21
-644.955714
 31
0.0
  0
LINE
  5
18C8
100
AcDbEntity
  8
V0-VYPLNE
  6
CONTINUOUS
 62
    41
 48
3.0
100
AcDbLine
 10
1075.469949
 20
-650.836202
 30
0.0
 11
1143.814208
 21
-650.836202
 31
0.0
  0
LINE
  5
18C9
100
AcDbEntity
  8
V0-VYPLNE
  6
CONTINUOUS
 62
    41
 48
3.0
100
AcDbLine
 10
1075.698086
 20
-659.592271
 30
0.0
 11
1143.081777
 21
-659.592271
 31
0.0
  0
LINE
  5
18CA
100
AcDbEntity
  8
V0-VYPLNE
  6
CONTINUOUS
 62
    41
 48
3.0
100
AcDbLine
 10
1075.698086
 20
-672.765172
 30
0.0
 11
1143.081777
 21
-672.765172
 31
0.0
  0
LINE
  5
18CB
100
AcDbEntity
  8
V0-VYPLNE
  6
CONTINUOUS
 62
    41
 48
3.0
100
AcDbLine
 10
1075.698086
 20
-689.597213
 30
0.0
 11
1143.081777
 21
-689.597213
 31
0.0
  0
LINE
  5
18CC
100
AcDbEntity
  8
V0-OBRYS
  6
CONTINUOUS
 62
    90
 48
3.0
100
AcDbLine
 10
1057.862779
 20
-703.56793
 30
0.0
 11
1142.829624
 21
-703.56793
 31
0.0
  0
LINE
  5
18CD
100
AcDbEntity
  8
V0-OBRYS
  6
CONTINUOUS
 62
    90
 48
3.0
100
AcDbLine
 10
1227.79647
 20
-703.56793
 30
0.0
 11
1142.829624
 21
-703.56793
 31
0.0
  0
LINE
  5
18CE
100
AcDbEntity
  8
V0-VYPLNE
  6
CONTINUOUS
 62
    41
 48
3.0
100
AcDbLine
 10
1209.961162
 20
-689.597213
 30
0.0
 11
1142.577471
 21
-689.597213
 31
0.0
  0
LINE
  5
18CF
100
AcDbEntity
  8
V0-VYPLNE
  6
CONTINUOUS
 62
    41
 48
3.0
100
AcDbLine
 10
1209.961162
 20
-672.765172
 30
0.0
 11
1142.577471
 21
-672.765172
 31
0.0
  0
LINE
  5
18D0
100
AcDbEntity
  8
V0-VYPLNE
  6
CONTINUOUS
 62
    41
 48
3.0
100
AcDbLine
 10
1209.961162
 20
-659.592271
 30
0.0
 11
1142.577471
 21
-659.592271
 31
0.0
  0
LINE
  5
18D1
100
AcDbEntity
  8
V0-VYPLNE
  6
CONTINUOUS
 62
    41
 48
3.0
100
AcDbLine
 10
1210.189299
 20
-650.836202
 30
0.0
 11
1141.845041
 21
-650.836202
 31
0.0
  0
LINE
  5
18D2
100
AcDbEntity
  8
V0-VYPLNE
  6
CONTINUOUS
 62
    41
 48
3.0
100
AcDbLine
 10
1209.961162
 20
-644.955714
 30
0.0
 11
1142.577471
 21
-644.955714
 31
0.0
  0
LINE
  5
18D3
100
AcDbEntity
  8
V0-OBRYS
  6
CONTINUOUS
 62
    90
 48
3.0
100
AcDbLine
 10
1210.189299
 20
-641.794458
 30
0.0
 11
1142.829624
 21
-641.794458
 31
0.0
  0
LINE
  5
18D4
100
AcDbEntity
  8
V0-OBRYS
  6
CONTINUOUS
 62
    90
 48
3.0
100
AcDbLine
 10
1210.189299
 20
-703.56793
 30
0.0
 11
1210.189299
 21
-641.794458
 31
0.0
  0
LINE
  5
18D5
100
AcDbEntity
  8
V0-OBRYS
  6
CONTINUOUS
 62
    90
 48
3.0
100
AcDbLine
 10
1232.642525
 20
-609.162134
 30
0.0
 11
1142.829624
 21
-609.162134
 31
0.0
  0
LINE
  5
1924
100
AcDbEntity
  8
V0-VYPLNE
  6
DASHED
 62
    52
 48
2.0
100
AcDbLine
 10
462.107402
 20
-710.513668
 30
0.0
 11
525.238957
 21
-746.962688
 31
0.0
  0
ARC
  5
1925
100
AcDbEntity
  8
V0-VYPLNE
  6
DASHED
 62
    52
 48
2.0
100
AcDbCircle
 10
445.132473
 20
-703.228126
 30
0.0
 40
76.011462
100
AcDbArc
 50
331.719358
 51
88.362917
  0
ARC
  5
1926
100
AcDbEntity
  8
V0-VYPLNE
  6
DASHED
 62
    52
 48
2.0
100
AcDbCircle
 10
445.132473
 20
-703.228126
 30
0.0
 40
79.414574
100
AcDbArc
 50
331.519954
 51
88.371211
  0
ARC
  5
1927
100
AcDbEntity
  8
V0-VYPLNE
  6
DASHED
 62
    52
 48
2.0
100
AcDbCircle
 10
429.734499
 20
-701.778939
 30
0.0
 40
118.354195
100
AcDbArc
 50
273.018515
 51
348.869508
  0
LINE
  5
1928
100
AcDbEntity
  8
V0-VYPLNE
  6
DASHED
 62
    52
 48
2.0
100
AcDbLine
 10
445.852473
 20
-819.3968
 30
0.0
 11
445.132473
 21
-611.986595
 31
0.0
  0
LINE
  5
1929
100
AcDbEntity
  8
V0-VYPLNE
  6
DASHED
 62
    52
 48
2.0
100
AcDbLine
 10
459.929402
 20
-714.286075
 30
0.0
 11
523.060957
 21
-750.735095
 31
0.0
  0
ARC
  5
192A
100
AcDbEntity
  8
V0-VYPLNE
  6
DASHED
 62
    52
 48
2.0
100
AcDbCircle
 10
435.966873
 20
-688.417726
 30
0.0
 40
131.5512
100
AcDbArc
 50
177.083445
 51
270.0
  0
ARC
  5
192B
100
AcDbEntity
  8
V0-VYPLNE
  6
DASHED
 62
    52
 48
2.0
100
AcDbCircle
 10
445.132473
 20
-703.228126
 30
0.0
 40
76.011462
100
AcDbArc
 50
91.714912
 51
208.344087
  0
ARC
  5
192C
100
AcDbEntity
  8
V0-VYPLNE
  6
DASHED
 62
    52
 48
2.0
100
AcDbCircle
 10
445.132473
 20
-703.228126
 30
0.0
 40
79.414574
100
AcDbArc
 50
91.581613
 51
208.441599
  0
LINE
  5
192D
100
AcDbEntity
  8
V0-VYPLNE
  6
DASHED
 62
    52
 48
2.0
100
AcDbLine
 10
430.335544
 20
-714.286075
 30
0.0
 11
367.203989
 21
-750.735095
 31
0.0
  0
LINE
  5
192E
100
AcDbEntity
  8
V0-VYPLNE
  6
DASHED
 62
    52
 48
2.0
100
AcDbLine
 10
428.157544
 20
-710.513668
 30
0.0
 11
365.025989
 21
-746.962688
 31
0.0
  0
ARC
  5
192F
100
AcDbEntity
  8
V0-VYPLNE
  6
DASHED
 62
    52
 48
2.0
100
AcDbCircle
 10
445.132473
 20
-703.228126
 30
0.0
 40
48.538441
100
AcDbArc
 50
212.575428
 51
327.315954
  0
CIRCLE
  5
1930
100
AcDbEntity
  8
V0-VYPLNE
  6
DASHED
 62
    52
 48
2.0
100
AcDbCircle
 10
445.132473
 20
-703.228126
 30
0.0
 40
18.343491
  0
ARC
  5
1931
100
AcDbEntity
  8
V0-VYPLNE
  6
DASHED
 62
    52
 48
2.0
100
AcDbCircle
 10
445.132473
 20
-703.228126
 30
0.0
 40
48.538441
100
AcDbArc
 50
92.399561
 51
207.385177
  0
LINE
  5
1933
100
AcDbEntity
  8
V0-VYPLNE
  6
DASHED
 62
    52
 48
2.0
100
AcDbLine
 10
530.101016
 20
-703.228126
 30
0.0
 11
364.741878
 21
-703.228126
 31
0.0
  0
ARC
  5
1934
100
AcDbEntity
  8
V0-VYPLNE
  6
DASHED
 62
    52
 48
2.0
100
AcDbCircle
 10
455.133273
 20
-688.417726
 30
0.0
 40
150.7176
100
AcDbArc
 50
90.0
 51
177.373515
  0
ARC
  5
1935
100
AcDbEntity
  8
V0-VYPLNE
  6
DASHED
 62
    52
 48
2.0
100
AcDbCircle
 10
455.133273
 20
-688.417726
 30
0.0
 40
150.7176
100
AcDbArc
 50
180.0
 51
180.271524
  0
LINE
  5
1936
100
AcDbEntity
  8
V0-VYPLNE
  6
DASHED
 62
    52
 48
2.0
100
AcDbLine
 10
428.157544
 20
-710.513668
 30
0.0
 11
430.335544
 21
-714.286075
 31
0.0
  0
LINE
  5
1937
100
AcDbEntity
  8
V0-VYPLNE
  6
DASHED
 62
    52
 48
2.0
100
AcDbLine
 10
455.133273
 20
-537.700126
 30
0.0
 11
577.936473
 21
-537.700126
 31
0.0
  0
LINE
  5
1938
100
AcDbEntity
  8
V0-VYPLNE
  6
DASHED
 62
    52
 48
2.0
100
AcDbLine
 10
447.310473
 20
-684.884635
 30
0.0
 11
447.310473
 21
-611.986595
 31
0.0
  0
LINE
  5
1939
100
AcDbEntity
  8
V0-VYPLNE
  6
DASHED
 62
    52
 48
2.0
100
AcDbLine
 10
442.954473
 20
-684.884635
 30
0.0
 11
442.954473
 21
-611.986595
 31
0.0
  0
LINE
  5
193B
100
AcDbEntity
  8
V0-VYPLNE
  6
DASHED
 62
    52
 48
2.0
100
AcDbLine
 10
447.292473
 20
-611.986595
 30
0.0
 11
447.292473
 21
-585.965782
 31
0.0
  0
ARC
  5
193C
100
AcDbEntity
  8
V0-VYPLNE
  6
DASHED
 62
    52
 48
2.0
100
AcDbCircle
 10
447.292473
 20
-611.986595
 30
0.0
 40
2.178
100
AcDbArc
 50
0.0
 51
180.0
  0
ARC
  5
193D
100
AcDbEntity
  8
V0-VYPLNE
  6
DASHED
 62
    52
 48
2.0
100
AcDbCircle
 10
445.132473
 20
-703.228126
 30
0.0
 40
48.538441
100
AcDbArc
 50
332.562264
 51
87.434764
  0
LINE
  5
193E
100
AcDbEntity
  8
V0-VYPLNE
  6
DASHED
 62
    52
 48
2.0
100
AcDbLine
 10
447.310473
 20
-684.884635
 30
0.0
 11
442.954473
 21
-684.884635
 31
0.0
  0
LINE
  5
193F
100
AcDbEntity
  8
V0-VYPLNE
  6
DASHED
 62
    52
 48
2.0
100
AcDbLine
 10
459.929402
 20
-714.286075
 30
0.0
 11
462.107402
 21
-710.513668
 31
0.0
  0
LINE
  5
1941
100
AcDbEntity
  8
V0-VYPLNE
  6
DASHED
 62
    52
 48
2.0
100
AcDbLine
 10
577.936473
 20
-537.700126
 30
0.0
 11
577.936473
 21
-724.626526
 31
0.0
  0
LINE
  5
1942
100
AcDbEntity
  8
V0-VYPLNE
  6
DASHED
 62
    52
 48
2.0
100
AcDbLine
 10
545.86246
 20
-724.626526
 30
0.0
 11
545.86246
 21
-708.965031
 31
0.0
  0
LINE
  5
1943
100
AcDbEntity
  8
V0-VYPLNE
  6
DASHED
 62
    52
 48
2.0
100
AcDbLine
 10
545.86246
 20
-724.626526
 30
0.0
 11
577.936473
 21
-724.626526
 31
0.0
  0
ARC
  5
1944
100
AcDbEntity
  8
V0-VYPLNE
  6
DASHED
 62
    52
 48
2.0
100
AcDbCircle
 10
445.132473
 20
-703.228126
 30
0.0
 40
79.414574
100
AcDbArc
 50
211.485726
 51
328.390343
  0
ARC
  5
1945
100
AcDbEntity
  8
V0-VYPLNE
  6
DASHED
 62
    52
 48
2.0
100
AcDbCircle
 10
445.132473
 20
-703.228126
 30
0.0
 40
76.011462
100
AcDbArc
 50
211.549963
 51
328.272969
  0
ARC
  5
1946
100
AcDbEntity
  8
V0-VYPLNE
  6
DASHED
 62
    52
 48
2.0
100
AcDbCircle
 10
366.114989
 20
-748.848892
 30
0.0
 40
2.178
100
AcDbArc
 50
120.0
 51
300.0
  0
ARC
  5
1947
100
AcDbEntity
  8
V0-VYPLNE
  6
DASHED
 62
    52
 48
2.0
100
AcDbCircle
 10
524.149957
 20
-748.848892
 30
0.0
 40
2.178
100
AcDbArc
 50
240.0
 51
60.0
  0
LINE
  5
1948
100
AcDbEntity
  8
V0-VYPLNE
  6
DASHED
 62
    52
 48
2.0
100
AcDbLine
 10
545.86246
 20
-701.621792
 30
0.0
 11
545.86246
 21
-538.09248
 31
0.0
  0
LINE
  5
1961
100
AcDbEntity
  8
V0-VYPLNE
  6
DASHED
 62
    52
 48
3.0
100
AcDbLine
 10
249.683213
 20
-529.836202
 30
0.0
 11
249.683213
 21
-109.836202
 31
0.0
  0
LINE
  5
1962
100
AcDbEntity
  8
V0-VYPLNE
  6
DASHED
 62
    52
 48
3.0
100
AcDbLine
 10
249.683213
 20
-109.836202
 30
0.0
 11
648.683213
 21
-109.836202
 31
0.0
  0
LINE
  5
1963
100
AcDbEntity
  8
V0-VYPLNE
  6
DASHED
 62
    52
 48
3.0
100
AcDbLine
 10
648.683213
 20
-529.836202
 30
0.0
 11
648.683213
 21
-109.836202
 31
0.0
  0
LINE
  5
1964
100
AcDbEntity
  8
V0-VYPLNE
  6
DASHED
 62
    52
 48
3.0
100
AcDbLine
 10
1359.829624
 20
-529.836202
 30
0.0
 11
1359.829624
 21
-109.836202
 31
0.0
  0
LINE
  5
1965
100
AcDbEntity
  8
V0-VYPLNE
  6
DASHED
 62
    52
 48
3.0
100
AcDbLine
 10
925.829624
 20
-529.836202
 30
0.0
 11
925.829624
 21
-109.836202
 31
0.0
  0
LINE
  5
1966
100
AcDbEntity
  8
V0-VYPLNE
  6
DASHED
 62
    52
 48
3.0
100
AcDbLine
 10
925.829624
 20
-109.836202
 30
0.0
 11
1359.829624
 21
-109.836202
 31
0.0
  0
DIMENSION
  5
1977
100
AcDbEntity
  8
V0-VYPLNE
  6
CONTINUOUS
 62
    41
 48
3.0
100
AcDbDimension
  2
*D13
 10
249.683213
 20
-455.071054
 30
0.0
 11
449.183213
 21
-436.071054
 31
0.0
 70
    32
  3
ED30
100
AcDbAlignedDimension
 13
648.683213
 23
-529.836202
 33
0.0
 14
249.683213
 24
-529.836202
 34
0.0
100
AcDbRotatedDimension
1001
ACAD
1000
DSTYLE
1002
{
1070
    40
1040
1.0
1002
}
  0
DIMENSION
  5
198F
100
AcDbEntity
  8
V0-VYPLNE
  6
CONTINUOUS
 62
    41
 48
3.0
100
AcDbDimension
  2
*D14
 10
1359.829624
 20
-445.648395
 30
0.0
 11
1142.829624
 21
-426.648395
 31
0.0
 70
    32
  3
ED30
100
AcDbAlignedDimension
 13
925.829624
 23
-529.836202
 33
0.0
 14
1359.829624
 24
-529.836202
 34
0.0
100
AcDbRotatedDimension
1001
ACAD
1000
DSTYLE
1002
{
1070
    40
1040
1.0
1002
}
  0
DIMENSION
  5
19A7
100
AcDbEntity
  8
V0-VYPLNE
  6
CONTINUOUS
 62
    41
 48
3.0
100
AcDbDimension
  2
*D15
 10
160.305914
 20
-529.836202
 30
0.0
 11
152.802962
 21
-319.836202
 31
0.0
 12
-11.5
 22
0.0
 32
0.0
 70
    32
  3
ED30
100
AcDbAlignedDimension
 13
249.683213
 23
-109.836202
 33
0.0
 14
249.683213
 24
-529.836202
 34
0.0
 50
90.0
100
AcDbRotatedDimension
1001
ACAD
1000
DSTYLE
1002
{
1070
    40
1040
1.0
1002
}
  0
POINT
  5
1A80
100
AcDbEntity
  8
V0-VYPLNE
  6
CONTINUOUS
 62
    41
 48
3.0
100
AcDbPoint
 10
1142.829624
 20
-650.836202
 30
0.0
  0
VIEWPORT
  5
22
100
AcDbEntity
 67
     1
  8
0
100
AcDbViewport
 10
261.517699
 20
148.5
 30
0.0
 40
523.035398
 41
297.0
 68
    -1
 69
     1
1001
ACAD
1000
MVIEW
1002
{
1070
    16
1010
0.0
1020
0.0
1030
0.0
1010
0.0
1020
0.0
1030
1.0
1040
0.0
1040
297.0
1040
261.517699
1040
148.5
1040
50.0
1040
0.0
1040
0.0
1070
     0
1070
   100
1070
     1
1070
     1
1070
     0
1070
     0
1070
     0
1070
     0
1040
0.0
1040
0.0
1040
0.0
1040
1.0
1040
1.0
1040
10.0
1040
10.0
1070
     0
1002
{
1002
}
1002
}
  0
ENDSEC
  0
SECTION
  2
OBJECTS
  0
DICTIONARY
  5
C
100
AcDbDictionary
  3
ACAD_GROUP
350
D
  3
ACAD_MLINESTYLE
350
E
  3
ACDBVARIABLEDICTIONARY
350
5D
  0
DICTIONARY
  5
D
102
{ACAD_REACTORS
330
C
102
}
100
AcDbDictionary
  0
DICTIONARY
  5
E
102
{ACAD_REACTORS
330
C
102
}
100
AcDbDictionary
  3
STANDARD
350
13
  0
DICTIONARY
  5
5D
102
{ACAD_REACTORS
330
C
102
}
100
AcDbDictionary
  3
DIMADEC
350
5E
  3
SORTENTS
350
3D8
  0
MLINESTYLE
  5
13
102
{ACAD_REACTORS
330
E
102
}
100
AcDbMlineStyle
  2
STANDARD
 70
     0
  3

 62
     0
 51
90.0
 52
90.0
 71
     2
 49
0.5
 62
   256
  6
BYLAYER
 49
-0.5
 62
   256
  6
BYLAYER
  0
DICTIONARYVAR
  5
5E
102
{ACAD_REACTORS
330
5D
102
}
100
DictionaryVariables
280
     0
  1
0
  0
DICTIONARYVAR
  5
3D8
102
{ACAD_REACTORS
330
5D
102
}
100
DictionaryVariables
280
     0
  1
96
  0
ENDSEC
  0
EOF
