  0
SECTION
  2
HEADER
  9
$ACADVER
  1
AC1014
  9
$ACADMAINTVER
 70
     9
  9
$DWGCODEPAGE
  3
ANSI_1250
  9
$INSBASE
 10
0.0
 20
0.0
 30
0.0
  9
$EXTMIN
 10
-1241.663778571429
 20
-2219.804776
 30
0.0
  9
$EXTMAX
 10
2556.111442
 20
1014.178254000051
 30
0.0
  9
$LIMMIN
 10
0.0
 20
0.0
  9
$LIMMAX
 10
0.0
 20
0.0
  9
$ORTHOMODE
 70
     1
  9
$REGENMODE
 70
     1
  9
$FILLMODE
 70
     1
  9
$QTEXTMODE
 70
     0
  9
$MIRRTEXT
 70
     1
  9
$DRAGMODE
 70
     2
  9
$LTSCALE
 40
1.0
  9
$OSMODE
 70
    37
  9
$ATTMODE
 70
     1
  9
$TEXTSIZE
 40
0.2
  9
$TRACEWID
 40
0.05
  9
$TEXTSTYLE
  7
ED60
  9
$CLAYER
  8
V0-OBRYS
  9
$CELTYPE
  6
CONTINUOUS
  9
$CECOLOR
 62
    90
  9
$CELTSCALE
 40
1.0
  9
$DELOBJ
 70
     1
  9
$DISPSILH
 70
     0
  9
$DIMSCALE
 40
1.0
  9
$DIMASZ
 40
60.0
  9
$DIMEXO
 40
1.0
  9
$DIMDLI
 40
0.38
  9
$DIMRND
 40
0.0
  9
$DIMDLE
 40
0.0
  9
$DIMEXE
 40
1.25
  9
$DIMTP
 40
0.0
  9
$DIMTM
 40
0.0
  9
$DIMTXT
 40
50.0
  9
$DIMCEN
 40
0.09
  9
$DIMTSZ
 40
0.0
  9
$DIMTOL
 70
     0
  9
$DIMLIM
 70
     0
  9
$DIMTIH
 70
     0
  9
$DIMTOH
 70
     0
  9
$DIMSE1
 70
     0
  9
$DIMSE2
 70
     0
  9
$DIMTAD
 70
     1
  9
$DIMZIN
 70
     0
  9
$DIMBLK
  1
OPEN
  9
$DIMASO
 70
     1
  9
$DIMSHO
 70
     1
  9
$DIMPOST
  1

  9
$DIMAPOST
  1

  9
$DIMALT
 70
     0
  9
$DIMALTD
 70
     2
  9
$DIMALTF
 40
25.4
  9
$DIMLFAC
 40
1.0
  9
$DIMTOFL
 70
     1
  9
$DIMTVP
 40
0.0
  9
$DIMTIX
 70
     1
  9
$DIMSOXD
 70
     0
  9
$DIMSAH
 70
     0
  9
$DIMBLK1
  1

  9
$DIMBLK2
  1

  9
$DIMSTYLE
  2
ED60
  9
$DIMCLRD
 70
     0
  9
$DIMCLRE
 70
     0
  9
$DIMCLRT
 70
     0
  9
$DIMTFAC
 40
1.0
  9
$DIMGAP
 40
4.0
  9
$DIMJUST
 70
     0
  9
$DIMSD1
 70
     0
  9
$DIMSD2
 70
     0
  9
$DIMTOLJ
 70
     1
  9
$DIMTZIN
 70
     0
  9
$DIMALTZ
 70
     0
  9
$DIMALTTZ
 70
     0
  9
$DIMFIT
 70
     3
  9
$DIMUPT
 70
     1
  9
$DIMUNIT
 70
     2
  9
$DIMDEC
 70
     0
  9
$DIMTDEC
 70
     4
  9
$DIMALTU
 70
     2
  9
$DIMALTTD
 70
     2
  9
$DIMTXSTY
  7
ED60
  9
$DIMAUNIT
 70
     0
  9
$LUNITS
 70
     2
  9
$LUPREC
 70
     4
  9
$SKETCHINC
 40
0.1
  9
$FILLETRAD
 40
0.5
  9
$AUNITS
 70
     0
  9
$AUPREC
 70
     0
  9
$MENU
  1
.
  9
$ELEVATION
 40
0.0
  9
$PELEVATION
 40
0.0
  9
$THICKNESS
 40
0.0
  9
$LIMCHECK
 70
     0
  9
$BLIPMODE
 70
     0
  9
$CHAMFERA
 40
0.5
  9
$CHAMFERB
 40
0.5
  9
$CHAMFERC
 40
1.0
  9
$CHAMFERD
 40
0.0
  9
$SKPOLY
 70
     0
  9
$TDCREATE
 40
2455645.58222728
  9
$TDUPDATE
 40
2455645.582227292
  9
$TDINDWG
 40
0.0000000116
  9
$TDUSRTIMER
 40
0.0000000116
  9
$USRTIMER
 70
     1
  9
$ANGBASE
 50
0.0
  9
$ANGDIR
 70
     0
  9
$PDMODE
 70
     3
  9
$PDSIZE
 40
20.0
  9
$PLINEWID
 40
0.0
  9
$COORDS
 70
     1
  9
$SPLFRAME
 70
     0
  9
$SPLINETYPE
 70
     6
  9
$SPLINESEGS
 70
     8
  9
$ATTDIA
 70
     0
  9
$ATTREQ
 70
     1
  9
$HANDLING
 70
     1
  9
$HANDSEED
  5
25D2
  9
$SURFTAB1
 70
     6
  9
$SURFTAB2
 70
     6
  9
$SURFTYPE
 70
     6
  9
$SURFU
 70
     6
  9
$SURFV
 70
     6
  9
$UCSNAME
  2

  9
$UCSORG
 10
0.0
 20
0.0
 30
0.0
  9
$UCSXDIR
 10
1.0
 20
0.0
 30
0.0
  9
$UCSYDIR
 10
0.0
 20
1.0
 30
0.0
  9
$PUCSNAME
  2

  9
$PUCSORG
 10
0.0
 20
0.0
 30
0.0
  9
$PUCSXDIR
 10
1.0
 20
0.0
 30
0.0
  9
$PUCSYDIR
 10
0.0
 20
1.0
 30
0.0
  9
$USERI1
 70
     0
  9
$USERI2
 70
     0
  9
$USERI3
 70
     0
  9
$USERI4
 70
     0
  9
$USERI5
 70
     0
  9
$USERR1
 40
0.0
  9
$USERR2
 40
0.0
  9
$USERR3
 40
0.0
  9
$USERR4
 40
0.0
  9
$USERR5
 40
0.0
  9
$WORLDVIEW
 70
     1
  9
$SHADEDGE
 70
     3
  9
$SHADEDIF
 70
    70
  9
$TILEMODE
 70
     1
  9
$MAXACTVP
 70
    64
  9
$PINSBASE
 10
0.0
 20
0.0
 30
0.0
  9
$PLIMCHECK
 70
     0
  9
$PEXTMIN
 10
1.000000000000000E+20
 20
1.000000000000000E+20
 30
1.000000000000000E+20
  9
$PEXTMAX
 10
-1.000000000000000E+20
 20
-1.000000000000000E+20
 30
-1.000000000000000E+20
  9
$PLIMMIN
 10
0.0
 20
0.0
  9
$PLIMMAX
 10
0.0
 20
0.0
  9
$UNITMODE
 70
     0
  9
$VISRETAIN
 70
     1
  9
$PLINEGEN
 70
     0
  9
$PSLTSCALE
 70
     1
  9
$TREEDEPTH
 70
  3020
  9
$PICKSTYLE
 70
     1
  9
$CMLSTYLE
  2
STANDARD
  9
$CMLJUST
 70
     0
  9
$CMLSCALE
 40
1.0
  9
$PROXYGRAPHICS
 70
     1
  9
$MEASUREMENT
 70
     0
  0
ENDSEC
  0
SECTION
  2
CLASSES
  0
CLASS
  1
ACDBDICTIONARYWDFLT
  2
AcDbDictionaryWithDefault
  3
ObjectDBX Classes
 90
        0
280
     0
281
     0
  0
CLASS
  1
XRECORD
  2
AcDbXrecord
  3
AutoCAD 2000
 90
        0
280
     0
281
     0
  0
CLASS
  1
LWPOLYLINE
  2
AcDbPolyline
  3
AutoCAD 2000
 90
        0
280
     0
281
     1
  0
CLASS
  1
HATCH
  2
AcDbHatch
  3
AutoCAD 2000
 90
        0
280
     0
281
     1
  0
CLASS
  1
ACDBPLACEHOLDER
  2
AcDbPlaceHolder
  3
ObjectDBX Classes
 90
        0
280
     0
281
     0
  0
CLASS
  1
LAYOUT
  2
AcDbLayout
  3
ObjectDBX Classes
 90
        0
280
     0
281
     0
  0
ENDSEC
  0
SECTION
  2
TABLES
  0
TABLE
  2
VPORT
  5
2523
330
0
100
AcDbSymbolTable
 70
     2
  0
VPORT
  5
2544
102
{ACAD_XDICTIONARY
360
25D0
102
}
330
2523
100
AcDbSymbolTableRecord
100
AcDbViewportTableRecord
  2
*ACTIVE
 70
     0
 10
0.0
 20
0.0
 11
1.0
 21
1.0
 12
623.959554
 22
-543.692237
 13
0.0
 23
0.0
 14
10.0
 24
10.0
 15
10.0
 25
10.0
 16
0.0
 26
0.0
 36
1.0
 17
0.0
 27
0.0
 37
0.0
 40
3425.264319
 41
0.0051840544559309
 42
50.0
 43
0.0
 44
0.0
 50
0.0
 51
0.0000000000007958
 71
     0
 72
   100
 73
     1
 74
     3
 75
     0
 76
     0
 77
     0
 78
     0
  0
ENDTAB
  0
TABLE
  2
LTYPE
  5
2520
330
0
100
AcDbSymbolTable
 70
    25
  0
LTYPE
  5
252F
330
2520
100
AcDbSymbolTableRecord
100
AcDbLinetypeTableRecord
  2
BYBLOCK
 70
     0
  3

 72
    65
 73
     0
 40
0.0
  0
LTYPE
  5
2530
330
2520
100
AcDbSymbolTableRecord
100
AcDbLinetypeTableRecord
  2
BYLAYER
 70
     0
  3

 72
    65
 73
     0
 40
0.0
  0
LTYPE
  5
2531
330
2520
100
AcDbSymbolTableRecord
100
AcDbLinetypeTableRecord
  2
CONTINUOUS
 70
     0
  3
Solid line
 72
    65
 73
     0
 40
0.0
  0
LTYPE
  5
254C
330
2520
100
AcDbSymbolTableRecord
100
AcDbLinetypeTableRecord
  2
CENTER
 70
     0
  3
Center ____ _ ____ _ ____ _ ____ _ ____ _ ____
 72
    65
 73
     4
 40
2.0
 49
1.25
 74
     0
 49
-0.25
 74
     0
 49
0.25
 74
     0
 49
-0.25
 74
     0
  0
LTYPE
  5
254D
330
2520
100
AcDbSymbolTableRecord
100
AcDbLinetypeTableRecord
  2
DASHDOT
 70
     0
  3
Dashdot __ . __ . __ . __ . __ . __ . __ . __
 72
    65
 73
     4
 40
1.0
 49
0.5
 74
     0
 49
-0.25
 74
     0
 49
0.0
 74
     0
 49
-0.25
 74
     0
  0
LTYPE
  5
254E
330
2520
100
AcDbSymbolTableRecord
100
AcDbLinetypeTableRecord
  2
DASHED
 70
     0
  3
Dashed __ __ __ __ __ __ __ __ __ __ __ __ __ _
 72
    65
 73
     2
 40
0.75
 49
0.5
 74
     0
 49
-0.25
 74
     0
  0
LTYPE
  5
254F
330
2520
100
AcDbSymbolTableRecord
100
AcDbLinetypeTableRecord
  2
HIDDEN
 70
     0
  3
Hidden __ __ __ __ __ __ __ __ __ __ __ __ __ __
 72
    65
 73
     2
 40
0.375
 49
0.25
 74
     0
 49
-0.125
 74
     0
  0
LTYPE
  5
2550
330
2520
100
AcDbSymbolTableRecord
100
AcDbLinetypeTableRecord
  2
HIDDEN2
 70
     0
  3
Hidden2 _ _ _ _ _ _ _ _ _ _ _ _ _ _ _ _ _ 
 72
    65
 73
     2
 40
0.1875
 49
0.125
 74
     0
 49
-0.0625
 74
     0
  0
LTYPE
  5
2551
330
2520
100
AcDbSymbolTableRecord
100
AcDbLinetypeTableRecord
  2
BORDER
 70
     0
  3
Border __ __ . __ __ . __ __ . __ __ . __ __ .
 72
    65
 73
     6
 40
1.75
 49
0.5
 74
     0
 49
-0.25
 74
     0
 49
0.5
 74
     0
 49
-0.25
 74
     0
 49
0.0
 74
     0
 49
-0.25
 74
     0
  0
LTYPE
  5
2552
330
2520
100
AcDbSymbolTableRecord
100
AcDbLinetypeTableRecord
  2
BORDER2
 70
     0
  3
Border2 __.__.__.__.__.__.__.__.__.__.__.
 72
    65
 73
     6
 40
0.875
 49
0.25
 74
     0
 49
-0.125
 74
     0
 49
0.25
 74
     0
 49
-0.125
 74
     0
 49
0.0
 74
     0
 49
-0.125
 74
     0
  0
LTYPE
  5
2553
330
2520
100
AcDbSymbolTableRecord
100
AcDbLinetypeTableRecord
  2
BORDERX2
 70
     0
  3
Borderx2  ____  ____  .  ____  ____  .  ___
 72
    65
 73
     6
 40
3.5
 49
1.0
 74
     0
 49
-0.5
 74
     0
 49
1.0
 74
     0
 49
-0.5
 74
     0
 49
0.0
 74
     0
 49
-0.5
 74
     0
  0
LTYPE
  5
2554
330
2520
100
AcDbSymbolTableRecord
100
AcDbLinetypeTableRecord
  2
CENTER2
 70
     0
  3
Center2  ___ _ ___ _ ___ _ ___ _ ___ _ ___
 72
    65
 73
     4
 40
1.125
 49
0.75
 74
     0
 49
-0.125
 74
     0
 49
0.125
 74
     0
 49
-0.125
 74
     0
  0
LTYPE
  5
2555
330
2520
100
AcDbSymbolTableRecord
100
AcDbLinetypeTableRecord
  2
CENTERX2
 70
     0
  3
Centerx2  ________  __  ________  __  _____
 72
    65
 73
     4
 40
4.0
 49
2.5
 74
     0
 49
-0.5
 74
     0
 49
0.5
 74
     0
 49
-0.5
 74
     0
  0
LTYPE
  5
2556
330
2520
100
AcDbSymbolTableRecord
100
AcDbLinetypeTableRecord
  2
DASHDOT2
 70
     0
  3
Dashdot2  _._._._._._._._._._._._._._._.
 72
    65
 73
     4
 40
0.5
 49
0.25
 74
     0
 49
-0.125
 74
     0
 49
0.0
 74
     0
 49
-0.125
 74
     0
  0
LTYPE
  5
2557
330
2520
100
AcDbSymbolTableRecord
100
AcDbLinetypeTableRecord
  2
DASHDOTX2
 70
     0
  3
Dashdotx2 ____  .  ____  .  ____  .  ___
 72
    65
 73
     4
 40
2.0
 49
1.0
 74
     0
 49
-0.5
 74
     0
 49
0.0
 74
     0
 49
-0.5
 74
     0
  0
LTYPE
  5
2558
330
2520
100
AcDbSymbolTableRecord
100
AcDbLinetypeTableRecord
  2
DASHED2
 70
     0
  3
Dashed2 _ _ _ _ _ _ _ _ _ _ _ _ _ _ _ _ _ 
 72
    65
 73
     2
 40
0.375
 49
0.25
 74
     0
 49
-0.125
 74
     0
  0
LTYPE
  5
2559
330
2520
100
AcDbSymbolTableRecord
100
AcDbLinetypeTableRecord
  2
DASHEDX2
 70
     0
  3
Dashedx2 ____  ____  ____  ____  ____  ___
 72
    65
 73
     2
 40
1.5
 49
1.0
 74
     0
 49
-0.5
 74
     0
  0
LTYPE
  5
255A
330
2520
100
AcDbSymbolTableRecord
100
AcDbLinetypeTableRecord
  2
DIVIDE
 70
     0
  3
Divide ____ . . ____ . . ____ . . ____ . . ____
 72
    65
 73
     6
 40
1.25
 49
0.5
 74
     0
 49
-0.25
 74
     0
 49
0.0
 74
     0
 49
-0.25
 74
     0
 49
0.0
 74
     0
 49
-0.25
 74
     0
  0
LTYPE
  5
255B
330
2520
100
AcDbSymbolTableRecord
100
AcDbLinetypeTableRecord
  2
DIVIDE2
 70
     0
  3
Divide2 __..__..__..__..__..__..__..__.._
 72
    65
 73
     6
 40
0.625
 49
0.25
 74
     0
 49
-0.125
 74
     0
 49
0.0
 74
     0
 49
-0.125
 74
     0
 49
0.0
 74
     0
 49
-0.125
 74
     0
  0
LTYPE
  5
255C
330
2520
100
AcDbSymbolTableRecord
100
AcDbLinetypeTableRecord
  2
DIVIDEX2
 70
     0
  3
Dividex2 ________  .  .  ________  .  .  _
 72
    65
 73
     6
 40
2.5
 49
1.0
 74
     0
 49
-0.5
 74
     0
 49
0.0
 74
     0
 49
-0.5
 74
     0
 49
0.0
 74
     0
 49
-0.5
 74
     0
  0
LTYPE
  5
255D
330
2520
100
AcDbSymbolTableRecord
100
AcDbLinetypeTableRecord
  2
DOT
 70
     0
  3
Dot . . . . . . . . . . . . . . . . . . . . . . . .
 72
    65
 73
     2
 40
0.25
 49
0.0
 74
     0
 49
-0.25
 74
     0
  0
LTYPE
  5
255E
330
2520
100
AcDbSymbolTableRecord
100
AcDbLinetypeTableRecord
  2
DOT2
 70
     0
  3
Dot2 ........................................
 72
    65
 73
     2
 40
0.125
 49
0.0
 74
     0
 49
-0.125
 74
     0
  0
LTYPE
  5
255F
330
2520
100
AcDbSymbolTableRecord
100
AcDbLinetypeTableRecord
  2
DOTX2
 70
     0
  3
Dotx2 .  .  .  .  .  .  .  .  .  .  .  .  .  .
 72
    65
 73
     2
 40
0.5
 49
0.0
 74
     0
 49
-0.5
 74
     0
  0
LTYPE
  5
2560
330
2520
100
AcDbSymbolTableRecord
100
AcDbLinetypeTableRecord
  2
HIDDENX2
 70
     0
  3
Hiddenx2 ____ ____ ____ ____ ____ ____ ____ 
 72
    65
 73
     2
 40
0.75
 49
0.5
 74
     0
 49
-0.25
 74
     0
  0
LTYPE
  5
2561
330
2520
100
AcDbSymbolTableRecord
100
AcDbLinetypeTableRecord
  2
PHANTOM
 70
     0
  3
Phantom ______  __  __  ______  __  __  ______ 
 72
    65
 73
     6
 40
2.5
 49
1.25
 74
     0
 49
-0.25
 74
     0
 49
0.25
 74
     0
 49
-0.25
 74
     0
 49
0.25
 74
     0
 49
-0.25
 74
     0
  0
LTYPE
  5
2562
330
2520
100
AcDbSymbolTableRecord
100
AcDbLinetypeTableRecord
  2
PHANTOM2
 70
     0
  3
Phantom2 ___ _ _ ___ _ _ ___ _ _ ___ _ _
 72
    65
 73
     6
 40
1.25
 49
0.625
 74
     0
 49
-0.125
 74
     0
 49
0.125
 74
     0
 49
-0.125
 74
     0
 49
0.125
 74
     0
 49
-0.125
 74
     0
  0
LTYPE
  5
2563
330
2520
100
AcDbSymbolTableRecord
100
AcDbLinetypeTableRecord
  2
PHANTOMX2
 70
     0
  3
Phantomx2 ____________    ____    ____   _
 72
    65
 73
     6
 40
5.0
 49
2.5
 74
     0
 49
-0.5
 74
     0
 49
0.5
 74
     0
 49
-0.5
 74
     0
 49
0.5
 74
     0
 49
-0.5
 74
     0
  0
ENDTAB
  0
TABLE
  2
LAYER
  5
251D
330
0
100
AcDbSymbolTable
 70
     6
  0
LAYER
  5
252B
330
251D
100
AcDbSymbolTableRecord
100
AcDbLayerTableRecord
  2
0
 70
     0
 62
     7
  6
CONTINUOUS
  0
LAYER
  5
9E
330
251D
100
AcDbSymbolTableRecord
100
AcDbLayerTableRecord
  2
DEFPOINTS
 70
     0
 62
     7
  6
CONTINUOUS
  0
LAYER
  5
377
330
251D
100
AcDbSymbolTableRecord
100
AcDbLayerTableRecord
  2
V0-OBRYS
 70
     0
 62
    90
  6
CONTINUOUS
  0
LAYER
  5
378
330
251D
100
AcDbSymbolTableRecord
100
AcDbLayerTableRecord
  2
V0-VYPLNE
 70
     0
 62
    63
  6
DASHDOT
  0
LAYER
  5
37A
330
251D
100
AcDbSymbolTableRecord
100
AcDbLayerTableRecord
  2
V0-NAZVY
 70
     0
 62
   210
  6
CONTINUOUS
  0
LAYER
  5
559
330
251D
100
AcDbSymbolTableRecord
100
AcDbLayerTableRecord
  2
V0-ZBYTEK
 70
     0
 62
    51
  6
CONTINUOUS
  0
ENDTAB
  0
TABLE
  2
STYLE
  5
251E
330
0
100
AcDbSymbolTable
 70
     7
  0
STYLE
  5
252C
330
251E
100
AcDbSymbolTableRecord
100
AcDbTextStyleTableRecord
  2
STANDARD
 70
     0
 40
0.0
 41
1.0
 50
0.0
 71
     0
 42
0.2
  3
ISOCP.shx
  4

1001
ACAD
1000
ISOCP.shx
1071
        0
  0
STYLE
  5
331
330
251E
100
AcDbSymbolTableRecord
100
AcDbTextStyleTableRecord
  2
ED20
 70
     0
 40
25.0
 41
1.0
 50
0.0
 71
     0
 42
0.2
  3
ISOCP.shx
  4

1001
ACAD
1000
ISOCP.shx
1071
        0
  0
STYLE
  5
648
330
251E
100
AcDbSymbolTableRecord
100
AcDbTextStyleTableRecord
  2
ED10
 70
     0
 40
10.0
 41
1.0
 50
0.0
 71
     0
 42
0.2
  3
ISOCP.shx
  4

1001
ACAD
1000
ISOCP.shx
1071
        0
  0
STYLE
  5
F38
330
251E
100
AcDbSymbolTableRecord
100
AcDbTextStyleTableRecord
  2
ED30
 70
     0
 40
30.0
 41
1.0
 50
0.0
 71
     0
 42
0.2
  3
ISOCP.shx
  4

1001
ACAD
1000
ISOCP.shx
1071
        0
  0
STYLE
  5
F39
330
251E
100
AcDbSymbolTableRecord
100
AcDbTextStyleTableRecord
  2
ED40
 70
     0
 40
40.0
 41
1.0
 50
0.0
 71
     0
 42
0.2
  3
ISOCP.shx
  4

1001
ACAD
1000
ISOCP.shx
1071
        0
  0
STYLE
  5
1EA9
330
251E
100
AcDbSymbolTableRecord
100
AcDbTextStyleTableRecord
  2
ED50
 70
     0
 40
50.0
 41
1.0
 50
0.0
 71
     0
 42
0.2
  3
ISOCP.shx
  4

1001
ACAD
1000
ISOCP.shx
1071
        0
  0
STYLE
  5
2121
330
251E
100
AcDbSymbolTableRecord
100
AcDbTextStyleTableRecord
  2
ED60
 70
     0
 40
65.0
 41
1.0
 50
0.0
 71
     0
 42
0.2
  3
ISOCP.shx
  4

1001
ACAD
1000
ISOCP.shx
1071
        0
  0
ENDTAB
  0
TABLE
  2
VIEW
  5
2521
330
0
100
AcDbSymbolTable
 70
     0
  0
ENDTAB
  0
TABLE
  2
UCS
  5
2522
330
0
100
AcDbSymbolTable
 70
     0
  0
ENDTAB
  0
TABLE
  2
APPID
  5
2524
330
0
100
AcDbSymbolTable
 70
     6
  0
APPID
  5
252D
330
2524
100
AcDbSymbolTableRecord
100
AcDbRegAppTableRecord
  2
ACAD
 70
     0
  0
APPID
  5
2545
330
2524
100
AcDbSymbolTableRecord
100
AcDbRegAppTableRecord
  2
VD_INVISIBLE_NOT_FOR_READ
 70
     0
  0
APPID
  5
2546
330
2524
100
AcDbSymbolTableRecord
100
AcDbRegAppTableRecord
  2
VD_TEMPHATCH
 70
     0
  0
APPID
  5
2547
330
2524
100
AcDbSymbolTableRecord
100
AcDbRegAppTableRecord
  2
VDEXTRAPARAM
 70
     0
  0
APPID
  5
2548
330
2524
100
AcDbSymbolTableRecord
100
AcDbRegAppTableRecord
  2
PE_URL
 70
     0
  0
APPID
  5
2549
330
2524
100
AcDbSymbolTableRecord
100
AcDbRegAppTableRecord
  2
VD_UNKNOWN
 70
     0
  0
ENDTAB
  0
TABLE
  2
DIMSTYLE
  5
2525
330
0
100
AcDbSymbolTable
 70
     6
  0
DIMSTYLE
105
2542
330
2525
100
AcDbSymbolTableRecord
100
AcDbDimStyleTableRecord
  2
STANDARD
 70
     0
  3

  4

  5
OPEN
  6

  7

 40
1.0
 41
15.0
 42
0.625
 43
0.38
 44
1.25
 45
0.0
 46
0.0
 47
0.0
 48
0.0
140
15.0
141
0.09
142
0.0
143
25.4
144
1.0
145
0.0
146
1.0
147
3.0
 71
     0
 72
     0
 73
     0
 74
     0
 75
     0
 76
     0
 77
     1
 78
     0
170
     0
171
     2
172
     1
173
     0
174
     1
175
     0
176
     0
177
     0
178
     0
270
     2
271
     0
272
     4
273
     2
274
     2
340
331
275
     0
280
     0
281
     0
282
     0
283
     1
284
     0
285
     0
286
     0
287
     3
288
     1
  0
DIMSTYLE
105
397
330
2525
100
AcDbSymbolTableRecord
100
AcDbDimStyleTableRecord
  2
ED40
 70
     0
  3

  4

  5
OPEN
  6

  7

 40
1.0
 41
35.0
 42
1.0
 43
0.38
 44
1.25
 45
0.0
 46
0.0
 47
0.0
 48
0.0
140
40.0
141
0.09
142
0.0
143
25.4
144
1.0
145
0.0
146
1.0
147
4.0
 71
     0
 72
     0
 73
     0
 74
     0
 75
     0
 76
     0
 77
     1
 78
     0
170
     0
171
     2
172
     1
173
     0
174
     1
175
     0
176
     0
177
     0
178
     0
270
     2
271
     0
272
     4
273
     2
274
     2
340
F39
275
     0
280
     0
281
     0
282
     0
283
     1
284
     0
285
     0
286
     0
287
     3
288
     1
  0
DIMSTYLE
105
FEA
330
2525
100
AcDbSymbolTableRecord
100
AcDbDimStyleTableRecord
  2
ED30
 70
     0
  3

  4

  5
OPEN
  6

  7

 40
1.0
 41
25.0
 42
1.0
 43
0.38
 44
1.25
 45
0.0
 46
0.0
 47
0.0
 48
0.0
140
30.0
141
0.09
142
0.0
143
25.4
144
1.0
145
0.0
146
1.0
147
4.0
 71
     0
 72
     0
 73
     0
 74
     0
 75
     0
 76
     0
 77
     1
 78
     0
170
     0
171
     2
172
     1
173
     0
174
     1
175
     0
176
     0
177
     0
178
     0
270
     2
271
     0
272
     4
273
     2
274
     2
340
F38
275
     0
280
     0
281
     0
282
     0
283
     1
284
     0
285
     0
286
     0
287
     3
288
     1
  0
DIMSTYLE
105
1457
330
2525
100
AcDbSymbolTableRecord
100
AcDbDimStyleTableRecord
  2
ED20
 70
     0
  3

  4

  5
OPEN
  6

  7

 40
1.0
 41
20.0
 42
1.0
 43
0.38
 44
1.25
 45
0.0
 46
0.0
 47
0.0
 48
0.0
140
20.0
141
0.09
142
0.0
143
25.4
144
1.0
145
0.0
146
1.0
147
1.5
 71
     0
 72
     0
 73
     0
 74
     0
 75
     0
 76
     0
 77
     1
 78
     0
170
     0
171
     2
172
     1
173
     0
174
     1
175
     0
176
     0
177
     0
178
     0
270
     2
271
     0
272
     4
273
     2
274
     2
340
331
275
     0
280
     0
281
     0
282
     0
283
     1
284
     0
285
     0
286
     0
287
     3
288
     1
  0
DIMSTYLE
105
1458
330
2525
100
AcDbSymbolTableRecord
100
AcDbDimStyleTableRecord
  2
ED10
 70
     0
  3

  4

  5
OPEN
  6

  7

 40
1.0
 41
15.0
 42
1.0
 43
0.38
 44
1.25
 45
0.0
 46
0.0
 47
0.0
 48
0.0
140
10.0
141
0.09
142
0.0
143
25.4
144
1.0
145
0.0
146
1.0
147
1.5
 71
     0
 72
     0
 73
     0
 74
     0
 75
     0
 76
     0
 77
     1
 78
     0
170
     0
171
     2
172
     1
173
     0
174
     1
175
     0
176
     0
177
     0
178
     0
270
     2
271
     0
272
     4
273
     2
274
     2
340
331
275
     0
280
     0
281
     0
282
     0
283
     1
284
     0
285
     0
286
     0
287
     3
288
     1
  0
DIMSTYLE
105
2122
102
{ACAD_REACTORS
330
1469
330
1483
330
1BAE
330
2329
330
2336
102
}
330
2525
100
AcDbSymbolTableRecord
100
AcDbDimStyleTableRecord
  2
ED60
 70
     0
  3

  4

  5
OPEN
  6

  7

 40
1.0
 41
60.0
 42
1.0
 43
0.38
 44
1.25
 45
0.0
 46
0.0
 47
0.0
 48
0.0
140
50.0
141
0.09
142
0.0
143
25.4
144
1.0
145
0.0
146
1.0
147
4.0
 71
     0
 72
     0
 73
     0
 74
     0
 75
     0
 76
     0
 77
     1
 78
     0
170
     0
171
     2
172
     1
173
     0
174
     1
175
     0
176
     0
177
     0
178
     0
270
     2
271
     0
272
     4
273
     2
274
     2
340
2121
275
     0
280
     0
281
     0
282
     0
283
     1
284
     0
285
     0
286
     0
287
     3
288
     1
  0
ENDTAB
  0
TABLE
  2
BLOCK_RECORD
  5
251C
330
0
100
AcDbSymbolTable
 70
    10
  0
BLOCK_RECORD
  5
253A
330
251C
100
AcDbSymbolTableRecord
100
AcDbBlockTableRecord
  2
*MODEL_SPACE
  0
BLOCK_RECORD
  5
2536
330
251C
100
AcDbSymbolTableRecord
100
AcDbBlockTableRecord
  2
*PAPER_SPACE
  0
BLOCK_RECORD
  5
90
330
251C
100
AcDbSymbolTableRecord
100
AcDbBlockTableRecord
  2
_OPEN
  0
BLOCK_RECORD
  5
1459
330
251C
100
AcDbSymbolTableRecord
100
AcDbBlockTableRecord
  2
A10_100
  0
BLOCK_RECORD
  5
2518
330
251C
100
AcDbSymbolTableRecord
100
AcDbBlockTableRecord
  2
VDDIM_DEFAULT
  0
BLOCK_RECORD
  5
251A
330
251C
100
AcDbSymbolTableRecord
100
AcDbBlockTableRecord
  2
VDDIM_NONE
  0
BLOCK_RECORD
  5
256D
330
251C
100
AcDbSymbolTableRecord
100
AcDbBlockTableRecord
  2
*D5
  0
BLOCK_RECORD
  5
257A
330
251C
100
AcDbSymbolTableRecord
100
AcDbBlockTableRecord
  2
*D6
  0
BLOCK_RECORD
  5
2587
330
251C
100
AcDbSymbolTableRecord
100
AcDbBlockTableRecord
  2
*D7
  0
BLOCK_RECORD
  5
2594
330
251C
100
AcDbSymbolTableRecord
100
AcDbBlockTableRecord
  2
*D8
  0
BLOCK_RECORD
  5
25A0
330
251C
100
AcDbSymbolTableRecord
100
AcDbBlockTableRecord
  2
*D9
  0
ENDTAB
  0
ENDSEC
  0
SECTION
  2
BLOCKS
  0
BLOCK
  5
253B
330
253A
100
AcDbEntity
  8
0
100
AcDbBlockBegin
  2
*MODEL_SPACE
 70
     0
 71
     0
 10
0.0
 20
0.0
 30
0.0
  3
*MODEL_SPACE
  1

  0
ENDBLK
  5
253C
330
253A
100
AcDbEntity
  8
0
100
AcDbBlockEnd
  0
BLOCK
  5
2537
330
2536
100
AcDbEntity
 67
     1
  8
0
100
AcDbBlockBegin
  2
*PAPER_SPACE
 70
     0
 71
     0
 10
0.0
 20
0.0
 30
0.0
  3
*PAPER_SPACE
  1

  0
ENDBLK
  5
2538
330
2536
100
AcDbEntity
 67
     1
  8
0
100
AcDbBlockEnd
  0
BLOCK
  5
2564
330
90
100
AcDbEntity
  8
0
100
AcDbBlockBegin
  2
_OPEN
 70
     0
 71
     0
 10
0.0
 20
0.0
 30
0.0
  3
_OPEN
  1

  0
LINE
  5
92
330
90
100
AcDbEntity
  8
0
  6
BYBLOCK
 62
     0
100
AcDbLine
 10
-1.0
 20
0.166667
 30
0.0
 11
0.0
 21
0.0
 31
0.0
  0
LINE
  5
93
330
90
100
AcDbEntity
  8
0
  6
BYBLOCK
 62
     0
100
AcDbLine
 10
0.0
 20
0.0
 30
0.0
 11
-1.0
 21
-0.166667
 31
0.0
  0
LINE
  5
94
330
90
100
AcDbEntity
  8
0
  6
BYBLOCK
 62
     0
100
AcDbLine
 10
0.0
 20
0.0
 30
0.0
 11
-1.0
 21
0.0
 31
0.0
  0
ENDBLK
  5
2565
330
90
100
AcDbEntity
  8
0
100
AcDbBlockEnd
  0
BLOCK
  5
2566
330
1459
100
AcDbEntity
  8
0
100
AcDbBlockBegin
  2
A10_100
 70
     0
 71
     0
 10
0.0
 20
0.0
 30
0.0
  3
A10_100
  1

  0
ENDBLK
  5
2567
330
1459
100
AcDbEntity
  8
0
100
AcDbBlockEnd
  0
BLOCK
  5
2568
330
2518
100
AcDbEntity
  8
0
100
AcDbBlockBegin
  2
VDDIM_DEFAULT
 70
     0
 71
     0
 10
0.0
 20
0.0
 30
0.0
  3
VDDIM_DEFAULT
  1

  0
LWPOLYLINE
  5
2519
330
2518
100
AcDbEntity
  8
0
  6
CONTINUOUS
 62
     0
100
AcDbPolyline
 90
        4
 70
     0
 43
0.0
 10
0.0
 20
0.0
 10
-1.0
 20
-0.1665
 10
-1.0
 20
0.1665
 10
0.0
 20
0.0
1001
VDEXTRAPARAM
1071
        1
1071
        0
1071
        0
1040
1.0
1000

1000

1040
0.0
1040
0.0
  0
HATCH
  5
256C
330
2518
100
AcDbEntity
  8
0
  6
CONTINUOUS
 62
     0
100
AcDbHatch
 10
0.0
 20
0.0
 30
0.0
210
0.0
220
0.0
230
1.0
  2
SOLID
 70
     1
 71
     0
 91
        1
 92
        2
 72
     0
 73
     1
 93
        3
 10
0.0
 20
0.0
 10
-1.0
 20
-0.1665
 10
-1.0
 20
0.1665
 97
        0
 75
     0
 76
     1
 98
        1
 10
0.0
 20
0.0
1001
VDEXTRAPARAM
1071
        1
1071
        0
1071
        0
1040
1.0
1000

1000

1040
0.0
1040
0.0
1001
VD_TEMPHATCH
1000
VD_TEMPHATCH
  0
ENDBLK
  5
2569
330
2518
100
AcDbEntity
  8
0
100
AcDbBlockEnd
  0
BLOCK
  5
256A
330
251A
100
AcDbEntity
  8
0
100
AcDbBlockBegin
  2
VDDIM_NONE
 70
     0
 71
     0
 10
0.0
 20
0.0
 30
0.0
  3
VDDIM_NONE
  1

  0
ENDBLK
  5
256B
330
251A
100
AcDbEntity
  8
0
100
AcDbBlockEnd
  0
BLOCK
  5
2578
330
256D
100
AcDbEntity
  8
0
100
AcDbBlockBegin
  2
*D5
 70
     1
 71
     0
 10
0.0
 20
0.0
 30
0.0
  3
*D5
  1

  0
LINE
  5
256E
330
256D
100
AcDbEntity
  8
V0-VYPLNE
 62
     0
100
AcDbLine
 10
-148.858761
 20
-277.166006
 30
0.0
 11
-148.858761
 21
-401.0897200000181
 31
0.0
  0
LINE
  5
256F
330
256D
100
AcDbEntity
  8
V0-VYPLNE
 62
     0
100
AcDbLine
 10
561.141239
 20
-277.166006
 30
0.0
 11
561.141239
 21
-401.0897200000181
 31
0.0
  0
LINE
  5
2570
330
256D
100
AcDbEntity
  8
V0-VYPLNE
 62
     0
100
AcDbLine
 10
-88.85876099999996
 20
-399.8397200000181
 30
0.0
 11
103.0721840952381
 21
-399.8397200000181
 31
0.0
  0
LINE
  5
2571
330
256D
100
AcDbEntity
  8
V0-VYPLNE
 62
     0
100
AcDbLine
 10
501.141239
 20
-399.8397200000181
 30
0.0
 11
284.8817079047619
 21
-399.8397200000181
 31
0.0
  0
INSERT
  5
2572
330
256D
100
AcDbEntity
  8
V0-VYPLNE
 62
     0
100
AcDbBlockReference
  2
_OPEN
 10
-148.858761
 20
-399.8397200000181
 30
0.0
 41
60.0
 42
60.0
 43
60.0
 50
180.0
  0
INSERT
  5
2573
330
256D
100
AcDbEntity
  8
V0-VYPLNE
 62
     0
100
AcDbBlockReference
  2
_OPEN
 10
561.141239
 20
-399.8397200000181
 30
0.0
 41
60.0
 42
60.0
 43
60.0
  0
MTEXT
  5
2574
330
256D
100
AcDbEntity
  8
V0-VYPLNE
 62
     0
100
AcDbMText
 10
193.976946
 20
-399.83972
 30
0.0
 40
50.0
 41
0.0
 71
     5
 72
     1
  1
%%c\A1;710
  7
ED60
  0
POINT
  5
2575
330
256D
100
AcDbEntity
  8
DEFPOINTS
 62
     0
100
AcDbPoint
 10
-148.858761
 20
-276.166006
 30
0.0
  0
POINT
  5
2576
330
256D
100
AcDbEntity
  8
DEFPOINTS
 62
     0
100
AcDbPoint
 10
561.141239
 20
-276.166006
 30
0.0
  0
POINT
  5
2577
330
256D
100
AcDbEntity
  8
DEFPOINTS
 62
     0
100
AcDbPoint
 10
561.141239
 20
-399.8397200000181
 30
0.0
  0
ENDBLK
  5
2579
330
256D
100
AcDbEntity
  8
0
100
AcDbBlockEnd
  0
BLOCK
  5
2585
330
257A
100
AcDbEntity
  8
0
100
AcDbBlockBegin
  2
*D6
 70
     1
 71
     0
 10
0.0
 20
0.0
 30
0.0
  3
*D6
  1

  0
LINE
  5
257B
330
257A
100
AcDbEntity
  8
V0-VYPLNE
 62
     0
100
AcDbLine
 10
-343.858761
 20
-277.166006
 30
0.0
 11
-343.858761
 21
-648.906039000023
 31
0.0
  0
LINE
  5
257C
330
257A
100
AcDbEntity
  8
V0-VYPLNE
 62
     0
100
AcDbLine
 10
756.141239
 20
-277.166006
 30
0.0
 11
756.141239
 21
-648.9060390000232
 31
0.0
  0
LINE
  5
257D
330
257A
100
AcDbEntity
  8
V0-VYPLNE
 62
     0
100
AcDbLine
 10
-283.858761
 20
-647.656039000023
 30
0.0
 11
117.6174294761905
 21
-647.6560390000232
 31
0.0
  0
LINE
  5
257E
330
257A
100
AcDbEntity
  8
V0-VYPLNE
 62
     0
100
AcDbLine
 10
696.141239
 20
-647.6560390000232
 30
0.0
 11
294.6650485238096
 21
-647.6560390000232
 31
0.0
  0
INSERT
  5
257F
330
257A
100
AcDbEntity
  8
V0-VYPLNE
 62
     0
100
AcDbBlockReference
  2
_OPEN
 10
-343.858761
 20
-647.656039000023
 30
0.0
 41
60.0
 42
60.0
 43
60.0
 50
180.0
  0
INSERT
  5
2580
330
257A
100
AcDbEntity
  8
V0-VYPLNE
 62
     0
100
AcDbBlockReference
  2
_OPEN
 10
756.141239
 20
-647.6560390000232
 30
0.0
 41
60.0
 42
60.0
 43
60.0
 50
360.0
  0
MTEXT
  5
2581
330
257A
100
AcDbEntity
  8
V0-VYPLNE
 62
     0
100
AcDbMText
 10
206.141239
 20
-647.656039
 30
0.0
 40
50.0
 41
0.0
 71
     5
 72
     1
  1
\A1;1100
  7
ED60
  0
POINT
  5
2582
330
257A
100
AcDbEntity
  8
DEFPOINTS
 62
     0
100
AcDbPoint
 10
-343.858761
 20
-276.166006
 30
0.0
  0
POINT
  5
2583
330
257A
100
AcDbEntity
  8
DEFPOINTS
 62
     0
100
AcDbPoint
 10
756.141239
 20
-276.166006
 30
0.0
  0
POINT
  5
2584
330
257A
100
AcDbEntity
  8
DEFPOINTS
 62
     0
100
AcDbPoint
 10
756.141239
 20
-647.6560390000232
 30
0.0
  0
ENDBLK
  5
2586
330
257A
100
AcDbEntity
  8
0
100
AcDbBlockEnd
  0
BLOCK
  5
2592
330
2587
100
AcDbEntity
  8
0
100
AcDbBlockBegin
  2
*D7
 70
     1
 71
     0
 10
0.0
 20
0.0
 30
0.0
  3
*D7
  1

  0
LINE
  5
2588
330
2587
100
AcDbEntity
  8
V0-VYPLNE
 62
     0
100
AcDbLine
 10
-213.858761
 20
-287.166006
 30
0.0
 11
-213.8587610000001
 21
-519.0974929999792
 31
0.0
  0
LINE
  5
2589
330
2587
100
AcDbEntity
  8
V0-VYPLNE
 62
     0
100
AcDbLine
 10
626.141239
 20
-277.166006
 30
0.0
 11
626.141239
 21
-519.0974929999792
 31
0.0
  0
LINE
  5
258A
330
2587
100
AcDbEntity
  8
V0-VYPLNE
 62
     0
100
AcDbLine
 10
-153.8587610000001
 20
-517.8474929999792
 30
0.0
 11
125.6912317142857
 21
-517.8474929999792
 31
0.0
  0
LINE
  5
258B
330
2587
100
AcDbEntity
  8
V0-VYPLNE
 62
     0
100
AcDbLine
 10
566.141239
 20
-517.8474929999792
 30
0.0
 11
262.2626602857143
 21
-517.8474929999792
 31
0.0
  0
INSERT
  5
258C
330
2587
100
AcDbEntity
  8
V0-VYPLNE
 62
     0
100
AcDbBlockReference
  2
_OPEN
 10
-213.8587610000001
 20
-517.8474929999792
 30
0.0
 41
60.0
 42
60.0
 43
60.0
 50
180.0
  0
INSERT
  5
258D
330
2587
100
AcDbEntity
  8
V0-VYPLNE
 62
     0
100
AcDbBlockReference
  2
_OPEN
 10
626.141239
 20
-517.8474929999792
 30
0.0
 41
60.0
 42
60.0
 43
60.0
  0
MTEXT
  5
258E
330
2587
100
AcDbEntity
  8
V0-VYPLNE
 62
     0
100
AcDbMText
 10
193.976946
 20
-517.847493
 30
0.0
 40
50.0
 41
0.0
 71
     5
 72
     1
  1
\A1;840
  7
ED60
  0
POINT
  5
258F
330
2587
100
AcDbEntity
  8
DEFPOINTS
 62
     0
100
AcDbPoint
 10
-213.858761
 20
-286.166006
 30
0.0
  0
POINT
  5
2590
330
2587
100
AcDbEntity
  8
DEFPOINTS
 62
     0
100
AcDbPoint
 10
626.141239
 20
-276.166006
 30
0.0
  0
POINT
  5
2591
330
2587
100
AcDbEntity
  8
DEFPOINTS
 62
     0
100
AcDbPoint
 10
626.141239
 20
-517.8474929999792
 30
0.0
  0
ENDBLK
  5
2593
330
2587
100
AcDbEntity
  8
0
100
AcDbBlockEnd
  0
BLOCK
  5
259E
330
2594
100
AcDbEntity
  8
0
100
AcDbBlockBegin
  2
*D8
 70
     1
 71
     0
 10
0.0
 20
0.0
 30
0.0
  3
*D8
  1

  0
LINE
  5
2595
330
2594
100
AcDbEntity
  8
V0-VYPLNE
 62
     0
100
AcDbLine
 10
-456.358761
 20
730.033994
 30
0.0
 11
-456.358761
 21
926.3282540000511
 31
0.0
  0
LINE
  5
2596
330
2594
100
AcDbEntity
  8
V0-VYPLNE
 62
     0
100
AcDbLine
 10
868.641239
 20
730.033994
 30
0.0
 11
868.641239
 21
926.328254000051
 31
0.0
  0
LINE
  5
2597
330
2594
100
AcDbEntity
  8
V0-VYPLNE
 62
     0
100
AcDbLine
 10
-396.358761
 20
925.0782540000511
 30
0.0
 11
808.641239
 21
925.078254000051
 31
0.0
  0
INSERT
  5
2598
330
2594
100
AcDbEntity
  8
V0-VYPLNE
 62
     0
100
AcDbBlockReference
  2
_OPEN
 10
-456.358761
 20
925.0782540000511
 30
0.0
 41
60.0
 42
60.0
 43
60.0
 50
180.0
  0
INSERT
  5
2599
330
2594
100
AcDbEntity
  8
V0-VYPLNE
 62
     0
100
AcDbBlockReference
  2
_OPEN
 10
868.641239
 20
925.078254000051
 30
0.0
 41
60.0
 42
60.0
 43
60.0
 50
360.0
  0
MTEXT
  5
259A
330
2594
100
AcDbEntity
  8
V0-VYPLNE
 62
     0
100
AcDbMText
 10
206.141239
 20
954.078254000051
 30
0.0
 40
50.0
 41
0.0
 71
     5
 72
     1
  1
%%c\A1;1325
  7
ED60
  0
POINT
  5
259B
330
2594
100
AcDbEntity
  8
DEFPOINTS
 62
     0
100
AcDbPoint
 10
-456.358761
 20
729.033994
 30
0.0
  0
POINT
  5
259C
330
2594
100
AcDbEntity
  8
DEFPOINTS
 62
     0
100
AcDbPoint
 10
868.641239
 20
729.033994
 30
0.0
  0
POINT
  5
259D
330
2594
100
AcDbEntity
  8
DEFPOINTS
 62
     0
100
AcDbPoint
 10
868.641239
 20
925.078254000051
 30
0.0
  0
ENDBLK
  5
259F
330
2594
100
AcDbEntity
  8
0
100
AcDbBlockEnd
  0
BLOCK
  5
25AB
330
25A0
100
AcDbEntity
  8
0
100
AcDbBlockBegin
  2
*D9
 70
     1
 71
     0
 10
0.0
 20
0.0
 30
0.0
  3
*D9
  1

  0
LINE
  5
25A1
330
25A0
100
AcDbEntity
  8
V0-VYPLNE
 62
     0
100
AcDbLine
 10
698.041239
 20
-276.166006
 30
0.0
 11
1017.294150999974
 21
-276.1660059999998
 31
0.0
  0
LINE
  5
25A2
330
25A0
100
AcDbEntity
  8
V0-VYPLNE
 62
     0
100
AcDbLine
 10
487.441239
 20
788.313994
 30
0.0
 11
1017.294150999974
 21
788.313994
 31
0.0
  0
LINE
  5
25A3
330
25A0
100
AcDbEntity
  8
V0-VYPLNE
 62
     0
100
AcDbLine
 10
1016.044150999974
 20
-216.1660059999999
 30
0.0
 11
1016.044150999974
 21
224.3597082857143
 31
0.0
  0
LINE
  5
25A4
330
25A0
100
AcDbEntity
  8
V0-VYPLNE
 62
     0
100
AcDbLine
 10
1016.044150999974
 20
728.3139939999999
 30
0.0
 11
1016.044150999974
 21
403.7882797142858
 31
0.0
  0
INSERT
  5
25A5
330
25A0
100
AcDbEntity
  8
V0-VYPLNE
 62
     0
100
AcDbBlockReference
  2
_OPEN
 10
1016.044150999974
 20
-276.1660059999999
 30
0.0
 41
60.0
 42
60.0
 43
60.0
 50
270.0
  0
INSERT
  5
25A6
330
25A0
100
AcDbEntity
  8
V0-VYPLNE
 62
     0
100
AcDbBlockReference
  2
_OPEN
 10
1016.044150999974
 20
788.3139939999999
 30
0.0
 41
60.0
 42
60.0
 43
60.0
 50
89.99999999999999
  0
MTEXT
  5
25A7
330
25A0
100
AcDbEntity
  8
V0-VYPLNE
 62
     0
100
AcDbMText
 10
1016.044151
 20
314.073994
 30
0.0
 40
50.0
 41
0.0
 71
     5
 72
     1
  1
\A1;1064
  7
ED60
 11
1.068003510837367E-16
 21
1.0
 31
0.0
  0
POINT
  5
25A8
330
25A0
100
AcDbEntity
  8
DEFPOINTS
 62
     0
100
AcDbPoint
 10
697.041239
 20
-276.166006
 30
0.0
  0
POINT
  5
25A9
330
25A0
100
AcDbEntity
  8
DEFPOINTS
 62
     0
100
AcDbPoint
 10
486.441239
 20
788.313994
 30
0.0
  0
POINT
  5
25AA
330
25A0
100
AcDbEntity
  8
DEFPOINTS
 62
     0
100
AcDbPoint
 10
1016.044150999974
 20
788.313994
 30
0.0
  0
ENDBLK
  5
25AC
330
25A0
100
AcDbEntity
  8
0
100
AcDbBlockEnd
  0
ENDSEC
  0
SECTION
  2
ENTITIES
  0
CIRCLE
  5
11B0
330
253A
100
AcDbEntity
  8
V0-VYPLNE
  6
DASHED
 62
    56
100
AcDbCircle
 10
625.512844
 20
-1138.186995
 30
0.0
 40
11.982046
  0
LINE
  5
11B1
330
253A
100
AcDbEntity
  8
V0-VYPLNE
 62
    63
100
AcDbLine
 10
625.512844
 20
-1189.53862
 30
0.0
 11
625.512844
 21
-1090.130541
 31
0.0
  0
LINE
  5
11BE
330
253A
100
AcDbEntity
  8
V0-VYPLNE
100
AcDbLine
 10
-213.858761
 20
-286.166006
 30
0.0
 11
-213.858761
 21
-236.166006
 31
0.0
  0
LINE
  5
11BF
330
253A
100
AcDbEntity
  8
V0-VYPLNE
100
AcDbLine
 10
626.141239
 20
-286.166006
 30
0.0
 11
626.141239
 21
-236.166006
 31
0.0
  0
POINT
  5
12BC
330
253A
100
AcDbEntity
  8
V0-VYPLNE
  6
CONTINUOUS
 62
    41
 48
5.0
100
AcDbPoint
 10
206.141239
 20
-1557.5586
 30
0.0
  0
POINT
  5
12BD
330
253A
100
AcDbEntity
  8
V0-VYPLNE
  6
CONTINUOUS
 62
    41
100
AcDbPoint
 10
206.141239
 20
-276.166006
 30
0.0
  0
LINE
  5
13BB
330
253A
100
AcDbEntity
  8
V0-VYPLNE
  6
DASHDOT
 62
    63
 48
5.0
100
AcDbLine
 10
-472.434431
 20
-1557.5586
 30
0.0
 11
884.716908
 21
-1557.5586
 31
0.0
  0
CIRCLE
  5
13C0
330
253A
100
AcDbEntity
  8
V0-OBRYS
  6
CONTINUOUS
 62
    90
 48
5.0
100
AcDbCircle
 10
206.141239
 20
-1557.5586
 30
0.0
 40
355.515333
  0
LINE
  5
13C2
330
253A
100
AcDbEntity
  8
V0-VYPLNE
 62
    63
100
AcDbLine
 10
696.001254
 20
-1138.186995
 30
0.0
 11
574.161219
 21
-1138.186995
 31
0.0
  0
LINE
  5
13C5
330
253A
100
AcDbEntity
  8
V0-VYPLNE
 62
    63
100
AcDbLine
 10
-161.878741
 20
-1138.186995
 30
0.0
 11
-252.916751
 21
-1138.186995
 31
0.0
  0
LINE
  5
13C6
330
253A
100
AcDbEntity
  8
V0-VYPLNE
 62
    63
100
AcDbLine
 10
-213.230366
 20
-1098.946142
 30
0.0
 11
-213.230366
 21
-1189.53862
 31
0.0
  0
CIRCLE
  5
13C7
330
253A
100
AcDbEntity
  8
V0-VYPLNE
  6
DASHED
 62
    56
100
AcDbCircle
 10
-213.230366
 20
-1138.186995
 30
0.0
 40
11.982046
  0
LINE
  5
13C8
330
253A
100
AcDbEntity
  8
V0-VYPLNE
 62
    63
100
AcDbLine
 10
-213.230366
 20
-1925.57858
 30
0.0
 11
-213.230366
 21
-2038.180922
 31
0.0
  0
LINE
  5
13C9
330
253A
100
AcDbEntity
  8
V0-VYPLNE
 62
    63
100
AcDbLine
 10
-272.396522
 20
-1976.930205
 30
0.0
 11
-161.878741
 21
-1976.930205
 31
0.0
  0
CIRCLE
  5
13CA
330
253A
100
AcDbEntity
  8
V0-VYPLNE
  6
DASHED
 62
    56
100
AcDbCircle
 10
-213.230366
 20
-1976.930205
 30
0.0
 40
11.982046
  0
LINE
  5
13CB
330
253A
100
AcDbEntity
  8
V0-VYPLNE
 62
    63
100
AcDbLine
 10
574.161219
 20
-1976.930205
 30
0.0
 11
682.464023
 21
-1976.930205
 31
0.0
  0
LINE
  5
13CC
330
253A
100
AcDbEntity
  8
V0-VYPLNE
 62
    63
100
AcDbLine
 10
625.512844
 20
-2036.214131
 30
0.0
 11
625.512844
 21
-1925.57858
 31
0.0
  0
LINE
  5
13CE
330
253A
100
AcDbEntity
  8
V0-VYPLNE
  6
DASHED
 62
    52
 48
5.0
100
AcDbLine
 10
756.142603
 20
-1009.284817
 30
0.0
 11
-343.8601249999999
 21
-1009.284817
 31
0.0
  0
LINE
  5
13CF
330
253A
100
AcDbEntity
  8
V0-VYPLNE
  6
DASHED
 62
    52
 48
5.0
100
AcDbLine
 10
-343.860125
 20
-1009.284817
 30
0.0
 11
-343.860125
 21
-2107.559964
 31
0.0
  0
LINE
  5
13D0
330
253A
100
AcDbEntity
  8
V0-VYPLNE
  6
DASHED
 62
    52
 48
5.0
100
AcDbLine
 10
-343.860125
 20
-2107.559964
 30
0.0
 11
756.142603
 21
-2107.559964
 31
0.0
  0
LINE
  5
13D1
330
253A
100
AcDbEntity
  8
V0-VYPLNE
  6
DASHED
 62
    52
 48
5.0
100
AcDbLine
 10
756.142603
 20
-2107.559964
 30
0.0
 11
756.142603
 21
-1009.284817
 31
0.0
  0
LINE
  5
13D2
330
253A
100
AcDbEntity
  8
V0-OBRYS
  6
CONTINUOUS
 62
    90
100
AcDbLine
 10
-343.858761
 20
-276.166006
 30
0.0
 11
756.141239
 21
-276.166006
 31
0.0
  0
LINE
  5
13D3
330
253A
100
AcDbEntity
  8
V0-OBRYS
  6
CONTINUOUS
 62
    90
100
AcDbLine
 10
756.141239
 20
-276.166006
 30
0.0
 11
756.141239
 21
-261.166006
 31
0.0
  0
LINE
  5
13D4
330
253A
100
AcDbEntity
  8
V0-OBRYS
  6
CONTINUOUS
 62
    90
100
AcDbLine
 10
756.141239
 20
-261.166006
 30
0.0
 11
-343.858761
 21
-261.166006
 31
0.0
  0
LINE
  5
13D5
330
253A
100
AcDbEntity
  8
V0-OBRYS
  6
CONTINUOUS
 62
    90
100
AcDbLine
 10
-343.858761
 20
-261.166006
 30
0.0
 11
-343.858761
 21
-276.166006
 31
0.0
  0
LINE
  5
13D6
330
253A
100
AcDbEntity
  8
V0-OBRYS
  6
CONTINUOUS
 62
    90
100
AcDbLine
 10
-226.358761
 20
-261.166006
 30
0.0
 11
-226.358761
 21
-258.166006
 31
0.0
  0
LINE
  5
13D7
330
253A
100
AcDbEntity
  8
V0-OBRYS
  6
CONTINUOUS
 62
    90
100
AcDbLine
 10
-226.358761
 20
-258.166006
 30
0.0
 11
638.641239
 21
-258.166006
 31
0.0
  0
LINE
  5
13D8
330
253A
100
AcDbEntity
  8
V0-OBRYS
  6
CONTINUOUS
 62
    90
100
AcDbLine
 10
638.641239
 20
-258.166006
 30
0.0
 11
638.641239
 21
-261.166006
 31
0.0
  0
LINE
  5
1456
330
253A
100
AcDbEntity
  8
V0-OBRYS
  6
CONTINUOUS
 62
    90
100
AcDbLine
 10
-148.858761
 20
-256.166006
 30
0.0
 11
-148.858761
 21
-276.166006
 31
0.0
  0
INSERT
  5
145C
330
253A
100
AcDbEntity
  8
V0-VYPLNE
  6
CONTINUOUS
 62
    52
100
AcDbBlockReference
  2
A10_100
 10
1091.344077
 20
-456.786598
 30
0.0
  0
DIMENSION
  5
1469
330
253A
100
AcDbEntity
  8
V0-VYPLNE
  6
CONTINUOUS
 62
    41
100
AcDbDimension
  2
*D5
 10
561.141239
 20
-399.8397200000181
 30
0.0
 11
193.976946
 21
-399.83972
 31
0.0
 70
   160
  1
%%c<>
  3
ED60
100
AcDbAlignedDimension
 13
-148.858761
 23
-276.166006
 33
0.0
 14
561.141239
 24
-276.166006
 34
0.0
100
AcDbRotatedDimension
1001
ACAD
1000
DSTYLE
1002
{
1070
    40
1040
1.0
1002
}
  0
DIMENSION
  5
1483
330
253A
100
AcDbEntity
  8
V0-VYPLNE
  6
CONTINUOUS
 62
    41
100
AcDbDimension
  2
*D6
 10
756.141239
 20
-647.6560390000232
 30
0.0
 11
206.141239
 21
-647.656039
 31
0.0
 70
   160
  3
ED60
100
AcDbAlignedDimension
 13
-343.858761
 23
-276.166006
 33
0.0
 14
756.141239
 24
-276.166006
 34
0.0
100
AcDbRotatedDimension
1001
ACAD
1000
DSTYLE
1002
{
1070
    40
1040
1.0
1002
}
  0
LINE
  5
14A6
330
253A
100
AcDbEntity
  8
V0-VYPLNE
  6
CONTINUOUS
 62
    41
100
AcDbLine
 10
60.515164
 20
-637.236654
 30
0.0
 11
95.821623
 21
-574.296859
 31
0.0
  0
LWPOLYLINE
  5
14A7
330
253A
100
AcDbEntity
  8
V0-VYPLNE
  6
CONTINUOUS
 62
    41
100
AcDbPolyline
 90
        4
 70
     1
 43
0.0
 10
60.778364
 20
-624.425171
 10
98.32469399999999
 20
-624.425171
 10
98.32469399999999
 20
-586.913421
 10
60.778364
 20
-586.913421
  0
LWPOLYLINE
  5
14A8
330
253A
100
AcDbEntity
  8
V0-VYPLNE
  6
CONTINUOUS
 62
    41
100
AcDbPolyline
 90
        4
 70
     1
 43
0.0
 10
55.130237
 20
-499.145041
 10
92.67656599999999
 20
-499.145041
 10
92.67656599999999
 20
-461.633291
 10
55.130237
 20
-461.633291
  0
LINE
  5
14A9
330
253A
100
AcDbEntity
  8
V0-VYPLNE
  6
CONTINUOUS
 62
    41
100
AcDbLine
 10
54.867037
 20
-511.956524
 30
0.0
 11
90.173496
 21
-449.016729
 31
0.0
  0
DIMENSION
  5
1BAE
330
253A
100
AcDbEntity
  8
V0-VYPLNE
  6
CONTINUOUS
 62
    41
100
AcDbDimension
  2
*D7
 10
626.141239
 20
-517.8474929999792
 30
0.0
 11
193.976946
 21
-517.847493
 31
0.0
 70
   160
  3
ED60
100
AcDbAlignedDimension
 13
-213.858761
 23
-286.166006
 33
0.0
 14
626.141239
 24
-276.166006
 34
0.0
100
AcDbRotatedDimension
1001
ACAD
1000
DSTYLE
1002
{
1070
    40
1040
1.0
1002
}
  0
CIRCLE
  5
20DB
330
253A
100
AcDbEntity
  8
V0-OBRYS
  6
CONTINUOUS
 62
    90
100
AcDbCircle
 10
206.141239
 20
-1557.5586
 30
0.0
 40
662.246176
  0
CIRCLE
  5
20E9
330
253A
100
AcDbEntity
  8
V0-VYPLNE
  6
DASHED
 62
    56
100
AcDbCircle
 10
625.512844
 20
-1976.930205
 30
0.0
 40
11.982046
  0
LINE
  5
2291
330
253A
100
AcDbEntity
  8
V0-VYPLNE
 62
    63
100
AcDbLine
 10
625.512844
 20
-1079.31316
 30
0.0
 11
625.512844
 21
-1069.697716
 31
0.0
  0
DIMENSION
  5
2329
330
253A
100
AcDbEntity
  8
V0-VYPLNE
  6
CONTINUOUS
 62
    41
100
AcDbDimension
  2
*D8
 10
868.641239
 20
925.078254000051
 30
0.0
 11
206.141239
 21
954.078254000051
 31
0.0
 70
    32
  1
%%c<>
  3
ED60
100
AcDbAlignedDimension
 13
-456.358761
 23
729.033994
 33
0.0
 14
868.641239
 24
729.033994
 34
0.0
100
AcDbRotatedDimension
1001
ACAD
1000
DSTYLE
1002
{
1070
    40
1040
1.0
1002
}
  0
LINE
  5
232A
330
253A
100
AcDbEntity
  8
V0-OBRYS
  6
CONTINUOUS
 62
    90
100
AcDbLine
 10
-456.358761
 20
729.033994
 30
0.0
 11
206.141239
 21
729.033994
 31
0.0
  0
LINE
  5
232B
330
253A
100
AcDbEntity
  8
V0-OBRYS
  6
CONTINUOUS
 62
    90
100
AcDbLine
 10
-74.658761
 20
788.313994
 30
0.0
 11
206.141239
 21
788.313994
 31
0.0
  0
ARC
  5
232D
330
253A
100
AcDbEntity
  8
V0-OBRYS
  6
CONTINUOUS
 62
    90
100
AcDbCircle
 10
848.6646520000001
 20
595.777394
 30
0.0
 40
1306.086466
100
AcDbArc
 50
182.311845
 51
220.14913
  0
LINE
  5
2333
330
253A
100
AcDbEntity
  8
V0-OBRYS
  6
CONTINUOUS
 62
    90
100
AcDbLine
 10
-456.358761
 20
729.033994
 30
0.0
 11
-456.358761
 21
543.0920170000001
 31
0.0
  0
ARC
  5
2334
330
253A
100
AcDbEntity
  8
V0-OBRYS
  6
CONTINUOUS
 62
    90
100
AcDbCircle
 10
-74.658761
 20
757.1139940000001
 30
0.0
 40
31.2
100
AcDbArc
 50
90.0
 51
180.0
  0
LINE
  5
2335
330
253A
100
AcDbEntity
  8
V0-OBRYS
  6
CONTINUOUS
 62
    90
100
AcDbLine
 10
-105.858761
 20
757.1139940000001
 30
0.0
 11
-105.858761
 21
729.033994
 31
0.0
  0
DIMENSION
  5
2336
330
253A
100
AcDbEntity
  8
V0-VYPLNE
  6
CONTINUOUS
 62
    41
100
AcDbDimension
  2
*D9
 10
1016.044150999974
 20
788.313994
 30
0.0
 11
1016.044151
 21
314.073994
 31
0.0
 70
   160
  3
ED60
100
AcDbAlignedDimension
 13
697.041239
 23
-276.166006
 33
0.0
 14
486.441239
 24
788.313994
 34
0.0
 50
90.0
100
AcDbRotatedDimension
1001
ACAD
1000
DSTYLE
1002
{
1070
    40
1040
1.0
1002
}
  0
ARC
  5
2337
330
253A
100
AcDbEntity
  8
V0-OBRYS
  6
CONTINUOUS
 62
    90
100
AcDbCircle
 10
-436.892627
 20
596.608157
 30
0.0
 40
1306.630266
100
AcDbArc
 50
319.8233200000001
 51
357.652659
  0
LINE
  5
2338
330
253A
100
AcDbEntity
  8
V0-VYPLNE
  6
DASHDOT
 62
    63
 48
5.0
100
AcDbLine
 10
206.141239
 20
853.6676230000001
 30
0.0
 11
206.141239
 21
-193.772307
 31
0.0
  0
POINT
  5
2339
330
253A
100
AcDbEntity
  8
V0-VYPLNE
  6
CONTINUOUS
 62
    41
100
AcDbPoint
 10
206.141239
 20
-276.166006
 30
0.0
  0
ARC
  5
233F
330
253A
100
AcDbEntity
  8
V0-OBRYS
  6
CONTINUOUS
 62
    90
100
AcDbCircle
 10
486.441239
 20
757.1139940000001
 30
0.0
 40
31.2
100
AcDbArc
 50
0.0
 51
90.0
  0
LINE
  5
2340
330
253A
100
AcDbEntity
  8
V0-OBRYS
  6
CONTINUOUS
 62
    90
100
AcDbLine
 10
868.641239
 20
729.033994
 30
0.0
 11
206.141239
 21
729.033994
 31
0.0
  0
LINE
  5
2342
330
253A
100
AcDbEntity
  8
V0-OBRYS
  6
CONTINUOUS
 62
    90
100
AcDbLine
 10
486.441239
 20
788.313994
 30
0.0
 11
206.141239
 21
788.313994
 31
0.0
  0
LINE
  5
2343
330
253A
100
AcDbEntity
  8
V0-OBRYS
  6
CONTINUOUS
 62
    90
100
AcDbLine
 10
517.641239
 20
757.1139940000001
 30
0.0
 11
517.641239
 21
729.033994
 31
0.0
  0
LINE
  5
2344
330
253A
100
AcDbEntity
  8
V0-OBRYS
  6
CONTINUOUS
 62
    90
100
AcDbLine
 10
889.150706
 20
696.706144
 30
0.0
 11
889.150706
 21
563.892579
 31
0.0
  0
LINE
  5
2345
330
253A
100
AcDbEntity
  8
V0-OBRYS
  6
CONTINUOUS
 62
    90
100
AcDbLine
 10
868.641239
 20
729.033994
 30
0.0
 11
868.641239
 21
543.0920170000001
 31
0.0
  0
LINE
  5
2346
330
253A
100
AcDbEntity
  8
V0-OBRYS
  6
CONTINUOUS
 62
    90
100
AcDbLine
 10
889.150706
 20
563.892579
 30
0.0
 11
871.023065
 21
563.892579
 31
0.0
  0
LINE
  5
2347
330
253A
100
AcDbEntity
  8
V0-OBRYS
  6
CONTINUOUS
 62
    90
100
AcDbLine
 10
871.023065
 20
696.706144
 30
0.0
 11
889.150706
 21
696.706144
 31
0.0
  0
LINE
  5
2409
330
253A
100
AcDbEntity
  8
V0-OBRYS
  6
CONTINUOUS
 62
    90
100
AcDbLine
 10
-165.296315
 20
-1009.284817
 30
0.0
 11
-343.860125
 21
-1009.284817
 31
0.0
  0
LINE
  5
240A
330
253A
100
AcDbEntity
  8
V0-OBRYS
  6
CONTINUOUS
 62
    90
100
AcDbLine
 10
-343.860125
 20
-1009.284817
 30
0.0
 11
-343.860125
 21
-1188.683964
 31
0.0
  0
LINE
  5
240B
330
253A
100
AcDbEntity
  8
V0-OBRYS
  6
CONTINUOUS
 62
    90
100
AcDbLine
 10
577.578793
 20
-1009.284817
 30
0.0
 11
756.142603
 21
-1009.284817
 31
0.0
  0
LINE
  5
240C
330
253A
100
AcDbEntity
  8
V0-OBRYS
  6
CONTINUOUS
 62
    90
100
AcDbLine
 10
756.142603
 20
-1009.284817
 30
0.0
 11
756.142603
 21
-1188.683964
 31
0.0
  0
LINE
  5
240D
330
253A
100
AcDbEntity
  8
V0-OBRYS
  6
CONTINUOUS
 62
    90
100
AcDbLine
 10
-343.860125
 20
-1926.433236
 30
0.0
 11
-343.860125
 21
-2107.559964
 31
0.0
  0
LINE
  5
240E
330
253A
100
AcDbEntity
  8
V0-OBRYS
  6
CONTINUOUS
 62
    90
100
AcDbLine
 10
-343.860125
 20
-2107.559964
 30
0.0
 11
-162.733397
 21
-2107.559964
 31
0.0
  0
LINE
  5
240F
330
253A
100
AcDbEntity
  8
V0-OBRYS
  6
CONTINUOUS
 62
    90
100
AcDbLine
 10
575.0158750000001
 20
-2107.559964
 30
0.0
 11
756.142603
 21
-2107.559964
 31
0.0
  0
LINE
  5
2410
330
253A
100
AcDbEntity
  8
V0-OBRYS
  6
CONTINUOUS
 62
    90
100
AcDbLine
 10
756.142603
 20
-2107.559964
 30
0.0
 11
756.142603
 21
-1926.433236
 31
0.0
  0
ARC
  5
2411
330
253A
100
AcDbEntity
  8
V0-OBRYS
  6
CONTINUOUS
 62
    90
100
AcDbCircle
 10
2536.134855
 20
595.777394
 30
0.0
 40
1306.086466
100
AcDbArc
 50
182.311845
 51
220.14913
  0
LINE
  5
2412
330
253A
100
AcDbEntity
  8
V0-OBRYS
  6
CONTINUOUS
 62
    90
100
AcDbLine
 10
1231.111442
 20
729.033994
 30
0.0
 11
1893.611442
 21
729.033994
 31
0.0
  0
LINE
  5
2413
330
253A
100
AcDbEntity
  8
V0-OBRYS
  6
CONTINUOUS
 62
    90
100
AcDbLine
 10
2443.611442
 20
-261.166006
 30
0.0
 11
1343.611442
 21
-261.166006
 31
0.0
  0
LINE
  5
2414
330
253A
100
AcDbEntity
  8
V0-OBRYS
  6
CONTINUOUS
 62
    90
100
AcDbLine
 10
1343.611442
 20
-276.166006
 30
0.0
 11
2443.611442
 21
-276.166006
 31
0.0
  0
LINE
  5
2415
330
253A
100
AcDbEntity
  8
V0-OBRYS
  6
CONTINUOUS
 62
    90
100
AcDbLine
 10
1343.611442
 20
-261.166006
 30
0.0
 11
1343.611442
 21
-276.166006
 31
0.0
  0
LINE
  5
2416
330
253A
100
AcDbEntity
  8
V0-OBRYS
  6
CONTINUOUS
 62
    90
100
AcDbLine
 10
1231.111442
 20
729.033994
 30
0.0
 11
1231.111442
 21
543.0920170000001
 31
0.0
  0
LINE
  5
2417
330
253A
100
AcDbEntity
  8
V0-OBRYS
  6
CONTINUOUS
 62
    90
100
AcDbLine
 10
2173.911442
 20
788.313994
 30
0.0
 11
1893.611442
 21
788.313994
 31
0.0
  0
LINE
  5
2418
330
253A
100
AcDbEntity
  8
V0-OBRYS
  6
CONTINUOUS
 62
    90
100
AcDbLine
 10
2556.111442
 20
729.033994
 30
0.0
 11
1893.611442
 21
729.033994
 31
0.0
  0
LINE
  5
2419
330
253A
100
AcDbEntity
  8
V0-OBRYS
  6
CONTINUOUS
 62
    90
100
AcDbLine
 10
1461.111442
 20
-258.166006
 30
0.0
 11
2326.111442
 21
-258.166006
 31
0.0
  0
LINE
  5
241A
330
253A
100
AcDbEntity
  8
V0-VYPLNE
100
AcDbLine
 10
1473.611442
 20
-286.166006
 30
0.0
 11
1473.611442
 21
-236.166006
 31
0.0
  0
LINE
  5
241B
330
253A
100
AcDbEntity
  8
V0-OBRYS
  6
CONTINUOUS
 62
    90
100
AcDbLine
 10
1461.111442
 20
-261.166006
 30
0.0
 11
1461.111442
 21
-258.166006
 31
0.0
  0
LINE
  5
241C
330
253A
100
AcDbEntity
  8
V0-OBRYS
  6
CONTINUOUS
 62
    90
100
AcDbLine
 10
1538.611442
 20
-256.166006
 30
0.0
 11
1538.611442
 21
-276.166006
 31
0.0
  0
POINT
  5
241D
330
253A
100
AcDbEntity
  8
V0-VYPLNE
  6
CONTINUOUS
 62
    41
100
AcDbPoint
 10
1893.611442
 20
-276.166006
 30
0.0
  0
POINT
  5
241E
330
253A
100
AcDbEntity
  8
V0-VYPLNE
  6
CONTINUOUS
 62
    41
100
AcDbPoint
 10
1893.611442
 20
-276.166006
 30
0.0
  0
LINE
  5
2420
330
253A
100
AcDbEntity
  8
V0-OBRYS
  6
CONTINUOUS
 62
    90
100
AcDbLine
 10
1612.811442
 20
788.313994
 30
0.0
 11
1893.611442
 21
788.313994
 31
0.0
  0
ARC
  5
2421
330
253A
100
AcDbEntity
  8
V0-OBRYS
  6
CONTINUOUS
 62
    90
100
AcDbCircle
 10
1612.811442
 20
757.1139940000001
 30
0.0
 40
31.2
100
AcDbArc
 50
90.0
 51
180.0
  0
LINE
  5
2422
330
253A
100
AcDbEntity
  8
V0-OBRYS
  6
CONTINUOUS
 62
    90
100
AcDbLine
 10
1581.611442
 20
757.1139940000001
 30
0.0
 11
1581.611442
 21
729.033994
 31
0.0
  0
ARC
  5
2423
330
253A
100
AcDbEntity
  8
V0-OBRYS
  6
CONTINUOUS
 62
    90
100
AcDbCircle
 10
1250.577576
 20
596.608157
 30
0.0
 40
1306.630266
100
AcDbArc
 50
319.8233200000001
 51
357.652659
  0
LINE
  5
2424
330
253A
100
AcDbEntity
  8
V0-VYPLNE
100
AcDbLine
 10
2313.611442
 20
-286.166006
 30
0.0
 11
2313.611442
 21
-236.166006
 31
0.0
  0
LINE
  5
2425
330
253A
100
AcDbEntity
  8
V0-OBRYS
  6
CONTINUOUS
 62
    90
100
AcDbLine
 10
2326.111442
 20
-258.166006
 30
0.0
 11
2326.111442
 21
-261.166006
 31
0.0
  0
LINE
  5
2426
330
253A
100
AcDbEntity
  8
V0-OBRYS
  6
CONTINUOUS
 62
    90
100
AcDbLine
 10
2443.611442
 20
-276.166006
 30
0.0
 11
2443.611442
 21
-261.166006
 31
0.0
  0
ARC
  5
2427
330
253A
100
AcDbEntity
  8
V0-OBRYS
  6
CONTINUOUS
 62
    90
100
AcDbCircle
 10
2173.911442
 20
757.1139940000001
 30
0.0
 40
31.2
100
AcDbArc
 50
0.0
 51
90.0
  0
LINE
  5
2428
330
253A
100
AcDbEntity
  8
V0-OBRYS
  6
CONTINUOUS
 62
    90
100
AcDbLine
 10
2205.111442
 20
757.1139940000001
 30
0.0
 11
2205.111442
 21
729.033994
 31
0.0
  0
LINE
  5
2429
330
253A
100
AcDbEntity
  8
V0-OBRYS
  6
CONTINUOUS
 62
    90
100
AcDbLine
 10
2556.111442
 20
729.033994
 30
0.0
 11
2556.111442
 21
543.0920170000001
 31
0.0
  0
LINE
  5
242D
330
253A
100
AcDbEntity
  8
V0-VYPLNE
  6
DASHDOT
 62
    63
 48
5.0
100
AcDbLine
 10
1893.611442
 20
830.312187
 30
0.0
 11
1893.611442
 21
-415.841537
 31
0.0
  0
LINE
  5
242E
330
253A
100
AcDbEntity
  8
V0-VYPLNE
  6
DASHDOT
 62
    63
 48
5.0
100
AcDbLine
 10
206.141239
 20
-826.333144
 30
0.0
 11
206.141239
 21
-2107.559964
 31
0.0
  0
LINE
  5
242F
330
253A
100
AcDbEntity
  8
V0-OBRYS
  6
CONTINUOUS
 62
    90
100
AcDbLine
 10
539.761044
 20
-1445.435242
 30
0.0
 11
858.82673
 21
-1445.435242
 31
0.0
  0
LINE
  5
2430
330
253A
100
AcDbEntity
  8
V0-OBRYS
  6
CONTINUOUS
 62
    90
100
AcDbLine
 10
539.761044
 20
-1669.681958
 30
0.0
 11
858.82673
 21
-1669.681958
 31
0.0
  0
TEXT
  5
250A
330
253A
100
AcDbEntity
  8
V0-NAZVY
  6
CONTINUOUS
100
AcDbText
 10
1249.885831340915
 20
-1362.524171999656
 30
0.0
 40
108.0
  1
CTVT 630
  7
ED60
100
AcDbText
  0
LWPOLYLINE
  5
250D
330
253A
100
AcDbEntity
  8
V0-VYPLNE
  6
CONTINUOUS
 62
    41
100
AcDbPolyline
 90
        4
 70
     1
 43
0.0
 10
-241.5109066958157
 20
-214.5424522666431
 10
-210.922573
 20
-254.962723
 10
-252.9667602474009
 20
-226.6478724238458
 10
-252.9667602474009
 20
-226.6478724238458
1001
VDEXTRAPARAM
1071
       65
1071
        0
1071
        0
1040
1.0
1000

1000

1040
0.0
1040
0.0
  0
HATCH
  5
25AD
330
253A
100
AcDbEntity
  8
V0-VYPLNE
  6
CONTINUOUS
 62
    41
100
AcDbHatch
 10
0.0
 20
0.0
 30
0.0
210
0.0
220
0.0
230
1.0
  2
SOLID
 70
     1
 71
     0
 91
        1
 92
        2
 72
     0
 73
     1
 93
        3
 10
-241.5109066958157
 20
-214.5424522666431
 10
-210.922573
 20
-254.962723
 10
-252.9667602474009
 20
-226.6478724238458
 97
        0
 75
     0
 76
     1
 98
        1
 10
0.0
 20
0.0
1001
VDEXTRAPARAM
1071
       65
1071
        0
1071
        0
1040
1.0
1000

1000

1040
0.0
1040
0.0
1001
VD_TEMPHATCH
1000
VD_TEMPHATCH
  0
LWPOLYLINE
  5
250E
330
253A
100
AcDbEntity
  8
V0-VYPLNE
  6
CONTINUOUS
 62
    41
100
AcDbPolyline
 90
        3
 70
     0
 43
0.0
 10
-247.2388334716083
 20
-220.5951623452445
 10
-403.89235
 20
-72.34754100000001
 10
-1034.61235
 20
-72.34754100000001
  0
TEXT
  5
2513
330
253A
100
AcDbEntity
  8
V0-VYPLNE
  6
CONTINUOUS
 62
    41
100
AcDbText
 10
-1241.663778571429
 20
-68.34754100000001
 30
0.0
 40
64.8
  1
4 OTVORY %%c 14
  7
ED60
100
AcDbText
  0
VIEWPORT
  5
25AE
330
2536
100
AcDbEntity
 67
     1
  8
0
 60
     1
100
AcDbViewport
 10
261.517699
 20
148.5
 30
0.0
 40
297.0
 41
297.0
 68
     0
 69
     1
1001
VD_INVISIBLE_NOT_FOR_READ
1000
VD_INVISIBLE_NOT_FOR_READ
1001
ACAD
1000
MVIEW
1002
{
1070
    16
1010
0.0
1020
0.0
1030
0.0
1010
0.0
1020
0.0
1030
1.0
1040
6.2831853071796
1040
297.0
1040
261.517699
1040
148.5
1040
0.0
1040
0.0
1040
0.0
1070
     0
1070
   100
1070
     0
1070
     1
1070
     0
1070
     0
1070
     0
1070
     0
1040
0.0
1040
0.0
1040
0.0
1040
1.0
1040
1.0
1040
0.0
1040
0.0
1070
     0
1002
{
1002
}
1002
}
  0
VIEWPORT
  5
25AF
330
2536
100
AcDbEntity
 67
     1
  8
0
 60
     1
100
AcDbViewport
 10
261.517699
 20
148.5
 30
0.0
 40
297.0
 41
297.0
 68
     0
 69
     2
1001
VD_INVISIBLE_NOT_FOR_READ
1000
VD_INVISIBLE_NOT_FOR_READ
1001
ACAD
1000
MVIEW
1002
{
1070
    16
1010
0.0
1020
0.0
1030
0.0
1010
0.0
1020
0.0
1030
1.0
1040
6.2831853071796
1040
297.0
1040
261.517699
1040
148.5
1040
0.0
1040
0.0
1040
0.0
1070
     0
1070
   100
1070
     0
1070
     1
1070
     0
1070
     0
1070
     0
1070
     0
1040
0.0
1040
0.0
1040
0.0
1040
1.0
1040
1.0
1040
0.0
1040
0.0
1070
     0
1002
{
1002
}
1002
}
  0
ENDSEC
  0
SECTION
  2
OBJECTS
  0
DICTIONARY
  5
2527
330
0
100
AcDbDictionary
  3
ACAD_GROUP
350
2528
  3
ACAD_LAYOUT
350
2535
  3
ACAD_MLINESTYLE
350
2532
  3
ACAD_PLOTSETTINGS
350
2534
  3
ACDBHEADERROUNDTRIPXREC
350
25B0
  3
VECTORDRAW_OBJECTS
350
254A
  0
DICTIONARY
  5
25D0
330
2544
100
AcDbDictionary
280
     1
  3
ACAD_XREC_ROUNDTRIP
360
25D1
  0
DICTIONARY
  5
2528
102
{ACAD_REACTORS
330
2527
102
}
330
2527
100
AcDbDictionary
  0
DICTIONARY
  5
2535
102
{ACAD_REACTORS
330
2527
102
}
330
2527
100
AcDbDictionary
  0
DICTIONARY
  5
2532
102
{ACAD_REACTORS
330
2527
102
}
330
2527
100
AcDbDictionary
  3
STANDARD
350
2533
  0
DICTIONARY
  5
2534
102
{ACAD_REACTORS
330
2527
102
}
330
2527
100
AcDbDictionary
  0
DICTIONARY
  5
25B0
102
{ACAD_REACTORS
330
2527
102
}
330
2527
100
AcDbDictionary
  3
CEPSNTYPE
350
25B9
  3
DIMSTYLEDATA
350
25CF
  3
FINGERPRINTGUID
350
25BA
  3
HYPERLINKBASE
350
25B3
  3
INSUNITS
350
25B8
  3
LAYOUTDICT
350
25B5
  3
LWETCUNION
350
25B7
  3
PLOTSETDICT
350
25B6
  3
PSVPSCALE
350
25BC
  3
PUCSBASE
350
25BF
  3
PUCSORGBACK
350
25C5
  3
PUCSORGBOTTOM
350
25C1
  3
PUCSORGFRONT
350
25C4
  3
PUCSORGLEFT
350
25C2
  3
PUCSORGRIGHT
350
25C3
  3
PUCSORGTOP
350
25C0
  3
PUCSORTHOREF
350
25BD
  3
PUCSORTHOVIEW
350
25BE
  3
STYLESHEET
350
25B4
  3
TSTACKALIGN
350
25B1
  3
TSTACKSIZE
350
25B2
  3
UCSBASE
350
25C8
  3
UCSORGBACK
350
25CE
  3
UCSORGBOTTOM
350
25CA
  3
UCSORGFRONT
350
25CD
  3
UCSORGLEFT
350
25CB
  3
UCSORGRIGHT
350
25CC
  3
UCSORGTOP
350
25C9
  3
UCSORTHOREF
350
25C6
  3
UCSORTHOVIEW
350
25C7
  3
VERSIONGUID
350
25BB
  0
DICTIONARY
  5
254A
102
{ACAD_REACTORS
330
2527
102
}
330
2527
100
AcDbDictionary
  3
SERIALNO
350
254B
  0
XRECORD
  5
25D1
102
{ACAD_REACTORS
330
25D0
102
}
330
25D0
100
AcDbXrecord
102
UCS
 74
     0
 71
     1
 10
0.0
 20
0.0
 30
0.0
 10
1.0
 20
0.0
 30
0.0
 10
0.0
 20
1.0
 30
0.0
146
0.0
 79
     0
102
VIEW
281
     0
  0
MLINESTYLE
  5
2533
102
{ACAD_REACTORS
330
2532
102
}
330
2532
100
AcDbMlineStyle
  2
Standard
 70
     0
  3

 62
   256
 51
90.0
 52
90.0
 71
     2
 49
0.5
 62
   256
  6
BYLAYER
 49
-0.5
 62
   256
  6
BYLAYER
  0
XRECORD
  5
25B9
102
{ACAD_REACTORS
330
25B0
102
}
330
25B0
100
AcDbXrecord
 90
        0
  0
XRECORD
  5
25CF
102
{ACAD_REACTORS
330
25B0
102
}
330
25B0
100
AcDbXrecord
1000
DSTYLE
1002
{
1070
    41
 40
60.0
1070
   342
340
90
1070
   271
 70
     0
1070
    44
 40
1.25
1070
    42
 40
1.0
1070
   147
 40
4.0
1070
    77
 70
     1
1070
    73
 70
     0
1070
   174
 70
     1
1070
   172
 70
     1
1070
    74
 70
     0
1070
   340
340
2121
1070
   140
 40
50.0
1070
   288
 70
     1
1002
}
  0
XRECORD
  5
25BA
102
{ACAD_REACTORS
330
25B0
102
}
330
25B0
100
AcDbXrecord
  1
{FAEB1C30-E019-11D5-929B-00C0DF256EC4}
  0
XRECORD
  5
25B3
102
{ACAD_REACTORS
330
25B0
102
}
330
25B0
100
AcDbXrecord
  1

  0
XRECORD
  5
25B8
102
{ACAD_REACTORS
330
25B0
102
}
330
25B0
100
AcDbXrecord
 90
        1
  0
XRECORD
  5
25B5
102
{ACAD_REACTORS
330
25B0
102
}
330
25B0
100
AcDbXrecord
340
2535
  0
XRECORD
  5
25B7
102
{ACAD_REACTORS
330
25B0
102
}
330
25B0
100
AcDbXrecord
 90
     2560
  0
XRECORD
  5
25B6
102
{ACAD_REACTORS
330
25B0
102
}
330
25B0
100
AcDbXrecord
340
2534
  0
XRECORD
  5
25BC
102
{ACAD_REACTORS
330
25B0
102
}
330
25B0
100
AcDbXrecord
 40
0.0
  0
XRECORD
  5
25BF
102
{ACAD_REACTORS
330
25B0
102
}
330
25B0
100
AcDbXrecord
340
0
  0
XRECORD
  5
25C5
102
{ACAD_REACTORS
330
25B0
102
}
330
25B0
100
AcDbXrecord
 10
0.0
 20
0.0
 30
0.0
  0
XRECORD
  5
25C1
102
{ACAD_REACTORS
330
25B0
102
}
330
25B0
100
AcDbXrecord
 10
0.0
 20
0.0
 30
0.0
  0
XRECORD
  5
25C4
102
{ACAD_REACTORS
330
25B0
102
}
330
25B0
100
AcDbXrecord
 10
0.0
 20
0.0
 30
0.0
  0
XRECORD
  5
25C2
102
{ACAD_REACTORS
330
25B0
102
}
330
25B0
100
AcDbXrecord
 10
0.0
 20
0.0
 30
0.0
  0
XRECORD
  5
25C3
102
{ACAD_REACTORS
330
25B0
102
}
330
25B0
100
AcDbXrecord
 10
0.0
 20
0.0
 30
0.0
  0
XRECORD
  5
25C0
102
{ACAD_REACTORS
330
25B0
102
}
330
25B0
100
AcDbXrecord
 10
0.0
 20
0.0
 30
0.0
  0
XRECORD
  5
25BD
102
{ACAD_REACTORS
330
25B0
102
}
330
25B0
100
AcDbXrecord
340
0
  0
XRECORD
  5
25BE
102
{ACAD_REACTORS
330
25B0
102
}
330
25B0
100
AcDbXrecord
 70
     0
  0
XRECORD
  5
25B4
102
{ACAD_REACTORS
330
25B0
102
}
330
25B0
100
AcDbXrecord
  1

  0
XRECORD
  5
25B1
102
{ACAD_REACTORS
330
25B0
102
}
330
25B0
100
AcDbXrecord
 90
        1
  0
XRECORD
  5
25B2
102
{ACAD_REACTORS
330
25B0
102
}
330
25B0
100
AcDbXrecord
 90
       70
  0
XRECORD
  5
25C8
102
{ACAD_REACTORS
330
25B0
102
}
330
25B0
100
AcDbXrecord
340
0
  0
XRECORD
  5
25CE
102
{ACAD_REACTORS
330
25B0
102
}
330
25B0
100
AcDbXrecord
 10
0.0
 20
0.0
 30
0.0
  0
XRECORD
  5
25CA
102
{ACAD_REACTORS
330
25B0
102
}
330
25B0
100
AcDbXrecord
 10
0.0
 20
0.0
 30
0.0
  0
XRECORD
  5
25CD
102
{ACAD_REACTORS
330
25B0
102
}
330
25B0
100
AcDbXrecord
 10
0.0
 20
0.0
 30
0.0
  0
XRECORD
  5
25CB
102
{ACAD_REACTORS
330
25B0
102
}
330
25B0
100
AcDbXrecord
 10
0.0
 20
0.0
 30
0.0
  0
XRECORD
  5
25CC
102
{ACAD_REACTORS
330
25B0
102
}
330
25B0
100
AcDbXrecord
 10
0.0
 20
0.0
 30
0.0
  0
XRECORD
  5
25C9
102
{ACAD_REACTORS
330
25B0
102
}
330
25B0
100
AcDbXrecord
 10
0.0
 20
0.0
 30
0.0
  0
XRECORD
  5
25C6
102
{ACAD_REACTORS
330
25B0
102
}
330
25B0
100
AcDbXrecord
340
0
  0
XRECORD
  5
25C7
102
{ACAD_REACTORS
330
25B0
102
}
330
25B0
100
AcDbXrecord
 70
     0
  0
XRECORD
  5
25BB
102
{ACAD_REACTORS
330
25B0
102
}
330
25B0
100
AcDbXrecord
  1
{FAEB1C32-E019-11D5-929B-00C0DF256EC4}
  0
XRECORD
  5
254B
102
{ACAD_REACTORS
330
254A
102
}
330
254A
100
AcDbXrecord
1000
rInJVR9YY4Q8hfPWdUq5j5319
1070
     4
1070
     6
  0
ENDSEC
  0
EOF
