  0
SECTION
  2
HEADER
  9
$ACADVER
  1
AC1014
  9
$ACADMAINTVER
 70
     9
  9
$DWGCODEPAGE
  3
ANSI_1250
  9
$INSBASE
 10
0.0
 20
0.0
 30
0.0
  9
$EXTMIN
 10
-1019.270281142858
 20
-1952.780569
 30
0.0
  9
$EXTMAX
 10
2371.743202
 20
783.628651
 30
0.0
  9
$LIMMIN
 10
0.0
 20
0.0
  9
$LIMMAX
 10
0.0
 20
0.0
  9
$ORTHOMODE
 70
     1
  9
$REGENMODE
 70
     1
  9
$FILLMODE
 70
     1
  9
$QTEXTMODE
 70
     0
  9
$MIRRTEXT
 70
     1
  9
$DRAGMODE
 70
     2
  9
$LTSCALE
 40
1.0
  9
$OSMODE
 70
    37
  9
$ATTMODE
 70
     1
  9
$TEXTSIZE
 40
0.2
  9
$TRACEWID
 40
0.05
  9
$TEXTSTYLE
  7
ED60
  9
$CLAYER
  8
V0-OBRYS
  9
$CELTYPE
  6
CONTINUOUS
  9
$CECOLOR
 62
    90
  9
$CELTSCALE
 40
1.0
  9
$DELOBJ
 70
     1
  9
$DISPSILH
 70
     0
  9
$DIMSCALE
 40
1.0
  9
$DIMASZ
 40
60.0
  9
$DIMEXO
 40
1.0
  9
$DIMDLI
 40
0.38
  9
$DIMRND
 40
0.0
  9
$DIMDLE
 40
0.0
  9
$DIMEXE
 40
1.25
  9
$DIMTP
 40
0.0
  9
$DIMTM
 40
0.0
  9
$DIMTXT
 40
50.0
  9
$DIMCEN
 40
0.09
  9
$DIMTSZ
 40
0.0
  9
$DIMTOL
 70
     0
  9
$DIMLIM
 70
     0
  9
$DIMTIH
 70
     0
  9
$DIMTOH
 70
     0
  9
$DIMSE1
 70
     0
  9
$DIMSE2
 70
     0
  9
$DIMTAD
 70
     1
  9
$DIMZIN
 70
     0
  9
$DIMBLK
  1
OPEN
  9
$DIMASO
 70
     1
  9
$DIMSHO
 70
     1
  9
$DIMPOST
  1

  9
$DIMAPOST
  1

  9
$DIMALT
 70
     0
  9
$DIMALTD
 70
     2
  9
$DIMALTF
 40
25.4
  9
$DIMLFAC
 40
1.0
  9
$DIMTOFL
 70
     1
  9
$DIMTVP
 40
0.0
  9
$DIMTIX
 70
     1
  9
$DIMSOXD
 70
     0
  9
$DIMSAH
 70
     0
  9
$DIMBLK1
  1

  9
$DIMBLK2
  1

  9
$DIMSTYLE
  2
ED60
  9
$DIMCLRD
 70
     0
  9
$DIMCLRE
 70
     0
  9
$DIMCLRT
 70
     0
  9
$DIMTFAC
 40
1.0
  9
$DIMGAP
 40
4.0
  9
$DIMJUST
 70
     0
  9
$DIMSD1
 70
     0
  9
$DIMSD2
 70
     0
  9
$DIMTOLJ
 70
     1
  9
$DIMTZIN
 70
     0
  9
$DIMALTZ
 70
     0
  9
$DIMALTTZ
 70
     0
  9
$DIMFIT
 70
     3
  9
$DIMUPT
 70
     1
  9
$DIMUNIT
 70
     2
  9
$DIMDEC
 70
     0
  9
$DIMTDEC
 70
     4
  9
$DIMALTU
 70
     2
  9
$DIMALTTD
 70
     2
  9
$DIMTXSTY
  7
ED60
  9
$DIMAUNIT
 70
     0
  9
$LUNITS
 70
     2
  9
$LUPREC
 70
     4
  9
$SKETCHINC
 40
0.1
  9
$FILLETRAD
 40
0.5
  9
$AUNITS
 70
     0
  9
$AUPREC
 70
     0
  9
$MENU
  1
.
  9
$ELEVATION
 40
0.0
  9
$PELEVATION
 40
0.0
  9
$THICKNESS
 40
0.0
  9
$LIMCHECK
 70
     0
  9
$BLIPMODE
 70
     0
  9
$CHAMFERA
 40
0.5
  9
$CHAMFERB
 40
0.5
  9
$CHAMFERC
 40
1.0
  9
$CHAMFERD
 40
0.0
  9
$SKPOLY
 70
     0
  9
$TDCREATE
 40
2455645.568699364
  9
$TDUPDATE
 40
2455645.568699375
  9
$TDINDWG
 40
0.0000000116
  9
$TDUSRTIMER
 40
0.0000000116
  9
$USRTIMER
 70
     1
  9
$ANGBASE
 50
0.0
  9
$ANGDIR
 70
     0
  9
$PDMODE
 70
     3
  9
$PDSIZE
 40
20.0
  9
$PLINEWID
 40
0.0
  9
$COORDS
 70
     1
  9
$SPLFRAME
 70
     0
  9
$SPLINETYPE
 70
     6
  9
$SPLINESEGS
 70
     8
  9
$ATTDIA
 70
     0
  9
$ATTREQ
 70
     1
  9
$HANDLING
 70
     1
  9
$HANDSEED
  5
2470
  9
$SURFTAB1
 70
     6
  9
$SURFTAB2
 70
     6
  9
$SURFTYPE
 70
     6
  9
$SURFU
 70
     6
  9
$SURFV
 70
     6
  9
$UCSNAME
  2

  9
$UCSORG
 10
0.0
 20
0.0
 30
0.0
  9
$UCSXDIR
 10
1.0
 20
0.0
 30
0.0
  9
$UCSYDIR
 10
0.0
 20
1.0
 30
0.0
  9
$PUCSNAME
  2

  9
$PUCSORG
 10
0.0
 20
0.0
 30
0.0
  9
$PUCSXDIR
 10
1.0
 20
0.0
 30
0.0
  9
$PUCSYDIR
 10
0.0
 20
1.0
 30
0.0
  9
$USERI1
 70
     0
  9
$USERI2
 70
     0
  9
$USERI3
 70
     0
  9
$USERI4
 70
     0
  9
$USERI5
 70
     0
  9
$USERR1
 40
0.0
  9
$USERR2
 40
0.0
  9
$USERR3
 40
0.0
  9
$USERR4
 40
0.0
  9
$USERR5
 40
0.0
  9
$WORLDVIEW
 70
     1
  9
$SHADEDGE
 70
     3
  9
$SHADEDIF
 70
    70
  9
$TILEMODE
 70
     1
  9
$MAXACTVP
 70
    64
  9
$PINSBASE
 10
0.0
 20
0.0
 30
0.0
  9
$PLIMCHECK
 70
     0
  9
$PEXTMIN
 10
1.000000000000000E+20
 20
1.000000000000000E+20
 30
1.000000000000000E+20
  9
$PEXTMAX
 10
-1.000000000000000E+20
 20
-1.000000000000000E+20
 30
-1.000000000000000E+20
  9
$PLIMMIN
 10
0.0
 20
0.0
  9
$PLIMMAX
 10
0.0
 20
0.0
  9
$UNITMODE
 70
     0
  9
$VISRETAIN
 70
     1
  9
$PLINEGEN
 70
     0
  9
$PSLTSCALE
 70
     1
  9
$TREEDEPTH
 70
  3020
  9
$PICKSTYLE
 70
     1
  9
$CMLSTYLE
  2
STANDARD
  9
$CMLJUST
 70
     0
  9
$CMLSCALE
 40
1.0
  9
$PROXYGRAPHICS
 70
     1
  9
$MEASUREMENT
 70
     0
  0
ENDSEC
  0
SECTION
  2
CLASSES
  0
CLASS
  1
ACDBDICTIONARYWDFLT
  2
AcDbDictionaryWithDefault
  3
ObjectDBX Classes
 90
        0
280
     0
281
     0
  0
CLASS
  1
XRECORD
  2
AcDbXrecord
  3
AutoCAD 2000
 90
        0
280
     0
281
     0
  0
CLASS
  1
LWPOLYLINE
  2
AcDbPolyline
  3
AutoCAD 2000
 90
        0
280
     0
281
     1
  0
CLASS
  1
HATCH
  2
AcDbHatch
  3
AutoCAD 2000
 90
        0
280
     0
281
     1
  0
CLASS
  1
ACDBPLACEHOLDER
  2
AcDbPlaceHolder
  3
ObjectDBX Classes
 90
        0
280
     0
281
     0
  0
CLASS
  1
LAYOUT
  2
AcDbLayout
  3
ObjectDBX Classes
 90
        0
280
     0
281
     0
  0
ENDSEC
  0
SECTION
  2
TABLES
  0
TABLE
  2
VPORT
  5
23C1
330
0
100
AcDbSymbolTable
 70
     2
  0
VPORT
  5
23E2
102
{ACAD_XDICTIONARY
360
246E
102
}
330
23C1
100
AcDbSymbolTableRecord
100
AcDbViewportTableRecord
  2
*ACTIVE
 70
     0
 10
0.0
 20
0.0
 11
1.0
 21
1.0
 12
889.6690875304762
 22
-524.1708909523809
 13
0.0
 23
0.0
 14
10.0
 24
10.0
 15
10.0
 25
10.0
 16
0.0
 26
0.0
 36
1.0
 17
0.0
 27
0.0
 37
0.0
 40
3504.9127584
 41
0.0050662478582659
 42
50.0
 43
0.0
 44
0.0
 50
0.0
 51
0.0000000000007958
 71
     0
 72
   100
 73
     1
 74
     3
 75
     0
 76
     0
 77
     0
 78
     0
  0
ENDTAB
  0
TABLE
  2
LTYPE
  5
23BE
330
0
100
AcDbSymbolTable
 70
    25
  0
LTYPE
  5
23CD
330
23BE
100
AcDbSymbolTableRecord
100
AcDbLinetypeTableRecord
  2
BYBLOCK
 70
     0
  3

 72
    65
 73
     0
 40
0.0
  0
LTYPE
  5
23CE
330
23BE
100
AcDbSymbolTableRecord
100
AcDbLinetypeTableRecord
  2
BYLAYER
 70
     0
  3

 72
    65
 73
     0
 40
0.0
  0
LTYPE
  5
23CF
330
23BE
100
AcDbSymbolTableRecord
100
AcDbLinetypeTableRecord
  2
CONTINUOUS
 70
     0
  3
Solid line
 72
    65
 73
     0
 40
0.0
  0
LTYPE
  5
23EA
330
23BE
100
AcDbSymbolTableRecord
100
AcDbLinetypeTableRecord
  2
CENTER
 70
     0
  3
Center ____ _ ____ _ ____ _ ____ _ ____ _ ____
 72
    65
 73
     4
 40
2.0
 49
1.25
 74
     0
 49
-0.25
 74
     0
 49
0.25
 74
     0
 49
-0.25
 74
     0
  0
LTYPE
  5
23EB
330
23BE
100
AcDbSymbolTableRecord
100
AcDbLinetypeTableRecord
  2
DASHDOT
 70
     0
  3
Dashdot __ . __ . __ . __ . __ . __ . __ . __
 72
    65
 73
     4
 40
1.0
 49
0.5
 74
     0
 49
-0.25
 74
     0
 49
0.0
 74
     0
 49
-0.25
 74
     0
  0
LTYPE
  5
23EC
330
23BE
100
AcDbSymbolTableRecord
100
AcDbLinetypeTableRecord
  2
DASHED
 70
     0
  3
Dashed __ __ __ __ __ __ __ __ __ __ __ __ __ _
 72
    65
 73
     2
 40
0.75
 49
0.5
 74
     0
 49
-0.25
 74
     0
  0
LTYPE
  5
23ED
330
23BE
100
AcDbSymbolTableRecord
100
AcDbLinetypeTableRecord
  2
HIDDEN
 70
     0
  3
Hidden __ __ __ __ __ __ __ __ __ __ __ __ __ __
 72
    65
 73
     2
 40
0.375
 49
0.25
 74
     0
 49
-0.125
 74
     0
  0
LTYPE
  5
23EE
330
23BE
100
AcDbSymbolTableRecord
100
AcDbLinetypeTableRecord
  2
HIDDEN2
 70
     0
  3
Hidden2 _ _ _ _ _ _ _ _ _ _ _ _ _ _ _ _ _ 
 72
    65
 73
     2
 40
0.1875
 49
0.125
 74
     0
 49
-0.0625
 74
     0
  0
LTYPE
  5
23EF
330
23BE
100
AcDbSymbolTableRecord
100
AcDbLinetypeTableRecord
  2
BORDER
 70
     0
  3
Border __ __ . __ __ . __ __ . __ __ . __ __ .
 72
    65
 73
     6
 40
1.75
 49
0.5
 74
     0
 49
-0.25
 74
     0
 49
0.5
 74
     0
 49
-0.25
 74
     0
 49
0.0
 74
     0
 49
-0.25
 74
     0
  0
LTYPE
  5
23F0
330
23BE
100
AcDbSymbolTableRecord
100
AcDbLinetypeTableRecord
  2
BORDER2
 70
     0
  3
Border2 __.__.__.__.__.__.__.__.__.__.__.
 72
    65
 73
     6
 40
0.875
 49
0.25
 74
     0
 49
-0.125
 74
     0
 49
0.25
 74
     0
 49
-0.125
 74
     0
 49
0.0
 74
     0
 49
-0.125
 74
     0
  0
LTYPE
  5
23F1
330
23BE
100
AcDbSymbolTableRecord
100
AcDbLinetypeTableRecord
  2
BORDERX2
 70
     0
  3
Borderx2  ____  ____  .  ____  ____  .  ___
 72
    65
 73
     6
 40
3.5
 49
1.0
 74
     0
 49
-0.5
 74
     0
 49
1.0
 74
     0
 49
-0.5
 74
     0
 49
0.0
 74
     0
 49
-0.5
 74
     0
  0
LTYPE
  5
23F2
330
23BE
100
AcDbSymbolTableRecord
100
AcDbLinetypeTableRecord
  2
CENTER2
 70
     0
  3
Center2  ___ _ ___ _ ___ _ ___ _ ___ _ ___
 72
    65
 73
     4
 40
1.125
 49
0.75
 74
     0
 49
-0.125
 74
     0
 49
0.125
 74
     0
 49
-0.125
 74
     0
  0
LTYPE
  5
23F3
330
23BE
100
AcDbSymbolTableRecord
100
AcDbLinetypeTableRecord
  2
CENTERX2
 70
     0
  3
Centerx2  ________  __  ________  __  _____
 72
    65
 73
     4
 40
4.0
 49
2.5
 74
     0
 49
-0.5
 74
     0
 49
0.5
 74
     0
 49
-0.5
 74
     0
  0
LTYPE
  5
23F4
330
23BE
100
AcDbSymbolTableRecord
100
AcDbLinetypeTableRecord
  2
DASHDOT2
 70
     0
  3
Dashdot2  _._._._._._._._._._._._._._._.
 72
    65
 73
     4
 40
0.5
 49
0.25
 74
     0
 49
-0.125
 74
     0
 49
0.0
 74
     0
 49
-0.125
 74
     0
  0
LTYPE
  5
23F5
330
23BE
100
AcDbSymbolTableRecord
100
AcDbLinetypeTableRecord
  2
DASHDOTX2
 70
     0
  3
Dashdotx2 ____  .  ____  .  ____  .  ___
 72
    65
 73
     4
 40
2.0
 49
1.0
 74
     0
 49
-0.5
 74
     0
 49
0.0
 74
     0
 49
-0.5
 74
     0
  0
LTYPE
  5
23F6
330
23BE
100
AcDbSymbolTableRecord
100
AcDbLinetypeTableRecord
  2
DASHED2
 70
     0
  3
Dashed2 _ _ _ _ _ _ _ _ _ _ _ _ _ _ _ _ _ 
 72
    65
 73
     2
 40
0.375
 49
0.25
 74
     0
 49
-0.125
 74
     0
  0
LTYPE
  5
23F7
330
23BE
100
AcDbSymbolTableRecord
100
AcDbLinetypeTableRecord
  2
DASHEDX2
 70
     0
  3
Dashedx2 ____  ____  ____  ____  ____  ___
 72
    65
 73
     2
 40
1.5
 49
1.0
 74
     0
 49
-0.5
 74
     0
  0
LTYPE
  5
23F8
330
23BE
100
AcDbSymbolTableRecord
100
AcDbLinetypeTableRecord
  2
DIVIDE
 70
     0
  3
Divide ____ . . ____ . . ____ . . ____ . . ____
 72
    65
 73
     6
 40
1.25
 49
0.5
 74
     0
 49
-0.25
 74
     0
 49
0.0
 74
     0
 49
-0.25
 74
     0
 49
0.0
 74
     0
 49
-0.25
 74
     0
  0
LTYPE
  5
23F9
330
23BE
100
AcDbSymbolTableRecord
100
AcDbLinetypeTableRecord
  2
DIVIDE2
 70
     0
  3
Divide2 __..__..__..__..__..__..__..__.._
 72
    65
 73
     6
 40
0.625
 49
0.25
 74
     0
 49
-0.125
 74
     0
 49
0.0
 74
     0
 49
-0.125
 74
     0
 49
0.0
 74
     0
 49
-0.125
 74
     0
  0
LTYPE
  5
23FA
330
23BE
100
AcDbSymbolTableRecord
100
AcDbLinetypeTableRecord
  2
DIVIDEX2
 70
     0
  3
Dividex2 ________  .  .  ________  .  .  _
 72
    65
 73
     6
 40
2.5
 49
1.0
 74
     0
 49
-0.5
 74
     0
 49
0.0
 74
     0
 49
-0.5
 74
     0
 49
0.0
 74
     0
 49
-0.5
 74
     0
  0
LTYPE
  5
23FB
330
23BE
100
AcDbSymbolTableRecord
100
AcDbLinetypeTableRecord
  2
DOT
 70
     0
  3
Dot . . . . . . . . . . . . . . . . . . . . . . . .
 72
    65
 73
     2
 40
0.25
 49
0.0
 74
     0
 49
-0.25
 74
     0
  0
LTYPE
  5
23FC
330
23BE
100
AcDbSymbolTableRecord
100
AcDbLinetypeTableRecord
  2
DOT2
 70
     0
  3
Dot2 ........................................
 72
    65
 73
     2
 40
0.125
 49
0.0
 74
     0
 49
-0.125
 74
     0
  0
LTYPE
  5
23FD
330
23BE
100
AcDbSymbolTableRecord
100
AcDbLinetypeTableRecord
  2
DOTX2
 70
     0
  3
Dotx2 .  .  .  .  .  .  .  .  .  .  .  .  .  .
 72
    65
 73
     2
 40
0.5
 49
0.0
 74
     0
 49
-0.5
 74
     0
  0
LTYPE
  5
23FE
330
23BE
100
AcDbSymbolTableRecord
100
AcDbLinetypeTableRecord
  2
HIDDENX2
 70
     0
  3
Hiddenx2 ____ ____ ____ ____ ____ ____ ____ 
 72
    65
 73
     2
 40
0.75
 49
0.5
 74
     0
 49
-0.25
 74
     0
  0
LTYPE
  5
23FF
330
23BE
100
AcDbSymbolTableRecord
100
AcDbLinetypeTableRecord
  2
PHANTOM
 70
     0
  3
Phantom ______  __  __  ______  __  __  ______ 
 72
    65
 73
     6
 40
2.5
 49
1.25
 74
     0
 49
-0.25
 74
     0
 49
0.25
 74
     0
 49
-0.25
 74
     0
 49
0.25
 74
     0
 49
-0.25
 74
     0
  0
LTYPE
  5
2400
330
23BE
100
AcDbSymbolTableRecord
100
AcDbLinetypeTableRecord
  2
PHANTOM2
 70
     0
  3
Phantom2 ___ _ _ ___ _ _ ___ _ _ ___ _ _
 72
    65
 73
     6
 40
1.25
 49
0.625
 74
     0
 49
-0.125
 74
     0
 49
0.125
 74
     0
 49
-0.125
 74
     0
 49
0.125
 74
     0
 49
-0.125
 74
     0
  0
LTYPE
  5
2401
330
23BE
100
AcDbSymbolTableRecord
100
AcDbLinetypeTableRecord
  2
PHANTOMX2
 70
     0
  3
Phantomx2 ____________    ____    ____   _
 72
    65
 73
     6
 40
5.0
 49
2.5
 74
     0
 49
-0.5
 74
     0
 49
0.5
 74
     0
 49
-0.5
 74
     0
 49
0.5
 74
     0
 49
-0.5
 74
     0
  0
ENDTAB
  0
TABLE
  2
LAYER
  5
23BB
330
0
100
AcDbSymbolTable
 70
     6
  0
LAYER
  5
23C9
330
23BB
100
AcDbSymbolTableRecord
100
AcDbLayerTableRecord
  2
0
 70
     0
 62
     7
  6
CONTINUOUS
  0
LAYER
  5
9E
330
23BB
100
AcDbSymbolTableRecord
100
AcDbLayerTableRecord
  2
DEFPOINTS
 70
     0
 62
     7
  6
CONTINUOUS
  0
LAYER
  5
377
330
23BB
100
AcDbSymbolTableRecord
100
AcDbLayerTableRecord
  2
V0-OBRYS
 70
     0
 62
    90
  6
CONTINUOUS
  0
LAYER
  5
378
330
23BB
100
AcDbSymbolTableRecord
100
AcDbLayerTableRecord
  2
V0-VYPLNE
 70
     0
 62
    63
  6
DASHDOT
  0
LAYER
  5
37A
330
23BB
100
AcDbSymbolTableRecord
100
AcDbLayerTableRecord
  2
V0-NAZVY
 70
     0
 62
   210
  6
CONTINUOUS
  0
LAYER
  5
559
330
23BB
100
AcDbSymbolTableRecord
100
AcDbLayerTableRecord
  2
V0-ZBYTEK
 70
     0
 62
    51
  6
CONTINUOUS
  0
ENDTAB
  0
TABLE
  2
STYLE
  5
23BC
330
0
100
AcDbSymbolTable
 70
     7
  0
STYLE
  5
23CA
330
23BC
100
AcDbSymbolTableRecord
100
AcDbTextStyleTableRecord
  2
STANDARD
 70
     0
 40
0.0
 41
1.0
 50
0.0
 71
     0
 42
0.2
  3
ISOCP.shx
  4

1001
ACAD
1000
ISOCP.shx
1071
        0
  0
STYLE
  5
331
330
23BC
100
AcDbSymbolTableRecord
100
AcDbTextStyleTableRecord
  2
ED20
 70
     0
 40
25.0
 41
1.0
 50
0.0
 71
     0
 42
0.2
  3
ISOCP.shx
  4

1001
ACAD
1000
ISOCP.shx
1071
        0
  0
STYLE
  5
648
330
23BC
100
AcDbSymbolTableRecord
100
AcDbTextStyleTableRecord
  2
ED10
 70
     0
 40
10.0
 41
1.0
 50
0.0
 71
     0
 42
0.2
  3
ISOCP.shx
  4

1001
ACAD
1000
ISOCP.shx
1071
        0
  0
STYLE
  5
F38
330
23BC
100
AcDbSymbolTableRecord
100
AcDbTextStyleTableRecord
  2
ED30
 70
     0
 40
30.0
 41
1.0
 50
0.0
 71
     0
 42
0.2
  3
ISOCP.shx
  4

1001
ACAD
1000
ISOCP.shx
1071
        0
  0
STYLE
  5
F39
330
23BC
100
AcDbSymbolTableRecord
100
AcDbTextStyleTableRecord
  2
ED40
 70
     0
 40
40.0
 41
1.0
 50
0.0
 71
     0
 42
0.2
  3
ISOCP.shx
  4

1001
ACAD
1000
ISOCP.shx
1071
        0
  0
STYLE
  5
1EA9
330
23BC
100
AcDbSymbolTableRecord
100
AcDbTextStyleTableRecord
  2
ED50
 70
     0
 40
50.0
 41
1.0
 50
0.0
 71
     0
 42
0.2
  3
ISOCP.shx
  4

1001
ACAD
1000
ISOCP.shx
1071
        0
  0
STYLE
  5
2121
330
23BC
100
AcDbSymbolTableRecord
100
AcDbTextStyleTableRecord
  2
ED60
 70
     0
 40
65.0
 41
1.0
 50
0.0
 71
     0
 42
0.2
  3
ISOCP.shx
  4

1001
ACAD
1000
ISOCP.shx
1071
        0
  0
ENDTAB
  0
TABLE
  2
VIEW
  5
23BF
330
0
100
AcDbSymbolTable
 70
     0
  0
ENDTAB
  0
TABLE
  2
UCS
  5
23C0
330
0
100
AcDbSymbolTable
 70
     0
  0
ENDTAB
  0
TABLE
  2
APPID
  5
23C2
330
0
100
AcDbSymbolTable
 70
     6
  0
APPID
  5
23CB
330
23C2
100
AcDbSymbolTableRecord
100
AcDbRegAppTableRecord
  2
ACAD
 70
     0
  0
APPID
  5
23E3
330
23C2
100
AcDbSymbolTableRecord
100
AcDbRegAppTableRecord
  2
VD_INVISIBLE_NOT_FOR_READ
 70
     0
  0
APPID
  5
23E4
330
23C2
100
AcDbSymbolTableRecord
100
AcDbRegAppTableRecord
  2
VD_TEMPHATCH
 70
     0
  0
APPID
  5
23E5
330
23C2
100
AcDbSymbolTableRecord
100
AcDbRegAppTableRecord
  2
VDEXTRAPARAM
 70
     0
  0
APPID
  5
23E6
330
23C2
100
AcDbSymbolTableRecord
100
AcDbRegAppTableRecord
  2
PE_URL
 70
     0
  0
APPID
  5
23E7
330
23C2
100
AcDbSymbolTableRecord
100
AcDbRegAppTableRecord
  2
VD_UNKNOWN
 70
     0
  0
ENDTAB
  0
TABLE
  2
DIMSTYLE
  5
23C3
330
0
100
AcDbSymbolTable
 70
     6
  0
DIMSTYLE
105
23E0
330
23C3
100
AcDbSymbolTableRecord
100
AcDbDimStyleTableRecord
  2
STANDARD
 70
     0
  3

  4

  5
OPEN
  6

  7

 40
1.0
 41
15.0
 42
0.625
 43
0.38
 44
1.25
 45
0.0
 46
0.0
 47
0.0
 48
0.0
140
15.0
141
0.09
142
0.0
143
25.4
144
1.0
145
0.0
146
1.0
147
3.0
 71
     0
 72
     0
 73
     0
 74
     0
 75
     0
 76
     0
 77
     1
 78
     0
170
     0
171
     2
172
     1
173
     0
174
     1
175
     0
176
     0
177
     0
178
     0
270
     2
271
     0
272
     4
273
     2
274
     2
340
331
275
     0
280
     0
281
     0
282
     0
283
     1
284
     0
285
     0
286
     0
287
     3
288
     1
  0
DIMSTYLE
105
397
330
23C3
100
AcDbSymbolTableRecord
100
AcDbDimStyleTableRecord
  2
ED40
 70
     0
  3

  4

  5
OPEN
  6

  7

 40
1.0
 41
35.0
 42
1.0
 43
0.38
 44
1.25
 45
0.0
 46
0.0
 47
0.0
 48
0.0
140
40.0
141
0.09
142
0.0
143
25.4
144
1.0
145
0.0
146
1.0
147
4.0
 71
     0
 72
     0
 73
     0
 74
     0
 75
     0
 76
     0
 77
     1
 78
     0
170
     0
171
     2
172
     1
173
     0
174
     1
175
     0
176
     0
177
     0
178
     0
270
     2
271
     0
272
     4
273
     2
274
     2
340
F39
275
     0
280
     0
281
     0
282
     0
283
     1
284
     0
285
     0
286
     0
287
     3
288
     1
  0
DIMSTYLE
105
FEA
330
23C3
100
AcDbSymbolTableRecord
100
AcDbDimStyleTableRecord
  2
ED30
 70
     0
  3

  4

  5
OPEN
  6

  7

 40
1.0
 41
25.0
 42
1.0
 43
0.38
 44
1.25
 45
0.0
 46
0.0
 47
0.0
 48
0.0
140
30.0
141
0.09
142
0.0
143
25.4
144
1.0
145
0.0
146
1.0
147
4.0
 71
     0
 72
     0
 73
     0
 74
     0
 75
     0
 76
     0
 77
     1
 78
     0
170
     0
171
     2
172
     1
173
     0
174
     1
175
     0
176
     0
177
     0
178
     0
270
     2
271
     0
272
     4
273
     2
274
     2
340
F38
275
     0
280
     0
281
     0
282
     0
283
     1
284
     0
285
     0
286
     0
287
     3
288
     1
  0
DIMSTYLE
105
1457
330
23C3
100
AcDbSymbolTableRecord
100
AcDbDimStyleTableRecord
  2
ED20
 70
     0
  3

  4

  5
OPEN
  6

  7

 40
1.0
 41
20.0
 42
1.0
 43
0.38
 44
1.25
 45
0.0
 46
0.0
 47
0.0
 48
0.0
140
20.0
141
0.09
142
0.0
143
25.4
144
1.0
145
0.0
146
1.0
147
1.5
 71
     0
 72
     0
 73
     0
 74
     0
 75
     0
 76
     0
 77
     1
 78
     0
170
     0
171
     2
172
     1
173
     0
174
     1
175
     0
176
     0
177
     0
178
     0
270
     2
271
     0
272
     4
273
     2
274
     2
340
331
275
     0
280
     0
281
     0
282
     0
283
     1
284
     0
285
     0
286
     0
287
     3
288
     1
  0
DIMSTYLE
105
1458
330
23C3
100
AcDbSymbolTableRecord
100
AcDbDimStyleTableRecord
  2
ED10
 70
     0
  3

  4

  5
OPEN
  6

  7

 40
1.0
 41
15.0
 42
1.0
 43
0.38
 44
1.25
 45
0.0
 46
0.0
 47
0.0
 48
0.0
140
10.0
141
0.09
142
0.0
143
25.4
144
1.0
145
0.0
146
1.0
147
1.5
 71
     0
 72
     0
 73
     0
 74
     0
 75
     0
 76
     0
 77
     1
 78
     0
170
     0
171
     2
172
     1
173
     0
174
     1
175
     0
176
     0
177
     0
178
     0
270
     2
271
     0
272
     4
273
     2
274
     2
340
331
275
     0
280
     0
281
     0
282
     0
283
     1
284
     0
285
     0
286
     0
287
     3
288
     1
  0
DIMSTYLE
105
2122
102
{ACAD_REACTORS
330
1469
330
1483
330
1BAE
330
21F9
330
2206
102
}
330
23C3
100
AcDbSymbolTableRecord
100
AcDbDimStyleTableRecord
  2
ED60
 70
     0
  3

  4

  5
OPEN
  6

  7

 40
1.0
 41
60.0
 42
1.0
 43
0.38
 44
1.25
 45
0.0
 46
0.0
 47
0.0
 48
0.0
140
50.0
141
0.09
142
0.0
143
25.4
144
1.0
145
0.0
146
1.0
147
4.0
 71
     0
 72
     0
 73
     0
 74
     0
 75
     0
 76
     0
 77
     1
 78
     0
170
     0
171
     2
172
     1
173
     0
174
     1
175
     0
176
     0
177
     0
178
     0
270
     2
271
     0
272
     4
273
     2
274
     2
340
2121
275
     0
280
     0
281
     0
282
     0
283
     1
284
     0
285
     0
286
     0
287
     3
288
     1
  0
ENDTAB
  0
TABLE
  2
BLOCK_RECORD
  5
23BA
330
0
100
AcDbSymbolTable
 70
    10
  0
BLOCK_RECORD
  5
23D8
330
23BA
100
AcDbSymbolTableRecord
100
AcDbBlockTableRecord
  2
*MODEL_SPACE
  0
BLOCK_RECORD
  5
23D4
330
23BA
100
AcDbSymbolTableRecord
100
AcDbBlockTableRecord
  2
*PAPER_SPACE
  0
BLOCK_RECORD
  5
90
330
23BA
100
AcDbSymbolTableRecord
100
AcDbBlockTableRecord
  2
_OPEN
  0
BLOCK_RECORD
  5
1459
330
23BA
100
AcDbSymbolTableRecord
100
AcDbBlockTableRecord
  2
A10_100
  0
BLOCK_RECORD
  5
23B6
330
23BA
100
AcDbSymbolTableRecord
100
AcDbBlockTableRecord
  2
VDDIM_DEFAULT
  0
BLOCK_RECORD
  5
23B8
330
23BA
100
AcDbSymbolTableRecord
100
AcDbBlockTableRecord
  2
VDDIM_NONE
  0
BLOCK_RECORD
  5
240B
330
23BA
100
AcDbSymbolTableRecord
100
AcDbBlockTableRecord
  2
*D5
  0
BLOCK_RECORD
  5
2418
330
23BA
100
AcDbSymbolTableRecord
100
AcDbBlockTableRecord
  2
*D6
  0
BLOCK_RECORD
  5
2425
330
23BA
100
AcDbSymbolTableRecord
100
AcDbBlockTableRecord
  2
*D7
  0
BLOCK_RECORD
  5
2432
330
23BA
100
AcDbSymbolTableRecord
100
AcDbBlockTableRecord
  2
*D8
  0
BLOCK_RECORD
  5
243E
330
23BA
100
AcDbSymbolTableRecord
100
AcDbBlockTableRecord
  2
*D9
  0
ENDTAB
  0
ENDSEC
  0
SECTION
  2
BLOCKS
  0
BLOCK
  5
23D9
330
23D8
100
AcDbEntity
  8
0
100
AcDbBlockBegin
  2
*MODEL_SPACE
 70
     0
 71
     0
 10
0.0
 20
0.0
 30
0.0
  3
*MODEL_SPACE
  1

  0
ENDBLK
  5
23DA
330
23D8
100
AcDbEntity
  8
0
100
AcDbBlockEnd
  0
BLOCK
  5
23D5
330
23D4
100
AcDbEntity
 67
     1
  8
0
100
AcDbBlockBegin
  2
*PAPER_SPACE
 70
     0
 71
     0
 10
0.0
 20
0.0
 30
0.0
  3
*PAPER_SPACE
  1

  0
ENDBLK
  5
23D6
330
23D4
100
AcDbEntity
 67
     1
  8
0
100
AcDbBlockEnd
  0
BLOCK
  5
2402
330
90
100
AcDbEntity
  8
0
100
AcDbBlockBegin
  2
_OPEN
 70
     0
 71
     0
 10
0.0
 20
0.0
 30
0.0
  3
_OPEN
  1

  0
LINE
  5
92
330
90
100
AcDbEntity
  8
0
  6
BYBLOCK
 62
     0
100
AcDbLine
 10
-1.0
 20
0.166667
 30
0.0
 11
0.0
 21
0.0
 31
0.0
  0
LINE
  5
93
330
90
100
AcDbEntity
  8
0
  6
BYBLOCK
 62
     0
100
AcDbLine
 10
0.0
 20
0.0
 30
0.0
 11
-1.0
 21
-0.166667
 31
0.0
  0
LINE
  5
94
330
90
100
AcDbEntity
  8
0
  6
BYBLOCK
 62
     0
100
AcDbLine
 10
0.0
 20
0.0
 30
0.0
 11
-1.0
 21
0.0
 31
0.0
  0
ENDBLK
  5
2403
330
90
100
AcDbEntity
  8
0
100
AcDbBlockEnd
  0
BLOCK
  5
2404
330
1459
100
AcDbEntity
  8
0
100
AcDbBlockBegin
  2
A10_100
 70
     0
 71
     0
 10
0.0
 20
0.0
 30
0.0
  3
A10_100
  1

  0
ENDBLK
  5
2405
330
1459
100
AcDbEntity
  8
0
100
AcDbBlockEnd
  0
BLOCK
  5
2406
330
23B6
100
AcDbEntity
  8
0
100
AcDbBlockBegin
  2
VDDIM_DEFAULT
 70
     0
 71
     0
 10
0.0
 20
0.0
 30
0.0
  3
VDDIM_DEFAULT
  1

  0
LWPOLYLINE
  5
23B7
330
23B6
100
AcDbEntity
  8
0
  6
CONTINUOUS
 62
     0
100
AcDbPolyline
 90
        4
 70
     0
 43
0.0
 10
0.0
 20
0.0
 10
-1.0
 20
-0.1665
 10
-1.0
 20
0.1665
 10
0.0
 20
0.0
1001
VDEXTRAPARAM
1071
        1
1071
        0
1071
        0
1040
1.0
1000

1000

1040
0.0
1040
0.0
  0
HATCH
  5
240A
330
23B6
100
AcDbEntity
  8
0
  6
CONTINUOUS
 62
     0
100
AcDbHatch
 10
0.0
 20
0.0
 30
0.0
210
0.0
220
0.0
230
1.0
  2
SOLID
 70
     1
 71
     0
 91
        1
 92
        2
 72
     0
 73
     1
 93
        3
 10
0.0
 20
0.0
 10
-1.0
 20
-0.1665
 10
-1.0
 20
0.1665
 97
        0
 75
     0
 76
     1
 98
        1
 10
0.0
 20
0.0
1001
VDEXTRAPARAM
1071
        1
1071
        0
1071
        0
1040
1.0
1000

1000

1040
0.0
1040
0.0
1001
VD_TEMPHATCH
1000
VD_TEMPHATCH
  0
ENDBLK
  5
2407
330
23B6
100
AcDbEntity
  8
0
100
AcDbBlockEnd
  0
BLOCK
  5
2408
330
23B8
100
AcDbEntity
  8
0
100
AcDbBlockBegin
  2
VDDIM_NONE
 70
     0
 71
     0
 10
0.0
 20
0.0
 30
0.0
  3
VDDIM_NONE
  1

  0
ENDBLK
  5
2409
330
23B8
100
AcDbEntity
  8
0
100
AcDbBlockEnd
  0
BLOCK
  5
2416
330
240B
100
AcDbEntity
  8
0
100
AcDbBlockBegin
  2
*D5
 70
     1
 71
     0
 10
0.0
 20
0.0
 30
0.0
  3
*D5
  1

  0
LINE
  5
240C
330
240B
100
AcDbEntity
  8
V0-VYPLNE
 62
     0
100
AcDbLine
 10
-108.858761
 20
-277.166006
 30
0.0
 11
-108.858761
 21
-375.4346220000006
 31
0.0
  0
LINE
  5
240D
330
240B
100
AcDbEntity
  8
V0-VYPLNE
 62
     0
100
AcDbLine
 10
521.141239
 20
-277.166006
 30
0.0
 11
521.141239
 21
-375.4346220000007
 31
0.0
  0
LINE
  5
240E
330
240B
100
AcDbEntity
  8
V0-VYPLNE
 62
     0
100
AcDbLine
 10
-48.85876099999996
 20
-374.1846220000006
 30
0.0
 11
104.2626602857143
 21
-374.1846220000006
 31
0.0
  0
LINE
  5
240F
330
240B
100
AcDbEntity
  8
V0-VYPLNE
 62
     0
100
AcDbLine
 10
461.141239
 20
-374.1846220000007
 30
0.0
 11
283.6912317142857
 21
-374.1846220000006
 31
0.0
  0
INSERT
  5
2410
330
240B
100
AcDbEntity
  8
V0-VYPLNE
 62
     0
100
AcDbBlockReference
  2
_OPEN
 10
-108.858761
 20
-374.1846220000006
 30
0.0
 41
60.0
 42
60.0
 43
60.0
 50
180.0
  0
INSERT
  5
2411
330
240B
100
AcDbEntity
  8
V0-VYPLNE
 62
     0
100
AcDbBlockReference
  2
_OPEN
 10
521.141239
 20
-374.1846220000007
 30
0.0
 41
60.0
 42
60.0
 43
60.0
  0
MTEXT
  5
2412
330
240B
100
AcDbEntity
  8
V0-VYPLNE
 62
     0
100
AcDbMText
 10
193.976946
 20
-374.184622
 30
0.0
 40
50.0
 41
0.0
 71
     5
 72
     1
  1
%%c\A1;630
  7
ED60
  0
POINT
  5
2413
330
240B
100
AcDbEntity
  8
DEFPOINTS
 62
     0
100
AcDbPoint
 10
-108.858761
 20
-276.166006
 30
0.0
  0
POINT
  5
2414
330
240B
100
AcDbEntity
  8
DEFPOINTS
 62
     0
100
AcDbPoint
 10
521.141239
 20
-276.166006
 30
0.0
  0
POINT
  5
2415
330
240B
100
AcDbEntity
  8
DEFPOINTS
 62
     0
100
AcDbPoint
 10
521.141239
 20
-374.1846220000007
 30
0.0
  0
ENDBLK
  5
2417
330
240B
100
AcDbEntity
  8
0
100
AcDbBlockEnd
  0
BLOCK
  5
2423
330
2418
100
AcDbEntity
  8
0
100
AcDbBlockBegin
  2
*D6
 70
     1
 71
     0
 10
0.0
 20
0.0
 30
0.0
  3
*D6
  1

  0
LINE
  5
2419
330
2418
100
AcDbEntity
  8
V0-VYPLNE
 62
     0
100
AcDbLine
 10
-246.358761
 20
-277.166006
 30
0.0
 11
-246.3587609999998
 21
-596.8792300000205
 31
0.0
  0
LINE
  5
241A
330
2418
100
AcDbEntity
  8
V0-VYPLNE
 62
     0
100
AcDbLine
 10
658.641239
 20
-277.166006
 30
0.0
 11
658.641239
 21
-596.8792300000205
 31
0.0
  0
LINE
  5
241B
330
2418
100
AcDbEntity
  8
V0-VYPLNE
 62
     0
100
AcDbLine
 10
-186.3587609999998
 20
-595.6292300000205
 30
0.0
 11
137.8555247142857
 21
-595.6292300000205
 31
0.0
  0
LINE
  5
241C
330
2418
100
AcDbEntity
  8
V0-VYPLNE
 62
     0
100
AcDbLine
 10
598.641239
 20
-595.6292300000205
 30
0.0
 11
274.4269532857143
 21
-595.6292300000205
 31
0.0
  0
INSERT
  5
241D
330
2418
100
AcDbEntity
  8
V0-VYPLNE
 62
     0
100
AcDbBlockReference
  2
_OPEN
 10
-246.3587609999998
 20
-595.6292300000205
 30
0.0
 41
60.0
 42
60.0
 43
60.0
 50
180.0
  0
INSERT
  5
241E
330
2418
100
AcDbEntity
  8
V0-VYPLNE
 62
     0
100
AcDbBlockReference
  2
_OPEN
 10
658.641239
 20
-595.6292300000205
 30
0.0
 41
60.0
 42
60.0
 43
60.0
  0
MTEXT
  5
241F
330
2418
100
AcDbEntity
  8
V0-VYPLNE
 62
     0
100
AcDbMText
 10
206.141239
 20
-595.62923
 30
0.0
 40
50.0
 41
0.0
 71
     5
 72
     1
  1
\A1;905
  7
ED60
  0
POINT
  5
2420
330
2418
100
AcDbEntity
  8
DEFPOINTS
 62
     0
100
AcDbPoint
 10
-246.358761
 20
-276.166006
 30
0.0
  0
POINT
  5
2421
330
2418
100
AcDbEntity
  8
DEFPOINTS
 62
     0
100
AcDbPoint
 10
658.641239
 20
-276.166006
 30
0.0
  0
POINT
  5
2422
330
2418
100
AcDbEntity
  8
DEFPOINTS
 62
     0
100
AcDbPoint
 10
658.641239
 20
-595.6292300000205
 30
0.0
  0
ENDBLK
  5
2424
330
2418
100
AcDbEntity
  8
0
100
AcDbBlockEnd
  0
BLOCK
  5
2430
330
2425
100
AcDbEntity
  8
0
100
AcDbBlockBegin
  2
*D7
 70
     1
 71
     0
 10
0.0
 20
0.0
 30
0.0
  3
*D7
  1

  0
LINE
  5
2426
330
2425
100
AcDbEntity
  8
V0-VYPLNE
 62
     0
100
AcDbLine
 10
-168.858761
 20
-287.166006
 30
0.0
 11
-168.8587609999998
 21
-481.1950099999665
 31
0.0
  0
LINE
  5
2427
330
2425
100
AcDbEntity
  8
V0-VYPLNE
 62
     0
100
AcDbLine
 10
581.141239
 20
-277.166006
 30
0.0
 11
581.141239
 21
-481.1950099999666
 31
0.0
  0
LINE
  5
2428
330
2425
100
AcDbEntity
  8
V0-VYPLNE
 62
     0
100
AcDbLine
 10
-108.8587609999998
 20
-479.9450099999665
 30
0.0
 11
125.6912317142857
 21
-479.9450099999665
 31
0.0
  0
LINE
  5
2429
330
2425
100
AcDbEntity
  8
V0-VYPLNE
 62
     0
100
AcDbLine
 10
521.141239
 20
-479.9450099999666
 30
0.0
 11
262.2626602857143
 21
-479.9450099999665
 31
0.0
  0
INSERT
  5
242A
330
2425
100
AcDbEntity
  8
V0-VYPLNE
 62
     0
100
AcDbBlockReference
  2
_OPEN
 10
-168.8587609999998
 20
-479.9450099999665
 30
0.0
 41
60.0
 42
60.0
 43
60.0
 50
180.0
  0
INSERT
  5
242B
330
2425
100
AcDbEntity
  8
V0-VYPLNE
 62
     0
100
AcDbBlockReference
  2
_OPEN
 10
581.141239
 20
-479.9450099999666
 30
0.0
 41
60.0
 42
60.0
 43
60.0
  0
MTEXT
  5
242C
330
2425
100
AcDbEntity
  8
V0-VYPLNE
 62
     0
100
AcDbMText
 10
193.976946
 20
-479.94501
 30
0.0
 40
50.0
 41
0.0
 71
     5
 72
     1
  1
\A1;750
  7
ED60
  0
POINT
  5
242D
330
2425
100
AcDbEntity
  8
DEFPOINTS
 62
     0
100
AcDbPoint
 10
-168.858761
 20
-286.166006
 30
0.0
  0
POINT
  5
242E
330
2425
100
AcDbEntity
  8
DEFPOINTS
 62
     0
100
AcDbPoint
 10
581.141239
 20
-276.166006
 30
0.0
  0
POINT
  5
242F
330
2425
100
AcDbEntity
  8
DEFPOINTS
 62
     0
100
AcDbPoint
 10
581.141239
 20
-479.9450099999666
 30
0.0
  0
ENDBLK
  5
2431
330
2425
100
AcDbEntity
  8
0
100
AcDbBlockEnd
  0
BLOCK
  5
243C
330
2432
100
AcDbEntity
  8
0
100
AcDbBlockBegin
  2
*D8
 70
     1
 71
     0
 10
0.0
 20
0.0
 30
0.0
  3
*D8
  1

  0
LINE
  5
2433
330
2432
100
AcDbEntity
  8
V0-VYPLNE
 62
     0
100
AcDbLine
 10
-393.858761
 20
526.833994
 30
0.0
 11
-393.8587609999997
 21
652.7533919999843
 31
0.0
  0
LINE
  5
2434
330
2432
100
AcDbEntity
  8
V0-VYPLNE
 62
     0
100
AcDbLine
 10
806.141239
 20
526.833994
 30
0.0
 11
806.141239
 21
652.7533919999842
 31
0.0
  0
LINE
  5
2435
330
2432
100
AcDbEntity
  8
V0-VYPLNE
 62
     0
100
AcDbLine
 10
-333.8587609999997
 20
651.5033919999843
 30
0.0
 11
746.141239
 21
651.5033919999842
 31
0.0
  0
INSERT
  5
2436
330
2432
100
AcDbEntity
  8
V0-VYPLNE
 62
     0
100
AcDbBlockReference
  2
_OPEN
 10
-393.8587609999997
 20
651.5033919999843
 30
0.0
 41
60.0
 42
60.0
 43
60.0
 50
180.0
  0
INSERT
  5
2437
330
2432
100
AcDbEntity
  8
V0-VYPLNE
 62
     0
100
AcDbBlockReference
  2
_OPEN
 10
806.141239
 20
651.5033919999842
 30
0.0
 41
60.0
 42
60.0
 43
60.0
 50
360.0
  0
MTEXT
  5
2438
330
2432
100
AcDbEntity
  8
V0-VYPLNE
 62
     0
100
AcDbMText
 10
206.1412390000002
 20
680.5033919999842
 30
0.0
 40
50.0
 41
0.0
 71
     5
 72
     1
  1
\A1;1200
  7
ED60
  0
POINT
  5
2439
330
2432
100
AcDbEntity
  8
DEFPOINTS
 62
     0
100
AcDbPoint
 10
-393.858761
 20
525.833994
 30
0.0
  0
POINT
  5
243A
330
2432
100
AcDbEntity
  8
DEFPOINTS
 62
     0
100
AcDbPoint
 10
806.141239
 20
525.833994
 30
0.0
  0
POINT
  5
243B
330
2432
100
AcDbEntity
  8
DEFPOINTS
 62
     0
100
AcDbPoint
 10
806.141239
 20
651.5033919999842
 30
0.0
  0
ENDBLK
  5
243D
330
2432
100
AcDbEntity
  8
0
100
AcDbBlockEnd
  0
BLOCK
  5
2449
330
243E
100
AcDbEntity
  8
0
100
AcDbBlockBegin
  2
*D9
 70
     1
 71
     0
 10
0.0
 20
0.0
 30
0.0
  3
*D9
  1

  0
LINE
  5
243F
330
243E
100
AcDbEntity
  8
V0-VYPLNE
 62
     0
100
AcDbLine
 10
697.141239
 20
-276.166006
 30
0.0
 11
901.8802850000185
 21
-276.166006
 31
0.0
  0
LINE
  5
2440
330
243E
100
AcDbEntity
  8
V0-VYPLNE
 62
     0
100
AcDbLine
 10
537.141239
 20
563.833994
 30
0.0
 11
901.8802850000185
 21
563.833994
 31
0.0
  0
LINE
  5
2441
330
243E
100
AcDbEntity
  8
V0-VYPLNE
 62
     0
100
AcDbLine
 10
900.6302850000185
 20
-216.1660060000001
 30
0.0
 11
900.6302850000186
 21
105.9450687142857
 31
0.0
  0
LINE
  5
2442
330
243E
100
AcDbEntity
  8
V0-VYPLNE
 62
     0
100
AcDbLine
 10
900.6302850000186
 20
503.8339939999997
 30
0.0
 11
900.6302850000186
 21
242.5164972857143
 31
0.0
  0
INSERT
  5
2443
330
243E
100
AcDbEntity
  8
V0-VYPLNE
 62
     0
100
AcDbBlockReference
  2
_OPEN
 10
900.6302850000185
 20
-276.1660060000001
 30
0.0
 41
60.0
 42
60.0
 43
60.0
 50
270.0
  0
INSERT
  5
2444
330
243E
100
AcDbEntity
  8
V0-VYPLNE
 62
     0
100
AcDbBlockReference
  2
_OPEN
 10
900.6302850000186
 20
563.8339939999997
 30
0.0
 41
60.0
 42
60.0
 43
60.0
 50
89.99999999999999
  0
MTEXT
  5
2445
330
243E
100
AcDbEntity
  8
V0-VYPLNE
 62
     0
100
AcDbMText
 10
900.630285
 20
174.230783
 30
0.0
 40
50.0
 41
0.0
 71
     5
 72
     1
  1
\A1;840
  7
ED60
 11
0.0
 21
-1.0
 31
0.0
  0
POINT
  5
2446
330
243E
100
AcDbEntity
  8
DEFPOINTS
 62
     0
100
AcDbPoint
 10
696.141239
 20
-276.166006
 30
0.0
  0
POINT
  5
2447
330
243E
100
AcDbEntity
  8
DEFPOINTS
 62
     0
100
AcDbPoint
 10
536.141239
 20
563.833994
 30
0.0
  0
POINT
  5
2448
330
243E
100
AcDbEntity
  8
DEFPOINTS
 62
     0
100
AcDbPoint
 10
900.6302850000185
 20
563.833994
 30
0.0
  0
ENDBLK
  5
244A
330
243E
100
AcDbEntity
  8
0
100
AcDbBlockEnd
  0
ENDSEC
  0
SECTION
  2
ENTITIES
  0
LINE
  5
1127
330
23D8
100
AcDbEntity
  8
V0-VYPLNE
  6
DASHDOT
 62
    63
 48
5.0
100
AcDbLine
 10
206.141239
 20
783.628651
 30
0.0
 11
206.141239
 21
-290.2859739999999
 31
0.0
  0
CIRCLE
  5
11B0
330
23D8
100
AcDbEntity
  8
V0-VYPLNE
  6
DASHED
 62
    56
100
AcDbCircle
 10
580.580172
 20
-899.7659660000001
 30
0.0
 40
10.698255
  0
LINE
  5
11B1
330
23D8
100
AcDbEntity
  8
V0-VYPLNE
 62
    63
100
AcDbLine
 10
580.580172
 20
-945.615631
 30
0.0
 11
580.580172
 21
-793.845301
 31
0.0
  0
LINE
  5
11BE
330
23D8
100
AcDbEntity
  8
V0-VYPLNE
100
AcDbLine
 10
-168.858761
 20
-286.166006
 30
0.0
 11
-168.858761
 21
-236.166006
 31
0.0
  0
LINE
  5
11BF
330
23D8
100
AcDbEntity
  8
V0-VYPLNE
100
AcDbLine
 10
581.141239
 20
-286.166006
 30
0.0
 11
581.141239
 21
-236.166006
 31
0.0
  0
POINT
  5
12BC
330
23D8
100
AcDbEntity
  8
V0-VYPLNE
  6
CONTINUOUS
 62
    41
100
AcDbPoint
 10
206.141239
 20
-1274.204899
 30
0.0
  0
LINE
  5
13BB
330
23D8
100
AcDbEntity
  8
V0-VYPLNE
  6
DASHDOT
 62
    63
 48
5.0
100
AcDbLine
 10
-472.434431
 20
-1274.204899
 30
0.0
 11
884.716908
 21
-1274.204899
 31
0.0
  0
CIRCLE
  5
13BE
330
23D8
100
AcDbEntity
  8
V0-OBRYS
  6
CONTINUOUS
 62
    90
100
AcDbCircle
 10
206.141239
 20
-1274.204899
 30
0.0
 40
603.000858
  0
CIRCLE
  5
13C0
330
23D8
100
AcDbEntity
  8
V0-OBRYS
  6
CONTINUOUS
 62
    90
100
AcDbCircle
 10
206.141239
 20
-1274.204899
 30
0.0
 40
355.515333
  0
LINE
  5
13C2
330
23D8
100
AcDbEntity
  8
V0-VYPLNE
 62
    63
100
AcDbLine
 10
686.5008370000001
 20
-899.7659660000001
 30
0.0
 11
534.730506
 21
-899.7659660000001
 31
0.0
  0
LINE
  5
13C5
330
23D8
100
AcDbEntity
  8
V0-VYPLNE
 62
    63
100
AcDbLine
 10
-122.448029
 20
-899.7659660000001
 30
0.0
 11
-203.731966
 21
-899.7659660000001
 31
0.0
  0
LINE
  5
13C6
330
23D8
100
AcDbEntity
  8
V0-VYPLNE
 62
    63
100
AcDbLine
 10
-168.297694
 20
-864.7294910000001
 30
0.0
 11
-168.297694
 21
-945.615631
 31
0.0
  0
CIRCLE
  5
13C7
330
23D8
100
AcDbEntity
  8
V0-VYPLNE
  6
DASHED
 62
    56
100
AcDbCircle
 10
-168.297694
 20
-899.7659660000001
 30
0.0
 40
10.698255
  0
LINE
  5
13C8
330
23D8
100
AcDbEntity
  8
V0-VYPLNE
 62
    63
100
AcDbLine
 10
-168.297694
 20
-1602.794167
 30
0.0
 11
-168.297694
 21
-1754.564497
 31
0.0
  0
LINE
  5
13C9
330
23D8
100
AcDbEntity
  8
V0-VYPLNE
 62
    63
100
AcDbLine
 10
-274.21836
 20
-1648.643832
 30
0.0
 11
-122.448029
 21
-1648.643832
 31
0.0
  0
CIRCLE
  5
13CA
330
23D8
100
AcDbEntity
  8
V0-VYPLNE
  6
DASHED
 62
    56
100
AcDbCircle
 10
-168.297694
 20
-1648.643832
 30
0.0
 40
10.698255
  0
LINE
  5
13CB
330
23D8
100
AcDbEntity
  8
V0-VYPLNE
 62
    63
100
AcDbLine
 10
534.730506
 20
-1648.643832
 30
0.0
 11
686.5008370000001
 21
-1648.643832
 31
0.0
  0
LINE
  5
13CC
330
23D8
100
AcDbEntity
  8
V0-VYPLNE
 62
    63
100
AcDbLine
 10
580.580172
 20
-1754.564497
 30
0.0
 11
580.580172
 21
-1602.794167
 31
0.0
  0
LINE
  5
13CE
330
23D8
100
AcDbEntity
  8
V0-VYPLNE
  6
DASHED
 62
    52
100
AcDbLine
 10
656.962029
 20
-824.800159
 30
0.0
 11
-244.679551
 21
-824.800159
 31
0.0
  0
LINE
  5
13CF
330
23D8
100
AcDbEntity
  8
V0-VYPLNE
  6
DASHED
 62
    52
100
AcDbLine
 10
-244.679551
 20
-824.800159
 30
0.0
 11
-244.679551
 21
-1725.025689
 31
0.0
  0
LINE
  5
13D0
330
23D8
100
AcDbEntity
  8
V0-VYPLNE
  6
DASHED
 62
    52
100
AcDbLine
 10
-244.679551
 20
-1725.025689
 30
0.0
 11
656.962029
 21
-1725.025689
 31
0.0
  0
LINE
  5
13D1
330
23D8
100
AcDbEntity
  8
V0-VYPLNE
  6
DASHED
 62
    52
100
AcDbLine
 10
656.962029
 20
-1725.025689
 30
0.0
 11
656.962029
 21
-824.800159
 31
0.0
  0
LINE
  5
13D2
330
23D8
100
AcDbEntity
  8
V0-OBRYS
  6
CONTINUOUS
 62
    90
100
AcDbLine
 10
-246.358761
 20
-276.166006
 30
0.0
 11
658.641239
 21
-276.166006
 31
0.0
  0
LINE
  5
13D3
330
23D8
100
AcDbEntity
  8
V0-OBRYS
  6
CONTINUOUS
 62
    90
100
AcDbLine
 10
658.641239
 20
-276.166006
 30
0.0
 11
658.641239
 21
-261.166006
 31
0.0
  0
LINE
  5
13D4
330
23D8
100
AcDbEntity
  8
V0-OBRYS
  6
CONTINUOUS
 62
    90
100
AcDbLine
 10
658.641239
 20
-261.166006
 30
0.0
 11
-246.358761
 21
-261.166006
 31
0.0
  0
LINE
  5
13D5
330
23D8
100
AcDbEntity
  8
V0-OBRYS
  6
CONTINUOUS
 62
    90
100
AcDbLine
 10
-246.358761
 20
-261.166006
 30
0.0
 11
-246.358761
 21
-276.166006
 31
0.0
  0
LINE
  5
13D6
330
23D8
100
AcDbEntity
  8
V0-OBRYS
  6
CONTINUOUS
 62
    90
100
AcDbLine
 10
-181.358761
 20
-261.166006
 30
0.0
 11
-181.358761
 21
-258.166006
 31
0.0
  0
LINE
  5
13D7
330
23D8
100
AcDbEntity
  8
V0-OBRYS
  6
CONTINUOUS
 62
    90
100
AcDbLine
 10
-181.358761
 20
-258.166006
 30
0.0
 11
593.641239
 21
-258.166006
 31
0.0
  0
LINE
  5
13D8
330
23D8
100
AcDbEntity
  8
V0-OBRYS
  6
CONTINUOUS
 62
    90
100
AcDbLine
 10
593.641239
 20
-258.166006
 30
0.0
 11
593.641239
 21
-261.166006
 31
0.0
  0
LINE
  5
13EA
330
23D8
100
AcDbEntity
  8
V0-OBRYS
  6
CONTINUOUS
 62
    90
100
AcDbLine
 10
521.141239
 20
-256.166006
 30
0.0
 11
521.141239
 21
-276.166006
 31
0.0
  0
INSERT
  5
145C
330
23D8
100
AcDbEntity
  8
V0-VYPLNE
  6
CONTINUOUS
 62
    52
100
AcDbBlockReference
  2
A10_100
 10
1091.344077
 20
-456.786598
 30
0.0
  0
DIMENSION
  5
1469
330
23D8
100
AcDbEntity
  8
V0-VYPLNE
  6
CONTINUOUS
 62
    41
100
AcDbDimension
  2
*D5
 10
521.141239
 20
-374.1846220000007
 30
0.0
 11
193.976946
 21
-374.184622
 31
0.0
 70
   160
  1
%%c<>
  3
ED60
100
AcDbAlignedDimension
 13
-108.858761
 23
-276.166006
 33
0.0
 14
521.141239
 24
-276.166006
 34
0.0
100
AcDbRotatedDimension
1001
ACAD
1000
DSTYLE
1002
{
1070
    40
1040
1.0
1002
}
  0
DIMENSION
  5
1483
330
23D8
100
AcDbEntity
  8
V0-VYPLNE
  6
CONTINUOUS
 62
    41
100
AcDbDimension
  2
*D6
 10
658.641239
 20
-595.6292300000205
 30
0.0
 11
206.141239
 21
-595.62923
 31
0.0
 70
   160
  3
ED60
100
AcDbAlignedDimension
 13
-246.358761
 23
-276.166006
 33
0.0
 14
658.641239
 24
-276.166006
 34
0.0
100
AcDbRotatedDimension
1001
ACAD
1000
DSTYLE
1002
{
1070
    40
1040
1.0
1002
}
  0
LINE
  5
14A6
330
23D8
100
AcDbEntity
  8
V0-VYPLNE
  6
CONTINUOUS
 62
    41
100
AcDbLine
 10
80.06106200000001
 20
-583.543031
 30
0.0
 11
115.367522
 21
-520.603236
 31
0.0
  0
LWPOLYLINE
  5
14A7
330
23D8
100
AcDbEntity
  8
V0-VYPLNE
  6
CONTINUOUS
 62
    41
100
AcDbPolyline
 90
        4
 70
     1
 43
0.0
 10
80.324263
 20
-570.731548
 10
117.870592
 20
-570.731548
 10
117.870592
 20
-533.219798
 10
80.324263
 20
-533.219798
  0
LWPOLYLINE
  5
14A8
330
23D8
100
AcDbEntity
  8
V0-VYPLNE
  6
CONTINUOUS
 62
    41
100
AcDbPolyline
 90
        4
 70
     1
 43
0.0
 10
79.17277300000001
 20
-463.07616
 10
116.719102
 20
-463.07616
 10
116.719102
 20
-425.56441
 10
79.17277300000001
 20
-425.56441
  0
LINE
  5
14A9
330
23D8
100
AcDbEntity
  8
V0-VYPLNE
  6
CONTINUOUS
 62
    41
100
AcDbLine
 10
78.909573
 20
-475.887643
 30
0.0
 11
114.216032
 21
-412.947848
 31
0.0
  0
DIMENSION
  5
1BAE
330
23D8
100
AcDbEntity
  8
V0-VYPLNE
  6
CONTINUOUS
 62
    41
100
AcDbDimension
  2
*D7
 10
581.141239
 20
-479.9450099999666
 30
0.0
 11
193.976946
 21
-479.94501
 31
0.0
 70
   160
  3
ED60
100
AcDbAlignedDimension
 13
-168.858761
 23
-286.166006
 33
0.0
 14
581.141239
 24
-276.166006
 34
0.0
100
AcDbRotatedDimension
1001
ACAD
1000
DSTYLE
1002
{
1070
    40
1040
1.0
1002
}
  0
LINE
  5
20E1
330
23D8
100
AcDbEntity
  8
V0-OBRYS
  6
CONTINUOUS
 62
    90
100
AcDbLine
 10
-195.910269
 20
-824.800159
 30
0.0
 11
-244.679551
 21
-824.800159
 31
0.0
  0
LINE
  5
20E2
330
23D8
100
AcDbEntity
  8
V0-OBRYS
  6
CONTINUOUS
 62
    90
100
AcDbLine
 10
-244.679551
 20
-824.800159
 30
0.0
 11
-244.679551
 21
-873.741854
 31
0.0
  0
LINE
  5
20E3
330
23D8
100
AcDbEntity
  8
V0-OBRYS
  6
CONTINUOUS
 62
    90
100
AcDbLine
 10
608.1927460000001
 20
-824.800159
 30
0.0
 11
656.962029
 21
-824.800159
 31
0.0
  0
LINE
  5
20E4
330
23D8
100
AcDbEntity
  8
V0-OBRYS
  6
CONTINUOUS
 62
    90
100
AcDbLine
 10
656.962029
 20
-824.800159
 30
0.0
 11
656.962029
 21
-873.741854
 31
0.0
  0
LINE
  5
20E5
330
23D8
100
AcDbEntity
  8
V0-OBRYS
  6
CONTINUOUS
 62
    90
100
AcDbLine
 10
656.962029
 20
-1674.667944
 30
0.0
 11
656.962029
 21
-1725.025689
 31
0.0
  0
LINE
  5
20E6
330
23D8
100
AcDbEntity
  8
V0-OBRYS
  6
CONTINUOUS
 62
    90
100
AcDbLine
 10
656.962029
 20
-1725.025689
 30
0.0
 11
606.604284
 21
-1725.025689
 31
0.0
  0
LINE
  5
20E7
330
23D8
100
AcDbEntity
  8
V0-OBRYS
  6
CONTINUOUS
 62
    90
100
AcDbLine
 10
-244.679551
 20
-1674.667944
 30
0.0
 11
-244.679551
 21
-1725.025689
 31
0.0
  0
LINE
  5
20E8
330
23D8
100
AcDbEntity
  8
V0-OBRYS
  6
CONTINUOUS
 62
    90
100
AcDbLine
 10
-244.679551
 20
-1725.025689
 30
0.0
 11
-194.321806
 21
-1725.025689
 31
0.0
  0
CIRCLE
  5
20E9
330
23D8
100
AcDbEntity
  8
V0-VYPLNE
  6
DASHED
 62
    56
100
AcDbCircle
 10
580.580172
 20
-1648.643832
 30
0.0
 40
10.698255
  0
DIMENSION
  5
21F9
330
23D8
100
AcDbEntity
  8
V0-VYPLNE
  6
CONTINUOUS
 62
    41
100
AcDbDimension
  2
*D8
 10
806.141239
 20
651.5033919999842
 30
0.0
 11
206.1412390000002
 21
680.5033919999842
 31
0.0
 70
    32
  3
ED60
100
AcDbAlignedDimension
 13
-393.858761
 23
525.833994
 33
0.0
 14
806.141239
 24
525.833994
 34
0.0
100
AcDbRotatedDimension
1001
ACAD
1000
DSTYLE
1002
{
1070
    40
1040
1.0
1002
}
  0
LINE
  5
21FA
330
23D8
100
AcDbEntity
  8
V0-OBRYS
  6
CONTINUOUS
 62
    90
100
AcDbLine
 10
-393.858761
 20
525.833994
 30
0.0
 11
206.141239
 21
525.833994
 31
0.0
  0
LINE
  5
21FB
330
23D8
100
AcDbEntity
  8
V0-OBRYS
  6
CONTINUOUS
 62
    90
100
AcDbLine
 10
-123.858761
 20
563.833994
 30
0.0
 11
206.141239
 21
563.833994
 31
0.0
  0
ARC
  5
21FD
330
23D8
100
AcDbEntity
  8
V0-OBRYS
  6
CONTINUOUS
 62
    90
100
AcDbCircle
 10
979.356049
 20
496.843936
 30
0.0
 40
1376.174258
100
AcDbArc
 50
183.758237
 51
213.217974
  0
LINE
  5
2203
330
23D8
100
AcDbEntity
  8
V0-OBRYS
  6
CONTINUOUS
 62
    90
100
AcDbLine
 10
-393.858761
 20
525.833994
 30
0.0
 11
-393.858761
 21
406.640419
 31
0.0
  0
ARC
  5
2204
330
23D8
100
AcDbEntity
  8
V0-OBRYS
  6
CONTINUOUS
 62
    90
100
AcDbCircle
 10
-123.858761
 20
543.833994
 30
0.0
 40
20.0
100
AcDbArc
 50
90.0
 51
180.0
  0
LINE
  5
2205
330
23D8
100
AcDbEntity
  8
V0-OBRYS
  6
CONTINUOUS
 62
    90
100
AcDbLine
 10
-143.858761
 20
543.833994
 30
0.0
 11
-143.858761
 21
525.833994
 31
0.0
  0
DIMENSION
  5
2206
330
23D8
100
AcDbEntity
  8
V0-VYPLNE
  6
CONTINUOUS
 62
    41
100
AcDbDimension
  2
*D9
 10
900.6302850000185
 20
563.833994
 30
0.0
 11
900.630285
 21
174.230783
 31
0.0
 70
   160
  3
ED60
100
AcDbAlignedDimension
 13
696.141239
 23
-276.166006
 33
0.0
 14
536.141239
 24
563.833994
 34
0.0
 50
90.0
100
AcDbRotatedDimension
1001
ACAD
1000
DSTYLE
1002
{
1070
    40
1040
1.0
1002
}
  0
ARC
  5
2207
330
23D8
100
AcDbEntity
  8
V0-OBRYS
  6
CONTINUOUS
 62
    90
100
AcDbCircle
 10
-567.073571
 20
496.843936
 30
0.0
 40
1376.174258
100
AcDbArc
 50
326.782026
 51
356.241763
  0
ARC
  5
220F
330
23D8
100
AcDbEntity
  8
V0-OBRYS
  6
CONTINUOUS
 62
    90
100
AcDbCircle
 10
536.141239
 20
543.833994
 30
0.0
 40
20.0
100
AcDbArc
 50
0.0
 51
90.0
  0
LINE
  5
2210
330
23D8
100
AcDbEntity
  8
V0-OBRYS
  6
CONTINUOUS
 62
    90
100
AcDbLine
 10
806.141239
 20
525.833994
 30
0.0
 11
206.141239
 21
525.833994
 31
0.0
  0
LINE
  5
2212
330
23D8
100
AcDbEntity
  8
V0-OBRYS
  6
CONTINUOUS
 62
    90
100
AcDbLine
 10
536.141239
 20
563.833994
 30
0.0
 11
206.141239
 21
563.833994
 31
0.0
  0
LINE
  5
2213
330
23D8
100
AcDbEntity
  8
V0-OBRYS
  6
CONTINUOUS
 62
    90
100
AcDbLine
 10
556.141239
 20
543.833994
 30
0.0
 11
556.141239
 21
525.833994
 31
0.0
  0
LINE
  5
2214
330
23D8
100
AcDbEntity
  8
V0-OBRYS
  6
CONTINUOUS
 62
    90
100
AcDbLine
 10
819.288333
 20
505.111013
 30
0.0
 11
819.288333
 21
419.974113
 31
0.0
  0
LINE
  5
2215
330
23D8
100
AcDbEntity
  8
V0-OBRYS
  6
CONTINUOUS
 62
    90
100
AcDbLine
 10
806.141239
 20
525.833994
 30
0.0
 11
806.141239
 21
406.640419
 31
0.0
  0
LINE
  5
2216
330
23D8
100
AcDbEntity
  8
V0-OBRYS
  6
CONTINUOUS
 62
    90
100
AcDbLine
 10
819.288333
 20
419.974113
 30
0.0
 11
807.66805
 21
419.974113
 31
0.0
  0
LINE
  5
2217
330
23D8
100
AcDbEntity
  8
V0-OBRYS
  6
CONTINUOUS
 62
    90
100
AcDbLine
 10
807.66805
 20
505.111013
 30
0.0
 11
819.288333
 21
505.111013
 31
0.0
  0
LINE
  5
22A2
330
23D8
100
AcDbEntity
  8
V0-VYPLNE
  6
DASHDOT
 62
    63
 48
5.0
100
AcDbLine
 10
206.141239
 20
-712.4515709999999
 30
0.0
 11
206.141239
 21
-1952.780569
 31
0.0
  0
LINE
  5
22B0
330
23D8
100
AcDbEntity
  8
V0-OBRYS
  6
CONTINUOUS
 62
    90
100
AcDbLine
 10
1441.743202
 20
563.833994
 30
0.0
 11
1771.743202
 21
563.833994
 31
0.0
  0
LINE
  5
22B1
330
23D8
100
AcDbEntity
  8
V0-OBRYS
  6
CONTINUOUS
 62
    90
100
AcDbLine
 10
1171.743202
 20
525.833994
 30
0.0
 11
1771.743202
 21
525.833994
 31
0.0
  0
LINE
  5
22B2
330
23D8
100
AcDbEntity
  8
V0-OBRYS
  6
CONTINUOUS
 62
    90
100
AcDbLine
 10
1384.243202
 20
-258.166006
 30
0.0
 11
2159.243202
 21
-258.166006
 31
0.0
  0
LINE
  5
22B3
330
23D8
100
AcDbEntity
  8
V0-OBRYS
  6
CONTINUOUS
 62
    90
100
AcDbLine
 10
2224.243202
 20
-261.166006
 30
0.0
 11
1319.243202
 21
-261.166006
 31
0.0
  0
LINE
  5
22B4
330
23D8
100
AcDbEntity
  8
V0-OBRYS
  6
CONTINUOUS
 62
    90
100
AcDbLine
 10
1319.243202
 20
-276.166006
 30
0.0
 11
2224.243202
 21
-276.166006
 31
0.0
  0
ARC
  5
22B5
330
23D8
100
AcDbEntity
  8
V0-OBRYS
  6
CONTINUOUS
 62
    90
100
AcDbCircle
 10
2544.958012
 20
496.843936
 30
0.0
 40
1376.174258
100
AcDbArc
 50
183.758237
 51
213.217974
  0
LINE
  5
22B6
330
23D8
100
AcDbEntity
  8
V0-OBRYS
  6
CONTINUOUS
 62
    90
100
AcDbLine
 10
1319.243202
 20
-261.166006
 30
0.0
 11
1319.243202
 21
-276.166006
 31
0.0
  0
LINE
  5
22B7
330
23D8
100
AcDbEntity
  8
V0-VYPLNE
100
AcDbLine
 10
1396.743202
 20
-286.166006
 30
0.0
 11
1396.743202
 21
-236.166006
 31
0.0
  0
LINE
  5
22B8
330
23D8
100
AcDbEntity
  8
V0-OBRYS
  6
CONTINUOUS
 62
    90
100
AcDbLine
 10
1384.243202
 20
-261.166006
 30
0.0
 11
1384.243202
 21
-258.166006
 31
0.0
  0
LINE
  5
22B9
330
23D8
100
AcDbEntity
  8
V0-OBRYS
  6
CONTINUOUS
 62
    90
100
AcDbLine
 10
1171.743202
 20
525.833994
 30
0.0
 11
1171.743202
 21
406.640419
 31
0.0
  0
ARC
  5
22BA
330
23D8
100
AcDbEntity
  8
V0-OBRYS
  6
CONTINUOUS
 62
    90
100
AcDbCircle
 10
1441.743202
 20
543.833994
 30
0.0
 40
20.0
100
AcDbArc
 50
90.0
 51
180.0
  0
LINE
  5
22BB
330
23D8
100
AcDbEntity
  8
V0-OBRYS
  6
CONTINUOUS
 62
    90
100
AcDbLine
 10
1421.743202
 20
543.833994
 30
0.0
 11
1421.743202
 21
525.833994
 31
0.0
  0
ARC
  5
22BC
330
23D8
100
AcDbEntity
  8
V0-OBRYS
  6
CONTINUOUS
 62
    90
100
AcDbCircle
 10
998.5283920000001
 20
496.843936
 30
0.0
 40
1376.174258
100
AcDbArc
 50
326.782026
 51
356.241763
  0
LINE
  5
22BD
330
23D8
100
AcDbEntity
  8
V0-OBRYS
  6
CONTINUOUS
 62
    90
100
AcDbLine
 10
2086.743202
 20
-256.166006
 30
0.0
 11
2086.743202
 21
-276.166006
 31
0.0
  0
LINE
  5
22BE
330
23D8
100
AcDbEntity
  8
V0-VYPLNE
100
AcDbLine
 10
2146.743202
 20
-286.166006
 30
0.0
 11
2146.743202
 21
-236.166006
 31
0.0
  0
LINE
  5
22BF
330
23D8
100
AcDbEntity
  8
V0-OBRYS
  6
CONTINUOUS
 62
    90
100
AcDbLine
 10
2159.243202
 20
-258.166006
 30
0.0
 11
2159.243202
 21
-261.166006
 31
0.0
  0
LINE
  5
22C0
330
23D8
100
AcDbEntity
  8
V0-OBRYS
  6
CONTINUOUS
 62
    90
100
AcDbLine
 10
2224.243202
 20
-276.166006
 30
0.0
 11
2224.243202
 21
-261.166006
 31
0.0
  0
LINE
  5
22C1
330
23D8
100
AcDbEntity
  8
V0-OBRYS
  6
CONTINUOUS
 62
    90
100
AcDbLine
 10
2101.743202
 20
563.833994
 30
0.0
 11
1771.743202
 21
563.833994
 31
0.0
  0
LINE
  5
22C2
330
23D8
100
AcDbEntity
  8
V0-OBRYS
  6
CONTINUOUS
 62
    90
100
AcDbLine
 10
2371.743202
 20
525.833994
 30
0.0
 11
1771.743202
 21
525.833994
 31
0.0
  0
LINE
  5
22C4
330
23D8
100
AcDbEntity
  8
V0-OBRYS
  6
CONTINUOUS
 62
    90
100
AcDbLine
 10
2371.743202
 20
525.833994
 30
0.0
 11
2371.743202
 21
406.640419
 31
0.0
  0
ARC
  5
22C6
330
23D8
100
AcDbEntity
  8
V0-OBRYS
  6
CONTINUOUS
 62
    90
100
AcDbCircle
 10
2101.743202
 20
543.833994
 30
0.0
 40
20.0
100
AcDbArc
 50
0.0
 51
90.0
  0
LINE
  5
22C7
330
23D8
100
AcDbEntity
  8
V0-OBRYS
  6
CONTINUOUS
 62
    90
100
AcDbLine
 10
2121.743202
 20
543.833994
 30
0.0
 11
2121.743202
 21
525.833994
 31
0.0
  0
LINE
  5
22C9
330
23D8
100
AcDbEntity
  8
V0-VYPLNE
  6
DASHDOT
 62
    63
 48
5.0
100
AcDbLine
 10
1771.743202
 20
635.111809
 30
0.0
 11
1771.743202
 21
-290.285974
 31
0.0
  0
POINT
  5
22CA
330
23D8
100
AcDbEntity
  8
V0-VYPLNE
  6
CONTINUOUS
 62
    41
100
AcDbPoint
 10
206.141239
 20
-276.166006
 30
0.0
  0
POINT
  5
22CB
330
23D8
100
AcDbEntity
  8
V0-VYPLNE
  6
CONTINUOUS
 62
    41
100
AcDbPoint
 10
1771.743202
 20
-276.166006
 30
0.0
  0
LINE
  5
22D1
330
23D8
100
AcDbEntity
  8
V0-OBRYS
  6
CONTINUOUS
 62
    90
100
AcDbLine
 10
206.141239
 20
-1274.204899
 30
0.0
 11
206.141239
 21
-1274.204899
 31
0.0
  0
LINE
  5
22D2
330
23D8
100
AcDbEntity
  8
V0-OBRYS
  6
CONTINUOUS
 62
    90
100
AcDbLine
 10
545.00812
 20
-1166.68565
 30
0.0
 11
799.478955
 21
-1166.68565
 31
0.0
  0
LINE
  5
22D3
330
23D8
100
AcDbEntity
  8
V0-OBRYS
  6
CONTINUOUS
 62
    90
100
AcDbLine
 10
545.00812
 20
-1381.724148
 30
0.0
 11
799.478955
 21
-1381.724148
 31
0.0
  0
TEXT
  5
23A8
330
23D8
100
AcDbEntity
  8
V0-NAZVY
  6
CONTINUOUS
100
AcDbText
 10
1378.449761571429
 20
-1085.070896
 30
0.0
 40
108.0
  1
CTVT 500
  7
ED60
100
AcDbText
  0
LWPOLYLINE
  5
23AB
330
23D8
100
AcDbEntity
  8
V0-VYPLNE
  6
CONTINUOUS
 62
    41
100
AcDbPolyline
 90
        4
 70
     1
 43
0.0
 10
-209.0480630152519
 20
-225.7802882042058
 10
-167.226379
 20
-254.42276
 10
-216.0768817590094
 20
-240.8923193332493
 10
-216.0768817590094
 20
-240.8923193332493
1001
VDEXTRAPARAM
1071
       65
1071
        0
1071
        0
1040
1.0
1000

1000

1040
0.0
1040
0.0
  0
HATCH
  5
244B
330
23D8
100
AcDbEntity
  8
V0-VYPLNE
  6
CONTINUOUS
 62
    41
100
AcDbHatch
 10
0.0
 20
0.0
 30
0.0
210
0.0
220
0.0
230
1.0
  2
SOLID
 70
     1
 71
     0
 91
        1
 92
        2
 72
     0
 73
     1
 93
        3
 10
-209.0480630152519
 20
-225.7802882042058
 10
-167.226379
 20
-254.42276
 10
-216.0768817590094
 20
-240.8923193332493
 97
        0
 75
     0
 76
     1
 98
        1
 10
0.0
 20
0.0
1001
VDEXTRAPARAM
1071
       65
1071
        0
1071
        0
1040
1.0
1000

1000

1040
0.0
1040
0.0
1001
VD_TEMPHATCH
1000
VD_TEMPHATCH
  0
LWPOLYLINE
  5
23AC
330
23D8
100
AcDbEntity
  8
V0-VYPLNE
  6
CONTINUOUS
 62
    41
100
AcDbPolyline
 90
        3
 70
     0
 43
0.0
 10
-212.5624723871306
 20
-233.3363037687276
 10
-312.127424
 20
-187.027241
 10
-846.727424
 20
-187.027241
  0
TEXT
  5
23B1
330
23D8
100
AcDbEntity
  8
V0-VYPLNE
  6
CONTINUOUS
 62
    41
100
AcDbText
 10
-1019.270281142857
 20
-183.027241
 30
0.0
 40
54.0
  1
4 OTVORY %%c 14
  7
ED60
100
AcDbText
  0
VIEWPORT
  5
244C
330
23D4
100
AcDbEntity
 67
     1
  8
0
 60
     1
100
AcDbViewport
 10
261.517699
 20
148.5
 30
0.0
 40
297.0
 41
297.0
 68
     0
 69
     1
1001
VD_INVISIBLE_NOT_FOR_READ
1000
VD_INVISIBLE_NOT_FOR_READ
1001
ACAD
1000
MVIEW
1002
{
1070
    16
1010
0.0
1020
0.0
1030
0.0
1010
0.0
1020
0.0
1030
1.0
1040
6.2831853071796
1040
297.0
1040
261.517699
1040
148.5
1040
0.0
1040
0.0
1040
0.0
1070
     0
1070
   100
1070
     0
1070
     1
1070
     0
1070
     0
1070
     0
1070
     0
1040
0.0
1040
0.0
1040
0.0
1040
1.0
1040
1.0
1040
0.0
1040
0.0
1070
     0
1002
{
1002
}
1002
}
  0
VIEWPORT
  5
244D
330
23D4
100
AcDbEntity
 67
     1
  8
0
 60
     1
100
AcDbViewport
 10
261.517699
 20
148.5
 30
0.0
 40
297.0
 41
297.0
 68
     0
 69
     2
1001
VD_INVISIBLE_NOT_FOR_READ
1000
VD_INVISIBLE_NOT_FOR_READ
1001
ACAD
1000
MVIEW
1002
{
1070
    16
1010
0.0
1020
0.0
1030
0.0
1010
0.0
1020
0.0
1030
1.0
1040
6.2831853071796
1040
297.0
1040
261.517699
1040
148.5
1040
0.0
1040
0.0
1040
0.0
1070
     0
1070
   100
1070
     0
1070
     1
1070
     0
1070
     0
1070
     0
1070
     0
1040
0.0
1040
0.0
1040
0.0
1040
1.0
1040
1.0
1040
0.0
1040
0.0
1070
     0
1002
{
1002
}
1002
}
  0
ENDSEC
  0
SECTION
  2
OBJECTS
  0
DICTIONARY
  5
23C5
330
0
100
AcDbDictionary
  3
ACAD_GROUP
350
23C6
  3
ACAD_LAYOUT
350
23D3
  3
ACAD_MLINESTYLE
350
23D0
  3
ACAD_PLOTSETTINGS
350
23D2
  3
ACDBHEADERROUNDTRIPXREC
350
244E
  3
VECTORDRAW_OBJECTS
350
23E8
  0
DICTIONARY
  5
246E
330
23E2
100
AcDbDictionary
280
     1
  3
ACAD_XREC_ROUNDTRIP
360
246F
  0
DICTIONARY
  5
23C6
102
{ACAD_REACTORS
330
23C5
102
}
330
23C5
100
AcDbDictionary
  0
DICTIONARY
  5
23D3
102
{ACAD_REACTORS
330
23C5
102
}
330
23C5
100
AcDbDictionary
  0
DICTIONARY
  5
23D0
102
{ACAD_REACTORS
330
23C5
102
}
330
23C5
100
AcDbDictionary
  3
STANDARD
350
23D1
  0
DICTIONARY
  5
23D2
102
{ACAD_REACTORS
330
23C5
102
}
330
23C5
100
AcDbDictionary
  0
DICTIONARY
  5
244E
102
{ACAD_REACTORS
330
23C5
102
}
330
23C5
100
AcDbDictionary
  3
CEPSNTYPE
350
2457
  3
DIMSTYLEDATA
350
246D
  3
FINGERPRINTGUID
350
2458
  3
HYPERLINKBASE
350
2451
  3
INSUNITS
350
2456
  3
LAYOUTDICT
350
2453
  3
LWETCUNION
350
2455
  3
PLOTSETDICT
350
2454
  3
PSVPSCALE
350
245A
  3
PUCSBASE
350
245D
  3
PUCSORGBACK
350
2463
  3
PUCSORGBOTTOM
350
245F
  3
PUCSORGFRONT
350
2462
  3
PUCSORGLEFT
350
2460
  3
PUCSORGRIGHT
350
2461
  3
PUCSORGTOP
350
245E
  3
PUCSORTHOREF
350
245B
  3
PUCSORTHOVIEW
350
245C
  3
STYLESHEET
350
2452
  3
TSTACKALIGN
350
244F
  3
TSTACKSIZE
350
2450
  3
UCSBASE
350
2466
  3
UCSORGBACK
350
246C
  3
UCSORGBOTTOM
350
2468
  3
UCSORGFRONT
350
246B
  3
UCSORGLEFT
350
2469
  3
UCSORGRIGHT
350
246A
  3
UCSORGTOP
350
2467
  3
UCSORTHOREF
350
2464
  3
UCSORTHOVIEW
350
2465
  3
VERSIONGUID
350
2459
  0
DICTIONARY
  5
23E8
102
{ACAD_REACTORS
330
23C5
102
}
330
23C5
100
AcDbDictionary
  3
SERIALNO
350
23E9
  0
XRECORD
  5
246F
102
{ACAD_REACTORS
330
246E
102
}
330
246E
100
AcDbXrecord
102
UCS
 74
     0
 71
     1
 10
0.0
 20
0.0
 30
0.0
 10
1.0
 20
0.0
 30
0.0
 10
0.0
 20
1.0
 30
0.0
146
0.0
 79
     0
102
VIEW
281
     0
  0
MLINESTYLE
  5
23D1
102
{ACAD_REACTORS
330
23D0
102
}
330
23D0
100
AcDbMlineStyle
  2
Standard
 70
     0
  3

 62
   256
 51
90.0
 52
90.0
 71
     2
 49
0.5
 62
   256
  6
BYLAYER
 49
-0.5
 62
   256
  6
BYLAYER
  0
XRECORD
  5
2457
102
{ACAD_REACTORS
330
244E
102
}
330
244E
100
AcDbXrecord
 90
        0
  0
XRECORD
  5
246D
102
{ACAD_REACTORS
330
244E
102
}
330
244E
100
AcDbXrecord
1000
DSTYLE
1002
{
1070
    41
 40
60.0
1070
   342
340
90
1070
   271
 70
     0
1070
    44
 40
1.25
1070
    42
 40
1.0
1070
   147
 40
4.0
1070
    77
 70
     1
1070
    73
 70
     0
1070
   174
 70
     1
1070
   172
 70
     1
1070
    74
 70
     0
1070
   340
340
2121
1070
   140
 40
50.0
1070
   288
 70
     1
1002
}
  0
XRECORD
  5
2458
102
{ACAD_REACTORS
330
244E
102
}
330
244E
100
AcDbXrecord
  1
{FAEB1C30-E019-11D5-929B-00C0DF256EC4}
  0
XRECORD
  5
2451
102
{ACAD_REACTORS
330
244E
102
}
330
244E
100
AcDbXrecord
  1

  0
XRECORD
  5
2456
102
{ACAD_REACTORS
330
244E
102
}
330
244E
100
AcDbXrecord
 90
        1
  0
XRECORD
  5
2453
102
{ACAD_REACTORS
330
244E
102
}
330
244E
100
AcDbXrecord
340
23D3
  0
XRECORD
  5
2455
102
{ACAD_REACTORS
330
244E
102
}
330
244E
100
AcDbXrecord
 90
     2560
  0
XRECORD
  5
2454
102
{ACAD_REACTORS
330
244E
102
}
330
244E
100
AcDbXrecord
340
23D2
  0
XRECORD
  5
245A
102
{ACAD_REACTORS
330
244E
102
}
330
244E
100
AcDbXrecord
 40
0.0
  0
XRECORD
  5
245D
102
{ACAD_REACTORS
330
244E
102
}
330
244E
100
AcDbXrecord
340
0
  0
XRECORD
  5
2463
102
{ACAD_REACTORS
330
244E
102
}
330
244E
100
AcDbXrecord
 10
0.0
 20
0.0
 30
0.0
  0
XRECORD
  5
245F
102
{ACAD_REACTORS
330
244E
102
}
330
244E
100
AcDbXrecord
 10
0.0
 20
0.0
 30
0.0
  0
XRECORD
  5
2462
102
{ACAD_REACTORS
330
244E
102
}
330
244E
100
AcDbXrecord
 10
0.0
 20
0.0
 30
0.0
  0
XRECORD
  5
2460
102
{ACAD_REACTORS
330
244E
102
}
330
244E
100
AcDbXrecord
 10
0.0
 20
0.0
 30
0.0
  0
XRECORD
  5
2461
102
{ACAD_REACTORS
330
244E
102
}
330
244E
100
AcDbXrecord
 10
0.0
 20
0.0
 30
0.0
  0
XRECORD
  5
245E
102
{ACAD_REACTORS
330
244E
102
}
330
244E
100
AcDbXrecord
 10
0.0
 20
0.0
 30
0.0
  0
XRECORD
  5
245B
102
{ACAD_REACTORS
330
244E
102
}
330
244E
100
AcDbXrecord
340
0
  0
XRECORD
  5
245C
102
{ACAD_REACTORS
330
244E
102
}
330
244E
100
AcDbXrecord
 70
     0
  0
XRECORD
  5
2452
102
{ACAD_REACTORS
330
244E
102
}
330
244E
100
AcDbXrecord
  1

  0
XRECORD
  5
244F
102
{ACAD_REACTORS
330
244E
102
}
330
244E
100
AcDbXrecord
 90
        1
  0
XRECORD
  5
2450
102
{ACAD_REACTORS
330
244E
102
}
330
244E
100
AcDbXrecord
 90
       70
  0
XRECORD
  5
2466
102
{ACAD_REACTORS
330
244E
102
}
330
244E
100
AcDbXrecord
340
0
  0
XRECORD
  5
246C
102
{ACAD_REACTORS
330
244E
102
}
330
244E
100
AcDbXrecord
 10
0.0
 20
0.0
 30
0.0
  0
XRECORD
  5
2468
102
{ACAD_REACTORS
330
244E
102
}
330
244E
100
AcDbXrecord
 10
0.0
 20
0.0
 30
0.0
  0
XRECORD
  5
246B
102
{ACAD_REACTORS
330
244E
102
}
330
244E
100
AcDbXrecord
 10
0.0
 20
0.0
 30
0.0
  0
XRECORD
  5
2469
102
{ACAD_REACTORS
330
244E
102
}
330
244E
100
AcDbXrecord
 10
0.0
 20
0.0
 30
0.0
  0
XRECORD
  5
246A
102
{ACAD_REACTORS
330
244E
102
}
330
244E
100
AcDbXrecord
 10
0.0
 20
0.0
 30
0.0
  0
XRECORD
  5
2467
102
{ACAD_REACTORS
330
244E
102
}
330
244E
100
AcDbXrecord
 10
0.0
 20
0.0
 30
0.0
  0
XRECORD
  5
2464
102
{ACAD_REACTORS
330
244E
102
}
330
244E
100
AcDbXrecord
340
0
  0
XRECORD
  5
2465
102
{ACAD_REACTORS
330
244E
102
}
330
244E
100
AcDbXrecord
 70
     0
  0
XRECORD
  5
2459
102
{ACAD_REACTORS
330
244E
102
}
330
244E
100
AcDbXrecord
  1
{FAEB1C32-E019-11D5-929B-00C0DF256EC4}
  0
XRECORD
  5
23E9
102
{ACAD_REACTORS
330
23E8
102
}
330
23E8
100
AcDbXrecord
1000
rInJVR9YY4Q8hfPWdUq5j5319
1070
     4
1070
     6
  0
ENDSEC
  0
EOF
