  0
SECTION
  2
HEADER
  9
$ACADVER
  1
AC1015
  9
$ACADMAINTVER
 70
     6
  9
$DWGCODEPAGE
  3
ANSI_1252
  9
$INSBASE
 10
0.0
 20
0.0
 30
0.0
  9
$EXTMIN
 10
127.5127505618283
 20
-257.3211595940229
 30
0.0
  9
$EXTMAX
 10
1217.076627368806
 20
971.4597017654978
 30
0.0
  9
$LIMMIN
 10
0.0
 20
0.0
  9
$LIMMAX
 10
12.0
 20
9.0
  9
$ORTHOMODE
 70
     0
  9
$REGENMODE
 70
     1
  9
$FILLMODE
 70
     1
  9
$QTEXTMODE
 70
     0
  9
$MIRRTEXT
 70
     1
  9
$LTSCALE
 40
1.0
  9
$ATTMODE
 70
     1
  9
$TEXTSIZE
 40
0.2
  9
$TRACEWID
 40
0.05
  9
$TEXTSTYLE
  7
Standard
  9
$CLAYER
  8
popis
  9
$CELTYPE
  6
Continuous
  9
$CECOLOR
 62
   256
  9
$CELTSCALE
 40
1.0
  9
$DISPSILH
 70
     0
  9
$DIMSCALE
 40
10.0
  9
$DIMASZ
 40
2.0
  9
$DIMEXO
 40
0.625
  9
$DIMDLI
 40
0.38
  9
$DIMRND
 40
0.0
  9
$DIMDLE
 40
0.0
  9
$DIMEXE
 40
1.25
  9
$DIMTP
 40
0.0
  9
$DIMTM
 40
0.0
  9
$DIMTXT
 40
2.0
  9
$DIMCEN
 40
0.09
  9
$DIMTSZ
 40
0.0
  9
$DIMTOL
 70
     0
  9
$DIMLIM
 70
     0
  9
$DIMTIH
 70
     0
  9
$DIMTOH
 70
     0
  9
$DIMSE1
 70
     0
  9
$DIMSE2
 70
     0
  9
$DIMTAD
 70
     1
  9
$DIMZIN
 70
     0
  9
$DIMBLK
  1
VDDIM_DEFAULT
  9
$DIMASO
 70
     1
  9
$DIMSHO
 70
     1
  9
$DIMPOST
  1

  9
$DIMAPOST
  1

  9
$DIMALT
 70
     0
  9
$DIMALTD
 70
     2
  9
$DIMALTF
 40
25.4
  9
$DIMLFAC
 40
1.0
  9
$DIMTOFL
 70
     1
  9
$DIMTVP
 40
0.0
  9
$DIMTIX
 70
     1
  9
$DIMSOXD
 70
     0
  9
$DIMSAH
 70
     0
  9
$DIMBLK1
  1

  9
$DIMBLK2
  1

  9
$DIMSTYLE
  2
ISO-25
  9
$DIMCLRD
 70
     0
  9
$DIMCLRE
 70
     0
  9
$DIMCLRT
 70
   256
  9
$DIMTFAC
 40
1.0
  9
$DIMGAP
 40
0.625
  9
$DIMJUST
 70
     0
  9
$DIMSD1
 70
     0
  9
$DIMSD2
 70
     0
  9
$DIMTOLJ
 70
     1
  9
$DIMTZIN
 70
     0
  9
$DIMALTZ
 70
     0
  9
$DIMALTTZ
 70
     0
  9
$DIMUPT
 70
     1
  9
$DIMDEC
 70
     0
  9
$DIMTDEC
 70
     4
  9
$DIMALTU
 70
     2
  9
$DIMALTTD
 70
     2
  9
$DIMTXSTY
  7
Standard
  9
$DIMAUNIT
 70
     0
  9
$DIMADEC
 70
     0
  9
$DIMALTRND
 40
0.0
  9
$DIMAZIN
 70
     0
  9
$DIMDSEP
 70
    46
  9
$DIMATFIT
 70
     3
  9
$DIMFRAC
 70
     0
  9
$DIMLDRBLK
  1

  9
$DIMLUNIT
 70
     2
  9
$DIMLWD
 70
    -2
  9
$DIMLWE
 70
    -2
  9
$DIMTMOVE
 70
     0
  9
$LUNITS
 70
     2
  9
$LUPREC
 70
     4
  9
$SKETCHINC
 40
0.1
  9
$FILLETRAD
 40
0.5
  9
$AUNITS
 70
     0
  9
$AUPREC
 70
     0
  9
$MENU
  1
.
  9
$ELEVATION
 40
0.0
  9
$PELEVATION
 40
0.0
  9
$THICKNESS
 40
0.0
  9
$LIMCHECK
 70
     0
  9
$CHAMFERA
 40
0.5
  9
$CHAMFERB
 40
0.5
  9
$CHAMFERC
 40
1.0
  9
$CHAMFERD
 40
0.0
  9
$SKPOLY
 70
     0
  9
$TDCREATE
 40
2455645.56360912
  9
$TDUCREATE
 40
2455645.521942454
  9
$TDUPDATE
 40
2455645.563609132
  9
$TDUUPDATE
 40
2455645.521942465
  9
$TDINDWG
 40
0.0000000116
  9
$TDUSRTIMER
 40
0.0000000116
  9
$USRTIMER
 70
     1
  9
$ANGBASE
 50
0.0
  9
$ANGDIR
 70
     0
  9
$PDMODE
 70
     0
  9
$PDSIZE
 40
0.0
  9
$PLINEWID
 40
0.0
  9
$SPLFRAME
 70
     0
  9
$SPLINETYPE
 70
     6
  9
$SPLINESEGS
 70
     8
  9
$HANDSEED
  5
199
  9
$SURFTAB1
 70
     6
  9
$SURFTAB2
 70
     6
  9
$SURFTYPE
 70
     6
  9
$SURFU
 70
     6
  9
$SURFV
 70
     6
  9
$UCSBASE
  2

  9
$UCSNAME
  2

  9
$UCSORG
 10
0.0
 20
0.0
 30
0.0
  9
$UCSXDIR
 10
1.0
 20
0.0
 30
0.0
  9
$UCSYDIR
 10
0.0
 20
1.0
 30
0.0
  9
$UCSORTHOREF
  2

  9
$UCSORTHOVIEW
 70
     0
  9
$UCSORGTOP
 10
0.0
 20
0.0
 30
0.0
  9
$UCSORGBOTTOM
 10
0.0
 20
0.0
 30
0.0
  9
$UCSORGLEFT
 10
0.0
 20
0.0
 30
0.0
  9
$UCSORGRIGHT
 10
0.0
 20
0.0
 30
0.0
  9
$UCSORGFRONT
 10
0.0
 20
0.0
 30
0.0
  9
$UCSORGBACK
 10
0.0
 20
0.0
 30
0.0
  9
$PUCSBASE
  2

  9
$PUCSNAME
  2

  9
$PUCSORG
 10
0.0
 20
0.0
 30
0.0
  9
$PUCSXDIR
 10
1.0
 20
0.0
 30
0.0
  9
$PUCSYDIR
 10
0.0
 20
1.0
 30
0.0
  9
$PUCSORTHOREF
  2

  9
$PUCSORTHOVIEW
 70
     0
  9
$PUCSORGTOP
 10
0.0
 20
0.0
 30
0.0
  9
$PUCSORGBOTTOM
 10
0.0
 20
0.0
 30
0.0
  9
$PUCSORGLEFT
 10
0.0
 20
0.0
 30
0.0
  9
$PUCSORGRIGHT
 10
0.0
 20
0.0
 30
0.0
  9
$PUCSORGFRONT
 10
0.0
 20
0.0
 30
0.0
  9
$PUCSORGBACK
 10
0.0
 20
0.0
 30
0.0
  9
$USERI1
 70
     0
  9
$USERI2
 70
     0
  9
$USERI3
 70
     0
  9
$USERI4
 70
     0
  9
$USERI5
 70
     0
  9
$USERR1
 40
0.0
  9
$USERR2
 40
0.0
  9
$USERR3
 40
0.0
  9
$USERR4
 40
0.0
  9
$USERR5
 40
0.0
  9
$WORLDVIEW
 70
     1
  9
$SHADEDGE
 70
     3
  9
$SHADEDIF
 70
    70
  9
$TILEMODE
 70
     1
  9
$MAXACTVP
 70
    64
  9
$PINSBASE
 10
0.0
 20
0.0
 30
0.0
  9
$PLIMCHECK
 70
     0
  9
$PEXTMIN
 10
1.000000000000000E+20
 20
1.000000000000000E+20
 30
1.000000000000000E+20
  9
$PEXTMAX
 10
-1.000000000000000E+20
 20
-1.000000000000000E+20
 30
-1.000000000000000E+20
  9
$PLIMMIN
 10
0.0
 20
0.0
  9
$PLIMMAX
 10
12.0
 20
9.0
  9
$UNITMODE
 70
     0
  9
$VISRETAIN
 70
     1
  9
$PLINEGEN
 70
     0
  9
$PSLTSCALE
 70
     1
  9
$TREEDEPTH
 70
  3020
  9
$CMLSTYLE
  2
Standard
  9
$CMLJUST
 70
     0
  9
$CMLSCALE
 40
1.0
  9
$PROXYGRAPHICS
 70
     1
  9
$MEASUREMENT
 70
     0
  9
$CELWEIGHT
370
     0
  9
$ENDCAPS
280
     0
  9
$JOINSTYLE
280
     0
  9
$LWDISPLAY
290
     0
  9
$INSUNITS
 70
     1
  9
$HYPERLINKBASE
  1

  9
$STYLESHEET
  1

  9
$XEDIT
290
     1
  9
$CEPSNTYPE
380
     0
  9
$PSTYLEMODE
290
     0
  9
$FINGERPRINTGUID
  2
{FAEB1C30-E019-11D5-929B-00C0DF256EC4}
  9
$VERSIONGUID
  2
{FAEB1C32-E019-11D5-929B-00C0DF256EC4}
  9
$EXTNAMES
290
     1
  9
$PSVPSCALE
 40
0.0
  9
$OLESTARTUP
290
     0
  0
ENDSEC
  0
SECTION
  2
CLASSES
  0
CLASS
  1
ACDBDICTIONARYWDFLT
  2
AcDbDictionaryWithDefault
  3
ObjectDBX Classes
 90
        0
280
     0
281
     0
  0
CLASS
  1
ACDBPLACEHOLDER
  2
AcDbPlaceHolder
  3
ObjectDBX Classes
 90
        0
280
     0
281
     0
  0
CLASS
  1
LAYOUT
  2
AcDbLayout
  3
ObjectDBX Classes
 90
        0
280
     0
281
     0
  0
ENDSEC
  0
SECTION
  2
TABLES
  0
TABLE
  2
VPORT
  5
113
330
0
100
AcDbSymbolTable
 70
     2
  0
VPORT
  5
134
330
113
100
AcDbSymbolTableRecord
100
AcDbViewportTableRecord
  2
*Active
 70
     0
 10
0.0
 20
0.0
 11
1.0
 21
1.0
 12
678.0
 22
308.0
 13
0.0
 23
0.0
 14
10.0
 24
10.0
 15
10.0
 25
10.0
 16
0.0
 26
0.0
 36
1.0
 17
0.0
 27
0.0
 37
0.0
 40
1527.937747814867
 41
0.0116213875735757
 42
50.0
 43
0.0
 44
0.0
 50
0.0
 51
0.0000000000007958
 71
     0
 72
   100
 73
     1
 74
     3
 75
     0
 76
     0
 77
     0
 78
     0
281
     0
 65
     1
110
0.0
120
0.0
130
0.0
111
1.0
121
0.0
131
0.0
112
0.0
122
1.0
132
0.0
 79
     0
146
0.0
  0
ENDTAB
  0
TABLE
  2
LTYPE
  5
110
330
0
100
AcDbSymbolTable
 70
    25
  0
LTYPE
  5
11F
330
110
100
AcDbSymbolTableRecord
100
AcDbLinetypeTableRecord
  2
ByBlock
 70
     0
  3

 72
    65
 73
     0
 40
0.0
  0
LTYPE
  5
120
330
110
100
AcDbSymbolTableRecord
100
AcDbLinetypeTableRecord
  2
ByLayer
 70
     0
  3

 72
    65
 73
     0
 40
0.0
  0
LTYPE
  5
121
330
110
100
AcDbSymbolTableRecord
100
AcDbLinetypeTableRecord
  2
Continuous
 70
     0
  3
Solid line
 72
    65
 73
     0
 40
0.0
  0
LTYPE
  5
13C
330
110
100
AcDbSymbolTableRecord
100
AcDbLinetypeTableRecord
  2
CENTER
 70
     0
  3
Center ____ _ ____ _ ____ _ ____ _ ____ _ ____
 72
    65
 73
     4
 40
2.0
 49
1.25
 74
     0
 49
-0.25
 74
     0
 49
0.25
 74
     0
 49
-0.25
 74
     0
  0
LTYPE
  5
13D
330
110
100
AcDbSymbolTableRecord
100
AcDbLinetypeTableRecord
  2
DASHDOT
 70
     0
  3
Dashdot __ . __ . __ . __ . __ . __ . __ . __
 72
    65
 73
     4
 40
1.0
 49
0.5
 74
     0
 49
-0.25
 74
     0
 49
0.0
 74
     0
 49
-0.25
 74
     0
  0
LTYPE
  5
13E
330
110
100
AcDbSymbolTableRecord
100
AcDbLinetypeTableRecord
  2
DASHED
 70
     0
  3
Dashed __ __ __ __ __ __ __ __ __ __ __ __ __ _
 72
    65
 73
     2
 40
0.75
 49
0.5
 74
     0
 49
-0.25
 74
     0
  0
LTYPE
  5
13F
330
110
100
AcDbSymbolTableRecord
100
AcDbLinetypeTableRecord
  2
HIDDEN
 70
     0
  3
Hidden __ __ __ __ __ __ __ __ __ __ __ __ __ __
 72
    65
 73
     2
 40
0.375
 49
0.25
 74
     0
 49
-0.125
 74
     0
  0
LTYPE
  5
140
330
110
100
AcDbSymbolTableRecord
100
AcDbLinetypeTableRecord
  2
HIDDEN2
 70
     0
  3
Hidden2 _ _ _ _ _ _ _ _ _ _ _ _ _ _ _ _ _ 
 72
    65
 73
     2
 40
0.1875
 49
0.125
 74
     0
 49
-0.0625
 74
     0
  0
LTYPE
  5
141
330
110
100
AcDbSymbolTableRecord
100
AcDbLinetypeTableRecord
  2
BORDER
 70
     0
  3
Border __ __ . __ __ . __ __ . __ __ . __ __ .
 72
    65
 73
     6
 40
1.75
 49
0.5
 74
     0
 49
-0.25
 74
     0
 49
0.5
 74
     0
 49
-0.25
 74
     0
 49
0.0
 74
     0
 49
-0.25
 74
     0
  0
LTYPE
  5
142
330
110
100
AcDbSymbolTableRecord
100
AcDbLinetypeTableRecord
  2
BORDER2
 70
     0
  3
Border2 __.__.__.__.__.__.__.__.__.__.__.
 72
    65
 73
     6
 40
0.875
 49
0.25
 74
     0
 49
-0.125
 74
     0
 49
0.25
 74
     0
 49
-0.125
 74
     0
 49
0.0
 74
     0
 49
-0.125
 74
     0
  0
LTYPE
  5
143
330
110
100
AcDbSymbolTableRecord
100
AcDbLinetypeTableRecord
  2
BORDERX2
 70
     0
  3
Borderx2  ____  ____  .  ____  ____  .  ___
 72
    65
 73
     6
 40
3.5
 49
1.0
 74
     0
 49
-0.5
 74
     0
 49
1.0
 74
     0
 49
-0.5
 74
     0
 49
0.0
 74
     0
 49
-0.5
 74
     0
  0
LTYPE
  5
144
330
110
100
AcDbSymbolTableRecord
100
AcDbLinetypeTableRecord
  2
CENTER2
 70
     0
  3
Center2  ___ _ ___ _ ___ _ ___ _ ___ _ ___
 72
    65
 73
     4
 40
1.125
 49
0.75
 74
     0
 49
-0.125
 74
     0
 49
0.125
 74
     0
 49
-0.125
 74
     0
  0
LTYPE
  5
145
330
110
100
AcDbSymbolTableRecord
100
AcDbLinetypeTableRecord
  2
CENTERX2
 70
     0
  3
Centerx2  ________  __  ________  __  _____
 72
    65
 73
     4
 40
4.0
 49
2.5
 74
     0
 49
-0.5
 74
     0
 49
0.5
 74
     0
 49
-0.5
 74
     0
  0
LTYPE
  5
146
330
110
100
AcDbSymbolTableRecord
100
AcDbLinetypeTableRecord
  2
DASHDOT2
 70
     0
  3
Dashdot2  _._._._._._._._._._._._._._._.
 72
    65
 73
     4
 40
0.5
 49
0.25
 74
     0
 49
-0.125
 74
     0
 49
0.0
 74
     0
 49
-0.125
 74
     0
  0
LTYPE
  5
147
330
110
100
AcDbSymbolTableRecord
100
AcDbLinetypeTableRecord
  2
DASHDOTX2
 70
     0
  3
Dashdotx2 ____  .  ____  .  ____  .  ___
 72
    65
 73
     4
 40
2.0
 49
1.0
 74
     0
 49
-0.5
 74
     0
 49
0.0
 74
     0
 49
-0.5
 74
     0
  0
LTYPE
  5
148
330
110
100
AcDbSymbolTableRecord
100
AcDbLinetypeTableRecord
  2
DASHED2
 70
     0
  3
Dashed2 _ _ _ _ _ _ _ _ _ _ _ _ _ _ _ _ _ 
 72
    65
 73
     2
 40
0.375
 49
0.25
 74
     0
 49
-0.125
 74
     0
  0
LTYPE
  5
149
330
110
100
AcDbSymbolTableRecord
100
AcDbLinetypeTableRecord
  2
DASHEDX2
 70
     0
  3
Dashedx2 ____  ____  ____  ____  ____  ___
 72
    65
 73
     2
 40
1.5
 49
1.0
 74
     0
 49
-0.5
 74
     0
  0
LTYPE
  5
14A
330
110
100
AcDbSymbolTableRecord
100
AcDbLinetypeTableRecord
  2
DIVIDE
 70
     0
  3
Divide ____ . . ____ . . ____ . . ____ . . ____
 72
    65
 73
     6
 40
1.25
 49
0.5
 74
     0
 49
-0.25
 74
     0
 49
0.0
 74
     0
 49
-0.25
 74
     0
 49
0.0
 74
     0
 49
-0.25
 74
     0
  0
LTYPE
  5
14B
330
110
100
AcDbSymbolTableRecord
100
AcDbLinetypeTableRecord
  2
DIVIDE2
 70
     0
  3
Divide2 __..__..__..__..__..__..__..__.._
 72
    65
 73
     6
 40
0.625
 49
0.25
 74
     0
 49
-0.125
 74
     0
 49
0.0
 74
     0
 49
-0.125
 74
     0
 49
0.0
 74
     0
 49
-0.125
 74
     0
  0
LTYPE
  5
14C
330
110
100
AcDbSymbolTableRecord
100
AcDbLinetypeTableRecord
  2
DIVIDEX2
 70
     0
  3
Dividex2 ________  .  .  ________  .  .  _
 72
    65
 73
     6
 40
2.5
 49
1.0
 74
     0
 49
-0.5
 74
     0
 49
0.0
 74
     0
 49
-0.5
 74
     0
 49
0.0
 74
     0
 49
-0.5
 74
     0
  0
LTYPE
  5
14D
330
110
100
AcDbSymbolTableRecord
100
AcDbLinetypeTableRecord
  2
DOT
 70
     0
  3
Dot . . . . . . . . . . . . . . . . . . . . . . . .
 72
    65
 73
     2
 40
0.25
 49
0.0
 74
     0
 49
-0.25
 74
     0
  0
LTYPE
  5
14E
330
110
100
AcDbSymbolTableRecord
100
AcDbLinetypeTableRecord
  2
DOT2
 70
     0
  3
Dot2 ........................................
 72
    65
 73
     2
 40
0.125
 49
0.0
 74
     0
 49
-0.125
 74
     0
  0
LTYPE
  5
14F
330
110
100
AcDbSymbolTableRecord
100
AcDbLinetypeTableRecord
  2
DOTX2
 70
     0
  3
Dotx2 .  .  .  .  .  .  .  .  .  .  .  .  .  .
 72
    65
 73
     2
 40
0.5
 49
0.0
 74
     0
 49
-0.5
 74
     0
  0
LTYPE
  5
150
330
110
100
AcDbSymbolTableRecord
100
AcDbLinetypeTableRecord
  2
HIDDENX2
 70
     0
  3
Hiddenx2 ____ ____ ____ ____ ____ ____ ____ 
 72
    65
 73
     2
 40
0.75
 49
0.5
 74
     0
 49
-0.25
 74
     0
  0
LTYPE
  5
151
330
110
100
AcDbSymbolTableRecord
100
AcDbLinetypeTableRecord
  2
PHANTOM
 70
     0
  3
Phantom ______  __  __  ______  __  __  ______ 
 72
    65
 73
     6
 40
2.5
 49
1.25
 74
     0
 49
-0.25
 74
     0
 49
0.25
 74
     0
 49
-0.25
 74
     0
 49
0.25
 74
     0
 49
-0.25
 74
     0
  0
LTYPE
  5
152
330
110
100
AcDbSymbolTableRecord
100
AcDbLinetypeTableRecord
  2
PHANTOM2
 70
     0
  3
Phantom2 ___ _ _ ___ _ _ ___ _ _ ___ _ _
 72
    65
 73
     6
 40
1.25
 49
0.625
 74
     0
 49
-0.125
 74
     0
 49
0.125
 74
     0
 49
-0.125
 74
     0
 49
0.125
 74
     0
 49
-0.125
 74
     0
  0
LTYPE
  5
153
330
110
100
AcDbSymbolTableRecord
100
AcDbLinetypeTableRecord
  2
PHANTOMX2
 70
     0
  3
Phantomx2 ____________    ____    ____   _
 72
    65
 73
     6
 40
5.0
 49
2.5
 74
     0
 49
-0.5
 74
     0
 49
0.5
 74
     0
 49
-0.5
 74
     0
 49
0.5
 74
     0
 49
-0.5
 74
     0
  0
ENDTAB
  0
TABLE
  2
LAYER
  5
10D
330
0
100
AcDbSymbolTable
 70
     4
  0
LAYER
  5
11B
330
10D
100
AcDbSymbolTableRecord
100
AcDbLayerTableRecord
  2
0
 70
     0
 62
    90
  6
Continuous
370
     0
390
11A
  0
LAYER
  5
2B
330
10D
100
AcDbSymbolTableRecord
100
AcDbLayerTableRecord
  2
koty
 70
     0
 62
    41
  6
Continuous
370
     0
390
11A
  0
LAYER
  5
2C
330
10D
100
AcDbSymbolTableRecord
100
AcDbLayerTableRecord
  2
popis
 70
     0
 62
   210
  6
Continuous
370
     0
390
11A
  0
LAYER
  5
59
330
10D
100
AcDbSymbolTableRecord
100
AcDbLayerTableRecord
  2
Defpoints
 70
     0
 62
     7
  6
Continuous
290
     0
370
     0
390
11A
  0
ENDTAB
  0
TABLE
  2
STYLE
  5
10E
330
0
100
AcDbSymbolTable
 70
     1
  0
STYLE
  5
11C
330
10E
100
AcDbSymbolTableRecord
100
AcDbTextStyleTableRecord
  2
Standard
 70
     0
 40
0.0
 41
1.0
 50
0.0
 71
     0
 42
0.2
  3
txt.shx
  4

1001
ACAD
1000
txt.shx
1071
        0
  0
ENDTAB
  0
TABLE
  2
VIEW
  5
111
330
0
100
AcDbSymbolTable
 70
     0
  0
ENDTAB
  0
TABLE
  2
UCS
  5
112
330
0
100
AcDbSymbolTable
 70
     0
  0
ENDTAB
  0
TABLE
  2
APPID
  5
114
330
0
100
AcDbSymbolTable
 70
     6
  0
APPID
  5
11D
330
114
100
AcDbSymbolTableRecord
100
AcDbRegAppTableRecord
  2
ACAD
 70
     0
  0
APPID
  5
135
330
114
100
AcDbSymbolTableRecord
100
AcDbRegAppTableRecord
  2
VD_INVISIBLE_NOT_FOR_READ
 70
     0
  0
APPID
  5
136
330
114
100
AcDbSymbolTableRecord
100
AcDbRegAppTableRecord
  2
VD_TEMPHATCH
 70
     0
  0
APPID
  5
137
330
114
100
AcDbSymbolTableRecord
100
AcDbRegAppTableRecord
  2
VDEXTRAPARAM
 70
     0
  0
APPID
  5
138
330
114
100
AcDbSymbolTableRecord
100
AcDbRegAppTableRecord
  2
PE_URL
 70
     0
  0
APPID
  5
139
330
114
100
AcDbSymbolTableRecord
100
AcDbRegAppTableRecord
  2
VD_UNKNOWN
 70
     0
  0
ENDTAB
  0
TABLE
  2
DIMSTYLE
  5
115
330
0
100
AcDbSymbolTable
 70
     2
100
AcDbDimStyleTable
  0
DIMSTYLE
105
132
330
115
100
AcDbSymbolTableRecord
100
AcDbDimStyleTableRecord
  2
STANDARD
 70
     0
 41
0.2
 42
0.05
 44
0.2
 73
     0
 74
     0
140
0.2
172
     1
174
     1
177
   256
178
   256
288
     1
340
11C
342
108
  0
DIMSTYLE
105
27
102
{ACAD_REACTORS
330
58
330
74
330
8C
330
A4
330
BC
102
}
330
115
100
AcDbSymbolTableRecord
100
AcDbDimStyleTableRecord
  2
ISO-25
 70
     0
 40
10.0
 41
2.0
 42
0.625
 44
1.25
 73
     0
 74
     0
 77
     1
140
2.0
147
0.625
172
     1
174
     1
178
   256
271
     0
288
     1
340
11C
342
108
  0
ENDTAB
  0
TABLE
  2
BLOCK_RECORD
  5
10C
330
0
100
AcDbSymbolTable
 70
     8
  0
BLOCK_RECORD
  5
12A
330
10C
100
AcDbSymbolTableRecord
100
AcDbBlockTableRecord
  2
*Model_Space
340
12D
  0
BLOCK_RECORD
  5
126
330
10C
100
AcDbSymbolTableRecord
100
AcDbBlockTableRecord
  2
*Paper_Space
340
129
  0
BLOCK_RECORD
  5
12E
330
10C
100
AcDbSymbolTableRecord
100
AcDbBlockTableRecord
  2
*Paper_Space0
340
131
  0
BLOCK_RECORD
  5
108
330
10C
100
AcDbSymbolTableRecord
100
AcDbBlockTableRecord
  2
VDDIM_DEFAULT
340
0
102
{BLKREFS
331
15E
331
15D
331
16A
331
169
331
176
331
175
331
182
331
181
331
18E
331
18D
102
}
  0
BLOCK_RECORD
  5
10A
330
10C
100
AcDbSymbolTableRecord
100
AcDbBlockTableRecord
  2
VDDIM_NONE
340
0
  0
BLOCK_RECORD
  5
159
330
10C
100
AcDbSymbolTableRecord
100
AcDbBlockTableRecord
  2
*D3
340
0
  0
BLOCK_RECORD
  5
165
330
10C
100
AcDbSymbolTableRecord
100
AcDbBlockTableRecord
  2
*D4
340
0
  0
BLOCK_RECORD
  5
171
330
10C
100
AcDbSymbolTableRecord
100
AcDbBlockTableRecord
  2
*D5
340
0
  0
BLOCK_RECORD
  5
17D
330
10C
100
AcDbSymbolTableRecord
100
AcDbBlockTableRecord
  2
*D6
340
0
  0
BLOCK_RECORD
  5
189
330
10C
100
AcDbSymbolTableRecord
100
AcDbBlockTableRecord
  2
*D7
340
0
  0
ENDTAB
  0
ENDSEC
  0
SECTION
  2
BLOCKS
  0
BLOCK
  5
12B
330
12A
100
AcDbEntity
  8
0
100
AcDbBlockBegin
  2
*Model_Space
 70
     0
 71
     0
 10
0.0
 20
0.0
 30
0.0
  3
*Model_Space
  1

  0
ENDBLK
  5
12C
330
12A
100
AcDbEntity
  8
0
100
AcDbBlockEnd
  0
BLOCK
  5
127
330
126
100
AcDbEntity
 67
     1
  8
0
100
AcDbBlockBegin
  2
*Paper_Space
 70
     0
 71
     0
 10
0.0
 20
0.0
 30
0.0
  3
*Paper_Space
  1

  0
ENDBLK
  5
128
330
126
100
AcDbEntity
 67
     1
  8
0
100
AcDbBlockEnd
  0
BLOCK
  5
12F
330
12E
100
AcDbEntity
  8
0
100
AcDbBlockBegin
  2
*Paper_Space0
 70
     0
 71
     0
 10
0.0
 20
0.0
 30
0.0
  3
*Paper_Space0
  1

  0
VIEWPORT
  5
197
330
12E
100
AcDbEntity
  8
0
 60
     1
100
AcDbViewport
 10
0.0
 20
0.0
 30
0.0
 40
10.0
 41
10.0
 69
     1
 12
0.0
 22
0.0
 13
0.0
 23
0.0
 14
1.0
 24
1.0
 15
0.0
 25
0.0
 16
0.0
 26
0.0
 36
1.0
 17
0.0
 27
0.0
 37
0.0
 42
0.0
 43
0.0
 44
0.0
 45
10.0
 50
0.0
 51
0.0000000000007958
 72
   100
 90
   163872
  1

281
     0
 71
     0
 74
     0
110
0.0
120
0.0
130
0.0
111
1.0
121
0.0
131
0.0
112
0.0
122
1.0
132
0.0
 79
     0
146
0.0
1001
VD_INVISIBLE_NOT_FOR_READ
1000
VD_INVISIBLE_NOT_FOR_READ
  0
VIEWPORT
  5
198
330
12E
100
AcDbEntity
  8
0
 60
     1
100
AcDbViewport
 10
0.0
 20
0.0
 30
0.0
 40
10.0
 41
10.0
 69
     2
 12
0.0
 22
0.0
 13
0.0
 23
0.0
 14
1.0
 24
1.0
 15
0.0
 25
0.0
 16
0.0
 26
0.0
 36
1.0
 17
0.0
 27
0.0
 37
0.0
 42
0.0
 43
0.0
 44
0.0
 45
10.0
 50
0.0
 51
0.0000000000007958
 72
   100
 90
   163872
  1

281
     0
 71
     0
 74
     0
110
0.0
120
0.0
130
0.0
111
1.0
121
0.0
131
0.0
112
0.0
122
1.0
132
0.0
 79
     0
146
0.0
1001
VD_INVISIBLE_NOT_FOR_READ
1000
VD_INVISIBLE_NOT_FOR_READ
  0
ENDBLK
  5
130
330
12E
100
AcDbEntity
  8
0
100
AcDbBlockEnd
  0
BLOCK
  5
154
330
108
100
AcDbEntity
  8
0
100
AcDbBlockBegin
  2
VDDIM_DEFAULT
 70
     0
 71
     0
 10
0.0
 20
0.0
 30
0.0
  3
VDDIM_DEFAULT
  1

  0
LWPOLYLINE
  5
109
330
108
100
AcDbEntity
  8
0
  6
Continuous
 62
     0
100
AcDbPolyline
 90
        4
 70
     0
 43
0.0
 10
0.0
 20
0.0
 10
-1.0
 20
-0.1665
 10
-1.0
 20
0.1665
 10
0.0
 20
0.0
1001
VDEXTRAPARAM
1071
        1
1071
        0
1071
        0
1040
1.0
1000

1000

1040
0.0
1040
0.0
  0
HATCH
  5
158
330
108
100
AcDbEntity
  8
0
  6
Continuous
 62
     0
100
AcDbHatch
 10
0.0
 20
0.0
 30
0.0
210
0.0
220
0.0
230
1.0
  2
SOLID
 70
     1
 71
     0
 91
        1
 92
        2
 72
     0
 73
     1
 93
        3
 10
0.0
 20
0.0
 10
-1.0
 20
-0.1665
 10
-1.0
 20
0.1665
 97
        0
 75
     0
 76
     1
 98
        1
 10
0.0
 20
0.0
1001
VDEXTRAPARAM
1071
        1
1071
        0
1071
        0
1040
1.0
1000

1000

1040
0.0
1040
0.0
1001
VD_TEMPHATCH
1000
VD_TEMPHATCH
  0
ENDBLK
  5
155
330
108
100
AcDbEntity
  8
0
100
AcDbBlockEnd
  0
BLOCK
  5
156
330
10A
100
AcDbEntity
  8
0
100
AcDbBlockBegin
  2
VDDIM_NONE
 70
     0
 71
     0
 10
0.0
 20
0.0
 30
0.0
  3
VDDIM_NONE
  1

  0
ENDBLK
  5
157
330
10A
100
AcDbEntity
  8
0
100
AcDbBlockEnd
  0
BLOCK
  5
163
330
159
100
AcDbEntity
  8
0
100
AcDbBlockBegin
  2
*D3
 70
     1
 71
     0
 10
0.0
 20
0.0
 30
0.0
  3
*D3
  1

  0
LINE
  5
15A
330
159
100
AcDbEntity
  8
koty
 62
     0
370
    -2
100
AcDbLine
 10
247.6671955738199
 20
23.48446059862396
 30
0.0
 11
247.6671955738199
 21
-257.3211595940228
 31
0.0
  0
LINE
  5
15B
330
159
100
AcDbEntity
  8
koty
 62
     0
370
    -2
100
AcDbLine
 10
957.66719557382
 20
23.48446059862396
 30
0.0
 11
957.66719557382
 21
-257.3211595940229
 31
0.0
  0
LINE
  5
15C
330
159
100
AcDbEntity
  8
koty
 62
     0
370
    -2
100
AcDbLine
 10
267.6671955738199
 20
-244.8211595940228
 30
0.0
 11
937.66719557382
 21
-244.8211595940229
 31
0.0
  0
INSERT
  5
15D
330
159
100
AcDbEntity
  8
koty
 62
     0
370
    -2
100
AcDbBlockReference
  2
VDDIM_DEFAULT
 10
247.6671955738199
 20
-244.8211595940228
 30
0.0
 41
20.0
 42
20.0
 43
20.0
 50
180.0
  0
INSERT
  5
15E
330
159
100
AcDbEntity
  8
koty
 62
     0
370
    -2
100
AcDbBlockReference
  2
VDDIM_DEFAULT
 10
957.66719557382
 20
-244.8211595940229
 30
0.0
 41
20.0
 42
20.0
 43
20.0
 50
360.0
  0
MTEXT
  5
15F
330
159
100
AcDbEntity
  8
koty
100
AcDbMText
 10
602.66719557382
 20
-228.5711595940229
 30
0.0
 40
20.0
 41
0.0
 71
     5
 72
     1
  1
710 x 710
 73
     1
 44
1.0
  0
POINT
  5
160
330
159
100
AcDbEntity
  8
Defpoints
 62
     0
100
AcDbPoint
 10
247.6671955738199
 20
29.73446059862396
 30
0.0
  0
POINT
  5
161
330
159
100
AcDbEntity
  8
Defpoints
 62
     0
100
AcDbPoint
 10
957.66719557382
 20
29.73446059862396
 30
0.0
  0
POINT
  5
162
330
159
100
AcDbEntity
  8
Defpoints
 62
     0
100
AcDbPoint
 10
957.66719557382
 20
-244.8211595940229
 30
0.0
  0
ENDBLK
  5
164
330
159
100
AcDbEntity
  8
0
100
AcDbBlockEnd
  0
BLOCK
  5
16F
330
165
100
AcDbEntity
  8
0
100
AcDbBlockBegin
  2
*D4
 70
     1
 71
     0
 10
0.0
 20
0.0
 30
0.0
  3
*D4
  1

  0
LINE
  5
166
330
165
100
AcDbEntity
  8
koty
 62
     0
370
    -2
100
AcDbLine
 10
307.6671955738199
 20
53.48446059862401
 30
0.0
 11
307.6671955738199
 21
-154.1257048702827
 31
0.0
  0
LINE
  5
167
330
165
100
AcDbEntity
  8
koty
 62
     0
370
    -2
100
AcDbLine
 10
897.6671955738199
 20
53.48446059862397
 30
0.0
 11
897.6671955738199
 21
-154.1257048702828
 31
0.0
  0
LINE
  5
168
330
165
100
AcDbEntity
  8
koty
 62
     0
370
    -2
100
AcDbLine
 10
327.6671955738199
 20
-141.6257048702828
 30
0.0
 11
877.6671955738199
 21
-141.6257048702828
 31
0.0
  0
INSERT
  5
169
330
165
100
AcDbEntity
  8
koty
 62
     0
370
    -2
100
AcDbBlockReference
  2
VDDIM_DEFAULT
 10
307.6671955738199
 20
-141.6257048702828
 30
0.0
 41
20.0
 42
20.0
 43
20.0
 50
180.0
  0
INSERT
  5
16A
330
165
100
AcDbEntity
  8
koty
 62
     0
370
    -2
100
AcDbBlockReference
  2
VDDIM_DEFAULT
 10
897.6671955738199
 20
-141.6257048702828
 30
0.0
 41
20.0
 42
20.0
 43
20.0
 50
360.0
  0
MTEXT
  5
16B
330
165
100
AcDbEntity
  8
koty
100
AcDbMText
 10
602.6671955738199
 20
-125.3757048702828
 30
0.0
 40
20.0
 41
0.0
 71
     5
 72
     1
  1
590 x 590
 73
     1
 44
1.0
  0
POINT
  5
16C
330
165
100
AcDbEntity
  8
Defpoints
 62
     0
100
AcDbPoint
 10
307.6671955738199
 20
59.73446059862401
 30
0.0
  0
POINT
  5
16D
330
165
100
AcDbEntity
  8
Defpoints
 62
     0
100
AcDbPoint
 10
897.6671955738199
 20
59.73446059862397
 30
0.0
  0
POINT
  5
16E
330
165
100
AcDbEntity
  8
Defpoints
 62
     0
100
AcDbPoint
 10
897.6671955738199
 20
-141.6257048702828
 30
0.0
  0
ENDBLK
  5
170
330
165
100
AcDbEntity
  8
0
100
AcDbBlockEnd
  0
BLOCK
  5
17B
330
171
100
AcDbEntity
  8
0
100
AcDbBlockBegin
  2
*D5
 70
     1
 71
     0
 10
0.0
 20
0.0
 30
0.0
  3
*D5
  1

  0
LINE
  5
172
330
171
100
AcDbEntity
  8
koty
 62
     0
370
    -2
100
AcDbLine
 10
352.6671955738203
 20
63.48446059862386
 30
0.0
 11
352.6671955738204
 21
-61.75562337006701
 31
0.0
  0
LINE
  5
173
330
171
100
AcDbEntity
  8
koty
 62
     0
370
    -2
100
AcDbLine
 10
852.66719557382
 20
63.48446059862408
 30
0.0
 11
852.66719557382
 21
-61.75562337006704
 31
0.0
  0
LINE
  5
174
330
171
100
AcDbEntity
  8
koty
 62
     0
370
    -2
100
AcDbLine
 10
372.6671955738204
 20
-49.25562337006701
 30
0.0
 11
832.66719557382
 21
-49.25562337006704
 31
0.0
  0
INSERT
  5
175
330
171
100
AcDbEntity
  8
koty
 62
     0
370
    -2
100
AcDbBlockReference
  2
VDDIM_DEFAULT
 10
352.6671955738204
 20
-49.25562337006701
 30
0.0
 41
20.0
 42
20.0
 43
20.0
 50
180.0
  0
INSERT
  5
176
330
171
100
AcDbEntity
  8
koty
 62
     0
370
    -2
100
AcDbBlockReference
  2
VDDIM_DEFAULT
 10
852.66719557382
 20
-49.25562337006704
 30
0.0
 41
20.0
 42
20.0
 43
20.0
 50
360.0
  0
MTEXT
  5
177
330
171
100
AcDbEntity
  8
koty
100
AcDbMText
 10
602.6671955738202
 20
-33.00562337006704
 30
0.0
 40
20.0
 41
0.0
 71
     5
 72
     1
  1
\A1;500
 73
     1
 44
1.0
  0
POINT
  5
178
330
171
100
AcDbEntity
  8
Defpoints
 62
     0
100
AcDbPoint
 10
352.6671955738203
 20
69.73446059862386
 30
0.0
  0
POINT
  5
179
330
171
100
AcDbEntity
  8
Defpoints
 62
     0
100
AcDbPoint
 10
852.66719557382
 20
69.73446059862408
 30
0.0
  0
POINT
  5
17A
330
171
100
AcDbEntity
  8
Defpoints
 62
     0
100
AcDbPoint
 10
852.66719557382
 20
-49.25562337006704
 30
0.0
  0
ENDBLK
  5
17C
330
171
100
AcDbEntity
  8
0
100
AcDbBlockEnd
  0
BLOCK
  5
187
330
17D
100
AcDbEntity
  8
0
100
AcDbBlockBegin
  2
*D6
 70
     1
 71
     0
 10
0.0
 20
0.0
 30
0.0
  3
*D6
  1

  0
LINE
  5
17E
330
17D
100
AcDbEntity
  8
koty
 62
     0
370
    -2
100
AcDbLine
 10
963.91719557382
 20
29.73446059862396
 30
0.0
 11
1217.076627368819
 21
29.73446059862397
 31
0.0
  0
LINE
  5
17F
330
17D
100
AcDbEntity
  8
koty
 62
     0
370
    -2
100
AcDbLine
 10
768.9171955738199
 20
756.734460598624
 30
0.0
 11
1217.076627368819
 21
756.734460598624
 31
0.0
  0
LINE
  5
180
330
17D
100
AcDbEntity
  8
koty
 62
     0
370
    -2
100
AcDbLine
 10
1204.576627368819
 20
49.73446059862397
 30
0.0
 11
1204.576627368819
 21
736.7344605986241
 31
0.0
  0
INSERT
  5
181
330
17D
100
AcDbEntity
  8
koty
 62
     0
370
    -2
100
AcDbBlockReference
  2
VDDIM_DEFAULT
 10
1204.576627368819
 20
29.73446059862397
 30
0.0
 41
20.0
 42
20.0
 43
20.0
 50
270.0
  0
INSERT
  5
182
330
17D
100
AcDbEntity
  8
koty
 62
     0
370
    -2
100
AcDbBlockReference
  2
VDDIM_DEFAULT
 10
1204.576627368819
 20
756.7344605986241
 30
0.0
 41
20.0
 42
20.0
 43
20.0
 50
90.0
  0
MTEXT
  5
183
330
17D
100
AcDbEntity
  8
koty
100
AcDbMText
 10
1188.326627368819
 20
393.234460598624
 30
0.0
 40
20.0
 41
0.0
 71
     5
 72
     1
  1
\A1;727
 11
0.0
 21
-1.0
 31
0.0
 73
     1
 44
1.0
  0
POINT
  5
184
330
17D
100
AcDbEntity
  8
Defpoints
 62
     0
100
AcDbPoint
 10
957.66719557382
 20
29.73446059862396
 30
0.0
  0
POINT
  5
185
330
17D
100
AcDbEntity
  8
Defpoints
 62
     0
100
AcDbPoint
 10
762.6671955738199
 20
756.734460598624
 30
0.0
  0
POINT
  5
186
330
17D
100
AcDbEntity
  8
Defpoints
 62
     0
100
AcDbPoint
 10
1204.576627368819
 20
756.734460598624
 30
0.0
  0
ENDBLK
  5
188
330
17D
100
AcDbEntity
  8
0
100
AcDbBlockEnd
  0
BLOCK
  5
193
330
189
100
AcDbEntity
  8
0
100
AcDbBlockBegin
  2
*D7
 70
     1
 71
     0
 10
0.0
 20
0.0
 30
0.0
  3
*D7
  1

  0
LINE
  5
18A
330
189
100
AcDbEntity
  8
koty
 62
     0
370
    -2
100
AcDbLine
 10
127.6671955738199
 20
662.984460598624
 30
0.0
 11
127.6671955738199
 21
860.5811933265069
 31
0.0
  0
LINE
  5
18B
330
189
100
AcDbEntity
  8
koty
 62
     0
370
    -2
100
AcDbLine
 10
1077.667195573819
 20
662.984460598624
 30
0.0
 11
1077.667195573819
 21
860.5811933265068
 31
0.0
  0
LINE
  5
18C
330
189
100
AcDbEntity
  8
koty
 62
     0
370
    -2
100
AcDbLine
 10
147.6671955738199
 20
848.0811933265069
 30
0.0
 11
1057.667195573819
 21
848.0811933265068
 31
0.0
  0
INSERT
  5
18D
330
189
100
AcDbEntity
  8
koty
 62
     0
370
    -2
100
AcDbBlockReference
  2
VDDIM_DEFAULT
 10
127.6671955738199
 20
848.0811933265069
 30
0.0
 41
20.0
 42
20.0
 43
20.0
 50
180.0
  0
INSERT
  5
18E
330
189
100
AcDbEntity
  8
koty
 62
     0
370
    -2
100
AcDbBlockReference
  2
VDDIM_DEFAULT
 10
1077.667195573819
 20
848.0811933265068
 30
0.0
 41
20.0
 42
20.0
 43
20.0
 50
360.0
  0
MTEXT
  5
18F
330
189
100
AcDbEntity
  8
koty
100
AcDbMText
 10
602.6671955738195
 20
864.3311933265068
 30
0.0
 40
20.0
 41
0.0
 71
     5
 72
     1
  1
\A1;950
 73
     1
 44
1.0
  0
POINT
  5
190
330
189
100
AcDbEntity
  8
Defpoints
 62
     0
100
AcDbPoint
 10
127.6671955738199
 20
656.734460598624
 30
0.0
  0
POINT
  5
191
330
189
100
AcDbEntity
  8
Defpoints
 62
     0
100
AcDbPoint
 10
1077.667195573819
 20
656.734460598624
 30
0.0
  0
POINT
  5
192
330
189
100
AcDbEntity
  8
Defpoints
 62
     0
100
AcDbPoint
 10
1077.667195573819
 20
848.0811933265068
 30
0.0
  0
ENDBLK
  5
194
330
189
100
AcDbEntity
  8
0
100
AcDbBlockEnd
  0
ENDSEC
  0
SECTION
  2
ENTITIES
  0
LINE
  5
34
330
12A
100
AcDbEntity
  8
0
100
AcDbLine
 10
247.6671955738199
 20
29.73446059862396
 30
0.0
 11
957.66719557382
 21
29.73446059862396
 31
0.0
  0
LINE
  5
35
330
12A
100
AcDbEntity
  8
0
100
AcDbLine
 10
957.66719557382
 20
29.73446059862396
 30
0.0
 11
957.66719557382
 21
59.73446059862396
 31
0.0
  0
LINE
  5
36
330
12A
100
AcDbEntity
  8
0
100
AcDbLine
 10
957.66719557382
 20
59.73446059862396
 30
0.0
 11
247.66719557382
 21
59.73446059862405
 31
0.0
  0
LINE
  5
37
330
12A
100
AcDbEntity
  8
0
100
AcDbLine
 10
247.66719557382
 20
59.73446059862405
 30
0.0
 11
247.6671955738199
 21
29.73446059862396
 31
0.0
  0
LINE
  5
39
330
12A
100
AcDbEntity
  8
0
100
AcDbLine
 10
602.66719557382
 20
59.73446059862401
 30
0.0
 11
352.66719557382
 21
59.73446059862401
 31
0.0
  0
LINE
  5
3C
330
12A
100
AcDbEntity
  8
0
100
AcDbLine
 10
602.66719557382
 20
59.73446059862401
 30
0.0
 11
307.6671955738199
 21
59.73446059862401
 31
0.0
  0
LINE
  5
3E
330
12A
100
AcDbEntity
  8
0
100
AcDbLine
 10
307.6671955738199
 20
59.73446059862404
 30
0.0
 11
300.66719557382
 21
59.73446059862404
 31
0.0
  0
LINE
  5
3F
330
12A
100
AcDbEntity
  8
0
100
AcDbLine
 10
300.66719557382
 20
59.73446059862404
 30
0.0
 11
290.6671955738199
 21
59.73446059862404
 31
0.0
  0
LINE
  5
41
330
12A
100
AcDbEntity
  8
0
100
AcDbLine
 10
290.6671955738199
 20
59.73446059862404
 30
0.0
 11
290.6671955738199
 21
69.73446059862405
 31
0.0
  0
LINE
  5
42
330
12A
100
AcDbEntity
  8
0
100
AcDbLine
 10
290.6671955738199
 20
69.73446059862405
 30
0.0
 11
602.6671955738199
 21
69.73446059862405
 31
0.0
  0
LINE
  5
44
330
12A
100
AcDbEntity
  8
0
100
AcDbLine
 10
914.6671955738199
 20
59.73446059862404
 30
0.0
 11
914.6671955738199
 21
69.73446059862405
 31
0.0
  0
LINE
  5
45
330
12A
100
AcDbEntity
  8
0
100
AcDbLine
 10
914.6671955738199
 20
69.73446059862405
 30
0.0
 11
602.66719557382
 21
69.73446059862405
 31
0.0
  0
LINE
  5
48
330
12A
100
AcDbEntity
  8
0
100
AcDbLine
 10
602.66719557382
 20
656.734460598624
 30
0.0
 11
127.6671955738199
 21
656.734460598624
 31
0.0
  0
LINE
  5
49
330
12A
100
AcDbEntity
  8
0
100
AcDbLine
 10
127.6671955738199
 20
656.734460598624
 30
0.0
 11
127.6671955738199
 21
656.734460598624
 31
0.0
  0
LINE
  5
4A
330
12A
100
AcDbEntity
  8
0
100
AcDbLine
 10
602.66719557382
 20
656.734460598624
 30
0.0
 11
1077.667195573819
 21
656.734460598624
 31
0.0
  0
LINE
  5
4B
330
12A
100
AcDbEntity
  8
0
100
AcDbLine
 10
602.66719557382
 20
756.734460598624
 30
0.0
 11
442.66719557382
 21
756.734460598624
 31
0.0
  0
LINE
  5
4C
330
12A
100
AcDbEntity
  8
0
100
AcDbLine
 10
427.66719557382
 20
741.7344605986239
 30
0.0
 11
427.66719557382
 21
656.734460598624
 31
0.0
  0
LINE
  5
4D
330
12A
100
AcDbEntity
  8
0
100
AcDbLine
 10
777.66719557382
 20
741.7344605986239
 30
0.0
 11
777.66719557382
 21
656.734460598624
 31
0.0
  0
LINE
  5
4E
330
12A
100
AcDbEntity
  8
0
100
AcDbLine
 10
602.66719557382
 20
756.734460598624
 30
0.0
 11
762.6671955738199
 21
756.734460598624
 31
0.0
  0
ARC
  5
4F
330
12A
100
AcDbEntity
  8
0
100
AcDbCircle
 10
442.66719557382
 20
741.7344605986239
 30
0.0
 40
15.0
100
AcDbArc
 50
90.0
 51
180.0
  0
ARC
  5
50
330
12A
100
AcDbEntity
  8
0
100
AcDbCircle
 10
762.6671955738199
 20
741.7344605986239
 30
0.0
 40
15.0
100
AcDbArc
 50
0.0
 51
90.0
  0
ARC
  5
51
330
12A
100
AcDbEntity
  8
0
100
AcDbCircle
 10
963.9434208549682
 20
640.6614634747031
 30
0.0
 40
836.4306702931399
100
AcDbArc
 50
178.8989265723587
 51
223.045223494469
  0
ARC
  5
52
330
12A
100
AcDbEntity
  8
0
100
AcDbCircle
 10
241.3909702926718
 20
640.6614634747031
 30
0.0
 40
836.4306702931399
100
AcDbArc
 50
316.954776505531
 51
1.101073427641309
  0
LINE
  5
53
330
12A
100
AcDbEntity
  8
0
100
AcDbLine
 10
307.6671955738199
 20
59.73446059862401
 30
0.0
 11
300.66719557382
 21
59.73446059862401
 31
0.0
  0
LINE
  5
54
330
12A
100
AcDbEntity
  8
0
100
AcDbLine
 10
300.66719557382
 20
59.73446059862401
 30
0.0
 11
300.66719557382
 21
69.73446059862405
 31
0.0
  0
LINE
  5
55
330
12A
100
AcDbEntity
  8
0
100
AcDbLine
 10
314.6671955738199
 20
59.73446059862401
 30
0.0
 11
314.6671955738199
 21
69.73446059862405
 31
0.0
  0
LINE
  5
56
330
12A
100
AcDbEntity
  8
0
100
AcDbLine
 10
890.66719557382
 20
59.73446059862401
 30
0.0
 11
890.66719557382
 21
69.73446059862405
 31
0.0
  0
LINE
  5
57
330
12A
100
AcDbEntity
  8
0
100
AcDbLine
 10
904.6671955738199
 20
59.73446059862401
 30
0.0
 11
904.6671955738199
 21
69.73446059862405
 31
0.0
  0
DIMENSION
  5
58
330
12A
100
AcDbEntity
  8
koty
100
AcDbDimension
  2
*D3
 10
957.66719557382
 20
-244.8211595940229
 30
0.0
 11
602.66719557382
 21
-228.5711595940229
 31
0.0
 70
    32
  1
710 x 710
 71
     0
 42
710.0000000000001
  3
ISO-25
100
AcDbAlignedDimension
 13
247.6671955738199
 23
29.73446059862396
 33
0.0
 14
957.66719557382
 24
29.73446059862396
 34
0.0
100
AcDbRotatedDimension
  0
LINE
  5
73
330
12A
100
AcDbEntity
  8
0
100
AcDbLine
 10
897.6671955738199
 20
64.73446059862403
 30
0.0
 11
897.6671955738199
 21
59.73446059862397
 31
0.0
  0
DIMENSION
  5
74
330
12A
100
AcDbEntity
  8
koty
100
AcDbDimension
  2
*D4
 10
897.6671955738199
 20
-141.6257048702828
 30
0.0
 11
602.6671955738199
 21
-125.3757048702828
 31
0.0
 70
    32
  1
590 x 590
 71
     0
 42
590.0
  3
ISO-25
100
AcDbAlignedDimension
 13
307.6671955738199
 23
59.73446059862401
 33
0.0
 14
897.6671955738199
 24
59.73446059862397
 34
0.0
100
AcDbRotatedDimension
  0
DIMENSION
  5
8C
330
12A
100
AcDbEntity
  8
koty
100
AcDbDimension
  2
*D5
 10
852.66719557382
 20
-49.25562337006704
 30
0.0
 11
602.6671955738202
 21
-33.00562337006704
 31
0.0
 70
    32
 71
     0
 42
499.9999999999997
  3
ISO-25
100
AcDbAlignedDimension
 13
352.6671955738203
 23
69.73446059862386
 33
0.0
 14
852.66719557382
 24
69.73446059862408
 34
0.0
100
AcDbRotatedDimension
  0
DIMENSION
  5
A4
330
12A
100
AcDbEntity
  8
koty
100
AcDbDimension
  2
*D6
 10
1204.576627368819
 20
756.734460598624
 30
0.0
 11
1188.326627368819
 21
393.234460598624
 31
0.0
 70
    32
 71
     0
 42
727.0
  3
ISO-25
100
AcDbAlignedDimension
 13
957.66719557382
 23
29.73446059862396
 33
0.0
 14
762.6671955738199
 24
756.734460598624
 34
0.0
 50
90.0
100
AcDbRotatedDimension
  0
DIMENSION
  5
BC
330
12A
100
AcDbEntity
  8
koty
100
AcDbDimension
  2
*D7
 10
1077.667195573819
 20
848.0811933265068
 30
0.0
 11
602.6671955738195
 21
864.3311933265068
 31
0.0
 70
    32
 71
     0
 42
949.9999999999992
  3
ISO-25
100
AcDbAlignedDimension
 13
127.6671955738199
 23
656.734460598624
 33
0.0
 14
1077.667195573819
 24
656.734460598624
 34
0.0
100
AcDbRotatedDimension
  0
TEXT
  5
EF
330
12A
100
AcDbEntity
  8
popis
100
AcDbText
 10
540.6675000475923
 20
946.4597017654978
 30
0.0
 40
25.0
  1
CTVT 450
100
AcDbText
  0
VIEWPORT
  5
195
330
126
100
AcDbEntity
 67
     1
  8
0
 60
     1
100
AcDbViewport
 10
0.0
 20
0.0
 30
0.0
 40
10.0
 41
10.0
 69
     1
 12
0.0
 22
0.0
 13
0.0
 23
0.0
 14
1.0
 24
1.0
 15
0.0
 25
0.0
 16
0.0
 26
0.0
 36
1.0
 17
0.0
 27
0.0
 37
0.0
 42
0.0
 43
0.0
 44
0.0
 45
10.0
 50
0.0
 51
0.0000000000007958
 72
   100
 90
   163872
  1

281
     0
 71
     0
 74
     0
110
0.0
120
0.0
130
0.0
111
1.0
121
0.0
131
0.0
112
0.0
122
1.0
132
0.0
 79
     0
146
0.0
1001
VD_INVISIBLE_NOT_FOR_READ
1000
VD_INVISIBLE_NOT_FOR_READ
  0
VIEWPORT
  5
196
330
126
100
AcDbEntity
 67
     1
  8
0
 60
     1
100
AcDbViewport
 10
0.0
 20
0.0
 30
0.0
 40
10.0
 41
10.0
 69
     2
 12
0.0
 22
0.0
 13
0.0
 23
0.0
 14
1.0
 24
1.0
 15
0.0
 25
0.0
 16
0.0
 26
0.0
 36
1.0
 17
0.0
 27
0.0
 37
0.0
 42
0.0
 43
0.0
 44
0.0
 45
10.0
 50
0.0
 51
0.0000000000007958
 72
   100
 90
   163872
  1

281
     0
 71
     0
 74
     0
110
0.0
120
0.0
130
0.0
111
1.0
121
0.0
131
0.0
112
0.0
122
1.0
132
0.0
 79
     0
146
0.0
1001
VD_INVISIBLE_NOT_FOR_READ
1000
VD_INVISIBLE_NOT_FOR_READ
  0
ENDSEC
  0
SECTION
  2
OBJECTS
  0
DICTIONARY
  5
117
330
0
100
AcDbDictionary
281
     1
  3
ACAD_GROUP
350
118
  3
ACAD_LAYOUT
350
125
  3
ACAD_MLINESTYLE
350
122
  3
ACAD_PLOTSETTINGS
350
124
  3
ACAD_PLOTSTYLENAME
350
119
  3
VECTORDRAW_OBJECTS
350
13A
  0
DICTIONARY
  5
118
102
{ACAD_REACTORS
330
117
102
}
330
117
100
AcDbDictionary
281
     1
  0
DICTIONARY
  5
125
102
{ACAD_REACTORS
330
117
102
}
330
117
100
AcDbDictionary
281
     1
  3
Model
350
12D
  3
Rozvržení1
350
129
  3
Rozvržení2
350
131
  0
DICTIONARY
  5
122
102
{ACAD_REACTORS
330
117
102
}
330
117
100
AcDbDictionary
281
     1
  3
Standard
350
123
  0
DICTIONARY
  5
124
102
{ACAD_REACTORS
330
117
102
}
330
117
100
AcDbDictionary
281
     1
  0
ACDBDICTIONARYWDFLT
  5
119
102
{ACAD_REACTORS
330
117
102
}
330
117
100
AcDbDictionary
281
     1
  3
Normal
350
11A
100
AcDbDictionaryWithDefault
340
11A
  0
DICTIONARY
  5
13A
102
{ACAD_REACTORS
330
117
102
}
330
117
100
AcDbDictionary
281
     1
  3
SERIALNO
350
13B
  0
LAYOUT
  5
12D
102
{ACAD_REACTORS
330
125
102
}
330
125
100
AcDbPlotSettings
  1
VectorDraw Printer Drawing
  2

  4

  6

 40
0.0
 41
0.0
 42
0.0
 43
0.0
 44
0.0
 45
0.0
 46
0.0
 47
0.0
 48
0.0
 49
0.0
140
0.0
141
0.0
142
1.0
143
1.0
 70
  1712
 72
     0
 73
     0
 74
     0
  7

 75
     0
147
1.0
148
0.0
149
0.0
100
AcDbLayout
  1
Model
 70
     1
 71
     0
 10
0.0
 20
0.0
 11
12.0
 21
9.0
 12
0.0
 22
0.0
 32
0.0
 14
127.5127505618283
 24
-257.3211595940229
 34
0.0
 15
1217.076627368806
 25
971.4597017654978
 35
0.0
146
0.0
 13
0.0
 23
0.0
 33
0.0
 16
1.0
 26
0.0
 36
0.0
 17
0.0
 27
1.0
 37
0.0
 76
     0
330
12A
  0
LAYOUT
  5
129
102
{ACAD_REACTORS
330
125
102
}
330
125
100
AcDbPlotSettings
  1
VectorDraw Printer Drawing
  2

  4

  6

 40
0.0
 41
0.0
 42
0.0
 43
0.0
 44
0.0
 45
0.0
 46
0.0
 47
0.0
 48
0.0
 49
0.0
140
0.0
141
0.0
142
1.0
143
1.0
 70
   688
 72
     0
 73
     0
 74
     5
  7

 75
    16
147
1.0
148
0.0
149
0.0
100
AcDbLayout
  1
Rozvržení1
 70
     1
 71
     1
 10
0.0
 20
0.0
 11
12.0
 21
9.0
 12
0.0
 22
0.0
 32
0.0
 14
1.000000000000000E+20
 24
1.000000000000000E+20
 34
1.000000000000000E+20
 15
-1.000000000000000E+20
 25
-1.000000000000000E+20
 35
-1.000000000000000E+20
146
0.0
 13
0.0
 23
0.0
 33
0.0
 16
1.0
 26
0.0
 36
0.0
 17
0.0
 27
1.0
 37
0.0
 76
     0
330
126
331
195
  0
LAYOUT
  5
131
102
{ACAD_REACTORS
330
125
102
}
330
125
100
AcDbPlotSettings
  1
VectorDraw Printer Drawing
  2

  4

  6

 40
0.0
 41
0.0
 42
0.0
 43
0.0
 44
0.0
 45
0.0
 46
0.0
 47
0.0
 48
0.0
 49
0.0
140
0.0
141
0.0
142
1.0
143
1.0
 70
   688
 72
     0
 73
     0
 74
     5
  7

 75
    16
147
1.0
148
0.0
149
0.0
100
AcDbLayout
  1
Rozvržení2
 70
     1
 71
     2
 10
0.0
 20
0.0
 11
12.0
 21
9.0
 12
0.0
 22
0.0
 32
0.0
 14
0.0
 24
0.0
 34
0.0
 15
0.0
 25
0.0
 35
0.0
146
0.0
 13
0.0
 23
0.0
 33
0.0
 16
1.0
 26
0.0
 36
0.0
 17
0.0
 27
1.0
 37
0.0
 76
     0
330
12E
331
197
  0
MLINESTYLE
  5
123
102
{ACAD_REACTORS
330
122
102
}
330
122
100
AcDbMlineStyle
  2
Standard
 70
     0
  3

 62
   256
 51
90.0
 52
90.0
 71
     2
 49
0.5
 62
   256
  6
BYLAYER
 49
-0.5
 62
   256
  6
BYLAYER
  0
ACDBPLACEHOLDER
  5
11A
102
{ACAD_REACTORS
330
119
102
}
330
119
  0
XRECORD
  5
13B
102
{ACAD_REACTORS
330
13A
102
}
330
13A
100
AcDbXrecord
280
     1
1000
rInJVR9YY4Q8hfPWdUq5j5319
1070
     4
1070
     6
  0
ENDSEC
  0
EOF
