  0
SECTION
  2
HEADER
  9
$ACADVER
  1
AC1014
  9
$ACADMAINTVER
 70
     9
  9
$DWGCODEPAGE
  3
ANSI_1250
  9
$INSBASE
 10
0.0
 20
0.0
 30
0.0
  9
$EXTMIN
 10
-464.1244574285716
 20
-1267.242245
 30
0.0
  9
$EXTMAX
 10
1496.836638
 20
449.1389740769268
 30
0.0
  9
$LIMMIN
 10
0.0
 20
0.0
  9
$LIMMAX
 10
0.0
 20
0.0
  9
$ORTHOMODE
 70
     0
  9
$REGENMODE
 70
     1
  9
$FILLMODE
 70
     1
  9
$QTEXTMODE
 70
     0
  9
$MIRRTEXT
 70
     1
  9
$DRAGMODE
 70
     2
  9
$LTSCALE
 40
1.0
  9
$OSMODE
 70
    37
  9
$ATTMODE
 70
     1
  9
$TEXTSIZE
 40
0.2
  9
$TRACEWID
 40
0.05
  9
$TEXTSTYLE
  7
ED30
  9
$CLAYER
  8
V0-OBRYS
  9
$CELTYPE
  6
CONTINUOUS
  9
$CECOLOR
 62
    90
  9
$CELTSCALE
 40
1.0
  9
$DELOBJ
 70
     1
  9
$DISPSILH
 70
     0
  9
$DIMSCALE
 40
1.0
  9
$DIMASZ
 40
25.0
  9
$DIMEXO
 40
1.0
  9
$DIMDLI
 40
0.38
  9
$DIMRND
 40
0.0
  9
$DIMDLE
 40
0.0
  9
$DIMEXE
 40
1.25
  9
$DIMTP
 40
0.0
  9
$DIMTM
 40
0.0
  9
$DIMTXT
 40
30.0
  9
$DIMCEN
 40
0.09
  9
$DIMTSZ
 40
0.0
  9
$DIMTOL
 70
     0
  9
$DIMLIM
 70
     0
  9
$DIMTIH
 70
     0
  9
$DIMTOH
 70
     0
  9
$DIMSE1
 70
     0
  9
$DIMSE2
 70
     0
  9
$DIMTAD
 70
     1
  9
$DIMZIN
 70
     0
  9
$DIMBLK
  1
OPEN
  9
$DIMASO
 70
     1
  9
$DIMSHO
 70
     1
  9
$DIMPOST
  1

  9
$DIMAPOST
  1

  9
$DIMALT
 70
     0
  9
$DIMALTD
 70
     2
  9
$DIMALTF
 40
25.4
  9
$DIMLFAC
 40
1.0
  9
$DIMTOFL
 70
     1
  9
$DIMTVP
 40
0.0
  9
$DIMTIX
 70
     1
  9
$DIMSOXD
 70
     0
  9
$DIMSAH
 70
     0
  9
$DIMBLK1
  1

  9
$DIMBLK2
  1

  9
$DIMSTYLE
  2
ED30
  9
$DIMCLRD
 70
     0
  9
$DIMCLRE
 70
     0
  9
$DIMCLRT
 70
     0
  9
$DIMTFAC
 40
1.0
  9
$DIMGAP
 40
4.0
  9
$DIMJUST
 70
     0
  9
$DIMSD1
 70
     0
  9
$DIMSD2
 70
     0
  9
$DIMTOLJ
 70
     1
  9
$DIMTZIN
 70
     0
  9
$DIMALTZ
 70
     0
  9
$DIMALTTZ
 70
     0
  9
$DIMFIT
 70
     3
  9
$DIMUPT
 70
     1
  9
$DIMUNIT
 70
     2
  9
$DIMDEC
 70
     0
  9
$DIMTDEC
 70
     4
  9
$DIMALTU
 70
     2
  9
$DIMALTTD
 70
     2
  9
$DIMTXSTY
  7
ED30
  9
$DIMAUNIT
 70
     0
  9
$LUNITS
 70
     2
  9
$LUPREC
 70
     4
  9
$SKETCHINC
 40
0.1
  9
$FILLETRAD
 40
0.5
  9
$AUNITS
 70
     0
  9
$AUPREC
 70
     0
  9
$MENU
  1
.
  9
$ELEVATION
 40
0.0
  9
$PELEVATION
 40
0.0
  9
$THICKNESS
 40
0.0
  9
$LIMCHECK
 70
     0
  9
$BLIPMODE
 70
     0
  9
$CHAMFERA
 40
0.5
  9
$CHAMFERB
 40
0.5
  9
$CHAMFERC
 40
1.0
  9
$CHAMFERD
 40
0.0
  9
$SKPOLY
 70
     0
  9
$TDCREATE
 40
2455644.649497245
  9
$TDUPDATE
 40
2455644.649497257
  9
$TDINDWG
 40
0.0000000116
  9
$TDUSRTIMER
 40
0.0000000116
  9
$USRTIMER
 70
     1
  9
$ANGBASE
 50
0.0
  9
$ANGDIR
 70
     0
  9
$PDMODE
 70
     3
  9
$PDSIZE
 40
20.0
  9
$PLINEWID
 40
0.0
  9
$COORDS
 70
     1
  9
$SPLFRAME
 70
     0
  9
$SPLINETYPE
 70
     6
  9
$SPLINESEGS
 70
     8
  9
$ATTDIA
 70
     0
  9
$ATTREQ
 70
     1
  9
$HANDLING
 70
     1
  9
$HANDSEED
  5
1CFA
  9
$SURFTAB1
 70
     6
  9
$SURFTAB2
 70
     6
  9
$SURFTYPE
 70
     6
  9
$SURFU
 70
     6
  9
$SURFV
 70
     6
  9
$UCSNAME
  2

  9
$UCSORG
 10
0.0
 20
0.0
 30
0.0
  9
$UCSXDIR
 10
1.0
 20
0.0
 30
0.0
  9
$UCSYDIR
 10
0.0
 20
1.0
 30
0.0
  9
$PUCSNAME
  2

  9
$PUCSORG
 10
0.0
 20
0.0
 30
0.0
  9
$PUCSXDIR
 10
1.0
 20
0.0
 30
0.0
  9
$PUCSYDIR
 10
0.0
 20
1.0
 30
0.0
  9
$USERI1
 70
     0
  9
$USERI2
 70
     0
  9
$USERI3
 70
     0
  9
$USERI4
 70
     0
  9
$USERI5
 70
     0
  9
$USERR1
 40
0.0
  9
$USERR2
 40
0.0
  9
$USERR3
 40
0.0
  9
$USERR4
 40
0.0
  9
$USERR5
 40
0.0
  9
$WORLDVIEW
 70
     1
  9
$SHADEDGE
 70
     3
  9
$SHADEDIF
 70
    70
  9
$TILEMODE
 70
     1
  9
$MAXACTVP
 70
    64
  9
$PINSBASE
 10
0.0
 20
0.0
 30
0.0
  9
$PLIMCHECK
 70
     0
  9
$PEXTMIN
 10
1.000000000000000E+20
 20
1.000000000000000E+20
 30
1.000000000000000E+20
  9
$PEXTMAX
 10
-1.000000000000000E+20
 20
-1.000000000000000E+20
 30
-1.000000000000000E+20
  9
$PLIMMIN
 10
0.0
 20
0.0
  9
$PLIMMAX
 10
0.0
 20
0.0
  9
$UNITMODE
 70
     0
  9
$VISRETAIN
 70
     1
  9
$PLINEGEN
 70
     0
  9
$PSLTSCALE
 70
     1
  9
$TREEDEPTH
 70
  3020
  9
$PICKSTYLE
 70
     1
  9
$CMLSTYLE
  2
STANDARD
  9
$CMLJUST
 70
     0
  9
$CMLSCALE
 40
1.0
  9
$PROXYGRAPHICS
 70
     1
  9
$MEASUREMENT
 70
     0
  0
ENDSEC
  0
SECTION
  2
CLASSES
  0
CLASS
  1
ACDBDICTIONARYWDFLT
  2
AcDbDictionaryWithDefault
  3
ObjectDBX Classes
 90
        0
280
     0
281
     0
  0
CLASS
  1
XRECORD
  2
AcDbXrecord
  3
AutoCAD 2000
 90
        0
280
     0
281
     0
  0
CLASS
  1
LWPOLYLINE
  2
AcDbPolyline
  3
AutoCAD 2000
 90
        0
280
     0
281
     1
  0
CLASS
  1
HATCH
  2
AcDbHatch
  3
AutoCAD 2000
 90
        0
280
     0
281
     1
  0
CLASS
  1
ACDBPLACEHOLDER
  2
AcDbPlaceHolder
  3
ObjectDBX Classes
 90
        0
280
     0
281
     0
  0
CLASS
  1
LAYOUT
  2
AcDbLayout
  3
ObjectDBX Classes
 90
        0
280
     0
281
     0
  0
ENDSEC
  0
SECTION
  2
TABLES
  0
TABLE
  2
VPORT
  5
1C4C
330
0
100
AcDbSymbolTable
 70
     2
  0
VPORT
  5
1C6D
102
{ACAD_XDICTIONARY
360
1CF8
102
}
330
1C4C
100
AcDbSymbolTableRecord
100
AcDbViewportTableRecord
  2
*ACTIVE
 70
     0
 10
0.0
 20
0.0
 11
1.0
 21
1.0
 12
449.88178
 22
-395.907309
 13
0.0
 23
0.0
 14
10.0
 24
10.0
 15
10.0
 25
10.0
 16
0.0
 26
0.0
 36
1.0
 17
0.0
 27
0.0
 37
0.0
 40
1783.358062
 41
0.0099569217949082
 42
50.0
 43
0.0
 44
0.0
 50
0.0
 51
0.0000000000007958
 71
     0
 72
   100
 73
     1
 74
     3
 75
     0
 76
     0
 77
     0
 78
     0
  0
ENDTAB
  0
TABLE
  2
LTYPE
  5
1C49
330
0
100
AcDbSymbolTable
 70
    25
  0
LTYPE
  5
1C58
330
1C49
100
AcDbSymbolTableRecord
100
AcDbLinetypeTableRecord
  2
BYBLOCK
 70
     0
  3

 72
    65
 73
     0
 40
0.0
  0
LTYPE
  5
1C59
330
1C49
100
AcDbSymbolTableRecord
100
AcDbLinetypeTableRecord
  2
BYLAYER
 70
     0
  3

 72
    65
 73
     0
 40
0.0
  0
LTYPE
  5
1C5A
330
1C49
100
AcDbSymbolTableRecord
100
AcDbLinetypeTableRecord
  2
CONTINUOUS
 70
     0
  3
Solid line
 72
    65
 73
     0
 40
0.0
  0
LTYPE
  5
1C75
330
1C49
100
AcDbSymbolTableRecord
100
AcDbLinetypeTableRecord
  2
CENTER
 70
     0
  3
Center ____ _ ____ _ ____ _ ____ _ ____ _ ____
 72
    65
 73
     4
 40
2.0
 49
1.25
 74
     0
 49
-0.25
 74
     0
 49
0.25
 74
     0
 49
-0.25
 74
     0
  0
LTYPE
  5
1C76
330
1C49
100
AcDbSymbolTableRecord
100
AcDbLinetypeTableRecord
  2
DASHDOT
 70
     0
  3
Dashdot __ . __ . __ . __ . __ . __ . __ . __
 72
    65
 73
     4
 40
1.0
 49
0.5
 74
     0
 49
-0.25
 74
     0
 49
0.0
 74
     0
 49
-0.25
 74
     0
  0
LTYPE
  5
1C77
330
1C49
100
AcDbSymbolTableRecord
100
AcDbLinetypeTableRecord
  2
DASHED
 70
     0
  3
Dashed __ __ __ __ __ __ __ __ __ __ __ __ __ _
 72
    65
 73
     2
 40
0.75
 49
0.5
 74
     0
 49
-0.25
 74
     0
  0
LTYPE
  5
1C78
330
1C49
100
AcDbSymbolTableRecord
100
AcDbLinetypeTableRecord
  2
HIDDEN
 70
     0
  3
Hidden __ __ __ __ __ __ __ __ __ __ __ __ __ __
 72
    65
 73
     2
 40
0.375
 49
0.25
 74
     0
 49
-0.125
 74
     0
  0
LTYPE
  5
1C79
330
1C49
100
AcDbSymbolTableRecord
100
AcDbLinetypeTableRecord
  2
HIDDEN2
 70
     0
  3
Hidden2 _ _ _ _ _ _ _ _ _ _ _ _ _ _ _ _ _ 
 72
    65
 73
     2
 40
0.1875
 49
0.125
 74
     0
 49
-0.0625
 74
     0
  0
LTYPE
  5
1C7A
330
1C49
100
AcDbSymbolTableRecord
100
AcDbLinetypeTableRecord
  2
BORDER
 70
     0
  3
Border __ __ . __ __ . __ __ . __ __ . __ __ .
 72
    65
 73
     6
 40
1.75
 49
0.5
 74
     0
 49
-0.25
 74
     0
 49
0.5
 74
     0
 49
-0.25
 74
     0
 49
0.0
 74
     0
 49
-0.25
 74
     0
  0
LTYPE
  5
1C7B
330
1C49
100
AcDbSymbolTableRecord
100
AcDbLinetypeTableRecord
  2
BORDER2
 70
     0
  3
Border2 __.__.__.__.__.__.__.__.__.__.__.
 72
    65
 73
     6
 40
0.875
 49
0.25
 74
     0
 49
-0.125
 74
     0
 49
0.25
 74
     0
 49
-0.125
 74
     0
 49
0.0
 74
     0
 49
-0.125
 74
     0
  0
LTYPE
  5
1C7C
330
1C49
100
AcDbSymbolTableRecord
100
AcDbLinetypeTableRecord
  2
BORDERX2
 70
     0
  3
Borderx2  ____  ____  .  ____  ____  .  ___
 72
    65
 73
     6
 40
3.5
 49
1.0
 74
     0
 49
-0.5
 74
     0
 49
1.0
 74
     0
 49
-0.5
 74
     0
 49
0.0
 74
     0
 49
-0.5
 74
     0
  0
LTYPE
  5
1C7D
330
1C49
100
AcDbSymbolTableRecord
100
AcDbLinetypeTableRecord
  2
CENTER2
 70
     0
  3
Center2  ___ _ ___ _ ___ _ ___ _ ___ _ ___
 72
    65
 73
     4
 40
1.125
 49
0.75
 74
     0
 49
-0.125
 74
     0
 49
0.125
 74
     0
 49
-0.125
 74
     0
  0
LTYPE
  5
1C7E
330
1C49
100
AcDbSymbolTableRecord
100
AcDbLinetypeTableRecord
  2
CENTERX2
 70
     0
  3
Centerx2  ________  __  ________  __  _____
 72
    65
 73
     4
 40
4.0
 49
2.5
 74
     0
 49
-0.5
 74
     0
 49
0.5
 74
     0
 49
-0.5
 74
     0
  0
LTYPE
  5
1C7F
330
1C49
100
AcDbSymbolTableRecord
100
AcDbLinetypeTableRecord
  2
DASHDOT2
 70
     0
  3
Dashdot2  _._._._._._._._._._._._._._._.
 72
    65
 73
     4
 40
0.5
 49
0.25
 74
     0
 49
-0.125
 74
     0
 49
0.0
 74
     0
 49
-0.125
 74
     0
  0
LTYPE
  5
1C80
330
1C49
100
AcDbSymbolTableRecord
100
AcDbLinetypeTableRecord
  2
DASHDOTX2
 70
     0
  3
Dashdotx2 ____  .  ____  .  ____  .  ___
 72
    65
 73
     4
 40
2.0
 49
1.0
 74
     0
 49
-0.5
 74
     0
 49
0.0
 74
     0
 49
-0.5
 74
     0
  0
LTYPE
  5
1C81
330
1C49
100
AcDbSymbolTableRecord
100
AcDbLinetypeTableRecord
  2
DASHED2
 70
     0
  3
Dashed2 _ _ _ _ _ _ _ _ _ _ _ _ _ _ _ _ _ 
 72
    65
 73
     2
 40
0.375
 49
0.25
 74
     0
 49
-0.125
 74
     0
  0
LTYPE
  5
1C82
330
1C49
100
AcDbSymbolTableRecord
100
AcDbLinetypeTableRecord
  2
DASHEDX2
 70
     0
  3
Dashedx2 ____  ____  ____  ____  ____  ___
 72
    65
 73
     2
 40
1.5
 49
1.0
 74
     0
 49
-0.5
 74
     0
  0
LTYPE
  5
1C83
330
1C49
100
AcDbSymbolTableRecord
100
AcDbLinetypeTableRecord
  2
DIVIDE
 70
     0
  3
Divide ____ . . ____ . . ____ . . ____ . . ____
 72
    65
 73
     6
 40
1.25
 49
0.5
 74
     0
 49
-0.25
 74
     0
 49
0.0
 74
     0
 49
-0.25
 74
     0
 49
0.0
 74
     0
 49
-0.25
 74
     0
  0
LTYPE
  5
1C84
330
1C49
100
AcDbSymbolTableRecord
100
AcDbLinetypeTableRecord
  2
DIVIDE2
 70
     0
  3
Divide2 __..__..__..__..__..__..__..__.._
 72
    65
 73
     6
 40
0.625
 49
0.25
 74
     0
 49
-0.125
 74
     0
 49
0.0
 74
     0
 49
-0.125
 74
     0
 49
0.0
 74
     0
 49
-0.125
 74
     0
  0
LTYPE
  5
1C85
330
1C49
100
AcDbSymbolTableRecord
100
AcDbLinetypeTableRecord
  2
DIVIDEX2
 70
     0
  3
Dividex2 ________  .  .  ________  .  .  _
 72
    65
 73
     6
 40
2.5
 49
1.0
 74
     0
 49
-0.5
 74
     0
 49
0.0
 74
     0
 49
-0.5
 74
     0
 49
0.0
 74
     0
 49
-0.5
 74
     0
  0
LTYPE
  5
1C86
330
1C49
100
AcDbSymbolTableRecord
100
AcDbLinetypeTableRecord
  2
DOT
 70
     0
  3
Dot . . . . . . . . . . . . . . . . . . . . . . . .
 72
    65
 73
     2
 40
0.25
 49
0.0
 74
     0
 49
-0.25
 74
     0
  0
LTYPE
  5
1C87
330
1C49
100
AcDbSymbolTableRecord
100
AcDbLinetypeTableRecord
  2
DOT2
 70
     0
  3
Dot2 ........................................
 72
    65
 73
     2
 40
0.125
 49
0.0
 74
     0
 49
-0.125
 74
     0
  0
LTYPE
  5
1C88
330
1C49
100
AcDbSymbolTableRecord
100
AcDbLinetypeTableRecord
  2
DOTX2
 70
     0
  3
Dotx2 .  .  .  .  .  .  .  .  .  .  .  .  .  .
 72
    65
 73
     2
 40
0.5
 49
0.0
 74
     0
 49
-0.5
 74
     0
  0
LTYPE
  5
1C89
330
1C49
100
AcDbSymbolTableRecord
100
AcDbLinetypeTableRecord
  2
HIDDENX2
 70
     0
  3
Hiddenx2 ____ ____ ____ ____ ____ ____ ____ 
 72
    65
 73
     2
 40
0.75
 49
0.5
 74
     0
 49
-0.25
 74
     0
  0
LTYPE
  5
1C8A
330
1C49
100
AcDbSymbolTableRecord
100
AcDbLinetypeTableRecord
  2
PHANTOM
 70
     0
  3
Phantom ______  __  __  ______  __  __  ______ 
 72
    65
 73
     6
 40
2.5
 49
1.25
 74
     0
 49
-0.25
 74
     0
 49
0.25
 74
     0
 49
-0.25
 74
     0
 49
0.25
 74
     0
 49
-0.25
 74
     0
  0
LTYPE
  5
1C8B
330
1C49
100
AcDbSymbolTableRecord
100
AcDbLinetypeTableRecord
  2
PHANTOM2
 70
     0
  3
Phantom2 ___ _ _ ___ _ _ ___ _ _ ___ _ _
 72
    65
 73
     6
 40
1.25
 49
0.625
 74
     0
 49
-0.125
 74
     0
 49
0.125
 74
     0
 49
-0.125
 74
     0
 49
0.125
 74
     0
 49
-0.125
 74
     0
  0
LTYPE
  5
1C8C
330
1C49
100
AcDbSymbolTableRecord
100
AcDbLinetypeTableRecord
  2
PHANTOMX2
 70
     0
  3
Phantomx2 ____________    ____    ____   _
 72
    65
 73
     6
 40
5.0
 49
2.5
 74
     0
 49
-0.5
 74
     0
 49
0.5
 74
     0
 49
-0.5
 74
     0
 49
0.5
 74
     0
 49
-0.5
 74
     0
  0
ENDTAB
  0
TABLE
  2
LAYER
  5
1C46
330
0
100
AcDbSymbolTable
 70
     6
  0
LAYER
  5
1C54
330
1C46
100
AcDbSymbolTableRecord
100
AcDbLayerTableRecord
  2
0
 70
     0
 62
     7
  6
CONTINUOUS
  0
LAYER
  5
9E
330
1C46
100
AcDbSymbolTableRecord
100
AcDbLayerTableRecord
  2
DEFPOINTS
 70
     0
 62
     7
  6
CONTINUOUS
  0
LAYER
  5
377
330
1C46
100
AcDbSymbolTableRecord
100
AcDbLayerTableRecord
  2
V0-OBRYS
 70
     0
 62
    90
  6
CONTINUOUS
  0
LAYER
  5
378
330
1C46
100
AcDbSymbolTableRecord
100
AcDbLayerTableRecord
  2
V0-VYPLNE
 70
     0
 62
    63
  6
DASHDOT
  0
LAYER
  5
37A
330
1C46
100
AcDbSymbolTableRecord
100
AcDbLayerTableRecord
  2
V0-NAZVY
 70
     0
 62
   210
  6
CONTINUOUS
  0
LAYER
  5
559
330
1C46
100
AcDbSymbolTableRecord
100
AcDbLayerTableRecord
  2
V0-ZBYTEK
 70
     0
 62
    51
  6
CONTINUOUS
  0
ENDTAB
  0
TABLE
  2
STYLE
  5
1C47
330
0
100
AcDbSymbolTable
 70
     5
  0
STYLE
  5
1C55
330
1C47
100
AcDbSymbolTableRecord
100
AcDbTextStyleTableRecord
  2
STANDARD
 70
     0
 40
0.0
 41
1.0
 50
0.0
 71
     0
 42
0.2
  3
ISOCP.shx
  4

1001
ACAD
1000
ISOCP.shx
1071
        0
  0
STYLE
  5
331
330
1C47
100
AcDbSymbolTableRecord
100
AcDbTextStyleTableRecord
  2
ED20
 70
     0
 40
25.0
 41
1.0
 50
0.0
 71
     0
 42
0.2
  3
ISOCP.shx
  4

1001
ACAD
1000
ISOCP.shx
1071
        0
  0
STYLE
  5
648
330
1C47
100
AcDbSymbolTableRecord
100
AcDbTextStyleTableRecord
  2
ED10
 70
     0
 40
10.0
 41
1.0
 50
0.0
 71
     0
 42
0.2
  3
ISOCP.shx
  4

1001
ACAD
1000
ISOCP.shx
1071
        0
  0
STYLE
  5
F38
330
1C47
100
AcDbSymbolTableRecord
100
AcDbTextStyleTableRecord
  2
ED30
 70
     0
 40
30.0
 41
1.0
 50
0.0
 71
     0
 42
0.2
  3
ISOCP.shx
  4

1001
ACAD
1000
ISOCP.shx
1071
        0
  0
STYLE
  5
F39
330
1C47
100
AcDbSymbolTableRecord
100
AcDbTextStyleTableRecord
  2
ED40
 70
     0
 40
40.0
 41
1.0
 50
0.0
 71
     0
 42
0.2
  3
ISOCP.shx
  4

1001
ACAD
1000
ISOCP.shx
1071
        0
  0
ENDTAB
  0
TABLE
  2
VIEW
  5
1C4A
330
0
100
AcDbSymbolTable
 70
     0
  0
ENDTAB
  0
TABLE
  2
UCS
  5
1C4B
330
0
100
AcDbSymbolTable
 70
     0
  0
ENDTAB
  0
TABLE
  2
APPID
  5
1C4D
330
0
100
AcDbSymbolTable
 70
     6
  0
APPID
  5
1C56
330
1C4D
100
AcDbSymbolTableRecord
100
AcDbRegAppTableRecord
  2
ACAD
 70
     0
  0
APPID
  5
1C6E
330
1C4D
100
AcDbSymbolTableRecord
100
AcDbRegAppTableRecord
  2
VD_INVISIBLE_NOT_FOR_READ
 70
     0
  0
APPID
  5
1C6F
330
1C4D
100
AcDbSymbolTableRecord
100
AcDbRegAppTableRecord
  2
VD_TEMPHATCH
 70
     0
  0
APPID
  5
1C70
330
1C4D
100
AcDbSymbolTableRecord
100
AcDbRegAppTableRecord
  2
VDEXTRAPARAM
 70
     0
  0
APPID
  5
1C71
330
1C4D
100
AcDbSymbolTableRecord
100
AcDbRegAppTableRecord
  2
PE_URL
 70
     0
  0
APPID
  5
1C72
330
1C4D
100
AcDbSymbolTableRecord
100
AcDbRegAppTableRecord
  2
VD_UNKNOWN
 70
     0
  0
ENDTAB
  0
TABLE
  2
DIMSTYLE
  5
1C4E
330
0
100
AcDbSymbolTable
 70
     5
  0
DIMSTYLE
105
1C6B
330
1C4E
100
AcDbSymbolTableRecord
100
AcDbDimStyleTableRecord
  2
STANDARD
 70
     0
  3

  4

  5
OPEN
  6

  7

 40
1.0
 41
15.0
 42
0.625
 43
0.38
 44
1.25
 45
0.0
 46
0.0
 47
0.0
 48
0.0
140
15.0
141
0.09
142
0.0
143
25.4
144
1.0
145
0.0
146
1.0
147
3.0
 71
     0
 72
     0
 73
     0
 74
     0
 75
     0
 76
     0
 77
     1
 78
     0
170
     0
171
     2
172
     1
173
     0
174
     1
175
     0
176
     0
177
     0
178
     0
270
     2
271
     0
272
     4
273
     2
274
     2
340
331
275
     0
280
     0
281
     0
282
     0
283
     1
284
     0
285
     0
286
     0
287
     3
288
     1
  0
DIMSTYLE
105
397
330
1C4E
100
AcDbSymbolTableRecord
100
AcDbDimStyleTableRecord
  2
ED40
 70
     0
  3

  4

  5
OPEN
  6

  7

 40
1.0
 41
35.0
 42
1.0
 43
0.38
 44
1.25
 45
0.0
 46
0.0
 47
0.0
 48
0.0
140
40.0
141
0.09
142
0.0
143
25.4
144
1.0
145
0.0
146
1.0
147
4.0
 71
     0
 72
     0
 73
     0
 74
     0
 75
     0
 76
     0
 77
     1
 78
     0
170
     0
171
     2
172
     1
173
     0
174
     1
175
     0
176
     0
177
     0
178
     0
270
     2
271
     0
272
     4
273
     2
274
     2
340
F39
275
     0
280
     0
281
     0
282
     0
283
     1
284
     0
285
     0
286
     0
287
     3
288
     1
  0
DIMSTYLE
105
FEA
102
{ACAD_REACTORS
330
1469
330
1476
330
1483
330
1AC4
330
1ADC
102
}
330
1C4E
100
AcDbSymbolTableRecord
100
AcDbDimStyleTableRecord
  2
ED30
 70
     0
  3

  4

  5
OPEN
  6

  7

 40
1.0
 41
25.0
 42
1.0
 43
0.38
 44
1.25
 45
0.0
 46
0.0
 47
0.0
 48
0.0
140
30.0
141
0.09
142
0.0
143
25.4
144
1.0
145
0.0
146
1.0
147
4.0
 71
     0
 72
     0
 73
     0
 74
     0
 75
     0
 76
     0
 77
     1
 78
     0
170
     0
171
     2
172
     1
173
     0
174
     1
175
     0
176
     0
177
     0
178
     0
270
     2
271
     0
272
     4
273
     2
274
     2
340
F38
275
     0
280
     0
281
     0
282
     0
283
     1
284
     0
285
     0
286
     0
287
     3
288
     1
  0
DIMSTYLE
105
1457
330
1C4E
100
AcDbSymbolTableRecord
100
AcDbDimStyleTableRecord
  2
ED20
 70
     0
  3

  4

  5
OPEN
  6

  7

 40
1.0
 41
20.0
 42
1.0
 43
0.38
 44
1.25
 45
0.0
 46
0.0
 47
0.0
 48
0.0
140
20.0
141
0.09
142
0.0
143
25.4
144
1.0
145
0.0
146
1.0
147
1.5
 71
     0
 72
     0
 73
     0
 74
     0
 75
     0
 76
     0
 77
     1
 78
     0
170
     0
171
     2
172
     1
173
     0
174
     1
175
     0
176
     0
177
     0
178
     0
270
     2
271
     0
272
     4
273
     2
274
     2
340
331
275
     0
280
     0
281
     0
282
     0
283
     1
284
     0
285
     0
286
     0
287
     3
288
     1
  0
DIMSTYLE
105
1458
330
1C4E
100
AcDbSymbolTableRecord
100
AcDbDimStyleTableRecord
  2
ED10
 70
     0
  3

  4

  5
OPEN
  6

  7

 40
1.0
 41
15.0
 42
1.0
 43
0.38
 44
1.25
 45
0.0
 46
0.0
 47
0.0
 48
0.0
140
10.0
141
0.09
142
0.0
143
25.4
144
1.0
145
0.0
146
1.0
147
1.5
 71
     0
 72
     0
 73
     0
 74
     0
 75
     0
 76
     0
 77
     1
 78
     0
170
     0
171
     2
172
     1
173
     0
174
     1
175
     0
176
     0
177
     0
178
     0
270
     2
271
     0
272
     4
273
     2
274
     2
340
331
275
     0
280
     0
281
     0
282
     0
283
     1
284
     0
285
     0
286
     0
287
     3
288
     1
  0
ENDTAB
  0
TABLE
  2
BLOCK_RECORD
  5
1C45
330
0
100
AcDbSymbolTable
 70
    10
  0
BLOCK_RECORD
  5
1C63
330
1C45
100
AcDbSymbolTableRecord
100
AcDbBlockTableRecord
  2
*MODEL_SPACE
  0
BLOCK_RECORD
  5
1C5F
330
1C45
100
AcDbSymbolTableRecord
100
AcDbBlockTableRecord
  2
*PAPER_SPACE
  0
BLOCK_RECORD
  5
90
330
1C45
100
AcDbSymbolTableRecord
100
AcDbBlockTableRecord
  2
_OPEN
  0
BLOCK_RECORD
  5
1459
330
1C45
100
AcDbSymbolTableRecord
100
AcDbBlockTableRecord
  2
A10_100
  0
BLOCK_RECORD
  5
1C41
330
1C45
100
AcDbSymbolTableRecord
100
AcDbBlockTableRecord
  2
VDDIM_DEFAULT
  0
BLOCK_RECORD
  5
1C43
330
1C45
100
AcDbSymbolTableRecord
100
AcDbBlockTableRecord
  2
VDDIM_NONE
  0
BLOCK_RECORD
  5
1C96
330
1C45
100
AcDbSymbolTableRecord
100
AcDbBlockTableRecord
  2
*D5
  0
BLOCK_RECORD
  5
1CA3
330
1C45
100
AcDbSymbolTableRecord
100
AcDbBlockTableRecord
  2
*D6
  0
BLOCK_RECORD
  5
1CB0
330
1C45
100
AcDbSymbolTableRecord
100
AcDbBlockTableRecord
  2
*D7
  0
BLOCK_RECORD
  5
1CBD
330
1C45
100
AcDbSymbolTableRecord
100
AcDbBlockTableRecord
  2
*D8
  0
BLOCK_RECORD
  5
1CC9
330
1C45
100
AcDbSymbolTableRecord
100
AcDbBlockTableRecord
  2
*D9
  0
ENDTAB
  0
ENDSEC
  0
SECTION
  2
BLOCKS
  0
BLOCK
  5
1C64
330
1C63
100
AcDbEntity
  8
0
100
AcDbBlockBegin
  2
*MODEL_SPACE
 70
     0
 71
     0
 10
0.0
 20
0.0
 30
0.0
  3
*MODEL_SPACE
  1

  0
ENDBLK
  5
1C65
330
1C63
100
AcDbEntity
  8
0
100
AcDbBlockEnd
  0
BLOCK
  5
1C60
330
1C5F
100
AcDbEntity
 67
     1
  8
0
100
AcDbBlockBegin
  2
*PAPER_SPACE
 70
     0
 71
     0
 10
0.0
 20
0.0
 30
0.0
  3
*PAPER_SPACE
  1

  0
ENDBLK
  5
1C61
330
1C5F
100
AcDbEntity
 67
     1
  8
0
100
AcDbBlockEnd
  0
BLOCK
  5
1C8D
330
90
100
AcDbEntity
  8
0
100
AcDbBlockBegin
  2
_OPEN
 70
     0
 71
     0
 10
0.0
 20
0.0
 30
0.0
  3
_OPEN
  1

  0
LINE
  5
92
330
90
100
AcDbEntity
  8
0
  6
BYBLOCK
 62
     0
100
AcDbLine
 10
-1.0
 20
0.166667
 30
0.0
 11
0.0
 21
0.0
 31
0.0
  0
LINE
  5
93
330
90
100
AcDbEntity
  8
0
  6
BYBLOCK
 62
     0
100
AcDbLine
 10
0.0
 20
0.0
 30
0.0
 11
-1.0
 21
-0.166667
 31
0.0
  0
LINE
  5
94
330
90
100
AcDbEntity
  8
0
  6
BYBLOCK
 62
     0
100
AcDbLine
 10
0.0
 20
0.0
 30
0.0
 11
-1.0
 21
0.0
 31
0.0
  0
ENDBLK
  5
1C8E
330
90
100
AcDbEntity
  8
0
100
AcDbBlockEnd
  0
BLOCK
  5
1C8F
330
1459
100
AcDbEntity
  8
0
100
AcDbBlockBegin
  2
A10_100
 70
     0
 71
     0
 10
0.0
 20
0.0
 30
0.0
  3
A10_100
  1

  0
ENDBLK
  5
1C90
330
1459
100
AcDbEntity
  8
0
100
AcDbBlockEnd
  0
BLOCK
  5
1C91
330
1C41
100
AcDbEntity
  8
0
100
AcDbBlockBegin
  2
VDDIM_DEFAULT
 70
     0
 71
     0
 10
0.0
 20
0.0
 30
0.0
  3
VDDIM_DEFAULT
  1

  0
LWPOLYLINE
  5
1C42
330
1C41
100
AcDbEntity
  8
0
  6
CONTINUOUS
 62
     0
100
AcDbPolyline
 90
        4
 70
     0
 43
0.0
 10
0.0
 20
0.0
 10
-1.0
 20
-0.1665
 10
-1.0
 20
0.1665
 10
0.0
 20
0.0
1001
VDEXTRAPARAM
1071
        1
1071
        0
1071
        0
1040
1.0
1000

1000

1040
0.0
1040
0.0
  0
HATCH
  5
1C95
330
1C41
100
AcDbEntity
  8
0
  6
CONTINUOUS
 62
     0
100
AcDbHatch
 10
0.0
 20
0.0
 30
0.0
210
0.0
220
0.0
230
1.0
  2
SOLID
 70
     1
 71
     0
 91
        1
 92
        2
 72
     0
 73
     1
 93
        3
 10
0.0
 20
0.0
 10
-1.0
 20
-0.1665
 10
-1.0
 20
0.1665
 97
        0
 75
     0
 76
     1
 98
        1
 10
0.0
 20
0.0
1001
VDEXTRAPARAM
1071
        1
1071
        0
1071
        0
1040
1.0
1000

1000

1040
0.0
1040
0.0
1001
VD_TEMPHATCH
1000
VD_TEMPHATCH
  0
ENDBLK
  5
1C92
330
1C41
100
AcDbEntity
  8
0
100
AcDbBlockEnd
  0
BLOCK
  5
1C93
330
1C43
100
AcDbEntity
  8
0
100
AcDbBlockBegin
  2
VDDIM_NONE
 70
     0
 71
     0
 10
0.0
 20
0.0
 30
0.0
  3
VDDIM_NONE
  1

  0
ENDBLK
  5
1C94
330
1C43
100
AcDbEntity
  8
0
100
AcDbBlockEnd
  0
BLOCK
  5
1CA1
330
1C96
100
AcDbEntity
  8
0
100
AcDbBlockBegin
  2
*D5
 70
     1
 71
     0
 10
0.0
 20
0.0
 30
0.0
  3
*D5
  1

  0
LINE
  5
1C97
330
1C96
100
AcDbEntity
  8
V0-VYPLNE
 62
     0
100
AcDbLine
 10
28.641239
 20
-277.166006
 30
0.0
 11
28.64123899999999
 21
-335.7463759999955
 31
0.0
  0
LINE
  5
1C98
330
1C96
100
AcDbEntity
  8
V0-VYPLNE
 62
     0
100
AcDbLine
 10
383.641239
 20
-277.166006
 30
0.0
 11
383.641239
 21
-335.7463759999955
 31
0.0
  0
LINE
  5
1C99
330
1C96
100
AcDbEntity
  8
V0-VYPLNE
 62
     0
100
AcDbLine
 10
53.64123899999999
 20
-334.4963759999955
 30
0.0
 11
146.1172718571429
 21
-334.4963759999955
 31
0.0
  0
LINE
  5
1C9A
330
1C96
100
AcDbEntity
  8
V0-VYPLNE
 62
     0
100
AcDbLine
 10
358.641239
 20
-334.4963759999955
 30
0.0
 11
258.4029861428571
 21
-334.4963759999955
 31
0.0
  0
INSERT
  5
1C9B
330
1C96
100
AcDbEntity
  8
V0-VYPLNE
 62
     0
100
AcDbBlockReference
  2
_OPEN
 10
28.64123899999999
 20
-334.4963759999955
 30
0.0
 41
25.0
 42
25.0
 43
25.0
 50
180.0
  0
INSERT
  5
1C9C
330
1C96
100
AcDbEntity
  8
V0-VYPLNE
 62
     0
100
AcDbBlockReference
  2
_OPEN
 10
383.641239
 20
-334.4963759999955
 30
0.0
 41
25.0
 42
25.0
 43
25.0
  0
MTEXT
  5
1C9D
330
1C96
100
AcDbEntity
  8
V0-VYPLNE
 62
     0
100
AcDbMText
 10
202.260129
 20
-334.496376
 30
0.0
 40
30.0
 41
0.0
 71
     5
 72
     1
  1
%%c\A1;355
  7
ED30
  0
POINT
  5
1C9E
330
1C96
100
AcDbEntity
  8
DEFPOINTS
 62
     0
100
AcDbPoint
 10
28.641239
 20
-276.166006
 30
0.0
  0
POINT
  5
1C9F
330
1C96
100
AcDbEntity
  8
DEFPOINTS
 62
     0
100
AcDbPoint
 10
383.641239
 20
-276.166006
 30
0.0
  0
POINT
  5
1CA0
330
1C96
100
AcDbEntity
  8
DEFPOINTS
 62
     0
100
AcDbPoint
 10
383.641239
 20
-334.4963759999955
 30
0.0
  0
ENDBLK
  5
1CA2
330
1C96
100
AcDbEntity
  8
0
100
AcDbBlockEnd
  0
BLOCK
  5
1CAE
330
1CA3
100
AcDbEntity
  8
0
100
AcDbBlockBegin
  2
*D6
 70
     1
 71
     0
 10
0.0
 20
0.0
 30
0.0
  3
*D6
  1

  0
LINE
  5
1CA4
330
1CA3
100
AcDbEntity
  8
V0-VYPLNE
 62
     0
100
AcDbLine
 10
-18.858761
 20
-277.166006
 30
0.0
 11
-18.85876100000002
 21
-390.2473719999834
 31
0.0
  0
LINE
  5
1CA5
330
1CA3
100
AcDbEntity
  8
V0-VYPLNE
 62
     0
100
AcDbLine
 10
431.141239
 20
-277.166006
 30
0.0
 11
431.141239
 21
-390.2473719999834
 31
0.0
  0
LINE
  5
1CA6
330
1CA3
100
AcDbEntity
  8
V0-VYPLNE
 62
     0
100
AcDbLine
 10
6.141238999999985
 20
-388.9973719999834
 30
0.0
 11
155.7921814285714
 21
-388.9973719999834
 31
0.0
  0
LINE
  5
1CA7
330
1CA3
100
AcDbEntity
  8
V0-VYPLNE
 62
     0
100
AcDbLine
 10
406.141239
 20
-388.9973719999834
 30
0.0
 11
240.9350385714286
 21
-388.9973719999834
 31
0.0
  0
INSERT
  5
1CA8
330
1CA3
100
AcDbEntity
  8
V0-VYPLNE
 62
     0
100
AcDbBlockReference
  2
_OPEN
 10
-18.85876100000002
 20
-388.9973719999834
 30
0.0
 41
25.0
 42
25.0
 43
25.0
 50
180.0
  0
INSERT
  5
1CA9
330
1CA3
100
AcDbEntity
  8
V0-VYPLNE
 62
     0
100
AcDbBlockReference
  2
_OPEN
 10
431.141239
 20
-388.9973719999834
 30
0.0
 41
25.0
 42
25.0
 43
25.0
  0
MTEXT
  5
1CAA
330
1CA3
100
AcDbEntity
  8
V0-VYPLNE
 62
     0
100
AcDbMText
 10
198.36361
 20
-388.997372
 30
0.0
 40
30.0
 41
0.0
 71
     5
 72
     1
  1
\A1;450
  7
ED30
  0
POINT
  5
1CAB
330
1CA3
100
AcDbEntity
  8
DEFPOINTS
 62
     0
100
AcDbPoint
 10
-18.858761
 20
-276.166006
 30
0.0
  0
POINT
  5
1CAC
330
1CA3
100
AcDbEntity
  8
DEFPOINTS
 62
     0
100
AcDbPoint
 10
431.141239
 20
-276.166006
 30
0.0
  0
POINT
  5
1CAD
330
1CA3
100
AcDbEntity
  8
DEFPOINTS
 62
     0
100
AcDbPoint
 10
431.141239
 20
-388.9973719999834
 30
0.0
  0
ENDBLK
  5
1CAF
330
1CA3
100
AcDbEntity
  8
0
100
AcDbBlockEnd
  0
BLOCK
  5
1CBB
330
1CB0
100
AcDbEntity
  8
0
100
AcDbBlockBegin
  2
*D7
 70
     1
 71
     0
 10
0.0
 20
0.0
 30
0.0
  3
*D7
  1

  0
LINE
  5
1CB1
330
1CB0
100
AcDbEntity
  8
V0-VYPLNE
 62
     0
100
AcDbLine
 10
-73.858761
 20
-277.166006
 30
0.0
 11
-73.85876100000002
 21
-456.4271510000107
 31
0.0
  0
LINE
  5
1CB2
330
1CB0
100
AcDbEntity
  8
V0-VYPLNE
 62
     0
100
AcDbLine
 10
486.141239
 20
-277.166006
 30
0.0
 11
486.141239
 21
-456.4271510000108
 31
0.0
  0
LINE
  5
1CB3
330
1CB0
100
AcDbEntity
  8
V0-VYPLNE
 62
     0
100
AcDbLine
 10
-48.85876100000002
 20
-455.1771510000107
 30
0.0
 11
163.5698104285714
 21
-455.1771510000108
 31
0.0
  0
LINE
  5
1CB4
330
1CB0
100
AcDbEntity
  8
V0-VYPLNE
 62
     0
100
AcDbLine
 10
461.141239
 20
-455.1771510000108
 30
0.0
 11
248.7126675714286
 21
-455.1771510000108
 31
0.0
  0
INSERT
  5
1CB5
330
1CB0
100
AcDbEntity
  8
V0-VYPLNE
 62
     0
100
AcDbBlockReference
  2
_OPEN
 10
-73.85876100000002
 20
-455.1771510000107
 30
0.0
 41
25.0
 42
25.0
 43
25.0
 50
180.0
  0
INSERT
  5
1CB6
330
1CB0
100
AcDbEntity
  8
V0-VYPLNE
 62
     0
100
AcDbBlockReference
  2
_OPEN
 10
486.141239
 20
-455.1771510000108
 30
0.0
 41
25.0
 42
25.0
 43
25.0
 50
360.0
  0
MTEXT
  5
1CB7
330
1CB0
100
AcDbEntity
  8
V0-VYPLNE
 62
     0
100
AcDbMText
 10
206.141239
 20
-455.177151
 30
0.0
 40
30.0
 41
0.0
 71
     5
 72
     1
  1
\A1;560
  7
ED30
  0
POINT
  5
1CB8
330
1CB0
100
AcDbEntity
  8
DEFPOINTS
 62
     0
100
AcDbPoint
 10
-73.858761
 20
-276.166006
 30
0.0
  0
POINT
  5
1CB9
330
1CB0
100
AcDbEntity
  8
DEFPOINTS
 62
     0
100
AcDbPoint
 10
486.141239
 20
-276.166006
 30
0.0
  0
POINT
  5
1CBA
330
1CB0
100
AcDbEntity
  8
DEFPOINTS
 62
     0
100
AcDbPoint
 10
486.141239
 20
-455.1771510000108
 30
0.0
  0
ENDBLK
  5
1CBC
330
1CB0
100
AcDbEntity
  8
0
100
AcDbBlockEnd
  0
BLOCK
  5
1CC7
330
1CBD
100
AcDbEntity
  8
0
100
AcDbBlockBegin
  2
*D8
 70
     1
 71
     0
 10
0.0
 20
0.0
 30
0.0
  3
*D8
  1

  0
LINE
  5
1CBE
330
1CBD
100
AcDbEntity
  8
V0-VYPLNE
 62
     0
100
AcDbLine
 10
-168.858761
 20
288.833994
 30
0.0
 11
-168.858761
 21
407.1120510000038
 31
0.0
  0
LINE
  5
1CBF
330
1CBD
100
AcDbEntity
  8
V0-VYPLNE
 62
     0
100
AcDbLine
 10
581.141239
 20
288.833994
 30
0.0
 11
581.141239
 21
407.1120510000037
 31
0.0
  0
LINE
  5
1CC0
330
1CBD
100
AcDbEntity
  8
V0-VYPLNE
 62
     0
100
AcDbLine
 10
-143.858761
 20
405.8620510000038
 30
0.0
 11
556.141239
 21
405.8620510000037
 31
0.0
  0
INSERT
  5
1CC1
330
1CBD
100
AcDbEntity
  8
V0-VYPLNE
 62
     0
100
AcDbBlockReference
  2
_OPEN
 10
-168.858761
 20
405.8620510000038
 30
0.0
 41
25.0
 42
25.0
 43
25.0
 50
180.0
  0
INSERT
  5
1CC2
330
1CBD
100
AcDbEntity
  8
V0-VYPLNE
 62
     0
100
AcDbBlockReference
  2
_OPEN
 10
581.141239
 20
405.8620510000037
 30
0.0
 41
25.0
 42
25.0
 43
25.0
 50
360.0
  0
MTEXT
  5
1CC3
330
1CBD
100
AcDbEntity
  8
V0-VYPLNE
 62
     0
100
AcDbMText
 10
206.1412390000001
 20
424.8620510000037
 30
0.0
 40
30.0
 41
0.0
 71
     5
 72
     1
  1
%%c\A1;750
  7
ED30
  0
POINT
  5
1CC4
330
1CBD
100
AcDbEntity
  8
DEFPOINTS
 62
     0
100
AcDbPoint
 10
-168.858761
 20
287.833994
 30
0.0
  0
POINT
  5
1CC5
330
1CBD
100
AcDbEntity
  8
DEFPOINTS
 62
     0
100
AcDbPoint
 10
581.141239
 20
287.833994
 30
0.0
  0
POINT
  5
1CC6
330
1CBD
100
AcDbEntity
  8
DEFPOINTS
 62
     0
100
AcDbPoint
 10
581.141239
 20
405.8620510000037
 30
0.0
  0
ENDBLK
  5
1CC8
330
1CBD
100
AcDbEntity
  8
0
100
AcDbBlockEnd
  0
BLOCK
  5
1CD3
330
1CC9
100
AcDbEntity
  8
0
100
AcDbBlockBegin
  2
*D9
 70
     1
 71
     0
 10
0.0
 20
0.0
 30
0.0
  3
*D9
  1

  0
LINE
  5
1CCA
330
1CC9
100
AcDbEntity
  8
V0-VYPLNE
 62
     0
100
AcDbLine
 10
582.141239
 20
287.833994
 30
0.0
 11
670.4391260000095
 21
287.833994
 31
0.0
  0
LINE
  5
1CCB
330
1CC9
100
AcDbEntity
  8
V0-VYPLNE
 62
     0
100
AcDbLine
 10
487.141239
 20
-276.166006
 30
0.0
 11
670.4391260000095
 21
-276.166006
 31
0.0
  0
LINE
  5
1CCC
330
1CC9
100
AcDbEntity
  8
V0-VYPLNE
 62
     0
100
AcDbLine
 10
669.1891260000095
 20
262.8339940000001
 30
0.0
 11
669.1891260000095
 21
-251.1660059999999
 31
0.0
  0
INSERT
  5
1CCD
330
1CC9
100
AcDbEntity
  8
V0-VYPLNE
 62
     0
100
AcDbBlockReference
  2
_OPEN
 10
669.1891260000095
 20
287.8339940000001
 30
0.0
 41
25.0
 42
25.0
 43
25.0
 50
90.0
  0
INSERT
  5
1CCE
330
1CC9
100
AcDbEntity
  8
V0-VYPLNE
 62
     0
100
AcDbBlockReference
  2
_OPEN
 10
669.1891260000095
 20
-276.1660059999999
 30
0.0
 41
25.0
 42
25.0
 43
25.0
 50
270.0
  0
MTEXT
  5
1CCF
330
1CC9
100
AcDbEntity
  8
V0-VYPLNE
 62
     0
100
AcDbMText
 10
650.1891260000095
 20
5.833994000000018
 30
0.0
 40
30.0
 41
0.0
 71
     5
 72
     1
  1
\A1;564
  7
ED30
 11
0.0
 21
1.0
 31
0.0
  0
POINT
  5
1CD0
330
1CC9
100
AcDbEntity
  8
DEFPOINTS
 62
     0
100
AcDbPoint
 10
581.141239
 20
287.833994
 30
0.0
  0
POINT
  5
1CD1
330
1CC9
100
AcDbEntity
  8
DEFPOINTS
 62
     0
100
AcDbPoint
 10
486.141239
 20
-276.166006
 30
0.0
  0
POINT
  5
1CD2
330
1CC9
100
AcDbEntity
  8
DEFPOINTS
 62
     0
100
AcDbPoint
 10
669.1891260000095
 20
-276.166006
 30
0.0
  0
ENDBLK
  5
1CD4
330
1CC9
100
AcDbEntity
  8
0
100
AcDbBlockEnd
  0
ENDSEC
  0
SECTION
  2
ENTITIES
  0
LINE
  5
1127
330
1C63
100
AcDbEntity
  8
V0-VYPLNE
  6
DASHDOT
 62
    63
100
AcDbLine
 10
206.141239
 20
361.702357
 30
0.0
 11
206.141239
 21
-245.1962600000001
 31
0.0
  0
CIRCLE
  5
11B0
330
1C63
100
AcDbEntity
  8
V0-VYPLNE
  6
DASHED
 62
    56
100
AcDbCircle
 10
430.801339
 20
-667.738143
 30
0.0
 40
6.41886
  0
LINE
  5
11B1
330
1C63
100
AcDbEntity
  8
V0-VYPLNE
 62
    63
100
AcDbLine
 10
430.801339
 20
-695.247543
 30
0.0
 11
430.801339
 21
-640.228743
 31
0.0
  0
LINE
  5
11BE
330
1C63
100
AcDbEntity
  8
V0-VYPLNE
100
AcDbLine
 10
-18.858761
 20
-286.166006
 30
0.0
 11
-18.858761
 21
-236.166006
 31
0.0
  0
LINE
  5
11BF
330
1C63
100
AcDbEntity
  8
V0-VYPLNE
100
AcDbLine
 10
431.141239
 20
-286.166006
 30
0.0
 11
431.141239
 21
-236.166006
 31
0.0
  0
POINT
  5
12BC
330
1C63
100
AcDbEntity
  8
V0-VYPLNE
  6
CONTINUOUS
 62
    41
100
AcDbPoint
 10
206.141239
 20
-892.398243
 30
0.0
  0
POINT
  5
12BD
330
1C63
100
AcDbEntity
  8
V0-VYPLNE
  6
CONTINUOUS
 62
    41
100
AcDbPoint
 10
206.141239
 20
-276.166006
 30
0.0
  0
LINE
  5
13BB
330
1C63
100
AcDbEntity
  8
V0-VYPLNE
  6
DASHDOT
 62
    63
100
AcDbLine
 10
-102.47022
 20
-892.398243
 30
0.0
 11
542.444268
 21
-892.398243
 31
0.0
  0
CIRCLE
  5
13BE
330
1C63
100
AcDbEntity
  8
V0-OBRYS
  6
CONTINUOUS
 62
    90
100
AcDbCircle
 10
206.141239
 20
-892.398243
 30
0.0
 40
374.844002
  0
CIRCLE
  5
13C0
330
1C63
100
AcDbEntity
  8
V0-OBRYS
  6
CONTINUOUS
 62
    90
100
AcDbCircle
 10
206.141239
 20
-892.398243
 30
0.0
 40
175.046888
  0
LINE
  5
13C2
330
1C63
100
AcDbEntity
  8
V0-VYPLNE
 62
    63
100
AcDbLine
 10
458.310739
 20
-667.738143
 30
0.0
 11
403.291939
 21
-667.738143
 31
0.0
  0
LINE
  5
13C5
330
1C63
100
AcDbEntity
  8
V0-VYPLNE
 62
    63
100
AcDbLine
 10
8.990539
 20
-667.738143
 30
0.0
 11
-46.028261
 21
-667.738143
 31
0.0
  0
LINE
  5
13C6
330
1C63
100
AcDbEntity
  8
V0-VYPLNE
 62
    63
100
AcDbLine
 10
-18.518861
 20
-640.228743
 30
0.0
 11
-18.518861
 21
-695.247543
 31
0.0
  0
CIRCLE
  5
13C7
330
1C63
100
AcDbEntity
  8
V0-VYPLNE
  6
DASHED
 62
    56
100
AcDbCircle
 10
-18.518861
 20
-667.738143
 30
0.0
 40
6.41886
  0
LINE
  5
13C8
330
1C63
100
AcDbEntity
  8
V0-VYPLNE
 62
    63
100
AcDbLine
 10
-18.518861
 20
-1089.548943
 30
0.0
 11
-18.518861
 21
-1144.567743
 31
0.0
  0
LINE
  5
13C9
330
1C63
100
AcDbEntity
  8
V0-VYPLNE
 62
    63
100
AcDbLine
 10
-46.028261
 20
-1117.058343
 30
0.0
 11
8.990538999999998
 21
-1117.058343
 31
0.0
  0
CIRCLE
  5
13CA
330
1C63
100
AcDbEntity
  8
V0-VYPLNE
  6
DASHED
 62
    56
100
AcDbCircle
 10
-18.518861
 20
-1117.058343
 30
0.0
 40
6.41886
  0
LINE
  5
13CB
330
1C63
100
AcDbEntity
  8
V0-VYPLNE
 62
    63
100
AcDbLine
 10
403.291939
 20
-1117.058343
 30
0.0
 11
458.310739
 21
-1117.058343
 31
0.0
  0
LINE
  5
13CC
330
1C63
100
AcDbEntity
  8
V0-VYPLNE
 62
    63
100
AcDbLine
 10
430.801339
 20
-1144.567743
 30
0.0
 11
430.801339
 21
-1089.548943
 31
0.0
  0
CIRCLE
  5
13CD
330
1C63
100
AcDbEntity
  8
V0-VYPLNE
  6
DASHED
 62
    56
100
AcDbCircle
 10
430.801339
 20
-1117.058343
 30
0.0
 40
6.41886
  0
LINE
  5
13CE
330
1C63
100
AcDbEntity
  8
V0-VYPLNE
  6
DASHED
 62
    52
100
AcDbLine
 10
485.941239
 20
-613.598243
 30
0.0
 11
-73.65876100000003
 21
-613.598243
 31
0.0
  0
LINE
  5
13CF
330
1C63
100
AcDbEntity
  8
V0-VYPLNE
  6
DASHED
 62
    52
100
AcDbLine
 10
-73.658761
 20
-613.598243
 30
0.0
 11
-73.658761
 21
-1172.198243
 31
0.0
  0
LINE
  5
13D0
330
1C63
100
AcDbEntity
  8
V0-VYPLNE
  6
DASHED
 62
    52
100
AcDbLine
 10
-73.658761
 20
-1172.198243
 30
0.0
 11
485.941239
 21
-1172.198243
 31
0.0
  0
LINE
  5
13D1
330
1C63
100
AcDbEntity
  8
V0-VYPLNE
  6
DASHED
 62
    52
100
AcDbLine
 10
485.941239
 20
-1172.198243
 30
0.0
 11
485.941239
 21
-613.598243
 31
0.0
  0
LINE
  5
13D2
330
1C63
100
AcDbEntity
  8
V0-OBRYS
  6
CONTINUOUS
 62
    90
100
AcDbLine
 10
-73.858761
 20
-276.166006
 30
0.0
 11
486.141239
 21
-276.166006
 31
0.0
  0
LINE
  5
13D3
330
1C63
100
AcDbEntity
  8
V0-OBRYS
  6
CONTINUOUS
 62
    90
100
AcDbLine
 10
486.141239
 20
-276.166006
 30
0.0
 11
486.141239
 21
-261.166006
 31
0.0
  0
LINE
  5
13D4
330
1C63
100
AcDbEntity
  8
V0-OBRYS
  6
CONTINUOUS
 62
    90
100
AcDbLine
 10
486.141239
 20
-261.166006
 30
0.0
 11
-73.85876100000002
 21
-261.166006
 31
0.0
  0
LINE
  5
13D5
330
1C63
100
AcDbEntity
  8
V0-OBRYS
  6
CONTINUOUS
 62
    90
100
AcDbLine
 10
-73.858761
 20
-261.166006
 30
0.0
 11
-73.858761
 21
-276.166006
 31
0.0
  0
LINE
  5
13D6
330
1C63
100
AcDbEntity
  8
V0-OBRYS
  6
CONTINUOUS
 62
    90
100
AcDbLine
 10
-31.358761
 20
-261.166006
 30
0.0
 11
-31.358761
 21
-258.166006
 31
0.0
  0
LINE
  5
13D7
330
1C63
100
AcDbEntity
  8
V0-OBRYS
  6
CONTINUOUS
 62
    90
100
AcDbLine
 10
-31.358761
 20
-258.166006
 30
0.0
 11
443.641239
 21
-258.166006
 31
0.0
  0
LINE
  5
13D8
330
1C63
100
AcDbEntity
  8
V0-OBRYS
  6
CONTINUOUS
 62
    90
100
AcDbLine
 10
443.641239
 20
-258.166006
 30
0.0
 11
443.641239
 21
-261.166006
 31
0.0
  0
LINE
  5
13EA
330
1C63
100
AcDbEntity
  8
V0-OBRYS
  6
CONTINUOUS
 62
    90
100
AcDbLine
 10
383.641239
 20
-256.166006
 30
0.0
 11
383.641239
 21
-276.166006
 31
0.0
  0
LINE
  5
1456
330
1C63
100
AcDbEntity
  8
V0-OBRYS
  6
CONTINUOUS
 62
    90
100
AcDbLine
 10
28.641239
 20
-256.166006
 30
0.0
 11
28.641239
 21
-276.166006
 31
0.0
  0
INSERT
  5
145C
330
1C63
100
AcDbEntity
  8
V0-VYPLNE
  6
CONTINUOUS
 62
    52
100
AcDbBlockReference
  2
A10_100
 10
1091.344077
 20
-456.786598
 30
0.0
  0
DIMENSION
  5
1469
330
1C63
100
AcDbEntity
  8
V0-VYPLNE
  6
CONTINUOUS
 62
    41
100
AcDbDimension
  2
*D5
 10
383.641239
 20
-334.4963759999955
 30
0.0
 11
202.260129
 21
-334.496376
 31
0.0
 70
   160
  1
%%c<>
  3
ED30
100
AcDbAlignedDimension
 13
28.641239
 23
-276.166006
 33
0.0
 14
383.641239
 24
-276.166006
 34
0.0
100
AcDbRotatedDimension
  0
DIMENSION
  5
1476
330
1C63
100
AcDbEntity
  8
V0-VYPLNE
  6
CONTINUOUS
 62
    41
100
AcDbDimension
  2
*D6
 10
431.141239
 20
-388.9973719999834
 30
0.0
 11
198.36361
 21
-388.997372
 31
0.0
 70
   160
  3
ED30
100
AcDbAlignedDimension
 13
-18.858761
 23
-276.166006
 33
0.0
 14
431.141239
 24
-276.166006
 34
0.0
100
AcDbRotatedDimension
  0
DIMENSION
  5
1483
330
1C63
100
AcDbEntity
  8
V0-VYPLNE
  6
CONTINUOUS
 62
    41
100
AcDbDimension
  2
*D7
 10
486.141239
 20
-455.1771510000108
 30
0.0
 11
206.141239
 21
-455.177151
 31
0.0
 70
   160
  3
ED30
100
AcDbAlignedDimension
 13
-73.858761
 23
-276.166006
 33
0.0
 14
486.141239
 24
-276.166006
 34
0.0
100
AcDbRotatedDimension
  0
LINE
  5
14A6
330
1C63
100
AcDbEntity
  8
V0-VYPLNE
  6
CONTINUOUS
 62
    41
100
AcDbLine
 10
133.321844
 20
-446.567057
 30
0.0
 11
145.875252
 21
-424.188464
 31
0.0
  0
LWPOLYLINE
  5
14A7
330
1C63
100
AcDbEntity
  8
V0-VYPLNE
  6
CONTINUOUS
 62
    41
100
AcDbPolyline
 90
        4
 70
     1
 43
0.0
 10
133.415426
 20
-442.011863
 10
146.765232
 20
-442.011863
 10
146.765232
 20
-428.674352
 10
133.415426
 20
-428.674352
  0
LWPOLYLINE
  5
14A8
330
1C63
100
AcDbEntity
  8
V0-VYPLNE
  6
CONTINUOUS
 62
    41
100
AcDbPolyline
 90
        4
 70
     1
 43
0.0
 10
133.415426
 20
-382.444335
 10
146.765232
 20
-382.444335
 10
146.765232
 20
-369.106824
 10
133.415426
 20
-369.106824
  0
LINE
  5
14A9
330
1C63
100
AcDbEntity
  8
V0-VYPLNE
  6
CONTINUOUS
 62
    41
100
AcDbLine
 10
133.321844
 20
-386.999529
 30
0.0
 11
145.875252
 21
-364.620935
 31
0.0
  0
LINE
  5
19B4
330
1C63
100
AcDbEntity
  8
V0-OBRYS
  6
CONTINUOUS
 62
    90
100
AcDbLine
 10
-53.490618
 20
-613.598243
 30
0.0
 11
-73.658761
 21
-613.598243
 31
0.0
  0
LINE
  5
19B5
330
1C63
100
AcDbEntity
  8
V0-OBRYS
  6
CONTINUOUS
 62
    90
100
AcDbLine
 10
-73.658761
 20
-613.598243
 30
0.0
 11
-73.658761
 21
-633.844378
 31
0.0
  0
LINE
  5
19B6
330
1C63
100
AcDbEntity
  8
V0-OBRYS
  6
CONTINUOUS
 62
    90
100
AcDbLine
 10
465.773095
 20
-613.598243
 30
0.0
 11
485.941239
 21
-613.598243
 31
0.0
  0
LINE
  5
19B7
330
1C63
100
AcDbEntity
  8
V0-OBRYS
  6
CONTINUOUS
 62
    90
100
AcDbLine
 10
485.941239
 20
-613.598243
 30
0.0
 11
485.941239
 21
-633.844378
 31
0.0
  0
LINE
  5
19B8
330
1C63
100
AcDbEntity
  8
V0-OBRYS
  6
CONTINUOUS
 62
    90
100
AcDbLine
 10
464.695103
 20
-1172.198243
 30
0.0
 11
485.941239
 21
-1172.198243
 31
0.0
  0
LINE
  5
19B9
330
1C63
100
AcDbEntity
  8
V0-OBRYS
  6
CONTINUOUS
 62
    90
100
AcDbLine
 10
485.941239
 20
-1172.198243
 30
0.0
 11
485.941239
 21
-1150.952107
 31
0.0
  0
LINE
  5
19BA
330
1C63
100
AcDbEntity
  8
V0-OBRYS
  6
CONTINUOUS
 62
    90
100
AcDbLine
 10
-73.658761
 20
-1150.952107
 30
0.0
 11
-73.658761
 21
-1172.198243
 31
0.0
  0
LINE
  5
19BB
330
1C63
100
AcDbEntity
  8
V0-OBRYS
  6
CONTINUOUS
 62
    90
100
AcDbLine
 10
-73.658761
 20
-1172.198243
 30
0.0
 11
-52.412626
 21
-1172.198243
 31
0.0
  0
LINE
  5
1A7D
330
1C63
100
AcDbEntity
  8
V0-VYPLNE
  6
DASHDOT
 62
    63
100
AcDbLine
 10
206.141239
 20
-489.441463
 30
0.0
 11
206.141239
 21
-1228.701271
 31
0.0
  0
LINE
  5
1A7F
330
1C63
100
AcDbEntity
  8
V0-OBRYS
  6
CONTINUOUS
 62
    90
100
AcDbLine
 10
71.141239
 20
319.833994
 30
0.0
 11
341.141239
 21
319.833994
 31
0.0
  0
LINE
  5
1A80
330
1C63
100
AcDbEntity
  8
V0-OBRYS
  6
CONTINUOUS
 62
    90
100
AcDbLine
 10
-168.858761
 20
287.833994
 30
0.0
 11
581.141239
 21
287.833994
 31
0.0
  0
LINE
  5
1A81
330
1C63
100
AcDbEntity
  8
V0-OBRYS
  6
CONTINUOUS
 62
    90
100
AcDbLine
 10
56.141239
 20
287.833994
 30
0.0
 11
56.141239
 21
304.833994
 31
0.0
  0
ARC
  5
1A82
330
1C63
100
AcDbEntity
  8
V0-OBRYS
  6
CONTINUOUS
 62
    90
100
AcDbCircle
 10
71.141239
 20
304.833994
 30
0.0
 40
15.0
100
AcDbArc
 50
90.0
 51
180.0
  0
ARC
  5
1A83
330
1C63
100
AcDbEntity
  8
V0-OBRYS
  6
CONTINUOUS
 62
    90
100
AcDbCircle
 10
341.141239
 20
304.833994
 30
0.0
 40
15.0
100
AcDbArc
 50
360.0
 51
90.0
  0
LINE
  5
1A84
330
1C63
100
AcDbEntity
  8
V0-OBRYS
  6
CONTINUOUS
 62
    90
100
AcDbLine
 10
356.141239
 20
287.833994
 30
0.0
 11
356.141239
 21
304.833994
 31
0.0
  0
LINE
  5
1A85
330
1C63
100
AcDbEntity
  8
V0-OBRYS
  6
CONTINUOUS
 62
    90
100
AcDbLine
 10
-168.858761
 20
287.833994
 30
0.0
 11
-168.858761
 21
161.231694
 31
0.0
  0
ARC
  5
1A86
330
1C63
100
AcDbEntity
  8
V0-OBRYS
  6
CONTINUOUS
 62
    90
100
AcDbCircle
 10
438.816474
 20
172.068625
 30
0.0
 40
608.078811
100
AcDbArc
 50
177.912415
 51
224.996841
  0
LINE
  5
1A87
330
1C63
100
AcDbEntity
  8
V0-OBRYS
  6
CONTINUOUS
 62
    90
100
AcDbLine
 10
581.141239
 20
287.833994
 30
0.0
 11
581.141239
 21
161.231694
 31
0.0
  0
ARC
  5
1A88
330
1C63
100
AcDbEntity
  8
V0-OBRYS
  6
CONTINUOUS
 62
    90
100
AcDbCircle
 10
-26.533997
 20
172.068625
 30
0.0
 40
608.078811
100
AcDbArc
 50
315.003159
 51
2.087585
  0
LINE
  5
1A89
330
1C63
100
AcDbEntity
  8
V0-OBRYS
  6
CONTINUOUS
 62
    90
100
AcDbLine
 10
580.3052760000001
 20
263.369875
 30
0.0
 11
589.83009
 21
263.369875
 31
0.0
  0
LINE
  5
1A8A
330
1C63
100
AcDbEntity
  8
V0-OBRYS
  6
CONTINUOUS
 62
    90
100
AcDbLine
 10
589.83009
 20
263.369875
 30
0.0
 11
589.83009
 21
184.069485
 31
0.0
  0
LINE
  5
1A8B
330
1C63
100
AcDbEntity
  8
V0-OBRYS
  6
CONTINUOUS
 62
    90
100
AcDbLine
 10
589.83009
 20
184.069485
 30
0.0
 11
580.3052760000001
 21
184.069485
 31
0.0
  0
DIMENSION
  5
1AC4
330
1C63
100
AcDbEntity
  8
V0-VYPLNE
  6
CONTINUOUS
 62
    41
100
AcDbDimension
  2
*D8
 10
581.141239
 20
405.8620510000037
 30
0.0
 11
206.1412390000001
 21
424.8620510000037
 31
0.0
 70
    32
  1
%%c<>
  3
ED30
100
AcDbAlignedDimension
 13
-168.858761
 23
287.833994
 33
0.0
 14
581.141239
 24
287.833994
 34
0.0
100
AcDbRotatedDimension
  0
DIMENSION
  5
1ADC
330
1C63
100
AcDbEntity
  8
V0-VYPLNE
  6
CONTINUOUS
 62
    41
100
AcDbDimension
  2
*D9
 10
669.1891260000095
 20
-276.166006
 30
0.0
 11
650.1891260000095
 21
5.833994000000018
 31
0.0
 70
    32
  3
ED30
100
AcDbAlignedDimension
 13
581.141239
 23
287.833994
 33
0.0
 14
486.141239
 24
-276.166006
 34
0.0
 50
90.0
100
AcDbRotatedDimension
  0
LINE
  5
1AFC
330
1C63
100
AcDbEntity
  8
V0-OBRYS
  6
CONTINUOUS
 62
    90
100
AcDbLine
 10
369.341104
 20
-829.095658
 30
0.0
 11
575.601398
 21
-829.095658
 31
0.0
  0
LINE
  5
1AFD
330
1C63
100
AcDbEntity
  8
V0-OBRYS
  6
CONTINUOUS
 62
    90
100
AcDbLine
 10
369.341104
 20
-955.700827
 30
0.0
 11
575.601398
 21
-955.700827
 31
0.0
  0
LINE
  5
1AFF
330
1C63
100
AcDbEntity
  8
V0-OBRYS
  6
CONTINUOUS
 62
    90
100
AcDbLine
 10
746.433063
 20
287.833994
 30
0.0
 11
1496.433063
 21
287.833994
 31
0.0
  0
ARC
  5
1B00
330
1C63
100
AcDbEntity
  8
V0-OBRYS
  6
CONTINUOUS
 62
    90
100
AcDbCircle
 10
888.757827
 20
172.068625
 30
0.0
 40
608.078811
100
AcDbArc
 50
315.003159
 51
2.087585
  0
LINE
  5
1B01
330
1C63
100
AcDbEntity
  8
V0-OBRYS
  6
CONTINUOUS
 62
    90
100
AcDbLine
 10
1401.433063
 20
-261.166006
 30
0.0
 11
841.433063
 21
-261.166006
 31
0.0
  0
LINE
  5
1B02
330
1C63
100
AcDbEntity
  8
V0-OBRYS
  6
CONTINUOUS
 62
    90
100
AcDbLine
 10
841.433063
 20
-276.166006
 30
0.0
 11
1401.433063
 21
-276.166006
 31
0.0
  0
LINE
  5
1B03
330
1C63
100
AcDbEntity
  8
V0-OBRYS
  6
CONTINUOUS
 62
    90
100
AcDbLine
 10
883.933063
 20
-258.166006
 30
0.0
 11
1358.933063
 21
-258.166006
 31
0.0
  0
ARC
  5
1B04
330
1C63
100
AcDbEntity
  8
V0-OBRYS
  6
CONTINUOUS
 62
    90
100
AcDbCircle
 10
1354.108298
 20
172.068625
 30
0.0
 40
608.078811
100
AcDbArc
 50
177.912415
 51
224.996841
  0
LINE
  5
1B05
330
1C63
100
AcDbEntity
  8
V0-VYPLNE
100
AcDbLine
 10
896.433063
 20
-286.166006
 30
0.0
 11
896.433063
 21
-236.166006
 31
0.0
  0
LINE
  5
1B06
330
1C63
100
AcDbEntity
  8
V0-OBRYS
  6
CONTINUOUS
 62
    90
100
AcDbLine
 10
841.433063
 20
-261.166006
 30
0.0
 11
841.433063
 21
-276.166006
 31
0.0
  0
LINE
  5
1B07
330
1C63
100
AcDbEntity
  8
V0-OBRYS
  6
CONTINUOUS
 62
    90
100
AcDbLine
 10
883.933063
 20
-261.166006
 30
0.0
 11
883.933063
 21
-258.166006
 31
0.0
  0
LINE
  5
1B08
330
1C63
100
AcDbEntity
  8
V0-OBRYS
  6
CONTINUOUS
 62
    90
100
AcDbLine
 10
746.433063
 20
287.833994
 30
0.0
 11
746.433063
 21
161.231694
 31
0.0
  0
LINE
  5
1B0A
330
1C63
100
AcDbEntity
  8
V0-VYPLNE
  6
DASHDOT
 62
    63
100
AcDbLine
 10
1121.433063
 20
361.702357
 30
0.0
 11
1121.433063
 21
-245.1962600000001
 31
0.0
  0
LINE
  5
1B0C
330
1C63
100
AcDbEntity
  8
V0-OBRYS
  6
CONTINUOUS
 62
    90
100
AcDbLine
 10
943.933063
 20
-256.166006
 30
0.0
 11
943.933063
 21
-276.166006
 31
0.0
  0
POINT
  5
1B0D
330
1C63
100
AcDbEntity
  8
V0-VYPLNE
  6
CONTINUOUS
 62
    41
100
AcDbPoint
 10
1121.433063
 20
-276.166006
 30
0.0
  0
LINE
  5
1B0E
330
1C63
100
AcDbEntity
  8
V0-VYPLNE
100
AcDbLine
 10
1346.433063
 20
-286.166006
 30
0.0
 11
1346.433063
 21
-236.166006
 31
0.0
  0
LINE
  5
1B0F
330
1C63
100
AcDbEntity
  8
V0-OBRYS
  6
CONTINUOUS
 62
    90
100
AcDbLine
 10
1298.933063
 20
-256.166006
 30
0.0
 11
1298.933063
 21
-276.166006
 31
0.0
  0
LINE
  5
1B10
330
1C63
100
AcDbEntity
  8
V0-OBRYS
  6
CONTINUOUS
 62
    90
100
AcDbLine
 10
1358.933063
 20
-258.166006
 30
0.0
 11
1358.933063
 21
-261.166006
 31
0.0
  0
LINE
  5
1B11
330
1C63
100
AcDbEntity
  8
V0-OBRYS
  6
CONTINUOUS
 62
    90
100
AcDbLine
 10
986.433063
 20
319.833994
 30
0.0
 11
1256.433063
 21
319.833994
 31
0.0
  0
LINE
  5
1B12
330
1C63
100
AcDbEntity
  8
V0-OBRYS
  6
CONTINUOUS
 62
    90
100
AcDbLine
 10
971.433063
 20
287.833994
 30
0.0
 11
971.433063
 21
304.833994
 31
0.0
  0
ARC
  5
1B13
330
1C63
100
AcDbEntity
  8
V0-OBRYS
  6
CONTINUOUS
 62
    90
100
AcDbCircle
 10
986.433063
 20
304.833994
 30
0.0
 40
15.0
100
AcDbArc
 50
90.0
 51
180.0
  0
LINE
  5
1B14
330
1C63
100
AcDbEntity
  8
V0-OBRYS
  6
CONTINUOUS
 62
    90
100
AcDbLine
 10
1271.433063
 20
287.833994
 30
0.0
 11
1271.433063
 21
304.833994
 31
0.0
  0
ARC
  5
1B15
330
1C63
100
AcDbEntity
  8
V0-OBRYS
  6
CONTINUOUS
 62
    90
100
AcDbCircle
 10
1256.433063
 20
304.833994
 30
0.0
 40
15.0
100
AcDbArc
 50
360.0
 51
90.0
  0
LINE
  5
1B16
330
1C63
100
AcDbEntity
  8
V0-OBRYS
  6
CONTINUOUS
 62
    90
100
AcDbLine
 10
1401.433063
 20
-276.166006
 30
0.0
 11
1401.433063
 21
-261.166006
 31
0.0
  0
LINE
  5
1B17
330
1C63
100
AcDbEntity
  8
V0-OBRYS
  6
CONTINUOUS
 62
    90
100
AcDbLine
 10
1496.433063
 20
287.833994
 30
0.0
 11
1496.433063
 21
161.231694
 31
0.0
  0
TEXT
  5
1C33
330
1C63
100
AcDbEntity
  8
V0-NAZVY
  6
CONTINUOUS
100
AcDbText
 10
748.169646322619
 20
-761.071102647619
 30
0.0
 40
60.0
  1
CTVB/CTVT 315
  7
ED40
100
AcDbText
  0
LWPOLYLINE
  5
1C36
330
1C63
100
AcDbEntity
  8
V0-VYPLNE
  6
CONTINUOUS
 62
    41
100
AcDbPolyline
 90
        4
 70
     1
 43
0.0
 10
-29.96282347330215
 20
-246.6192072544976
 10
-18.73081
 20
-256.87064
 10
-32.68047660842173
 20
-250.8161539347849
 10
-32.68047660842173
 20
-250.8161539347849
1001
VDEXTRAPARAM
1071
       65
1071
        0
1071
        0
1040
1.0
1000

1000

1040
0.0
1040
0.0
  0
HATCH
  5
1CD5
330
1C63
100
AcDbEntity
  8
V0-VYPLNE
  6
CONTINUOUS
 62
    41
100
AcDbHatch
 10
0.0
 20
0.0
 30
0.0
210
0.0
220
0.0
230
1.0
  2
SOLID
 70
     1
 71
     0
 91
        1
 92
        2
 72
     0
 73
     1
 93
        3
 10
-29.96282347330215
 20
-246.6192072544976
 10
-18.73081
 20
-256.87064
 10
-32.68047660842173
 20
-250.8161539347849
 97
        0
 75
     0
 76
     1
 98
        1
 10
0.0
 20
0.0
1001
VDEXTRAPARAM
1071
       65
1071
        0
1071
        0
1040
1.0
1000

1000

1040
0.0
1040
0.0
1001
VD_TEMPHATCH
1000
VD_TEMPHATCH
  0
LWPOLYLINE
  5
1C37
330
1C63
100
AcDbEntity
  8
V0-VYPLNE
  6
CONTINUOUS
 62
    41
100
AcDbPolyline
 90
        3
 70
     0
 43
0.0
 10
-31.32165004086194
 20
-248.7176805946412
 10
-86.195886
 20
-213.184911
 10
-368.497658
 20
-213.184911
  0
TEXT
  5
1C3C
330
1C63
100
AcDbEntity
  8
V0-VYPLNE
  6
CONTINUOUS
 62
    41
100
AcDbText
 10
-464.1244574285715
 20
-211.681958
 30
0.0
 40
30.0
  1
4 OTVORY %%c 12
  7
ED40
100
AcDbText
  0
VIEWPORT
  5
1CD6
330
1C5F
100
AcDbEntity
 67
     1
  8
0
 60
     1
100
AcDbViewport
 10
261.517699
 20
148.5
 30
0.0
 40
297.0
 41
297.0
 68
     0
 69
     1
1001
VD_INVISIBLE_NOT_FOR_READ
1000
VD_INVISIBLE_NOT_FOR_READ
1001
ACAD
1000
MVIEW
1002
{
1070
    16
1010
0.0
1020
0.0
1030
0.0
1010
0.0
1020
0.0
1030
1.0
1040
6.2831853071796
1040
297.0
1040
261.517699
1040
148.5
1040
0.0
1040
0.0
1040
0.0
1070
     0
1070
   100
1070
     0
1070
     1
1070
     0
1070
     0
1070
     0
1070
     0
1040
0.0
1040
0.0
1040
0.0
1040
1.0
1040
1.0
1040
0.0
1040
0.0
1070
     0
1002
{
1002
}
1002
}
  0
VIEWPORT
  5
1CD7
330
1C5F
100
AcDbEntity
 67
     1
  8
0
 60
     1
100
AcDbViewport
 10
261.517699
 20
148.5
 30
0.0
 40
297.0
 41
297.0
 68
     0
 69
     2
1001
VD_INVISIBLE_NOT_FOR_READ
1000
VD_INVISIBLE_NOT_FOR_READ
1001
ACAD
1000
MVIEW
1002
{
1070
    16
1010
0.0
1020
0.0
1030
0.0
1010
0.0
1020
0.0
1030
1.0
1040
6.2831853071796
1040
297.0
1040
261.517699
1040
148.5
1040
0.0
1040
0.0
1040
0.0
1070
     0
1070
   100
1070
     0
1070
     1
1070
     0
1070
     0
1070
     0
1070
     0
1040
0.0
1040
0.0
1040
0.0
1040
1.0
1040
1.0
1040
0.0
1040
0.0
1070
     0
1002
{
1002
}
1002
}
  0
ENDSEC
  0
SECTION
  2
OBJECTS
  0
DICTIONARY
  5
1C50
330
0
100
AcDbDictionary
  3
ACAD_GROUP
350
1C51
  3
ACAD_LAYOUT
350
1C5E
  3
ACAD_MLINESTYLE
350
1C5B
  3
ACAD_PLOTSETTINGS
350
1C5D
  3
ACDBHEADERROUNDTRIPXREC
350
1CD8
  3
VECTORDRAW_OBJECTS
350
1C73
  0
DICTIONARY
  5
1CF8
330
1C6D
100
AcDbDictionary
280
     1
  3
ACAD_XREC_ROUNDTRIP
360
1CF9
  0
DICTIONARY
  5
1C51
102
{ACAD_REACTORS
330
1C50
102
}
330
1C50
100
AcDbDictionary
  0
DICTIONARY
  5
1C5E
102
{ACAD_REACTORS
330
1C50
102
}
330
1C50
100
AcDbDictionary
  0
DICTIONARY
  5
1C5B
102
{ACAD_REACTORS
330
1C50
102
}
330
1C50
100
AcDbDictionary
  3
STANDARD
350
1C5C
  0
DICTIONARY
  5
1C5D
102
{ACAD_REACTORS
330
1C50
102
}
330
1C50
100
AcDbDictionary
  0
DICTIONARY
  5
1CD8
102
{ACAD_REACTORS
330
1C50
102
}
330
1C50
100
AcDbDictionary
  3
CEPSNTYPE
350
1CE1
  3
DIMSTYLEDATA
350
1CF7
  3
FINGERPRINTGUID
350
1CE2
  3
HYPERLINKBASE
350
1CDB
  3
INSUNITS
350
1CE0
  3
LAYOUTDICT
350
1CDD
  3
LWETCUNION
350
1CDF
  3
PLOTSETDICT
350
1CDE
  3
PSVPSCALE
350
1CE4
  3
PUCSBASE
350
1CE7
  3
PUCSORGBACK
350
1CED
  3
PUCSORGBOTTOM
350
1CE9
  3
PUCSORGFRONT
350
1CEC
  3
PUCSORGLEFT
350
1CEA
  3
PUCSORGRIGHT
350
1CEB
  3
PUCSORGTOP
350
1CE8
  3
PUCSORTHOREF
350
1CE5
  3
PUCSORTHOVIEW
350
1CE6
  3
STYLESHEET
350
1CDC
  3
TSTACKALIGN
350
1CD9
  3
TSTACKSIZE
350
1CDA
  3
UCSBASE
350
1CF0
  3
UCSORGBACK
350
1CF6
  3
UCSORGBOTTOM
350
1CF2
  3
UCSORGFRONT
350
1CF5
  3
UCSORGLEFT
350
1CF3
  3
UCSORGRIGHT
350
1CF4
  3
UCSORGTOP
350
1CF1
  3
UCSORTHOREF
350
1CEE
  3
UCSORTHOVIEW
350
1CEF
  3
VERSIONGUID
350
1CE3
  0
DICTIONARY
  5
1C73
102
{ACAD_REACTORS
330
1C50
102
}
330
1C50
100
AcDbDictionary
  3
SERIALNO
350
1C74
  0
XRECORD
  5
1CF9
102
{ACAD_REACTORS
330
1CF8
102
}
330
1CF8
100
AcDbXrecord
102
UCS
 74
     0
 71
     1
 10
0.0
 20
0.0
 30
0.0
 10
1.0
 20
0.0
 30
0.0
 10
0.0
 20
1.0
 30
0.0
146
0.0
 79
     0
102
VIEW
281
     0
  0
MLINESTYLE
  5
1C5C
102
{ACAD_REACTORS
330
1C5B
102
}
330
1C5B
100
AcDbMlineStyle
  2
Standard
 70
     0
  3

 62
   256
 51
90.0
 52
90.0
 71
     2
 49
0.5
 62
   256
  6
BYLAYER
 49
-0.5
 62
   256
  6
BYLAYER
  0
XRECORD
  5
1CE1
102
{ACAD_REACTORS
330
1CD8
102
}
330
1CD8
100
AcDbXrecord
 90
        0
  0
XRECORD
  5
1CF7
102
{ACAD_REACTORS
330
1CD8
102
}
330
1CD8
100
AcDbXrecord
1000
DSTYLE
1002
{
1070
    41
 40
25.0
1070
   342
340
90
1070
   271
 70
     0
1070
    44
 40
1.25
1070
    42
 40
1.0
1070
   147
 40
4.0
1070
    77
 70
     1
1070
    73
 70
     0
1070
   174
 70
     1
1070
   172
 70
     1
1070
    74
 70
     0
1070
   340
340
F38
1070
   140
 40
30.0
1070
   288
 70
     1
1002
}
  0
XRECORD
  5
1CE2
102
{ACAD_REACTORS
330
1CD8
102
}
330
1CD8
100
AcDbXrecord
  1
{FAEB1C30-E019-11D5-929B-00C0DF256EC4}
  0
XRECORD
  5
1CDB
102
{ACAD_REACTORS
330
1CD8
102
}
330
1CD8
100
AcDbXrecord
  1

  0
XRECORD
  5
1CE0
102
{ACAD_REACTORS
330
1CD8
102
}
330
1CD8
100
AcDbXrecord
 90
        1
  0
XRECORD
  5
1CDD
102
{ACAD_REACTORS
330
1CD8
102
}
330
1CD8
100
AcDbXrecord
340
1C5E
  0
XRECORD
  5
1CDF
102
{ACAD_REACTORS
330
1CD8
102
}
330
1CD8
100
AcDbXrecord
 90
     2560
  0
XRECORD
  5
1CDE
102
{ACAD_REACTORS
330
1CD8
102
}
330
1CD8
100
AcDbXrecord
340
1C5D
  0
XRECORD
  5
1CE4
102
{ACAD_REACTORS
330
1CD8
102
}
330
1CD8
100
AcDbXrecord
 40
0.0
  0
XRECORD
  5
1CE7
102
{ACAD_REACTORS
330
1CD8
102
}
330
1CD8
100
AcDbXrecord
340
0
  0
XRECORD
  5
1CED
102
{ACAD_REACTORS
330
1CD8
102
}
330
1CD8
100
AcDbXrecord
 10
0.0
 20
0.0
 30
0.0
  0
XRECORD
  5
1CE9
102
{ACAD_REACTORS
330
1CD8
102
}
330
1CD8
100
AcDbXrecord
 10
0.0
 20
0.0
 30
0.0
  0
XRECORD
  5
1CEC
102
{ACAD_REACTORS
330
1CD8
102
}
330
1CD8
100
AcDbXrecord
 10
0.0
 20
0.0
 30
0.0
  0
XRECORD
  5
1CEA
102
{ACAD_REACTORS
330
1CD8
102
}
330
1CD8
100
AcDbXrecord
 10
0.0
 20
0.0
 30
0.0
  0
XRECORD
  5
1CEB
102
{ACAD_REACTORS
330
1CD8
102
}
330
1CD8
100
AcDbXrecord
 10
0.0
 20
0.0
 30
0.0
  0
XRECORD
  5
1CE8
102
{ACAD_REACTORS
330
1CD8
102
}
330
1CD8
100
AcDbXrecord
 10
0.0
 20
0.0
 30
0.0
  0
XRECORD
  5
1CE5
102
{ACAD_REACTORS
330
1CD8
102
}
330
1CD8
100
AcDbXrecord
340
0
  0
XRECORD
  5
1CE6
102
{ACAD_REACTORS
330
1CD8
102
}
330
1CD8
100
AcDbXrecord
 70
     0
  0
XRECORD
  5
1CDC
102
{ACAD_REACTORS
330
1CD8
102
}
330
1CD8
100
AcDbXrecord
  1

  0
XRECORD
  5
1CD9
102
{ACAD_REACTORS
330
1CD8
102
}
330
1CD8
100
AcDbXrecord
 90
        1
  0
XRECORD
  5
1CDA
102
{ACAD_REACTORS
330
1CD8
102
}
330
1CD8
100
AcDbXrecord
 90
       70
  0
XRECORD
  5
1CF0
102
{ACAD_REACTORS
330
1CD8
102
}
330
1CD8
100
AcDbXrecord
340
0
  0
XRECORD
  5
1CF6
102
{ACAD_REACTORS
330
1CD8
102
}
330
1CD8
100
AcDbXrecord
 10
0.0
 20
0.0
 30
0.0
  0
XRECORD
  5
1CF2
102
{ACAD_REACTORS
330
1CD8
102
}
330
1CD8
100
AcDbXrecord
 10
0.0
 20
0.0
 30
0.0
  0
XRECORD
  5
1CF5
102
{ACAD_REACTORS
330
1CD8
102
}
330
1CD8
100
AcDbXrecord
 10
0.0
 20
0.0
 30
0.0
  0
XRECORD
  5
1CF3
102
{ACAD_REACTORS
330
1CD8
102
}
330
1CD8
100
AcDbXrecord
 10
0.0
 20
0.0
 30
0.0
  0
XRECORD
  5
1CF4
102
{ACAD_REACTORS
330
1CD8
102
}
330
1CD8
100
AcDbXrecord
 10
0.0
 20
0.0
 30
0.0
  0
XRECORD
  5
1CF1
102
{ACAD_REACTORS
330
1CD8
102
}
330
1CD8
100
AcDbXrecord
 10
0.0
 20
0.0
 30
0.0
  0
XRECORD
  5
1CEE
102
{ACAD_REACTORS
330
1CD8
102
}
330
1CD8
100
AcDbXrecord
340
0
  0
XRECORD
  5
1CEF
102
{ACAD_REACTORS
330
1CD8
102
}
330
1CD8
100
AcDbXrecord
 70
     0
  0
XRECORD
  5
1CE3
102
{ACAD_REACTORS
330
1CD8
102
}
330
1CD8
100
AcDbXrecord
  1
{FAEB1C32-E019-11D5-929B-00C0DF256EC4}
  0
XRECORD
  5
1C74
102
{ACAD_REACTORS
330
1C73
102
}
330
1C73
100
AcDbXrecord
1000
rInJVR9YY4Q8hfPWdUq5j5319
1070
     4
1070
     6
  0
ENDSEC
  0
EOF
